  0
SECTION
  2
HEADER
  9
$ACADVER
  1
AC1015
  9
$ACADMAINTVER
 70
     6
  9
$DWGCODEPAGE
  3
ANSI_932
  9
$INSBASE
 10
0.0
 20
0.0
 30
0.0
  9
$EXTMIN
 10
112.8391545283959
 20
-117.8564749399479
 30
-0.00000001
  9
$EXTMAX
 10
672.8201742867245
 20
388.8909875797027
 30
0.00000001
  9
$LIMMIN
 10
0.0
 20
0.0
  9
$LIMMAX
 10
420.0
 20
297.0
  9
$ORTHOMODE
 70
     0
  9
$REGENMODE
 70
     1
  9
$FILLMODE
 70
     1
  9
$QTEXTMODE
 70
     0
  9
$MIRRTEXT
 70
     1
  9
$LTSCALE
 40
1.0
  9
$ATTMODE
 70
     1
  9
$TEXTSIZE
 40
5.0
  9
$TRACEWID
 40
1.0
  9
$TEXTSTYLE
  7
OKANO
  9
$CLAYER
  8
寸法線
  9
$CELTYPE
  6
ByLayer
  9
$CECOLOR
 62
   256
  9
$CELTSCALE
 40
1.0
  9
$DISPSILH
 70
     0
  9
$DIMSCALE
 40
0.0
  9
$DIMASZ
 40
3.0
  9
$DIMEXO
 40
2.0
  9
$DIMDLI
 40
8.0
  9
$DIMRND
 40
0.0
  9
$DIMDLE
 40
0.0
  9
$DIMEXE
 40
3.0
  9
$DIMTP
 40
0.0
  9
$DIMTM
 40
0.0
  9
$DIMTXT
 40
5.0
  9
$DIMCEN
 40
2.5
  9
$DIMTSZ
 40
0.0
  9
$DIMTOL
 70
     0
  9
$DIMLIM
 70
     0
  9
$DIMTIH
 70
     0
  9
$DIMTOH
 70
     0
  9
$DIMSE1
 70
     0
  9
$DIMSE2
 70
     0
  9
$DIMTAD
 70
     1
  9
$DIMZIN
 70
     8
  9
$DIMBLK
  1
Closed
  9
$DIMASO
 70
     1
  9
$DIMSHO
 70
     1
  9
$DIMPOST
  1

  9
$DIMAPOST
  1

  9
$DIMALT
 70
     0
  9
$DIMALTD
 70
     3
  9
$DIMALTF
 40
0.03937007874016
  9
$DIMLFAC
 40
1.0
  9
$DIMTOFL
 70
     1
  9
$DIMTVP
 40
0.0
  9
$DIMTIX
 70
     0
  9
$DIMSOXD
 70
     0
  9
$DIMSAH
 70
     0
  9
$DIMBLK1
  1

  9
$DIMBLK2
  1

  9
$DIMSTYLE
  2
sunpo
  9
$DIMCLRD
 70
     0
  9
$DIMCLRE
 70
     0
  9
$DIMCLRT
 70
     0
  9
$DIMTFAC
 40
1.0
  9
$DIMGAP
 40
1.0
  9
$DIMJUST
 70
     0
  9
$DIMSD1
 70
     0
  9
$DIMSD2
 70
     0
  9
$DIMTOLJ
 70
     0
  9
$DIMTZIN
 70
     8
  9
$DIMALTZ
 70
     0
  9
$DIMALTTZ
 70
     0
  9
$DIMUPT
 70
     0
  9
$DIMDEC
 70
     2
  9
$DIMTDEC
 70
     2
  9
$DIMALTU
 70
     2
  9
$DIMALTTD
 70
     3
  9
$DIMTXSTY
  7
OKANO
  9
$DIMAUNIT
 70
     0
  9
$DIMADEC
 70
     0
  9
$DIMALTRND
 40
0.0
  9
$DIMAZIN
 70
     0
  9
$DIMDSEP
 70
    46
  9
$DIMATFIT
 70
     3
  9
$DIMFRAC
 70
     0
  9
$DIMLDRBLK
  1
Closed
  9
$DIMLUNIT
 70
     2
  9
$DIMLWD
 70
    -2
  9
$DIMLWE
 70
    -2
  9
$DIMTMOVE
 70
     0
  9
$LUNITS
 70
     2
  9
$LUPREC
 70
     2
  9
$SKETCHINC
 40
1.0
  9
$FILLETRAD
 40
0.5
  9
$AUNITS
 70
     0
  9
$AUPREC
 70
     0
  9
$MENU
  1
.
  9
$ELEVATION
 40
0.0
  9
$PELEVATION
 40
0.0
  9
$THICKNESS
 40
0.0
  9
$LIMCHECK
 70
     0
  9
$CHAMFERA
 40
10.0
  9
$CHAMFERB
 40
10.0
  9
$CHAMFERC
 40
20.0
  9
$CHAMFERD
 40
0.0
  9
$SKPOLY
 70
     0
  9
$TDCREATE
 40
2452362.482225463
  9
$TDUCREATE
 40
2452362.107225463
  9
$TDUPDATE
 40
2455967.674221794
  9
$TDUUPDATE
 40
2455967.299221794
  9
$TDINDWG
 40
2.6278088194
  9
$TDUSRTIMER
 40
2.6278088194
  9
$USRTIMER
 70
     1
  9
$ANGBASE
 50
0.0
  9
$ANGDIR
 70
     0
  9
$PDMODE
 70
     0
  9
$PDSIZE
 40
0.0
  9
$PLINEWID
 40
0.0
  9
$SPLFRAME
 70
     0
  9
$SPLINETYPE
 70
     6
  9
$SPLINESEGS
 70
     8
  9
$HANDSEED
  5
35F6
  9
$SURFTAB1
 70
     6
  9
$SURFTAB2
 70
     6
  9
$SURFTYPE
 70
     6
  9
$SURFU
 70
     6
  9
$SURFV
 70
     6
  9
$UCSBASE
  2

  9
$UCSNAME
  2

  9
$UCSORG
 10
0.0
 20
0.0
 30
0.0
  9
$UCSXDIR
 10
1.0
 20
0.0
 30
0.0
  9
$UCSYDIR
 10
0.0
 20
1.0
 30
0.0
  9
$UCSORTHOREF
  2

  9
$UCSORTHOVIEW
 70
     0
  9
$UCSORGTOP
 10
0.0
 20
0.0
 30
0.0
  9
$UCSORGBOTTOM
 10
0.0
 20
0.0
 30
0.0
  9
$UCSORGLEFT
 10
0.0
 20
0.0
 30
0.0
  9
$UCSORGRIGHT
 10
0.0
 20
0.0
 30
0.0
  9
$UCSORGFRONT
 10
0.0
 20
0.0
 30
0.0
  9
$UCSORGBACK
 10
0.0
 20
0.0
 30
0.0
  9
$PUCSBASE
  2

  9
$PUCSNAME
  2

  9
$PUCSORG
 10
0.0
 20
0.0
 30
0.0
  9
$PUCSXDIR
 10
1.0
 20
0.0
 30
0.0
  9
$PUCSYDIR
 10
0.0
 20
1.0
 30
0.0
  9
$PUCSORTHOREF
  2

  9
$PUCSORTHOVIEW
 70
     0
  9
$PUCSORGTOP
 10
0.0
 20
0.0
 30
0.0
  9
$PUCSORGBOTTOM
 10
0.0
 20
0.0
 30
0.0
  9
$PUCSORGLEFT
 10
0.0
 20
0.0
 30
0.0
  9
$PUCSORGRIGHT
 10
0.0
 20
0.0
 30
0.0
  9
$PUCSORGFRONT
 10
0.0
 20
0.0
 30
0.0
  9
$PUCSORGBACK
 10
0.0
 20
0.0
 30
0.0
  9
$USERI1
 70
     0
  9
$USERI2
 70
     0
  9
$USERI3
 70
     0
  9
$USERI4
 70
     0
  9
$USERI5
 70
     0
  9
$USERR1
 40
0.0
  9
$USERR2
 40
0.0
  9
$USERR3
 40
0.0
  9
$USERR4
 40
0.0
  9
$USERR5
 40
0.0
  9
$WORLDVIEW
 70
     1
  9
$SHADEDGE
 70
     3
  9
$SHADEDIF
 70
    70
  9
$TILEMODE
 70
     0
  9
$MAXACTVP
 70
    64
  9
$PINSBASE
 10
0.0
 20
0.0
 30
0.0
  9
$PLIMCHECK
 70
     0
  9
$PEXTMIN
 10
-4.400932062405672
 20
-3.459116387827521
 30
-0.0015258207003583
  9
$PEXTMAX
 10
278.8478616361952
 20
202.393946056399
 30
0.0000000349246037
  9
$PLIMMIN
 10
-3.757080078125
 20
-3.757083177566528
  9
$PLIMMAX
 10
293.2112426757812
 20
206.2162444591522
  9
$UNITMODE
 70
     0
  9
$VISRETAIN
 70
     1
  9
$PLINEGEN
 70
     0
  9
$PSLTSCALE
 70
     1
  9
$TREEDEPTH
 70
  3020
  9
$CMLSTYLE
  2
Standard
  9
$CMLJUST
 70
     0
  9
$CMLSCALE
 40
20.0
  9
$PROXYGRAPHICS
 70
     1
  9
$MEASUREMENT
 70
     1
  9
$CELWEIGHT
370
    -1
  9
$ENDCAPS
280
     0
  9
$JOINSTYLE
280
     0
  9
$LWDISPLAY
290
     0
  9
$INSUNITS
 70
     4
  9
$HYPERLINKBASE
  1

  9
$STYLESHEET
  1

  9
$XEDIT
290
     1
  9
$CEPSNTYPE
380
     0
  9
$PSTYLEMODE
290
     1
  9
$FINGERPRINTGUID
  2
{FF7F33C3-4233-11D6-AEE0-0000F45FD7F4}
  9
$VERSIONGUID
  2
{42E3F868-37C6-400C-8705-BB85637695FB}
  9
$EXTNAMES
290
     1
  9
$PSVPSCALE
 40
0.0
  9
$OLESTARTUP
290
     0
  0
ENDSEC
  0
SECTION
  2
CLASSES
  0
CLASS
  1
ACDBDICTIONARYWDFLT
  2
AcDbDictionaryWithDefault
  3
AutoCAD 2000
 90
        0
280
     0
281
     0
  0
CLASS
  1
ACDBPLACEHOLDER
  2
AcDbPlaceHolder
  3
AutoCAD 2000
 90
        0
280
     0
281
     0
  0
CLASS
  1
LAYOUT
  2
AcDbLayout
  3
AutoCAD 2000
 90
        0
280
     0
281
     0
  0
CLASS
  1
DICTIONARYVAR
  2
AcDbDictionaryVar
  3
AutoCAD 2000
 90
        0
280
     0
281
     0
  0
ENDSEC
  0
SECTION
  2
TABLES
  0
TABLE
  2
VPORT
  5
8
330
0
100
AcDbSymbolTable
 70
     5
  0
VPORT
  5
35F5
330
8
100
AcDbSymbolTableRecord
100
AcDbViewportTableRecord
  2
*Active
 70
     0
 10
0.0
 20
0.0
 11
1.0
 21
1.0
 12
342.523849439814
 22
-69.24408534632409
 13
0.0
 23
0.0
 14
5.0
 24
5.0
 15
10.0
 25
10.0
 16
0.0
 26
0.0
 36
1.0
 17
0.0
 27
0.0
 37
0.0
 40
446.6583384782013
 41
1.968879668049792
 42
50.0
 43
0.0
 44
0.0
 50
0.0
 51
0.0
 71
     0
 72
   100
 73
     1
 74
     3
 75
     0
 76
     0
 77
     0
 78
     0
281
     0
 65
     1
110
0.0
120
0.0
130
0.0
111
1.0
121
0.0
131
0.0
112
0.0
122
1.0
132
0.0
 79
     0
146
0.0
  0
ENDTAB
  0
TABLE
  2
LTYPE
  5
5
330
0
100
AcDbSymbolTable
 70
     5
  0
LTYPE
  5
14
330
5
100
AcDbSymbolTableRecord
100
AcDbLinetypeTableRecord
  2
ByBlock
 70
     0
  3

 72
    65
 73
     0
 40
0.0
  0
LTYPE
  5
15
330
5
100
AcDbSymbolTableRecord
100
AcDbLinetypeTableRecord
  2
ByLayer
 70
     0
  3

 72
    65
 73
     0
 40
0.0
  0
LTYPE
  5
16
330
5
100
AcDbSymbolTableRecord
100
AcDbLinetypeTableRecord
  2
Continuous
 70
     0
  3
Solid line
 72
    65
 73
     0
 40
0.0
  0
LTYPE
  5
33
330
5
100
AcDbSymbolTableRecord
100
AcDbLinetypeTableRecord
  2
DASHED2
 70
     0
  3
Dashed (.5x) _ _ _ _ _ _ _ _ _ _ _ _ _ _ _ _ _
 72
    65
 73
     2
 40
9.524999999999998
 49
6.349999999999999
 74
     0
 49
-3.174999999999999
 74
     0
  0
LTYPE
  5
34
330
5
100
AcDbSymbolTableRecord
100
AcDbLinetypeTableRecord
  2
CENTER2
 70
     0
  3
Center (.5x) ___ _ ___ _ ___ _ ___ _ ___ _ ___
 72
    65
 73
     4
 40
28.57499999999999
 49
19.05
 74
     0
 49
-3.174999999999999
 74
     0
 49
3.174999999999999
 74
     0
 49
-3.174999999999999
 74
     0
  0
LTYPE
  5
35
330
5
100
AcDbSymbolTableRecord
100
AcDbLinetypeTableRecord
  2
PHANTOM2
 70
     0
  3
Phantom (.5x) ___ _ _ ___ _ _ ___ _ _ ___ _ _
 72
    65
 73
     6
 40
31.75
 49
15.875
 74
     0
 49
-3.174999999999999
 74
     0
 49
3.174999999999999
 74
     0
 49
-3.174999999999999
 74
     0
 49
3.174999999999999
 74
     0
 49
-3.174999999999999
 74
     0
  0
LTYPE
  5
36
330
5
100
AcDbSymbolTableRecord
100
AcDbLinetypeTableRecord
  2
HIDDEN2
 70
     0
  3
Hidden (.5x) _ _ _ _ _ _ _ _ _ _ _ _ _ _ _ _ _
 72
    65
 73
     2
 40
4.762499999999999
 49
3.174999999999999
 74
     0
 49
-1.587499999999999
 74
     0
  0
ENDTAB
  0
TABLE
  2
LAYER
  5
2
330
0
100
AcDbSymbolTable
 70
    13
  0
LAYER
  5
10
330
2
100
AcDbSymbolTableRecord
100
AcDbLayerTableRecord
  2
0
 70
     0
 62
     7
  6
Continuous
370
    -3
390
F
  0
LAYER
  5
40
330
2
100
AcDbSymbolTableRecord
100
AcDbLayerTableRecord
  2
50-0-CON
 70
     0
 62
     4
  6
Continuous
370
    50
390
F
  0
LAYER
  5
41
330
2
100
AcDbSymbolTableRecord
100
AcDbLayerTableRecord
  2
70-0-CON
 70
     0
 62
   202
  6
Continuous
370
    70
390
F
  0
LAYER
  5
4E
330
2
100
AcDbSymbolTableRecord
100
AcDbLayerTableRecord
  2
極太線
 70
     0
 62
     7
  6
Continuous
370
    70
390
F
  0
LAYER
  5
4F
330
2
100
AcDbSymbolTableRecord
100
AcDbLayerTableRecord
  2
細線
 70
     0
 62
     8
  6
Continuous
370
    18
390
F
  0
LAYER
  5
AB
330
2
100
AcDbSymbolTableRecord
100
AcDbLayerTableRecord
  2
構築線
 70
     0
 62
     2
  6
Continuous
290
     0
370
    18
390
F
  0
LAYER
  5
B8
330
2
100
AcDbSymbolTableRecord
100
AcDbLayerTableRecord
  2
太線
 70
     0
 62
     7
  6
Continuous
370
    35
390
F
  0
LAYER
  5
B9
330
2
100
AcDbSymbolTableRecord
100
AcDbLayerTableRecord
  2
寸法線
 70
     0
 62
     5
  6
Continuous
370
    18
390
F
  0
LAYER
  5
BA
330
2
100
AcDbSymbolTableRecord
100
AcDbLayerTableRecord
  2
破線
 70
     0
 62
     8
  6
HIDDEN2
370
    18
390
F
  0
LAYER
  5
BB
330
2
100
AcDbSymbolTableRecord
100
AcDbLayerTableRecord
  2
中心線
 70
     0
 62
     1
  6
CENTER2
370
    18
390
F
  0
LAYER
  5
BC
330
2
100
AcDbSymbolTableRecord
100
AcDbLayerTableRecord
  2
想像線
 70
     0
 62
     8
  6
PHANTOM2
370
    18
390
F
  0
LAYER
  5
BD
330
2
100
AcDbSymbolTableRecord
100
AcDbLayerTableRecord
  2
文字
 70
     0
 62
     7
  6
Continuous
370
    18
390
F
  0
LAYER
  5
180
330
2
100
AcDbSymbolTableRecord
100
AcDbLayerTableRecord
  2
Defpoints
 70
     0
 62
     7
  6
Continuous
290
     0
370
    -3
390
F
  0
ENDTAB
  0
TABLE
  2
STYLE
  5
3
330
0
100
AcDbSymbolTable
 70
     3
  0
STYLE
  5
11
330
3
100
AcDbSymbolTableRecord
100
AcDbTextStyleTableRecord
  2
Standard
 70
     0
 40
0.0
 41
1.0
 50
0.0
 71
     0
 42
3.0
  3
txt
  4

  0
STYLE
  5
32
330
3
100
AcDbSymbolTableRecord
100
AcDbTextStyleTableRecord
  2

 70
     1
 40
0.0
 41
1.0
 50
0.0
 71
     0
 42
2.5
  3
ltypeshp.shx
  4

  0
STYLE
  5
50
330
3
100
AcDbSymbolTableRecord
100
AcDbTextStyleTableRecord
  2
OKANO
 70
     0
 40
0.0
 41
1.0
 50
15.0
 71
     0
 42
5.0
  3
isocp.shx
  4
bigfont.shx
  0
ENDTAB
  0
TABLE
  2
VIEW
  5
6
330
0
100
AcDbSymbolTable
 70
     0
  0
ENDTAB
  0
TABLE
  2
UCS
  5
7
330
0
100
AcDbSymbolTable
 70
     0
  0
ENDTAB
  0
TABLE
  2
APPID
  5
9
330
0
100
AcDbSymbolTable
 70
     1
  0
APPID
  5
12
330
9
100
AcDbSymbolTableRecord
100
AcDbRegAppTableRecord
  2
ACAD
 70
     0
  0
ENDTAB
  0
TABLE
  2
DIMSTYLE
  5
A
330
0
100
AcDbSymbolTable
 70
     2
100
AcDbDimStyleTable
 71
     2
340
A2
340
27
  0
DIMSTYLE
105
27
330
A
100
AcDbSymbolTableRecord
100
AcDbDimStyleTableRecord
  2
ISO-25
 70
     0
 41
2.5
 42
0.625
 43
3.75
 44
1.25
 73
     0
 74
     0
 77
     1
 78
     8
140
2.5
141
2.5
143
0.03937007874016
147
0.625
171
     3
172
     1
271
     2
272
     2
274
     3
283
     0
284
     8
340
11
  0
DIMSTYLE
105
A2
102
{ACAD_REACTORS
330
355A
330
3567
330
3574
330
3581
330
3590
102
}
330
A
100
AcDbSymbolTableRecord
100
AcDbDimStyleTableRecord
  2
sunpo
 70
     0
 40
0.0
 41
3.0
 42
2.0
 43
8.0
 44
3.0
 73
     0
 74
     0
 77
     1
 78
     8
140
5.0
141
2.5
143
0.03937007874016
147
1.0
171
     3
172
     1
271
     2
272
     2
274
     3
283
     0
284
     8
340
50
341
9B
342
9B
  0
ENDTAB
  0
TABLE
  2
BLOCK_RECORD
  5
1
330
0
100
AcDbSymbolTable
 70
    14
  0
BLOCK_RECORD
  5
1F
330
1
100
AcDbSymbolTableRecord
100
AcDbBlockTableRecord
  2
*Model_Space
340
22
  0
BLOCK_RECORD
  5
1B
330
1
100
AcDbSymbolTableRecord
100
AcDbBlockTableRecord
  2
*Paper_Space
340
1E
  0
BLOCK_RECORD
  5
9B
330
1
100
AcDbSymbolTableRecord
100
AcDbBlockTableRecord
  2
_Closed
340
0
102
{BLKREFS
331
34A9
331
34AA
331
34B3
331
34B4
331
34BC
331
34BD
331
34C6
331
34C7
331
34D2
331
34D3
331
34E8
331
34E9
331
350D
331
350E
331
355F
331
3560
331
356C
331
356D
331
3579
331
357A
331
3586
331
3587
331
3596
331
3597
331
35A2
331
35A3
331
35AB
331
35AC
331
35B4
331
35B5
331
35BD
331
35BE
331
35C6
331
35C7
331
35D0
331
35D1
331
35D9
331
35DA
331
35E2
331
35E3
331
35EB
331
35EC
102
}
  0
BLOCK_RECORD
  5
1510
330
1
100
AcDbSymbolTableRecord
100
AcDbBlockTableRecord
  2
A$C10A573AC
340
0
  0
BLOCK_RECORD
  5
355B
330
1
100
AcDbSymbolTableRecord
100
AcDbBlockTableRecord
  2
*D9
340
0
  0
BLOCK_RECORD
  5
3568
330
1
100
AcDbSymbolTableRecord
100
AcDbBlockTableRecord
  2
*D10
340
0
  0
BLOCK_RECORD
  5
3575
330
1
100
AcDbSymbolTableRecord
100
AcDbBlockTableRecord
  2
*D11
340
0
  0
BLOCK_RECORD
  5
3582
330
1
100
AcDbSymbolTableRecord
100
AcDbBlockTableRecord
  2
*D12
340
0
  0
BLOCK_RECORD
  5
3591
330
1
100
AcDbSymbolTableRecord
100
AcDbBlockTableRecord
  2
*D13
340
0
  0
ENDTAB
  0
ENDSEC
  0
SECTION
  2
BLOCKS
  0
BLOCK
  5
20
330
1F
100
AcDbEntity
  8
0
100
AcDbBlockBegin
  2
*Model_Space
 70
     0
 10
0.0
 20
0.0
 30
0.0
  3
*Model_Space
  1

  0
ENDBLK
  5
21
330
1F
100
AcDbEntity
  8
0
100
AcDbBlockEnd
  0
BLOCK
  5
1C
330
1B
100
AcDbEntity
 67
     1
  8
0
100
AcDbBlockBegin
  2
*Paper_Space
 70
     0
 10
0.0
 20
0.0
 30
0.0
  3
*Paper_Space
  1

  0
ENDBLK
  5
1D
330
1B
100
AcDbEntity
 67
     1
  8
0
100
AcDbBlockEnd
  0
BLOCK
  5
A0
330
9B
100
AcDbEntity
  8
0
100
AcDbBlockBegin
  2
_Closed
 70
     0
 10
0.0
 20
0.0
 30
0.0
  3
_Closed
  1

  0
LINE
  5
9C
330
9B
100
AcDbEntity
  8
0
 62
     0
370
    -2
100
AcDbLine
 10
-1.0
 20
0.1666666666666666
 30
0.0
 11
0.0
 21
0.0
 31
0.0
  0
LINE
  5
9D
330
9B
100
AcDbEntity
  8
0
 62
     0
370
    -2
100
AcDbLine
 10
0.0
 20
0.0
 30
0.0
 11
-1.0
 21
-0.1666666666666666
 31
0.0
  0
LINE
  5
9E
330
9B
100
AcDbEntity
  8
0
 62
     0
370
    -2
100
AcDbLine
 10
-1.0
 20
0.1666666666666666
 30
0.0
 11
-1.0
 21
-0.1666666666666666
 31
0.0
  0
LINE
  5
9F
330
9B
100
AcDbEntity
  8
0
 62
     0
370
    -2
100
AcDbLine
 10
0.0
 20
0.0
 30
0.0
 11
-1.0
 21
0.0
 31
0.0
  0
ENDBLK
  5
A1
330
9B
100
AcDbEntity
  8
0
100
AcDbBlockEnd
  0
BLOCK
  5
155B
330
1510
100
AcDbEntity
  8
0
100
AcDbBlockBegin
  2
A$C10A573AC
 70
     0
 10
0.0
 20
0.0
 30
0.0
  3
A$C10A573AC
  1

  0
TEXT
  5
1511
330
1510
100
AcDbEntity
  8
文字
100
AcDbText
 10
0.9844302777919438
 20
5.224957122252135
 30
0.0
 40
3.0
  1
Materal : Steel.
 51
15.0
  7
OKANO
100
AcDbText
  0
TEXT
  5
1512
330
1510
100
AcDbEntity
  8
文字
100
AcDbText
 10
-0.1141909619694843
 20
0.7500001922403499
 30
0.0
 40
3.0
  1
Surface treatment : Electro galvanized.
 51
15.0
  7
OKANO
100
AcDbText
  0
TEXT
  5
1513
330
1510
100
AcDbEntity
  8
文字
100
AcDbText
 10
-0.4901926332574931
 20
9.159967445193728
 30
0.0
 40
3.0
  1
5 TORGUE SCREW  M5-6
 51
15.0
  7
OKANO
100
AcDbText
  0
TEXT
  5
1514
330
1510
100
AcDbEntity
  8
文字
100
AcDbText
 10
1.364713526390005
 20
78.88822913323082
 30
0.0
 40
3.0
  1
Special standard,
 51
15.0
  7
OKANO
100
AcDbText
  0
TEXT
  5
1515
330
1510
100
AcDbEntity
  8
文字
100
AcDbText
 10
92.88160823408942
 20
89.92753849837379
 30
0.0
 40
3.0
  1
Screw Type
 51
15.0
  7
OKANO
100
AcDbText
  0
LINE
  5
1516
330
1510
100
AcDbEntity
  8
太線
100
AcDbLine
 10
113.9464587597784
 20
81.93930390144641
 30
0.0
 11
112.4464587597784
 21
81.93930390144641
 31
0.0
  0
LINE
  5
1517
330
1510
100
AcDbEntity
  8
太線
100
AcDbLine
 10
112.4464587597784
 20
76.9393039014464
 30
0.0
 11
121.4644995438761
 21
76.9393039014464
 31
0.0
  0
TEXT
  5
1518
330
1510
100
AcDbEntity
  8
文字
100
AcDbText
 10
93.46068240437217
 20
77.96976862235396
 30
0.0
 40
2.0
  1
17-30
 51
15.0
  7
OKANO
100
AcDbText
  0
LINE
  5
1519
330
1510
100
AcDbEntity
  8
太線
100
AcDbLine
 10
111.9464587597784
 20
81.43930390144641
 30
0.0
 11
111.9464587597784
 21
77.4393039014464
 31
0.0
  0
LINE
  5
151A
330
1510
100
AcDbEntity
  8
太線
100
AcDbLine
 10
91.94645875977846
 20
81.43930390144641
 30
0.0
 11
91.94645875977846
 21
77.43930390144639
 31
0.0
  0
LINE
  5
151B
330
1510
100
AcDbEntity
  8
太線
100
AcDbLine
 10
101.9644995438761
 20
77.4393039014464
 30
0.0
 11
101.9644995438761
 21
81.43930390144641
 31
0.0
  0
LINE
  5
151C
330
1510
100
AcDbEntity
  8
太線
100
AcDbLine
 10
92.44645875977846
 20
76.9393039014464
 30
0.0
 11
101.4644995438761
 21
76.9393039014464
 31
0.0
  0
ARC
  5
151D
330
1510
100
AcDbEntity
  8
太線
100
AcDbCircle
 10
92.44645875977846
 20
77.43930390144639
 30
0.0
 40
0.5
100
AcDbArc
 50
180.0
 51
270.0
  0
ARC
  5
151E
330
1510
100
AcDbEntity
  8
太線
100
AcDbCircle
 10
101.4644995438761
 20
77.4393039014464
 30
0.0
 40
0.5
100
AcDbArc
 50
270.0
 51
0.0
  0
ARC
  5
151F
330
1510
100
AcDbEntity
  8
太線
100
AcDbCircle
 10
112.4464587597784
 20
77.4393039014464
 30
0.0
 40
0.5
100
AcDbArc
 50
180.0
 51
270.0
  0
LINE
  5
1520
330
1510
100
AcDbEntity
  8
想像線
100
AcDbLine
 10
93.94645875977847
 20
81.93930390144641
 30
0.0
 11
99.96449954387617
 21
81.93930390144641
 31
0.0
  0
LINE
  5
1521
330
1510
100
AcDbEntity
  8
極太線
100
AcDbLine
 10
96.38762957111168
 20
85.43930390144641
 30
0.0
 11
97.50528794844525
 21
85.43930390144641
 31
0.0
  0
CIRCLE
  5
1522
330
1510
100
AcDbEntity
  8
太線
100
AcDbCircle
 10
96.94645875977847
 20
85.43930390144641
 30
0.0
 40
0.5588291886667776
  0
LINE
  5
1523
330
1510
100
AcDbEntity
  8
太線
100
AcDbLine
 10
99.46449954387617
 20
86.93930390144641
 30
0.0
 11
94.44645875977846
 21
86.93930390144641
 31
0.0
  0
LINE
  5
1524
330
1510
100
AcDbEntity
  8
太線
100
AcDbLine
 10
93.94645875977847
 20
86.43930390144641
 30
0.0
 11
93.94645875977847
 21
81.93930390144641
 31
0.0
  0
ARC
  5
1525
330
1510
100
AcDbEntity
  8
太線
100
AcDbCircle
 10
92.44645875977846
 20
81.43930390144641
 30
0.0
 40
0.5
100
AcDbArc
 50
90.0
 51
180.0
  0
LINE
  5
1526
330
1510
100
AcDbEntity
  8
太線
100
AcDbLine
 10
93.94645875977847
 20
81.93930390144641
 30
0.0
 11
92.44645875977846
 21
81.93930390144641
 31
0.0
  0
ARC
  5
1527
330
1510
100
AcDbEntity
  8
太線
100
AcDbCircle
 10
94.44645875977846
 20
86.43930390144641
 30
0.0
 40
0.5
100
AcDbArc
 50
90.0
 51
180.0
  0
LINE
  5
1528
330
1510
100
AcDbEntity
  8
太線
100
AcDbLine
 10
99.96449954387617
 20
81.93930390144641
 30
0.0
 11
99.96449954387617
 21
86.43930390144641
 31
0.0
  0
LINE
  5
1529
330
1510
100
AcDbEntity
  8
太線
100
AcDbLine
 10
101.4644995438761
 20
81.93930390144641
 30
0.0
 11
99.96449954387617
 21
81.93930390144641
 31
0.0
  0
ARC
  5
152A
330
1510
100
AcDbEntity
  8
太線
100
AcDbCircle
 10
101.4644995438761
 20
81.43930390144641
 30
0.0
 40
0.5
100
AcDbArc
 50
0.0
 51
90.0
  0
ARC
  5
152B
330
1510
100
AcDbEntity
  8
太線
100
AcDbCircle
 10
99.46449954387617
 20
86.43930390144641
 30
0.0
 40
0.5
100
AcDbArc
 50
0.0
 51
90.0
  0
LINE
  5
152C
330
1510
100
AcDbEntity
  8
極太線
100
AcDbLine
 10
96.94645875977847
 20
85.99813309011318
 30
0.0
 11
96.94645875977847
 21
84.88047471277964
 31
0.0
  0
ARC
  5
152D
330
1510
100
AcDbEntity
  8
太線
100
AcDbCircle
 10
112.4464587597784
 20
81.43930390144641
 30
0.0
 40
0.5
100
AcDbArc
 50
90.0
 51
180.0
  0
TEXT
  5
152E
330
1510
100
AcDbEntity
  8
文字
100
AcDbText
 10
134.3819212586066
 20
78.16263579228063
 30
0.0
 40
2.0
  1
101
 51
15.0
  7
OKANO
100
AcDbText
  0
TEXT
  5
152F
330
1510
100
AcDbEntity
  8
文字
100
AcDbText
 10
113.3422276612066
 20
77.96976862235396
 30
0.0
 40
2.0
  1
38-83
 51
15.0
  7
OKANO
100
AcDbText
  0
LINE
  5
1530
330
1510
100
AcDbEntity
  8
太線
100
AcDbLine
 10
141.9825403279738
 20
77.4393039014464
 30
0.0
 11
141.9825403279738
 21
81.43930390144641
 31
0.0
  0
LINE
  5
1531
330
1510
100
AcDbEntity
  8
太線
100
AcDbLine
 10
131.9644995438761
 20
81.43930390144641
 30
0.0
 11
131.9644995438761
 21
77.4393039014464
 31
0.0
  0
LINE
  5
1532
330
1510
100
AcDbEntity
  8
太線
100
AcDbLine
 10
121.9644995438761
 20
77.4393039014464
 30
0.0
 11
121.9644995438761
 21
81.43930390144641
 31
0.0
  0
ARC
  5
1533
330
1510
100
AcDbEntity
  8
太線
100
AcDbCircle
 10
121.4644995438761
 20
77.4393039014464
 30
0.0
 40
0.5
100
AcDbArc
 50
270.0
 51
0.0
  0
LINE
  5
1534
330
1510
100
AcDbEntity
  8
太線
100
AcDbLine
 10
132.4644995438761
 20
76.9393039014464
 30
0.0
 11
141.4825403279738
 21
76.9393039014464
 31
0.0
  0
ARC
  5
1535
330
1510
100
AcDbEntity
  8
太線
100
AcDbCircle
 10
132.4644995438761
 20
77.4393039014464
 30
0.0
 40
0.5
100
AcDbArc
 50
180.0
 51
270.0
  0
ARC
  5
1536
330
1510
100
AcDbEntity
  8
太線
100
AcDbCircle
 10
141.4825403279738
 20
77.4393039014464
 30
0.0
 40
0.5
100
AcDbArc
 50
270.0
 51
0.0
  0
ARC
  5
1537
330
1510
100
AcDbEntity
  8
太線
100
AcDbCircle
 10
121.4644995438761
 20
81.43930390144641
 30
0.0
 40
0.5
100
AcDbArc
 50
0.0
 51
90.0
  0
LINE
  5
1538
330
1510
100
AcDbEntity
  8
太線
100
AcDbLine
 10
119.9644995438761
 20
81.93930390144641
 30
0.0
 11
119.9644995438761
 21
86.43930390144641
 31
0.0
  0
LINE
  5
1539
330
1510
100
AcDbEntity
  8
太線
100
AcDbLine
 10
113.9464587597784
 20
86.43930390144641
 30
0.0
 11
113.9464587597784
 21
81.93930390144641
 31
0.0
  0
LINE
  5
153A
330
1510
100
AcDbEntity
  8
想像線
100
AcDbLine
 10
113.9464587597784
 20
81.93930390144641
 30
0.0
 11
119.9644995438761
 21
81.93930390144641
 31
0.0
  0
LINE
  5
153B
330
1510
100
AcDbEntity
  8
太線
100
AcDbLine
 10
121.4644995438761
 20
81.93930390144641
 30
0.0
 11
119.9644995438761
 21
81.93930390144641
 31
0.0
  0
LINE
  5
153C
330
1510
100
AcDbEntity
  8
太線
100
AcDbLine
 10
119.4644995438761
 20
86.93930390144641
 30
0.0
 11
114.4464587597784
 21
86.93930390144641
 31
0.0
  0
ARC
  5
153D
330
1510
100
AcDbEntity
  8
太線
100
AcDbCircle
 10
114.4464587597784
 20
86.43930390144641
 30
0.0
 40
0.5
100
AcDbArc
 50
90.0
 51
180.0
  0
CIRCLE
  5
153E
330
1510
100
AcDbEntity
  8
太線
100
AcDbCircle
 10
115.4464587597784
 20
85.43930390144641
 30
0.0
 40
0.5588291886667776
  0
LINE
  5
153F
330
1510
100
AcDbEntity
  8
極太線
100
AcDbLine
 10
115.4464587597784
 20
85.99813309011318
 30
0.0
 11
115.4464587597784
 21
84.88047471277964
 31
0.0
  0
LINE
  5
1540
330
1510
100
AcDbEntity
  8
極太線
100
AcDbLine
 10
114.8876295711116
 20
85.43930390144641
 30
0.0
 11
116.0052879484452
 21
85.43930390144641
 31
0.0
  0
ARC
  5
1541
330
1510
100
AcDbEntity
  8
太線
100
AcDbCircle
 10
119.4644995438761
 20
86.43930390144641
 30
0.0
 40
0.5
100
AcDbArc
 50
0.0
 51
90.0
  0
LINE
  5
1542
330
1510
100
AcDbEntity
  8
極太線
100
AcDbLine
 10
117.9056703552094
 20
85.43930390144641
 30
0.0
 11
119.0233287325429
 21
85.43930390144641
 31
0.0
  0
LINE
  5
1543
330
1510
100
AcDbEntity
  8
極太線
100
AcDbLine
 10
118.4644995438761
 20
85.99813309011318
 30
0.0
 11
118.4644995438761
 21
84.88047471277964
 31
0.0
  0
CIRCLE
  5
1544
330
1510
100
AcDbEntity
  8
太線
100
AcDbCircle
 10
118.4644995438761
 20
85.43930390144641
 30
0.0
 40
0.5588291886667776
  0
LINE
  5
1545
330
1510
100
AcDbEntity
  8
想像線
100
AcDbLine
 10
133.9644995438761
 20
81.93930390144641
 30
0.0
 11
139.9825403279738
 21
81.93930390144641
 31
0.0
  0
LINE
  5
1546
330
1510
100
AcDbEntity
  8
極太線
100
AcDbLine
 10
137.9237111393071
 20
85.43930390144641
 30
0.0
 11
139.0413695166406
 21
85.43930390144641
 31
0.0
  0
CIRCLE
  5
1547
330
1510
100
AcDbEntity
  8
太線
100
AcDbCircle
 10
138.4825403279738
 20
85.43930390144641
 30
0.0
 40
0.5588291886667776
  0
CIRCLE
  5
1548
330
1510
100
AcDbEntity
  8
太線
100
AcDbCircle
 10
138.4825403279738
 20
83.26342923362075
 30
0.0
 40
0.5588291886667776
  0
LINE
  5
1549
330
1510
100
AcDbEntity
  8
極太線
100
AcDbLine
 10
137.9237111393071
 20
83.26342923362075
 30
0.0
 11
139.0413695166406
 21
83.26342923362075
 31
0.0
  0
LINE
  5
154A
330
1510
100
AcDbEntity
  8
太線
100
AcDbLine
 10
139.4825403279738
 20
86.93930390144641
 30
0.0
 11
134.4644995438761
 21
86.93930390144641
 31
0.0
  0
LINE
  5
154B
330
1510
100
AcDbEntity
  8
太線
100
AcDbLine
 10
133.9644995438761
 20
86.43930390144641
 30
0.0
 11
133.9644995438761
 21
81.93930390144641
 31
0.0
  0
ARC
  5
154C
330
1510
100
AcDbEntity
  8
太線
100
AcDbCircle
 10
132.4644995438761
 20
81.43930390144641
 30
0.0
 40
0.5
100
AcDbArc
 50
90.0
 51
180.0
  0
LINE
  5
154D
330
1510
100
AcDbEntity
  8
太線
100
AcDbLine
 10
133.9644995438761
 20
81.93930390144641
 30
0.0
 11
132.4644995438761
 21
81.93930390144641
 31
0.0
  0
LINE
  5
154E
330
1510
100
AcDbEntity
  8
極太線
100
AcDbLine
 10
134.9056703552093
 20
83.26342923362075
 30
0.0
 11
136.0233287325429
 21
83.26342923362075
 31
0.0
  0
LINE
  5
154F
330
1510
100
AcDbEntity
  8
極太線
100
AcDbLine
 10
135.4644995438761
 20
83.82225842228752
 30
0.0
 11
135.4644995438761
 21
82.70460004495395
 31
0.0
  0
CIRCLE
  5
1550
330
1510
100
AcDbEntity
  8
太線
100
AcDbCircle
 10
135.4644995438761
 20
83.26342923362075
 30
0.0
 40
0.5588291886667776
  0
ARC
  5
1551
330
1510
100
AcDbEntity
  8
太線
100
AcDbCircle
 10
134.4644995438761
 20
86.43930390144641
 30
0.0
 40
0.5
100
AcDbArc
 50
90.0
 51
180.0
  0
CIRCLE
  5
1552
330
1510
100
AcDbEntity
  8
太線
100
AcDbCircle
 10
135.4644995438761
 20
85.43930390144641
 30
0.0
 40
0.5588291886667776
  0
LINE
  5
1553
330
1510
100
AcDbEntity
  8
極太線
100
AcDbLine
 10
135.4644995438761
 20
85.99813309011318
 30
0.0
 11
135.4644995438761
 21
84.88047471277964
 31
0.0
  0
LINE
  5
1554
330
1510
100
AcDbEntity
  8
極太線
100
AcDbLine
 10
134.9056703552093
 20
85.43930390144641
 30
0.0
 11
136.0233287325429
 21
85.43930390144641
 31
0.0
  0
LINE
  5
1555
330
1510
100
AcDbEntity
  8
太線
100
AcDbLine
 10
139.9825403279738
 20
81.93930390144641
 30
0.0
 11
139.9825403279738
 21
86.43930390144641
 31
0.0
  0
ARC
  5
1556
330
1510
100
AcDbEntity
  8
太線
100
AcDbCircle
 10
141.4825403279738
 20
81.43930390144641
 30
0.0
 40
0.5
100
AcDbArc
 50
0.0
 51
90.0
  0
LINE
  5
1557
330
1510
100
AcDbEntity
  8
極太線
100
AcDbLine
 10
138.4825403279738
 20
83.82225842228752
 30
0.0
 11
138.4825403279738
 21
82.70460004495395
 31
0.0
  0
LINE
  5
1558
330
1510
100
AcDbEntity
  8
太線
100
AcDbLine
 10
141.4825403279738
 20
81.93930390144641
 30
0.0
 11
139.9825403279738
 21
81.93930390144641
 31
0.0
  0
ARC
  5
1559
330
1510
100
AcDbEntity
  8
太線
100
AcDbCircle
 10
139.4825403279738
 20
86.43930390144641
 30
0.0
 40
0.5
100
AcDbArc
 50
0.0
 51
90.0
  0
LINE
  5
155A
330
1510
100
AcDbEntity
  8
極太線
100
AcDbLine
 10
138.4825403279738
 20
85.99813309011318
 30
0.0
 11
138.4825403279738
 21
84.88047471277964
 31
0.0
  0
ENDBLK
  5
155C
330
1510
100
AcDbEntity
  8
0
100
AcDbBlockEnd
  0
BLOCK
  5
3565
330
355B
100
AcDbEntity
  8
0
100
AcDbBlockBegin
  2
*D9
 70
     1
 10
0.0
 20
0.0
 30
0.0
  3
*D9
  1

  0
LINE
  5
355C
330
355B
100
AcDbEntity
  8
太線
 62
     0
370
    -2
100
AcDbLine
 10
235.756660221429
 20
74.76583267963679
 30
0.0
 11
241.6074808888958
 21
152.1093757987297
 31
0.0
  0
LINE
  5
355D
330
355B
100
AcDbEntity
  8
太線
 62
     0
370
    -2
100
AcDbLine
 10
384.8091164418568
 20
63.49043519689722
 30
0.0
 11
390.6599371093237
 21
140.8339783159902
 31
0.0
  0
LINE
  5
355E
330
355B
100
AcDbEntity
  8
太線
 62
     0
370
    -2
100
AcDbLine
 10
244.3726388438049
 20
148.8916279086048
 30
0.0
 11
387.4421892191988
 21
138.0688203610811
 31
0.0
  0
INSERT
  5
355F
330
355B
100
AcDbEntity
  8
太線
 62
     0
370
    -2
100
AcDbBlockReference
  2
_Closed
 10
241.3811859212878
 20
149.1179228762127
 30
0.0
 41
3.0
 42
3.0
 43
3.0
 50
175.6739753775352
  0
INSERT
  5
3560
330
355B
100
AcDbEntity
  8
太線
 62
     0
370
    -2
100
AcDbBlockReference
  2
_Closed
 10
390.4336421417157
 20
137.8425253934733
 30
0.0
 41
3.0
 42
3.0
 43
3.0
 50
355.6739753775352
  0
MTEXT
  5
3561
330
355B
100
AcDbEntity
  8
太線
 62
     0
100
AcDbMText
 10
316.1714248270444
 20
146.9702525444462
 30
0.0
 40
5.0
 41
0.0
 71
     5
 72
     1
  1
149.48
  7
OKANO
 11
0.9971509741723242
 21
-0.0754316558693042
 31
0.0
 73
     1
 44
1.0
  0
POINT
  5
3562
330
355B
100
AcDbEntity
  8
Defpoints
 62
     0
100
AcDbPoint
 10
235.6057969096904
 20
72.77153073129214
 30
0.0
  0
POINT
  5
3563
330
355B
100
AcDbEntity
  8
Defpoints
 62
     0
100
AcDbPoint
 10
384.6582531301182
 20
61.49613324855258
 30
0.0
  0
POINT
  5
3564
330
355B
100
AcDbEntity
  8
Defpoints
 62
     0
100
AcDbPoint
 10
390.4336421417157
 20
137.8425253934733
 30
0.0
  0
ENDBLK
  5
3566
330
355B
100
AcDbEntity
  8
0
100
AcDbBlockEnd
  0
BLOCK
  5
3572
330
3568
100
AcDbEntity
  8
0
100
AcDbBlockBegin
  2
*D10
 70
     1
 10
0.0
 20
0.0
 30
0.0
  3
*D10
  1

  0
LINE
  5
3569
330
3568
100
AcDbEntity
  8
太線
 62
     0
370
    -2
100
AcDbLine
 10
175.4280537736222
 20
27.73047707977093
 30
0.0
 11
175.4280537736222
 21
121.0789127330804
 31
0.0
  0
LINE
  5
356A
330
3568
100
AcDbEntity
  8
太線
 62
     0
370
    -2
100
AcDbLine
 10
391.6015645673296
 20
27.73047707977093
 30
0.0
 11
391.6015645673296
 21
121.0789127330804
 31
0.0
  0
LINE
  5
356B
330
3568
100
AcDbEntity
  8
太線
 62
     0
370
    -2
100
AcDbLine
 10
178.4280537736222
 20
118.0789127330804
 30
0.0
 11
388.6015645673296
 21
118.0789127330804
 31
0.0
  0
INSERT
  5
356C
330
3568
100
AcDbEntity
  8
太線
 62
     0
370
    -2
100
AcDbBlockReference
  2
_Closed
 10
175.4280537736222
 20
118.0789127330804
 30
0.0
 41
3.0
 42
3.0
 43
3.0
 50
180.0
  0
INSERT
  5
356D
330
3568
100
AcDbEntity
  8
太線
 62
     0
370
    -2
100
AcDbBlockReference
  2
_Closed
 10
391.6015645673296
 20
118.0789127330804
 30
0.0
 41
3.0
 42
3.0
 43
3.0
  0
MTEXT
  5
356E
330
3568
100
AcDbEntity
  8
太線
 62
     0
100
AcDbMText
 10
283.5148091704759
 20
121.5794048590646
 30
0.0
 40
5.0
 41
0.0
 71
     5
 72
     1
  1
216.17
  7
OKANO
 73
     1
 44
1.0
  0
POINT
  5
356F
330
3568
100
AcDbEntity
  8
Defpoints
 62
     0
100
AcDbPoint
 10
175.4280537736222
 20
25.73047707977093
 30
0.0
  0
POINT
  5
3570
330
3568
100
AcDbEntity
  8
Defpoints
 62
     0
100
AcDbPoint
 10
391.6015645673296
 20
25.73047707977093
 30
0.0
  0
POINT
  5
3571
330
3568
100
AcDbEntity
  8
Defpoints
 62
     0
100
AcDbPoint
 10
391.6015645673296
 20
118.0789127330804
 30
0.0
  0
ENDBLK
  5
3573
330
3568
100
AcDbEntity
  8
0
100
AcDbBlockEnd
  0
BLOCK
  5
357F
330
3575
100
AcDbEntity
  8
0
100
AcDbBlockBegin
  2
*D11
 70
     1
 10
0.0
 20
0.0
 30
0.0
  3
*D11
  1

  0
LINE
  5
35D6
330
3575
100
AcDbEntity
  8
寸法線
 62
     0
370
    -2
100
AcDbLine
 10
177.5613447421769
 20
22.75787021401674
 30
0.0
 11
177.5613447421769
 21
124.6307760995866
 31
0.0
  0
LINE
  5
35D7
330
3575
100
AcDbEntity
  8
寸法線
 62
     0
370
    -2
100
AcDbLine
 10
388.0460770217246
 20
22.75787021401674
 30
0.0
 11
388.0460770217246
 21
124.6307760995866
 31
0.0
  0
LINE
  5
35D8
330
3575
100
AcDbEntity
  8
寸法線
 62
     0
370
    -2
100
AcDbLine
 10
180.5613447421769
 20
121.6307760995866
 30
0.0
 11
385.0460770217246
 21
121.6307760995866
 31
0.0
  0
INSERT
  5
35D9
330
3575
100
AcDbEntity
  8
寸法線
 62
     0
370
    -2
100
AcDbBlockReference
  2
_Closed
 10
177.5613447421769
 20
121.6307760995866
 30
0.0
 41
3.0
 42
3.0
 43
3.0
 50
180.0
  0
INSERT
  5
35DA
330
3575
100
AcDbEntity
  8
寸法線
 62
     0
370
    -2
100
AcDbBlockReference
  2
_Closed
 10
388.0460770217246
 20
121.6307760995866
 30
0.0
 41
3.0
 42
3.0
 43
3.0
  0
MTEXT
  5
35DB
330
3575
100
AcDbEntity
  8
寸法線
 62
     0
100
AcDbMText
 10
282.8037108819507
 20
127.6317603515551
 30
0.0
 40
10.0
 41
0.0
 71
     5
 72
     1
  1
約120
  7
OKANO
 73
     1
 44
1.0
  0
POINT
  5
35DC
330
3575
100
AcDbEntity
  8
Defpoints
 62
     0
100
AcDbPoint
 10
177.5613447421769
 20
20.75787021401674
 30
0.0
  0
POINT
  5
35DD
330
3575
100
AcDbEntity
  8
Defpoints
 62
     0
100
AcDbPoint
 10
388.0460770217246
 20
20.75787021401674
 30
0.0
  0
POINT
  5
35DE
330
3575
100
AcDbEntity
  8
Defpoints
 62
     0
100
AcDbPoint
 10
388.0460770217246
 20
121.6307760995866
 30
0.0
  0
ENDBLK
  5
3580
330
3575
100
AcDbEntity
  8
0
100
AcDbBlockEnd
  0
BLOCK
  5
358C
330
3582
100
AcDbEntity
  8
0
100
AcDbBlockBegin
  2
*D12
 70
     1
 10
0.0
 20
0.0
 30
0.0
  3
*D12
  1

  0
LINE
  5
35DF
330
3582
100
AcDbEntity
  8
寸法線
 62
     0
370
    -2
100
AcDbLine
 10
384.3573011055778
 20
65.51134256211526
 30
0.0
 11
430.8675136307779
 21
65.51134256211525
 31
0.0
  0
LINE
  5
35E0
330
3582
100
AcDbEntity
  8
寸法線
 62
     0
370
    -2
100
AcDbLine
 10
384.3573011055778
 20
-37.49268187117377
 30
0.0
 11
430.8675136307779
 21
-37.49268187117378
 31
0.0
  0
LINE
  5
35E1
330
3582
100
AcDbEntity
  8
寸法線
 62
     0
370
    -2
100
AcDbLine
 10
427.8675136307779
 20
62.51134256211525
 30
0.0
 11
427.8675136307779
 21
-34.49268187117378
 31
0.0
  0
INSERT
  5
35E2
330
3582
100
AcDbEntity
  8
寸法線
 62
     0
370
    -2
100
AcDbBlockReference
  2
_Closed
 10
427.8675136307779
 20
65.51134256211525
 30
0.0
 41
3.0
 42
3.0
 43
3.0
 50
90.0
  0
INSERT
  5
35E3
330
3582
100
AcDbEntity
  8
寸法線
 62
     0
370
    -2
100
AcDbBlockReference
  2
_Closed
 10
427.8675136307779
 20
-37.49268187117378
 30
0.0
 41
3.0
 42
3.0
 43
3.0
 50
270.0
  0
MTEXT
  5
35E4
330
3582
100
AcDbEntity
  8
寸法線
 62
     0
100
AcDbMText
 10
421.8675136307779
 20
14.0093303454708
 30
0.0
 40
10.0
 41
0.0
 71
     5
 72
     1
  1
約90
  7
OKANO
 11
0.0000000000000001
 21
1.0
 31
0.0
 73
     1
 44
1.0
  0
POINT
  5
35E5
330
3582
100
AcDbEntity
  8
Defpoints
 62
     0
100
AcDbPoint
 10
382.3573011055778
 20
65.51134256211526
 30
0.0
  0
POINT
  5
35E6
330
3582
100
AcDbEntity
  8
Defpoints
 62
     0
100
AcDbPoint
 10
382.3573011055778
 20
-37.49268187117377
 30
0.0
  0
POINT
  5
35E7
330
3582
100
AcDbEntity
  8
Defpoints
 62
     0
100
AcDbPoint
 10
427.8675136307779
 20
-37.49268187117378
 30
0.0
  0
ENDBLK
  5
358D
330
3582
100
AcDbEntity
  8
0
100
AcDbBlockEnd
  0
BLOCK
  5
359C
330
3591
100
AcDbEntity
  8
0
100
AcDbBlockBegin
  2
*D13
 70
     1
 10
0.0
 20
0.0
 30
0.0
  3
*D13
  1

  0
LINE
  5
35E8
330
3591
100
AcDbEntity
  8
寸法線
 62
     0
370
    -2
100
AcDbLine
 10
374.4940738981786
 20
-42.13389190518614
 30
0.0
 11
374.4940738981786
 21
-71.96516084138171
 31
0.0
  0
LINE
  5
35E9
330
3591
100
AcDbEntity
  8
寸法線
 62
     0
370
    -2
100
AcDbLine
 10
386.3007135861021
 20
-42.13389190518614
 30
0.0
 11
386.3007135861021
 21
-71.96516084138171
 31
0.0
  0
LINE
  5
35EA
330
3591
100
AcDbEntity
  8
寸法線
 62
     0
370
    -2
100
AcDbLine
 10
377.4940738981786
 20
-68.9651608413817
 30
0.0
 11
383.3007135861021
 21
-68.9651608413817
 31
0.0
  0
INSERT
  5
35EB
330
3591
100
AcDbEntity
  8
寸法線
 62
     0
370
    -2
100
AcDbBlockReference
  2
_Closed
 10
374.4940738981786
 20
-68.9651608413817
 30
0.0
 41
3.0
 42
3.0
 43
3.0
 50
180.0
  0
INSERT
  5
35EC
330
3591
100
AcDbEntity
  8
寸法線
 62
     0
370
    -2
100
AcDbBlockReference
  2
_Closed
 10
386.3007135861021
 20
-68.9651608413817
 30
0.0
 41
3.0
 42
3.0
 43
3.0
  0
MTEXT
  5
35ED
330
3591
100
AcDbEntity
  8
寸法線
 62
     0
100
AcDbMText
 10
380.3973937421403
 20
-62.9651608413817
 30
0.0
 40
10.0
 41
0.0
 71
     5
 72
     1
  1
5
  7
OKANO
 73
     1
 44
1.0
  0
POINT
  5
35EE
330
3591
100
AcDbEntity
  8
Defpoints
 62
     0
100
AcDbPoint
 10
374.4940738981786
 20
-40.13389190518615
 30
0.0
  0
POINT
  5
35EF
330
3591
100
AcDbEntity
  8
Defpoints
 62
     0
100
AcDbPoint
 10
386.3007135861021
 20
-40.13389190518615
 30
0.0
  0
POINT
  5
35F0
330
3591
100
AcDbEntity
  8
Defpoints
 62
     0
100
AcDbPoint
 10
386.3007135861021
 20
-68.9651608413817
 30
0.0
  0
ENDBLK
  5
359D
330
3591
100
AcDbEntity
  8
0
100
AcDbBlockEnd
  0
ENDSEC
  0
SECTION
  2
ENTITIES
  0
TEXT
  5
29C2
330
1F
100
AcDbEntity
  8
文字
100
AcDbText
 10
563.1859860768405
 20
-103.6735269433438
 30
0.0
 40
7.199999999999999
  1
joint kogyo T.okano
 51
15.0
  7
OKANO
100
AcDbText
  0
TEXT
  5
29C3
330
1F
100
AcDbEntity
  8
文字
100
AcDbText
 10
551.9535165591453
 20
-81.54496968241216
 30
0.0
 40
7.199999999999999
  1
F-999-20050316 Auto CAD
 51
15.0
  7
OKANO
100
AcDbText
  0
LINE
  5
29C4
330
1F
100
AcDbEntity
  8
太線
100
AcDbLine
 10
510.8201742867244
 20
-82.92618115805771
 30
0.0
 11
672.8201742867245
 21
-82.92618115805771
 31
0.0
  0
LWPOLYLINE
  5
29C5
330
1F
100
AcDbEntity
  8
太線
100
AcDbPolyline
 90
        4
 70
     1
 43
0.0
 10
510.8201742867245
 20
-70.32618115805771
 10
672.8201742867245
 20
-70.32618115805771
 10
672.8201742867245
 20
-108.1261811580576
 10
510.8201742867245
 20
-108.1261811580576
  0
TEXT
  5
29C6
330
1F
100
AcDbEntity
  8
文字
100
AcDbText
 10
516.6287496358108
 20
-95.21644885633373
 30
0.0
 40
3.599999999999999
  1
CHECK
 51
15.0
  7
OKANO
100
AcDbText
  0
LINE
  5
29C7
330
1F
100
AcDbEntity
  8
太線
100
AcDbLine
 10
546.8201742867245
 20
-70.32618115805769
 30
0.0
 11
546.8201742867245
 21
-108.1261811580576
 31
0.0
  0
TEXT
  5
29C8
330
1F
100
AcDbEntity
  8
文字
100
AcDbText
 10
516.6287496358108
 20
-105.5955902656574
 30
0.0
 40
3.599999999999999
  1
ISSUED
 51
15.0
  7
OKANO
100
AcDbText
  0
TEXT
  5
29C9
330
1F
100
AcDbEntity
  8
文字
100
AcDbText
 10
517.0135212851618
 20
-100.5982259817552
 30
0.0
 40
3.599999999999999
  1
APPR
 51
15.0
  7
OKANO
100
AcDbText
  0
TEXT
  5
29CA
330
1F
100
AcDbEntity
  8
文字
100
AcDbText
 10
513.9353563082821
 20
-80.22435688990995
 30
0.0
 40
3.599999999999999
  1
FILM NAME
 51
15.0
  7
OKANO
100
AcDbText
  0
TEXT
  5
29CB
330
1F
100
AcDbEntity
  8
文字
100
AcDbText
 10
515.8592096242801
 20
-89.83467261619518
 30
0.0
 40
3.599999999999999
  1
DRAWN
 51
15.0
  7
OKANO
100
AcDbText
  0
TEXT
  5
29CC
330
1F
100
AcDbEntity
  8
文字
100
AcDbText
 10
557.2776028602564
 20
-92.73273800506762
 30
0.0
 40
7.199999999999999
  1
単管接続金具　クリップス
 51
15.0
  7
OKANO
100
AcDbText
  0
XLINE
  5
2FE7
330
1F
100
AcDbEntity
  8
構築線
100
AcDbXline
 10
1240.750610039276
 20
82.62557587280014
 30
0.0
 11
0.0
 21
-1.0
 31
0.0
  0
CIRCLE
  5
31B0
330
1F
100
AcDbEntity
  8
太線
100
AcDbCircle
 10
147.9775460701316
 20
275.9807360046095
 30
0.0
 40
25.0
  0
LINE
  5
31B1
330
1F
100
AcDbEntity
  8
太線
100
AcDbLine
 10
223.4259048775305
 20
176.3185809342419
 30
0.0
 11
223.1160153874888
 21
245.3178850503268
 31
0.0
  0
LINE
  5
31B2
330
1F
100
AcDbEntity
  8
太線
100
AcDbLine
 10
173.4264091412372
 20
176.0940233327624
 30
0.0
 11
173.2014683133486
 21
226.1788474083319
 31
0.0
  0
CIRCLE
  5
31B3
330
1F
100
AcDbEntity
  8
太線
100
AcDbCircle
 10
147.9775460701316
 20
275.9807360046095
 30
0.0
 40
22.69766091243139
  0
ARC
  5
31B4
330
1F
100
AcDbEntity
  8
太線
100
AcDbCircle
 10
210.892665453038
 20
183.6915273673525
 30
0.0
 40
14.54106012562943
100
AcDbArc
 50
210.9817320922734
 51
329.5329177507502
  0
ARC
  5
31B5
330
1F
100
AcDbEntity
  8
太線
100
AcDbCircle
 10
185.9474301178116
 20
171.4416093178947
 30
0.0
 40
13.35742948555419
100
AcDbArc
 50
20.89811814809611
 51
159.6165316949275
  0
ARC
  5
31B6
330
1F
100
AcDbEntity
  8
太線
100
AcDbCircle
 10
185.8623395033614
 20
190.3876961409183
 30
0.0
 40
18.94627790142993
100
AcDbArc
 50
228.9757384683432
 51
311.5389113746803
  0
ARC
  5
31B7
330
1F
100
AcDbEntity
  8
太線
100
AcDbCircle
 10
187.3294722842761
 20
191.0370874181077
 30
0.0
 40
16.72407025044817
100
AcDbArc
 50
226.5499695533922
 51
306.0829203750774
  0
ARC
  5
31BE
330
1F
100
AcDbEntity
  8
太線
100
AcDbCircle
 10
147.9775460701316
 20
275.9807360046095
 30
0.0
 40
31.0
100
AcDbArc
 50
90.25732492151181
 51
252.9701773384194
  0
LINE
  5
31BF
330
1F
100
AcDbEntity
  8
太線
100
AcDbLine
 10
147.8383203572143
 20
306.9804233611113
 30
0.0
 11
225.8375337058319
 21
307.3307332194193
 31
0.0
  0
ARC
  5
31C5
330
1F
100
AcDbEntity
  8
太線
100
AcDbCircle
 10
226.1025116755777
 20
248.3313282505932
 30
0.0
 40
3.0
100
AcDbArc
 50
270.2573249215118
 51
90.25732492151181
  0
ARC
  5
31C6
330
1F
100
AcDbEntity
  8
太線
100
AcDbCircle
 10
225.8510071619207
 20
304.3307634752417
 30
0.0
 40
3.0
100
AcDbArc
 50
270.2573249215118
 51
90.25732492151181
  0
LINE
  5
31C7
330
1F
100
AcDbEntity
  8
太線
100
AcDbLine
 10
225.8644806180094
 20
301.330793731064
 30
0.0
 11
147.8652672693918
 21
300.9804838727561
 31
0.0
  0
LINE
  5
31C8
330
1F
100
AcDbEntity
  8
太線
100
AcDbLine
 10
226.0890382194889
 20
251.3312979947707
 30
0.0
 11
223.0890684753113
 21
251.3178245386819
 31
0.0
  0
LINE
  5
31C9
330
1F
100
AcDbEntity
  8
太線
100
AcDbLine
 10
226.1159851316664
 20
245.3313585064154
 30
0.0
 11
223.1160153874888
 21
245.3178850503267
 31
0.0
  0
LINE
  5
31CA
330
1F
100
AcDbEntity
  8
太線
100
AcDbLine
 10
173.0895727390179
 20
251.0932669372024
 30
0.0
 11
148.0898248708713
 21
250.9809881364627
 31
0.0
  0
LINE
  5
31CB
330
1F
100
AcDbEntity
  8
太線
100
AcDbLine
 10
166.8078099314745
 20
245.0649937886327
 30
0.0
 11
159.0256505772115
 21
245.0300425753617
 31
0.0
  0
ARC
  5
31D4
330
1F
100
AcDbEntity
  8
太線
100
AcDbCircle
 10
164.0630490366236
 20
226.6422106362846
 30
0.0
 40
3.025700623958742
100
AcDbArc
 50
154.7841632405377
 51
349.7304866025223
  0
LINE
  5
31D5
330
1F
100
AcDbEntity
  8
太線
100
AcDbLine
 10
223.1160153874888
 20
245.3178850503267
 30
0.0
 11
175.5732438522287
 21
245.1043610820061
 31
0.0
  0
LINE
  5
31D6
330
1F
100
AcDbEntity
  8
太線
100
AcDbLine
 10
172.559295147138
 20
243.3517918124088
 30
0.0
 11
167.0402780509726
 21
226.1027927445315
 31
0.0
  0
LINE
  5
31D7
330
1F
100
AcDbEntity
  8
太線
100
AcDbLine
 10
161.3256694493865
 20
227.9312479752326
 30
0.0
 11
168.3040700461345
 21
249.7413680185663
 31
0.0
  0
LINE
  5
31D8
330
1F
100
AcDbEntity
  8
太線
100
AcDbLine
 10
223.0890684753113
 20
251.3178245386819
 30
0.0
 11
173.0895727390179
 21
251.0932669372024
 31
0.0
  0
ARC
  5
31DF
330
1F
100
AcDbEntity
  8
太線
100
AcDbCircle
 10
172.309662894894
 20
246.0897739794787
 30
0.0
 40
5.420231830497074
100
AcDbArc
 50
112.9691146702046
 51
137.64695201138
  0
ARC
  5
31E0
330
1F
100
AcDbEntity
  8
太線
100
AcDbCircle
 10
176.6461479950963
 20
239.7913779466527
 30
0.0
 40
5.420231830497074
100
AcDbArc
 50
93.16617101263782
 51
138.9380371154519
  0
LINE
  5
31E1
330
1F
100
AcDbEntity
  8
太線
100
AcDbLine
 10
173.0895727390179
 20
251.0932669372024
 30
0.0
 11
172.8650151375385
 21
301.0927626734958
 31
0.0
  0
LINE
  5
31E2
330
1F
100
AcDbEntity
  8
構築線
100
AcDbLine
 10
221.3002340501356
 20
211.3299122493293
 30
0.0
 11
171.9392386079958
 21
229.7540995889686
 31
0.0
  0
LINE
  5
31E3
330
1F
100
AcDbEntity
  8
構築線
100
AcDbLine
 10
171.9392386079958
 20
229.7540995889686
 30
0.0
 11
173.5630164880424
 21
235.2180424549947
 31
0.0
  0
LINE
  5
31E4
330
1F
100
AcDbEntity
  8
太線
100
AcDbLine
 10
141.1741109920668
 20
252.1196132190715
 30
0.0
 11
165.9205002220105
 21
242.2918180428829
 31
0.0
  0
LINE
  5
31E6
330
1F
100
AcDbEntity
  8
太線
100
AcDbLine
 10
183.341999922882
 20
229.1964665932334
 30
0.0
 11
177.6520323519221
 21
231.3913075331221
 31
0.0
  0
LINE
  5
31E7
330
1F
100
AcDbEntity
  8
太線
100
AcDbLine
 10
157.344745351893
 20
245.0224932983109
 30
0.0
 11
155.6934521951542
 21
239.8615826460913
 31
0.0
  0
LINE
  5
31EA
330
1F
100
AcDbEntity
  8
太線
100
AcDbLine
 10
164.1047790055188
 20
236.6170080132945
 30
0.0
 11
138.898593888997
 21
246.3400101819736
 31
0.0
  0
LINE
  5
31EB
330
1F
100
AcDbEntity
  8
太線
100
AcDbLine
 10
179.5440479387406
 20
236.8813545086293
 30
0.0
 11
185.2242925661892
 21
234.6254989076165
 31
0.0
  0
LINE
  5
31EC
330
1F
100
AcDbEntity
  8
太線
100
AcDbLine
 10
172.8380682253609
 20
307.0927021618511
 30
0.0
 11
172.6621675462832
 21
346.2583558543385
 31
0.0
  0
LINE
  5
31ED
330
1F
100
AcDbEntity
  8
太線
100
AcDbLine
 10
222.8375639616543
 20
307.3172597633305
 30
0.0
 11
222.662479229551
 21
346.3012365185681
 31
0.0
  0
LINE
  5
31F3
330
1F
100
AcDbEntity
  8
太線
100
AcDbLine
 10
172.559295147138
 20
243.3517918124088
 30
0.0
 11
174.0777954530928
 21
248.0976749842844
 31
0.0
  0
ELLIPSE
  5
31F4
330
1F
100
AcDbEntity
  8
太線
100
AcDbEllipse
 10
171.1092990381393
 20
248.8405090126239
 30
0.0
 11
3.038205096796227
 21
-0.8283443659740617
 31
0.0
210
0.0
220
0.0
230
1.0
 40
0.1195984851823443
 41
0.0
 42
6.283185307179586
  0
LINE
  5
31F7
330
1F
100
AcDbEntity
  8
太線
100
AcDbLine
 10
155.6934521951542
 20
239.8615826460912
 30
0.0
 11
155.5408199706814
 21
239.3845496795713
 31
0.0
  0
LINE
  5
31F8
330
1F
100
AcDbEntity
  8
太線
100
AcDbLine
 10
155.5408199706814
 20
239.3845496795713
 30
0.0
 11
163.9521467810461
 21
236.1399750467746
 31
0.0
  0
LINE
  5
31F9
330
1F
100
AcDbEntity
  8
太線
100
AcDbLine
 10
177.4890147466322
 20
230.9182806103466
 30
0.0
 11
183.1781135672704
 21
228.7237747811151
 31
0.0
  0
LINE
  5
31FA
330
1F
100
AcDbEntity
  8
太線
100
AcDbLine
 10
157.344745351893
 20
245.0224932983109
 30
0.0
 11
157.5363995521244
 21
245.6214845794653
 31
0.0
  0
LINE
  5
31FD
330
1F
100
AcDbEntity
  8
太線
100
AcDbLine
 10
185.426128207148
 20
235.2076465459532
 30
0.0
 11
179.7251128152108
 21
237.4067490584212
 31
0.0
  0
LINE
  5
31FE
330
1F
100
AcDbEntity
  8
太線
100
AcDbLine
 10
166.0457894998153
 20
242.6833940424522
 30
0.0
 11
157.6344626894506
 21
245.927968675249
 31
0.0
  0
LINE
  5
31FF
330
1F
100
AcDbEntity
  8
太線
100
AcDbLine
 10
157.6344626894506
 20
245.927968675249
 30
0.0
 11
157.5363995521244
 21
245.6214845794653
 31
0.0
  0
LINE
  5
3204
330
1F
100
AcDbEntity
  8
太線
100
AcDbLine
 10
223.0890684753113
 20
251.3178245386819
 30
0.0
 11
222.8645108738319
 21
301.3173202749753
 31
0.0
  0
LINE
  5
320B
330
1F
100
AcDbEntity
  8
太線
100
AcDbLine
 10
531.1186789067911
 20
312.494839106251
 30
0.0
 11
531.1186789067911
 21
381.494839106251
 31
0.0
  0
LINE
  5
320C
330
1F
100
AcDbEntity
  8
太線
100
AcDbLine
 10
481.1186789067911
 20
312.494839106251
 30
0.0
 11
481.1186789067911
 21
381.494839106251
 31
0.0
  0
ARC
  5
320D
330
1F
100
AcDbEntity
  8
太線
100
AcDbCircle
 10
493.618678906791
 20
372.2631388557364
 30
0.0
 40
15.53944302461803
100
AcDbArc
 50
36.44720319968175
 51
143.5527968003179
  0
ARC
  5
320E
330
1F
100
AcDbEntity
  8
太線
100
AcDbCircle
 10
517.1058090490072
 20
374.3184838197655
 30
0.0
 40
12.40092324837426
100
AcDbArc
 50
21.70977258831002
 51
133.2591897431324
  0
ARC
  5
320F
330
1F
100
AcDbEntity
  8
太線
100
AcDbCircle
 10
518.6186789067911
 20
387.9955399020099
 30
0.0
 40
14.0893261313656
100
AcDbArc
 50
207.4769600719864
 51
332.5230399280134
  0
ARC
  5
3210
330
1F
100
AcDbEntity
  8
太線
100
AcDbCircle
 10
518.6186789067911
 20
374.6299831529695
 30
0.0
 40
14.26100442673316
100
AcDbArc
 50
28.77508332605952
 51
151.2249166739405
  0
LINE
  5
3212
330
1F
100
AcDbEntity
  8
太線
100
AcDbLine
 10
531.118678906791
 20
181.4948391062509
 30
0.0
 11
531.118678906791
 21
250.494839106251
 31
0.0
  0
LINE
  5
3213
330
1F
100
AcDbEntity
  8
太線
100
AcDbLine
 10
481.118678906791
 20
181.4948391062509
 30
0.0
 11
481.1186789067911
 21
238.5214786195425
 31
0.0
  0
LINE
  5
321C
330
1F
100
AcDbEntity
  8
太線
100
AcDbLine
 10
531.118678906791
 20
256.494839106251
 30
0.0
 11
531.1186789067911
 21
306.494839106251
 31
0.0
  0
ARC
  5
321D
330
1F
100
AcDbEntity
  8
太線
100
AcDbCircle
 10
534.1186789067911
 20
309.4948391062509
 30
0.0
 40
3.0
100
AcDbArc
 50
270.0
 51
89.99999999999998
  0
ARC
  5
321E
330
1F
100
AcDbEntity
  8
太線
100
AcDbCircle
 10
534.1186789067911
 20
253.4948391062509
 30
0.0
 40
3.0
100
AcDbArc
 50
270.0
 51
89.99999999999998
  0
LINE
  5
321F
330
1F
100
AcDbEntity
  8
太線
100
AcDbLine
 10
534.1186789067911
 20
256.494839106251
 30
0.0
 11
531.118678906791
 21
256.494839106251
 31
0.0
  0
LINE
  5
3220
330
1F
100
AcDbEntity
  8
太線
100
AcDbLine
 10
534.1186789067911
 20
250.494839106251
 30
0.0
 11
531.118678906791
 21
250.494839106251
 31
0.0
  0
ARC
  5
323B
330
1F
100
AcDbEntity
  8
太線
100
AcDbCircle
 10
495.088713406222
 20
196.3753117164461
 30
0.0
 40
16.72407025044817
100
AcDbArc
 50
226.2926446318803
 51
305.8255954535655
  0
ARC
  5
323C
330
1F
100
AcDbEntity
  8
太線
100
AcDbCircle
 10
493.618678906791
 20
195.7325161049124
 30
0.0
 40
18.94627790142993
100
AcDbArc
 50
228.7184135468315
 51
311.2815864531684
  0
ARC
  5
323D
330
1F
100
AcDbEntity
  8
太線
100
AcDbCircle
 10
493.618678906791
 20
176.7862382034824
 30
0.0
 40
13.35742948555419
100
AcDbArc
 50
20.64079322658428
 51
159.3592067734157
  0
ARC
  5
323E
330
1F
100
AcDbEntity
  8
太線
100
AcDbCircle
 10
518.618678906791
 20
188.9239998648542
 30
0.0
 40
14.54106012562943
100
AcDbArc
 50
210.7244071707616
 51
329.2755928292383
  0
LINE
  5
3242
330
1F
100
AcDbEntity
  8
太線
100
AcDbLine
 10
481.0680705284718
 20
256.2799078073193
 30
0.0
 11
480.6386505025106
 21
306.2780637577272
 31
0.0
  0
ARC
  5
3243
330
1F
100
AcDbEntity
  8
太線
100
AcDbCircle
 10
477.6129959439283
 20
309.2521879131939
 30
0.0
 40
3.0
100
AcDbArc
 50
90.49208515206398
 51
270.4920851520639
  0
LINE
  5
3245
330
1F
100
AcDbEntity
  8
太線
100
AcDbLine
 10
478.0681811714473
 20
256.2541426057616
 30
0.0
 11
481.0680705284718
 21
256.2799078073193
 31
0.0
  0
LINE
  5
3247
330
1F
100
AcDbEntity
  8
太線
100
AcDbLine
 10
531.118678906791
 20
250.494839106251
 30
0.0
 11
484.8938863264433
 21
250.2963369294733
 31
0.0
  0
LINE
  5
3248
330
1F
100
AcDbEntity
  8
太線
100
AcDbLine
 10
478.0681811714473
 20
256.2541426057616
 30
0.0
 11
531.118678906791
 21
256.494839106251
 31
0.0
  0
LINE
  5
3249
330
1F
100
AcDbEntity
  8
太線
100
AcDbLine
 10
534.1186789067911
 20
306.494839106251
 30
0.0
 11
476.4310367412272
 21
306.494839106251
 31
0.0
  0
LINE
  5
324A
330
1F
100
AcDbEntity
  8
太線
100
AcDbLine
 10
477.5872307423707
 20
312.2520772702185
 30
0.0
 11
534.1186789067911
 21
312.494839106251
 31
0.0
  0
LINE
  5
324B
330
1F
100
AcDbEntity
  8
太線
100
AcDbLine
 10
481.1186789067911
 20
238.5214786195425
 30
0.0
 11
481.1194548631391
 21
248.4173073633422
 31
0.0
  0
LINE
  5
324E
330
1F
100
AcDbEntity
  8
太線
100
AcDbLine
 10
418.78735908657
 20
256.494839106251
 30
0.0
 11
478.0681811714473
 21
256.2541426057616
 31
0.0
  0
LINE
  5
324F
330
1F
100
AcDbEntity
  8
太線
100
AcDbLine
 10
531.1186789067849
 20
256.494839106251
 30
0.0
 11
576.3704516818095
 21
256.494839106251
 31
0.0
  0
LINE
  5
3251
330
1F
100
AcDbEntity
  8
太線
100
AcDbLine
 10
576.3704516818096
 20
306.494839106251
 30
0.0
 11
531.1186789067911
 21
306.494839106251
 31
0.0
  0
LINE
  5
3252
330
1F
100
AcDbEntity
  8
太線
100
AcDbLine
 10
476.4310367412272
 20
306.494839106251
 30
0.0
 11
418.78735908657
 21
306.494839106251
 31
0.0
  0
LINE
  5
3263
330
1F
100
AcDbEntity
  8
太線
100
AcDbLine
 10
477.6858671675398
 20
246.0569811670627
 30
0.0
 11
467.1176995379932
 21
230.8358465916861
 31
0.0
  0
ARC
  5
3267
330
1F
100
AcDbEntity
  8
太線
100
AcDbCircle
 10
461.3865256660008
 20
240.2085115881372
 30
0.0
 40
10.98604583490837
100
AcDbArc
 50
161.3548838189476
 51
301.4448480737389
  0
LINE
  5
326A
330
1F
100
AcDbEntity
  8
太線
100
AcDbLine
 10
476.4352440263532
 20
253.1127219857876
 30
0.0
 11
469.1776080129728
 21
243.0120335193956
 31
0.0
  0
LINE
  5
326D
330
1F
100
AcDbEntity
  8
太線
100
AcDbLine
 10
450.9728230791864
 20
243.9136472275135
 30
0.0
 11
457.8515556495475
 21
249.9434742378849
 31
0.0
  0
LINE
  5
3272
330
1F
100
AcDbEntity
  8
太線
100
AcDbLine
 10
463.7476111136192
 20
247.5595891200208
 30
0.0
 11
469.10349151758
 21
248.5199320301147
 31
0.0
  0
LINE
  5
3273
330
1F
100
AcDbEntity
  8
太線
100
AcDbLine
 10
469.10349151758
 20
248.5199320301147
 30
0.0
 11
471.1122499805204
 21
248.7428830624634
 31
0.0
  0
LINE
  5
3274
330
1F
100
AcDbEntity
  8
太線
100
AcDbLine
 10
457.8515556495475
 20
249.9434742378849
 30
0.0
 11
462.6308259570213
 21
252.7559998610594
 31
0.0
  0
LINE
  5
3276
330
1F
100
AcDbEntity
  8
太線
100
AcDbLine
 10
462.6308259570213
 20
252.7559998610594
 30
0.0
 11
471.3354459630967
 21
253.8707550228026
 31
0.0
  0
ELLIPSE
  5
3277
330
1F
100
AcDbEntity
  8
太線
100
AcDbEllipse
 10
471.2238479718085
 20
251.306819042633
 30
0.0
 11
-0.1115979912881366
 21
-2.563935980169616
 31
0.0
210
0.0
220
0.0
230
0.9999999999999998
 40
0.3071534367022081
 41
0.0
 42
6.283185307179586
  0
ARC
  5
3278
330
1F
100
AcDbEntity
  8
太線
100
AcDbCircle
 10
496.2962138772803
 20
222.6619413406466
 30
0.0
 40
29.89436222996476
100
AcDbArc
 50
112.4217097738248
 51
128.501637588812
  0
LINE
  5
327C
330
1F
100
AcDbEntity
  8
太線
100
AcDbLine
 10
463.7476111136192
 20
247.5595891200208
 30
0.0
 11
463.6925765545181
 21
247.5042718964477
 31
0.0
  0
ARC
  5
327D
330
1F
100
AcDbEntity
  8
太線
100
AcDbCircle
 10
492.2561340773327
 20
226.4538021569226
 30
0.0
 40
30.99997691042745
100
AcDbArc
 50
105.8159904589969
 51
120.687257281915
  0
CIRCLE
  5
327E
330
1F
100
AcDbEntity
  8
太線
100
AcDbCircle
 10
461.6320441337098
 20
239.3936219354682
 30
0.0
 40
3.65872842573591
  0
LINE
  5
3282
330
1F
100
AcDbEntity
  8
太線
100
AcDbLine
 10
470.2648856978168
 20
256.2858261392676
 30
0.0
 11
469.7253423191593
 21
253.6645574694611
 31
0.0
  0
LINE
  5
3284
330
1F
100
AcDbEntity
  8
太線
100
AcDbLine
 10
468.6496594127138
 20
248.4385570905327
 30
0.0
 11
467.9236272220993
 21
244.9112680720585
 31
0.0
  0
LINE
  5
3285
330
1F
100
AcDbEntity
  8
太線
100
AcDbLine
 10
463.0176576949045
 20
252.8055393787213
 30
0.0
 11
463.7959061170516
 21
256.3120919819477
 31
0.0
  0
LINE
  5
3286
330
1F
100
AcDbEntity
  8
太線
100
AcDbLine
 10
481.0662245443108
 20
256.494839106251
 30
0.0
 11
481.0662245443108
 21
255.3329344063576
 31
0.0
  0
ARC
  5
3287
330
1F
100
AcDbEntity
  8
太線
100
AcDbCircle
 10
425.2783210591911
 20
268.994839106251
 30
0.0
 40
14.08483536751539
100
AcDbArc
 50
117.4418123522712
 51
242.5581876477287
  0
ARC
  5
3288
330
1F
100
AcDbEntity
  8
太線
100
AcDbCircle
 10
412.2963971139489
 20
293.994839106251
 30
0.0
 40
14.08483536751539
100
AcDbArc
 50
297.4418123522712
 51
62.55818764772875
  0
ARC
  5
328A
330
1F
100
AcDbEntity
  8
太線
100
AcDbCircle
 10
429.4206791210656
 20
293.8488631999646
 30
0.0
 40
16.52235460152033
100
AcDbArc
 50
130.0586716106864
 51
227.7242350444561
  0
ARC
  5
328B
330
1F
100
AcDbEntity
  8
太線
100
AcDbCircle
 10
429.9538765159041
 20
294.2000636112491
 30
0.0
 40
14.91498735875321
100
AcDbArc
 50
132.3416020807011
 51
229.7067036398183
  0
ARC
  5
328C
330
1F
100
AcDbEntity
  8
太線
100
AcDbCircle
 10
568.1223532719619
 20
293.8927821646334
 30
0.0
 40
15.06130693327442
100
AcDbArc
 50
306.5347411281227
 51
56.79508698352758
  0
ARC
  5
328E
330
1F
100
AcDbEntity
  8
太線
100
AcDbCircle
 10
591.6314361502843
 20
269.2955376617363
 30
0.0
 40
19.91872311307714
100
AcDbArc
 50
141.1468450579947
 51
219.9894498490492
  0
ARC
  5
328F
330
1F
100
AcDbEntity
  8
太線
100
AcDbCircle
 10
568.2888937683926
 20
268.6645229032311
 30
0.0
 40
14.91061271355462
100
AcDbArc
 50
306.1681743542834
 51
59.37076272471978
  0
ARC
  5
3290
330
1F
100
AcDbEntity
  8
太線
100
AcDbCircle
 10
566.8311314096968
 20
269.0144213553895
 30
0.0
 40
13.66537298725667
100
AcDbArc
 50
310.1100617092929
 51
52.49669731829172
  0
TEXT
  5
33D0
330
1F
100
AcDbEntity
  8
文字
100
AcDbText
 10
158.3047668889073
 20
319.8412051388184
 30
0.0
 40
7.199999999999999
  1

 51
15.0
  7
OKANO
100
AcDbText
  0
ELLIPSE
  5
343D
330
1F
100
AcDbEntity
  8
太線
100
AcDbEllipse
 10
278.6798220090616
 20
-36.26094054668632
 30
0.0
 11
5.680498328265405
 21
-1.576188530992932
 31
0.0
210
0.0
220
0.0
230
1.0
 40
0.1195984851823444
 41
0.0
 42
6.283185307179586
  0
ARC
  5
343E
330
1F
100
AcDbEntity
  8
太線
100
AcDbCircle
 10
235.6057969096904
 20
14.73953073129212
 30
0.0
 40
58.032
100
AcDbArc
 50
90.0
 51
242.4627821396458
  0
LINE
  5
343F
330
1F
100
AcDbEntity
  8
太線
100
AcDbLine
 10
260.1892588437427
 20
-75.32042720402484
 30
0.0
 11
273.4360602127002
 21
-34.55096471055239
 31
0.0
  0
LWPOLYLINE
  5
3440
330
1F
100
AcDbEntity
  8
太線
100
AcDbPolyline
 90
        6
 70
     0
 43
0.0
 10
275.9375056639926
 20
-72.604488155864
 10
271.1103819293106
 20
-85.89586703315275
 10
267.6202106734806
 20
-84.6283169420251
 10
281.0709193703128
 20
-47.59208682156031
 10
284.5610906261429
 20
-48.85963691268827
 10
279.6640355258708
 20
-62.34357026476357
  0
LWPOLYLINE
  5
3441
330
1F
100
AcDbEntity
  8
太線
100
AcDbPolyline
 90
        3
 70
     0
 43
0.0
 10
284.2032739531335
 20
-50.34460965609705
 10
271.9219270218143
 20
-84.16102791253553
 10
283.7923174076124
 20
-88.4720812426856
  0
LINE
  5
3442
330
1F
100
AcDbEntity
  8
太線
100
AcDbLine
 10
281.34804130784
 20
-46.54790627087717
 30
0.0
 11
270.8715256347702
 21
-78.79130608484127
 31
0.0
  0
LINE
  5
3443
330
1F
100
AcDbEntity
  8
太線
100
AcDbLine
 10
294.8017436046211
 20
-54.02433177617718
 30
0.0
 11
282.3763117198175
 21
-88.23748477830406
 31
0.0
  0
ARC
  5
3444
330
1F
100
AcDbEntity
  8
太線
100
AcDbCircle
 10
286.3839515087047
 20
-69.17100977514957
 30
0.0
 40
7.217471350634071
100
AcDbArc
 50
276.3599543805509
 51
41.67168166446802
  0
LINE
  5
3445
330
1F
100
AcDbEntity
  8
太線
100
AcDbLine
 10
296.3671549726786
 20
-61.03809068993161
 30
0.0
 11
288.4875065204263
 21
-83.64647745515856
 31
0.0
  0
ARC
  5
3447
330
1F
100
AcDbEntity
  8
太線
100
AcDbCircle
 10
265.3027442506263
 20
-77.75649511131184
 30
0.0
 40
5.664111568050765
100
AcDbArc
 50
154.5268383190286
 51
349.4731616810137
  0
ARC
  5
3448
330
1F
100
AcDbEntity
  8
太線
100
AcDbCircle
 10
280.5132205037478
 20
-81.01709229942267
 30
0.0
 40
8.14428245145662
100
AcDbArc
 50
293.3957627814598
 51
35.01427477512907
  0
LINE
  5
3449
330
1F
100
AcDbEntity
  8
太線
100
AcDbLine
 10
277.6658362820313
 20
-72.93344169790998
 30
0.0
 11
286.7378167405925
 21
-76.22817677366032
 31
0.0
  0
LINE
  5
344B
330
1F
100
AcDbEntity
  8
太線
100
AcDbLine
 10
274.9901614006395
 20
-63.93423006662107
 30
0.0
 11
274.9901614006395
 21
-62.92925701505805
 31
0.0
  0
LINE
  5
344D
330
1F
100
AcDbEntity
  8
太線
100
AcDbLine
 10
302.0922422043776
 20
-70.14251085941842
 30
0.0
 11
294.2609616266701
 21
-67.08120721441304
 31
0.0
  0
LINE
  5
3450
330
1F
100
AcDbEntity
  8
太線
100
AcDbLine
 10
293.9234690128116
 20
-68.04954528060398
 30
0.0
 11
301.7192158612017
 21
-71.18615946139638
 31
0.0
  0
LINE
  5
3451
330
1F
100
AcDbEntity
  8
太線
100
AcDbLine
 10
298.084285028648
 20
-81.35592508540863
 30
0.0
 11
290.3408132110083
 21
-78.32894651337074
 31
0.0
  0
LINE
  5
3454
330
1F
100
AcDbEntity
  8
太線
100
AcDbLine
 10
228.3035737616903
 20
48.79142543968493
 30
0.0
 11
384.6582531301182
 21
61.49613324855258
 31
0.0
  0
LINE
  5
3455
330
1F
100
AcDbEntity
  8
太線
100
AcDbLine
 10
229.2121261976995
 20
-18.37691046461037
 30
0.0
 11
384.5744701199352
 21
-31.99211276200708
 31
0.0
  0
LINE
  5
3458
330
1F
100
AcDbEntity
  8
太線
100
AcDbLine
 10
235.6057969096904
 20
72.7715307312923
 30
0.0
 11
381.6217969096904
 21
72.77153073129216
 31
0.0
  0
LINE
  5
3459
330
1F
100
AcDbEntity
  8
太線
100
AcDbLine
 10
381.6217969096904
 20
61.53953073129213
 30
0.0
 11
235.6057969096904
 21
61.53953073129227
 31
0.0
  0
LINE
  5
345A
330
1F
100
AcDbEntity
  8
太線
100
AcDbLine
 10
226.4864688896707
 20
56.05286639611245
 30
0.0
 11
281.7288401465036
 21
61.53953073129227
 31
0.0
  0
ARC
  5
345B
330
1F
100
AcDbEntity
  8
太線
100
AcDbCircle
 10
235.6057969096904
 20
14.73953073129212
 30
0.0
 40
46.79999999999999
100
AcDbArc
 50
90.0
 51
241.1200456630403
  0
LINE
  5
345C
330
1F
100
AcDbEntity
  8
太線
100
AcDbLine
 10
226.4864688896707
 20
-24.73067180558024
 30
0.0
 11
277.2899701675429
 21
-30.77290637689948
 31
0.0
  0
ARC
  5
345F
330
1F
100
AcDbEntity
  8
太線
100
AcDbCircle
 10
237.0572294443854
 20
15.31951903650218
 30
0.0
 40
34.59761561256224
100
AcDbArc
 50
104.6558935970417
 51
256.8940345009171
  0
ARC
  5
3460
330
1F
100
AcDbEntity
  8
太線
100
AcDbCircle
 10
235.9774778887087
 20
15.6610972952661
 30
0.0
 40
41.49185779060641
100
AcDbArc
 50
103.2231306464707
 51
256.7768693535291
  0
LINE
  5
3463
330
1F
100
AcDbEntity
  8
太線
100
AcDbLine
 10
203.1592203447558
 20
-2.080254893248508
 30
0.0
 11
207.2231362977345
 21
-2.199667365598912
 31
0.0
  0
LINE
  5
3464
330
1F
100
AcDbEntity
  8
太線
100
AcDbLine
 10
190.7687320145787
 20
-13.68229338826139
 30
0.0
 11
198.5426868600311
 21
-13.83608603277531
 31
0.0
  0
LINE
  5
3465
330
1F
100
AcDbEntity
  8
太線
100
AcDbLine
 10
187.8931789500743
 20
-8.715224845950217
 30
0.0
 11
195.1914342062169
 21
-8.859606695149892
 31
0.0
  0
LINE
  5
3466
330
1F
100
AcDbEntity
  8
太線
100
AcDbLine
 10
185.8038380694031
 20
-4.005553479228268
 30
0.0
 11
192.7844772975545
 21
-4.143651910289094
 31
0.0
  0
LINE
  5
3467
330
1F
100
AcDbEntity
  8
太線
100
AcDbLine
 10
250.2865666632828
 20
-51.58329674197415
 30
0.0
 11
247.1519870205731
 21
-61.23054090430691
 31
0.0
  0
LINE
  5
3468
330
1F
100
AcDbEntity
  8
太線
100
AcDbLine
 10
246.8622517535791
 20
-62.12225436567459
 30
0.0
 11
262.5808181843
 21
-68.26675451876614
 31
0.0
  0
LINE
  5
3469
330
1F
100
AcDbEntity
  8
太線
100
AcDbLine
 10
249.7461580103697
 20
-52.9397134310409
 30
0.0
 11
249.4564227433757
 21
-53.8314268924083
 31
0.0
  0
LINE
  5
346B
330
1F
100
AcDbEntity
  8
太線
100
AcDbLine
 10
266.5550912069789
 20
-56.0351998646278
 30
0.0
 11
250.8365247762578
 21
-49.89069971153639
 31
0.0
  0
LINE
  5
346E
330
1F
100
AcDbEntity
  8
太線
100
AcDbLine
 10
201.8388412383389
 20
0.7155027350987666
 30
0.0
 11
205.7466772441869
 21
0.6006764531586555
 31
0.0
  0
LINE
  5
346F
330
1F
100
AcDbEntity
  8
太線
100
AcDbLine
 10
200.5875029008175
 20
4.126462497843249
 30
0.0
 11
204.3583331206551
 21
4.015661938832039
 31
0.0
  0
LINE
  5
3470
330
1F
100
AcDbEntity
  8
太線
100
AcDbLine
 10
200.3931770089278
 20
25.89980845498149
 30
0.0
 11
204.0824718607177
 21
25.79140369844134
 31
0.0
  0
LINE
  5
3471
330
1F
100
AcDbEntity
  8
太線
100
AcDbLine
 10
199.081417785364
 20
11.40601558217224
 30
0.0
 11
202.6939146010404
 21
11.29986742824667
 31
0.0
  0
LINE
  5
3472
330
1F
100
AcDbEntity
  8
太線
100
AcDbLine
 10
199.6671097763494
 20
7.664856158331986
 30
0.0
 11
203.3417064274165
 21
7.556883287812013
 31
0.0
  0
LINE
  5
3473
330
1F
100
AcDbEntity
  8
太線
100
AcDbLine
 10
199.4976742108126
 20
22.14044062012328
 30
0.0
 11
203.1174343655761
 21
22.03407904316225
 31
0.0
  0
LINE
  5
3474
330
1F
100
AcDbEntity
  8
太線
100
AcDbLine
 10
199.0033618228218
 20
18.43101561070861
 30
0.0
 11
202.5904570387215
 21
18.32561384717729
 31
0.0
  0
LINE
  5
3475
330
1F
100
AcDbEntity
  8
太線
100
AcDbLine
 10
198.8776003975979
 20
14.92336173487194
 30
0.0
 11
202.4632489388407
 21
14.81800247984699
 31
0.0
  0
LINE
  5
3476
330
1F
100
AcDbEntity
  8
太線
100
AcDbLine
 10
183.6520288127679
 20
25.32104040044197
 30
0.0
 11
189.9888159012044
 21
25.19567933732455
 31
0.0
  0
LINE
  5
3477
330
1F
100
AcDbEntity
  8
太線
100
AcDbLine
 10
182.8197867307522
 20
20.54824305869564
 30
0.0
 11
189.1521799315306
 21
20.42296892013808
 31
0.0
  0
LINE
  5
3478
330
1F
100
AcDbEntity
  8
太線
100
AcDbLine
 10
182.4438306448436
 20
15.6454993292815
 30
0.0
 11
188.8122970414532
 21
15.51951155239015
 31
0.0
  0
LINE
  5
3479
330
1F
100
AcDbEntity
  8
太線
100
AcDbLine
 10
184.1899959225147
 20
0.9365545555304493
 30
0.0
 11
190.9289603790718
 21
0.8032371918894796
 31
0.0
  0
LINE
  5
347A
330
1F
100
AcDbEntity
  8
太線
100
AcDbLine
 10
183.1347049487146
 20
5.746693084102673
 30
0.0
 11
189.703567061093
 21
5.616740865985434
 31
0.0
  0
LINE
  5
347B
330
1F
100
AcDbEntity
  8
太線
100
AcDbLine
 10
182.5477826391157
 20
10.66848549822543
 30
0.0
 11
188.9945116323834
 21
10.54094944739284
 31
0.0
  0
LINE
  5
347C
330
1F
100
AcDbEntity
  8
太線
100
AcDbLine
 10
203.3188264438201
 20
33.04914123318684
 30
0.0
 11
207.2785841341757
 21
32.93278930534575
 31
0.0
  0
LINE
  5
347D
330
1F
100
AcDbEntity
  8
太線
100
AcDbLine
 10
201.6007960294079
 20
29.37567346223008
 30
0.0
 11
205.3943063610747
 21
29.26420647993228
 31
0.0
  0
LINE
  5
347E
330
1F
100
AcDbEntity
  8
太線
100
AcDbLine
 10
196.8846072864064
 20
49.71812754865521
 30
0.0
 11
204.3480752695095
 21
49.57047728554141
 31
0.0
  0
LINE
  5
347F
330
1F
100
AcDbEntity
  8
太線
100
AcDbLine
 10
192.7274319147998
 20
44.8901879215285
 30
0.0
 11
199.6965688762828
 21
44.75231704054266
 31
0.0
  0
LINE
  5
3480
330
1F
100
AcDbEntity
  8
太線
100
AcDbLine
 10
189.5487165109728
 20
40.1638110111607
 30
0.0
 11
196.2287951396397
 21
40.03165858960864
 31
0.0
  0
LINE
  5
3481
330
1F
100
AcDbEntity
  8
太線
100
AcDbLine
 10
187.006358727718
 20
35.30392534469376
 30
0.0
 11
193.5033568486817
 21
35.17539481650203
 31
0.0
  0
LINE
  5
3482
330
1F
100
AcDbEntity
  8
太線
100
AcDbLine
 10
185.0047067242038
 20
30.20446157968831
 30
0.0
 11
191.3907823511148
 21
30.07812543827071
 31
0.0
  0
LINE
  5
3483
330
1F
100
AcDbEntity
  8
太線
100
AcDbLine
 10
206.4880905663615
 20
39.01858537732647
 30
0.0
 11
211.7077654831185
 21
38.86521254828983
 31
0.0
  0
LINE
  5
3484
330
1F
100
AcDbEntity
  8
太線
100
AcDbLine
 10
205.1847191372303
 20
36.16276046295752
 30
0.0
 11
209.3508688194282
 21
36.04034399581368
 31
0.0
  0
LINE
  5
3485
330
1F
100
AcDbEntity
  8
太線
100
AcDbLine
 10
281.2015408885769
 20
-60.90388623741614
 30
0.0
 11
291.0095895650284
 21
-64.46594439512267
 31
0.0
  0
LINE
  5
3486
330
1F
100
AcDbEntity
  8
太線
100
AcDbLine
 10
284.23153332185
 20
-49.74176617878183
 30
0.0
 11
294.8300029733377
 21
-53.42148829886196
 31
0.0
  0
LINE
  5
3489
330
1F
100
AcDbEntity
  8
太線
100
AcDbLine
 10
281.34804130784
 20
-46.54790627087717
 30
0.0
 11
284.2305459237341
 21
-37.67646926870779
 31
0.0
  0
LINE
  5
348B
330
1F
100
AcDbEntity
  8
太線
100
AcDbLine
 10
282.2582065156674
 20
-54.05274279149728
 30
0.0
 11
282.4165587809953
 21
-54.11645573275198
 31
0.0
  0
LINE
  5
348C
330
1F
100
AcDbEntity
  8
太線
100
AcDbLine
 10
282.7550415523099
 20
-53.18445087763433
 30
0.0
 11
282.5961130512615
 21
-53.12232458874362
 31
0.0
  0
ARC
  5
348E
330
1F
100
AcDbEntity
  8
太線
100
AcDbCircle
 10
291.4737070296535
 20
-59.07250089382242
 30
0.0
 40
5.518313921734797
100
AcDbArc
 50
264.7890974153007
 51
50.30579526594281
  0
LINE
  5
348F
330
1F
100
AcDbEntity
  8
太線
100
AcDbLine
 10
381.6217969096904
 20
-32.06046926870786
 30
0.0
 11
376.0057969096903
 21
-32.06046926870786
 31
0.0
  0
LINE
  5
3490
330
1F
100
AcDbEntity
  8
太線
100
AcDbLine
 10
381.6217969096904
 20
-43.29246926870786
 30
0.0
 11
376.0057969096903
 21
-43.29246926870786
 31
0.0
  0
ARC
  5
3491
330
1F
100
AcDbEntity
  8
想像線
100
AcDbCircle
 10
379.3175477740219
 20
-38.48217020645384
 30
0.0
 40
5.322889483289614
100
AcDbArc
 50
109.4812688484784
 51
269.4612703328922
  0
ARC
  5
3492
330
1F
100
AcDbEntity
  8
太線
100
AcDbCircle
 10
381.6217969096904
 20
-37.67646926870779
 30
0.0
 40
5.616
100
AcDbArc
 50
270.0
 51
90.0
  0
ARC
  5
3494
330
1F
100
AcDbEntity
  8
想像線
100
AcDbCircle
 10
381.9052325300162
 20
66.64943128506934
 30
0.0
 40
5.322889483289614
100
AcDbArc
 50
109.4812688484784
 51
269.4612703328922
  0
ARC
  5
3495
330
1F
100
AcDbEntity
  8
太線
100
AcDbCircle
 10
381.6217969096904
 20
67.15553073129209
 30
0.0
 40
5.616
100
AcDbArc
 50
270.0
 51
90.0
  0
CIRCLE
  5
3497
330
1F
100
AcDbEntity
  8
想像線
100
AcDbCircle
 10
266.6774156629371
 20
-76.15271250608862
 30
0.0
 40
5.77560877326192
  0
LINE
  5
349A
330
1F
100
AcDbEntity
  8
太線
100
AcDbLine
 10
210.5723037220946
 20
-24.47848843364567
 30
0.0
 11
234.9341376202319
 21
-42.13807578038677
 31
0.0
  0
LINE
  5
349B
330
1F
100
AcDbEntity
  8
太線
100
AcDbLine
 10
234.9341376202319
 20
-42.13807578038677
 30
0.0
 11
250.2585149406663
 21
-50.77165150337624
 31
0.0
  0
LINE
  5
349C
330
1F
100
AcDbEntity
  8
太線
100
AcDbLine
 10
250.2585149406663
 20
-50.77165150337624
 30
0.0
 11
265.9758290032491
 21
-56.65818014916363
 31
0.0
  0
LINE
  5
349E
330
1F
100
AcDbEntity
  8
太線
100
AcDbLine
 10
227.4626852045216
 20
-51.71500231805726
 30
0.0
 11
247.5289485886696
 21
-60.30394019439405
 31
0.0
  0
LINE
  5
349F
330
1F
100
AcDbEntity
  8
太線
100
AcDbLine
 10
247.5289485886696
 20
-60.30394019439405
 30
0.0
 11
263.0086410595545
 21
-67.17509190484247
 31
0.0
  0
ARC
  5
34EF
330
1F
100
AcDbEntity
  8
太線
100
AcDbCircle
 10
287.2576269552506
 20
-45.73171694233379
 30
0.0
 40
17.975544369228
100
AcDbArc
 50
93.80218272541428
 51
143.9095953068476
  0
LINE
  5
34F0
330
1F
100
AcDbEntity
  8
太線
100
AcDbLine
 10
285.1460589344101
 20
-28.25494299756042
 30
0.0
 11
383.0808160000156
 21
-32.38779141713644
 31
0.0
  0
LINE
  5
34F1
330
1F
100
AcDbEntity
  8
太線
100
AcDbLine
 10
379.8623024558864
 20
-43.4087210057994
 30
0.0
 11
287.9047848293776
 21
-38.35746213951256
 31
0.0
  0
ARC
  5
34F2
330
1F
100
AcDbEntity
  8
太線
100
AcDbCircle
 10
285.5521158594115
 20
-40.42617567902575
 30
0.0
 40
3.132830507832572
100
AcDbArc
 50
41.32532710024853
 51
136.3746485372817
  0
LINE
  5
3514
330
1F
100
AcDbEntity
  8
太線
100
AcDbLine
 10
208.7761702017009
 20
-36.71806496370646
 30
0.0
 11
227.4626852045216
 21
-51.71500231805726
 31
0.0
  0
LWPOLYLINE
  5
351C
330
1F
100
AcDbEntity
  8
太線
100
AcDbPolyline
 90
        6
 70
     1
 43
0.0
 10
465.0961457488476
 20
233.3936219354681
 10
468.5602473639853
 20
239.3936219354681
 10
465.0961457488476
 20
245.3936219354681
 10
458.1679425185719
 20
245.3936219354682
 10
454.7038409034342
 20
239.3936219354682
 10
458.1679425185719
 20
233.3936219354682
  0
CIRCLE
  5
351F
330
1F
100
AcDbEntity
  8
想像線
100
AcDbCircle
 10
461.6320441337098
 20
239.3936219354682
 30
0.0
 40
2.884954634702777
  0
CIRCLE
  5
3520
330
1F
100
AcDbEntity
  8
太線
100
AcDbCircle
 10
461.6320441337098
 20
239.3936219354682
 30
0.0
 40
3.599999999999999
  0
CIRCLE
  5
3524
330
1F
100
AcDbEntity
  8
太線
100
AcDbCircle
 10
461.6320441337098
 20
239.3936219354682
 30
0.0
 40
8.368299507470963
  0
LINE
  5
352A
330
1F
100
AcDbEntity
  8
太線
100
AcDbLine
 10
317.8696843992474
 20
-74.56037816994353
 30
0.0
 11
317.5715361725851
 21
-74.26246484016065
 31
0.0
  0
LINE
  5
352D
330
1F
100
AcDbEntity
  8
太線
100
AcDbLine
 10
297.7910803572429
 20
-82.17624957723979
 30
0.0
 11
289.8437275846145
 21
-79.02907323440286
 31
0.0
  0
LINE
  5
352E
330
1F
100
AcDbEntity
  8
太線
100
AcDbLine
 10
296.9992914358849
 20
-84.39150706763962
 30
0.0
 11
302.9622623805066
 21
-67.70837890836332
 31
0.0
  0
LINE
  5
352F
330
1F
100
AcDbEntity
  8
太線
100
AcDbLine
 10
302.9622623805066
 20
-67.70837890836332
 30
0.0
 11
316.9752397192605
 21
-73.66663940116587
 31
0.0
  0
LINE
  5
3530
330
1F
100
AcDbEntity
  8
太線
100
AcDbLine
 10
296.9992914358849
 20
-84.39150706763962
 30
0.0
 11
311.3104191384268
 21
-89.75394090087638
 31
0.0
  0
ARC
  5
3532
330
1F
100
AcDbEntity
  8
太線
100
AcDbCircle
 10
309.1883981493097
 20
-79.82519305954065
 30
0.0
 40
10.15298019179996
100
AcDbArc
 50
282.0640338733184
 51
31.2349528059494
  0
LINE
  5
3536
330
1F
100
AcDbEntity
  8
太線
100
AcDbLine
 10
173.146071394106
 20
244.3167446781661
 30
0.0
 11
181.399347417616
 21
242.2648626380668
 31
0.0
  0
LINE
  5
3537
330
1F
100
AcDbEntity
  8
太線
100
AcDbLine
 10
181.399347417616
 20
242.2648626380668
 30
0.0
 11
175.6030773984701
 21
225.4458708128755
 31
0.0
  0
LINE
  5
3538
330
1F
100
AcDbEntity
  8
太線
100
AcDbLine
 10
175.6030773984701
 20
225.4458708128755
 30
0.0
 11
167.9079104397439
 21
227.7944534001996
 31
0.0
  0
LINE
  5
3539
330
1F
100
AcDbEntity
  8
太線
100
AcDbLine
 10
179.4909821816003
 20
237.1307858525951
 30
0.0
 11
172.1433535280995
 21
239.3732982982525
 31
0.0
  0
LINE
  5
353A
330
1F
100
AcDbEntity
  8
太線
100
AcDbLine
 10
176.6161986518851
 20
230.6835644972018
 30
0.0
 11
169.5798370403794
 21
232.6304032154005
 31
0.0
  0
LINE
  5
353B
330
1F
100
AcDbEntity
  8
太線
100
AcDbLine
 10
182.7495447035427
 20
227.4876682604902
 30
0.0
 11
185.8289588004985
 21
236.369517053336
 31
0.0
  0
LINE
  5
353C
330
1F
100
AcDbEntity
  8
太線
100
AcDbLine
 10
185.8289588004985
 20
236.369517053336
 30
0.0
 11
194.4494856896316
 21
233.0109807109043
 31
0.0
  0
LINE
  5
353D
330
1F
100
AcDbEntity
  8
太線
100
AcDbLine
 10
182.7425895141757
 20
227.7626153708822
 30
0.0
 11
190.798880224502
 21
224.940051953071
 31
0.0
  0
ARC
  5
353E
330
1F
100
AcDbEntity
  8
太線
100
AcDbCircle
 10
190.4656191100731
 20
229.9518680274499
 30
0.0
 40
5.022883965790357
100
AcDbArc
 50
273.8042870731212
 51
37.51976771534437
  0
ARC
  5
3547
330
1F
100
AcDbEntity
  8
太線
100
AcDbCircle
 10
197.5279467740142
 20
320.8995962156734
 30
0.0
 40
54.42328863189078
100
AcDbArc
 50
57.80143283695885
 51
122.1985671630411
  0
LINE
  5
3548
330
1F
100
AcDbEntity
  8
太線
100
AcDbLine
 10
226.5276744716127
 20
366.9529363657129
 30
0.0
 11
226.5276744716127
 21
350.7324568591361
 31
0.0
  0
LINE
  5
354A
330
1F
100
AcDbEntity
  8
太線
100
AcDbLine
 10
168.5282190764158
 20
350.7324568591361
 30
0.0
 11
168.5282190764159
 21
366.9529363657129
 31
0.0
  0
ARC
  5
354B
330
1F
100
AcDbEntity
  8
太線
100
AcDbCircle
 10
197.5279467740143
 20
838.1003278004136
 30
0.0
 40
472.039032985894
100
AcDbArc
 50
266.4778146253141
 51
273.5221853746858
  0
ARC
  5
354C
330
1F
100
AcDbEntity
  8
太線
100
AcDbCircle
 10
197.5279467740143
 20
502.9674944486949
 30
0.0
 40
158.6696602869857
100
AcDbArc
 50
259.468973553102
 51
280.531026446898
  0
CIRCLE
  5
354D
330
1F
100
AcDbEntity
  8
太線
100
AcDbCircle
 10
195.3373430187778
 20
351.2133778971239
 30
0.0
 40
4.649334581346238
  0
LINE
  5
354E
330
1F
100
AcDbEntity
  8
太線
100
AcDbLine
 10
193.0638959518813
 20
351.1156710593617
 30
0.0
 11
197.5586309758712
 21
350.6166500899228
 31
0.0
  0
LINE
  5
354F
330
1F
100
AcDbEntity
  8
太線
100
AcDbLine
 10
195.5609709652089
 20
353.6107743198145
 30
0.0
 11
195.0615559625435
 21
349.1195887683479
 31
0.0
  0
LINE
  5
3550
330
1F
100
AcDbEntity
  8
太線
100
AcDbLine
 10
226.5276744716127
 20
346.9704531656866
 30
0.0
 11
226.5276744716127
 21
350.7324568591361
 31
0.0
  0
LINE
  5
3551
330
1F
100
AcDbEntity
  8
太線
100
AcDbLine
 10
168.528219076416
 20
346.9704531656866
 30
0.0
 11
168.5282190764158
 21
350.7324568591361
 31
0.0
  0
DIMENSION
  5
3574
330
1F
100
AcDbEntity
  8
寸法線
100
AcDbDimension
  2
*D11
 10
388.0460770217246
 20
121.6307760995866
 30
0.0
 11
282.8037108819507
 21
127.6317603515551
 31
0.0
 70
    32
  1
約120
 71
     5
 42
210.4847322795476
  3
sunpo
100
AcDbAlignedDimension
 13
177.5613447421769
 23
20.75787021401674
 33
0.0
 14
388.0460770217246
 24
20.75787021401674
 34
0.0
100
AcDbRotatedDimension
1001
ACAD
1000
DSTYLE
1002
{
1070
   140
1040
10.0
1070
    40
1040
1.0
1002
}
  0
DIMENSION
  5
3581
330
1F
100
AcDbEntity
  8
寸法線
100
AcDbDimension
  2
*D12
 10
427.8675136307779
 20
-37.49268187117378
 30
0.0
 11
421.8675136307779
 21
14.0093303454708
 31
0.0
 70
    32
  1
約90
 71
     5
 42
103.004024433289
  3
sunpo
100
AcDbAlignedDimension
 13
382.3573011055778
 23
65.51134256211526
 33
0.0
 14
382.3573011055778
 24
-37.49268187117377
 34
0.0
 50
90.0
100
AcDbRotatedDimension
1001
ACAD
1000
DSTYLE
1002
{
1070
   140
1040
10.0
1070
    40
1040
1.0
1002
}
  0
DIMENSION
  5
3590
330
1F
100
AcDbEntity
  8
寸法線
100
AcDbDimension
  2
*D13
 10
386.3007135861021
 20
-68.9651608413817
 30
0.0
 11
380.3973937421403
 21
-62.9651608413817
 31
0.0
 70
    32
  1
5
 71
     5
 42
11.8066396879235
  3
sunpo
100
AcDbAlignedDimension
 13
374.4940738981786
 23
-40.13389190518615
 33
0.0
 14
386.3007135861021
 24
-40.13389190518615
 34
0.0
100
AcDbRotatedDimension
1001
ACAD
1000
DSTYLE
1002
{
1070
   140
1040
10.0
1070
    40
1040
1.0
1002
}
  0
LEADER
  5
359E
330
1F
100
AcDbEntity
  8
寸法線
100
AcDbLeader
  3
sunpo
 76
     2
 10
257.0836077967469
 20
-61.75734360733281
 30
0.0
 10
221.6636913309889
 20
-81.41502685296268
 30
0.0
1001
ACAD
1000
DSTYLE
1002
{
1070
   147
1040
1.0
1070
    77
1070
     0
1002
}
  0
TEXT
  5
35CC
330
1F
100
AcDbEntity
  8
文字
100
AcDbText
 10
204.8517458679859
 20
-94.01327786458978
 30
0.0
 40
10.0
  1
Ｍ6
 51
15.0
  7
OKANO
100
AcDbText
  0
TEXT
  5
35F1
330
1F
100
AcDbEntity
  8
文字
100
AcDbText
 10
300.299723153674
 20
-117.8564749399479
 30
0.0
 40
10.0
  1
ゴム安全キャップ
 51
15.0
  7
OKANO
100
AcDbText
  0
LEADER
  5
35F2
330
1F
100
AcDbEntity
  8
寸法線
100
AcDbLeader
  3
sunpo
 76
     2
 10
308.4317559683873
 20
-82.97068132169124
 30
0.0
 10
329.4303117506428
 20
-105.8601513585399
 30
0.0
1001
ACAD
1000
DSTYLE
1002
{
1070
   147
1040
1.0
1070
    77
1070
     0
1002
}
  0
VIEWPORT
  5
2E
330
1B
100
AcDbEntity
 67
     1
  8
0
100
AcDbViewport
 10
277.4278605738991
 20
159.0018867556224
 30
0.0
 40
713.2278666349896
 41
362.2506129800473
 68
     2
 69
     1
 12
277.4278605738991
 22
159.0018867556224
 13
0.0
 23
0.0
 14
10.0
 24
10.0
 15
10.0
 25
10.0
 16
0.0
 26
0.0
 36
1.0
 17
0.0
 27
0.0
 37
0.0
 42
50.0
 43
0.0
 44
0.0
 45
362.2506129800473
 50
0.0
 51
0.0
 72
   100
 90
    32800
  1

281
     0
 71
     1
 74
     0
110
0.0
120
0.0
130
0.0
111
1.0
121
0.0
131
0.0
112
0.0
122
1.0
132
0.0
 79
     0
146
0.0
  0
VIEWPORT
  5
30
330
1B
100
AcDbEntity
 67
     1
  8
70-0-CON
100
AcDbViewport
 10
141.8594093064315
 20
100.3480256368386
 30
0.0
 40
261.6199023344245
 41
192.6196987113174
 68
     1
 69
     2
 12
339.2722267914156
 22
145.1587132028566
 13
0.0
 23
0.0
 14
5.0
 24
5.0
 15
10.0
 25
10.0
 16
0.0
 26
0.0
 36
1.0
 17
0.0
 27
0.0
 37
0.0
 42
50.0
 43
0.0
 44
0.0
 45
556.5688956450201
 50
0.0
 51
0.0
 72
   100
 90
    32864
  1

281
     0
 71
     1
 74
     0
110
0.0
120
0.0
130
0.0
111
1.0
121
0.0
131
0.0
112
0.0
122
1.0
132
0.0
 79
     0
146
0.0
  0
LWPOLYLINE
  5
45
330
1B
100
AcDbEntity
 67
     1
  8
50-0-CON
100
AcDbPolyline
 90
        4
 70
     1
 43
0.0
 10
11.04945813921926
 20
4.038176281179858
 10
272.2125713060605
 20
4.033520706629644
 10
273.4987754093466
 20
195.9297862125246
 10
11.04945813921926
 20
196.6578749924973
  0
LINE
  5
4A
330
1B
100
AcDbEntity
 67
     1
  8
50-0-CON
100
AcDbLine
 10
10.38768783662635
 20
100.3480256368386
 30
0.0
 11
-4.391850629656119
 21
100.3480256368386
 31
0.0
  0
LINE
  5
4B
330
1B
100
AcDbEntity
 67
     1
  8
50-0-CON
100
AcDbLine
 10
141.8594093064315
 20
197.098652626247
 30
0.0
 11
141.8594093064315
 21
202.387980773708
 31
0.0
  0
LINE
  5
4C
330
1B
100
AcDbEntity
 67
     1
  8
50-0-CON
100
AcDbLine
 10
272.4487699456857
 20
100.7888032705883
 30
0.0
 11
278.8458837249377
 21
100.7888032705883
 31
0.0
  0
LINE
  5
4D
330
1B
100
AcDbEntity
 67
     1
  8
50-0-CON
100
AcDbLine
 10
140.9770484758805
 20
4.038176281179858
 30
0.0
 11
140.9770484758805
 21
-3.455038652015446
 31
0.0
  0
ENDSEC
  0
SECTION
  2
OBJECTS
  0
DICTIONARY
  5
C
330
0
100
AcDbDictionary
281
     1
  3
ACAD_GROUP
350
D
  3
ACAD_LAYOUT
350
1A
  3
ACAD_MLINESTYLE
350
17
  3
ACAD_PLOTSETTINGS
350
19
  3
ACAD_PLOTSTYLENAME
350
E
  3
AcadDim
350
358F
  3
AcDbVariableDictionary
350
6AD
  3
DWGPROPS
350
30F
  0
DICTIONARY
  5
D
102
{ACAD_REACTORS
330
C
102
}
330
C
100
AcDbDictionary
281
     1
  0
DICTIONARY
  5
1A
102
{ACAD_REACTORS
330
C
102
}
330
C
100
AcDbDictionary
281
     1
  3
A4
350
1E
  3
Model
350
22
  0
DICTIONARY
  5
17
102
{ACAD_REACTORS
330
C
102
}
330
C
100
AcDbDictionary
281
     1
  3
Standard
350
18
  0
DICTIONARY
  5
19
102
{ACAD_REACTORS
330
C
102
}
330
C
100
AcDbDictionary
281
     1
  0
ACDBDICTIONARYWDFLT
  5
E
102
{ACAD_REACTORS
330
C
102
}
330
C
100
AcDbDictionary
281
     1
  3
Normal
350
F
100
AcDbDictionaryWithDefault
340
F
  0
XRECORD
  5
358F
102
{ACAD_REACTORS
330
C
102
}
330
C
100
AcDbXrecord
280
     1
 90
   990106
  3

 60
     0
 61
     0
 62
     1
 63
     3
 64
     0
 65
     0
 66
     0
 67
     3
 68
     1
 69
     0
 70
     0
 71
     0
 72
     0
 40
0.9544814615651375
170
     0
  0
DICTIONARY
  5
6AD
102
{ACAD_REACTORS
330
C
102
}
330
C
100
AcDbDictionary
281
     1
  3
SORTENTS
350
6AE
  0
XRECORD
  5
30F
102
{ACAD_REACTORS
330
C
102
}
330
C
100
AcDbXrecord
280
     1
  1
DWGPROPS COOKIE
  2

  3

  4

  6

  7

  8

  9

300
=
301
=
302
=
303
=
304
=
305
=
306
=
307
=
308
=
309
=
 40
0.3303803125
 41
2452362.482225463
 42
2452370.969861285
  1

 90
        0
  0
LAYOUT
  5
1E
102
{ACAD_REACTORS
330
1A
102
}
330
1A
100
AcDbPlotSettings
  1

  2
EPSON PM-920C
  4
A4
  6

 40
3.757083177566528
 41
14.7637300491333
 42
3.757080078125
 43
3.757080078125
 44
209.9733276367187
 45
296.9683227539062
 46
0.0
 47
0.0
 48
0.0
 49
0.0
140
0.0
141
0.0
142
1.0
143
1.0
 70
   688
 72
     1
 73
     1
 74
     5
  7
joint.ctb
 75
    16
147
1.0
148
0.0
149
0.0
100
AcDbLayout
  1
A4
 70
     1
 71
     1
 10
-3.757080078125
 20
-3.757083177566528
 11
293.2112426757812
 21
206.2162444591522
 12
0.0
 22
0.0
 32
0.0
 14
-4.400932062405672
 24
-3.459116387827521
 34
-0.0015258207003583
 15
278.8478616361952
 25
202.393946056399
 35
0.0000000349246037
146
0.0
 13
0.0
 23
0.0
 33
0.0
 16
1.0
 26
0.0
 36
0.0
 17
0.0
 27
1.0
 37
0.0
 76
     0
330
1B
331
30
  0
LAYOUT
  5
22
102
{ACAD_REACTORS
330
1A
102
}
330
1A
100
AcDbPlotSettings
  1

  2
EPSON PM-920C
  4
A4
  6

 40
3.757083177566528
 41
14.7637300491333
 42
3.757080078125
 43
3.757080078125
 44
209.9733276367187
 45
296.9683227539062
 46
0.0
 47
0.0
 48
0.0
 49
0.0
140
0.0
141
0.0
142
1.0
143
1.0
 70
 11952
 72
     1
 73
     1
 74
     0
  7

 75
     0
147
1.0
148
-45.64199848979289
149
-84.48806419330498
100
AcDbLayout
  1
Model
 70
     1
 71
     0
 10
0.0
 20
0.0
 11
12.0
 21
9.0
 12
0.0
 22
0.0
 32
0.0
 14
0.0
 24
0.0
 34
0.0
 15
0.0
 25
0.0
 35
0.0
146
0.0
 13
0.0
 23
0.0
 33
0.0
 16
1.0
 26
0.0
 36
0.0
 17
0.0
 27
1.0
 37
0.0
 76
     0
330
1F
  0
MLINESTYLE
  5
18
102
{ACAD_REACTORS
330
17
102
}
330
17
100
AcDbMlineStyle
  2
STANDARD
 70
     0
  3

 62
   256
 51
90.0
 52
90.0
 71
     2
 49
0.5
 62
   256
  6
BYLAYER
 49
-0.5
 62
   256
  6
BYLAYER
  0
ACDBPLACEHOLDER
  5
F
102
{ACAD_REACTORS
330
E
102
}
330
E
  0
DICTIONARYVAR
  5
6AE
102
{ACAD_REACTORS
330
6AD
102
}
330
6AD
100
DictionaryVariables
280
     0
  1
96
  0
ENDSEC
  0
EOF
