  0
SECTION
  2
HEADER
  9
$ACADVER
  1
AC1015
  9
$ACADMAINTVER
 70
     6
  9
$DWGCODEPAGE
  3
ANSI_932
  9
$INSBASE
 10
0.0
 20
0.0
 30
0.0
  9
$EXTMIN
 10
-324.6374582376022
 20
-120.668800370654
 30
-0.00000001
  9
$EXTMAX
 10
3115.778640757371
 20
877.2420216752516
 30
0.00000001
  9
$LIMMIN
 10
0.0
 20
0.0
  9
$LIMMAX
 10
420.0
 20
297.0
  9
$ORTHOMODE
 70
     0
  9
$REGENMODE
 70
     1
  9
$FILLMODE
 70
     1
  9
$QTEXTMODE
 70
     0
  9
$MIRRTEXT
 70
     1
  9
$LTSCALE
 40
1.0
  9
$ATTMODE
 70
     1
  9
$TEXTSIZE
 40
5.0
  9
$TRACEWID
 40
1.0
  9
$TEXTSTYLE
  7
OKANO
  9
$CLAYER
  8
構築線
  9
$CELTYPE
  6
ByLayer
  9
$CECOLOR
 62
   256
  9
$CELTSCALE
 40
1.0
  9
$DISPSILH
 70
     0
  9
$DIMSCALE
 40
0.0
  9
$DIMASZ
 40
3.0
  9
$DIMEXO
 40
2.0
  9
$DIMDLI
 40
8.0
  9
$DIMRND
 40
0.0
  9
$DIMDLE
 40
0.0
  9
$DIMEXE
 40
3.0
  9
$DIMTP
 40
0.0
  9
$DIMTM
 40
0.0
  9
$DIMTXT
 40
5.0
  9
$DIMCEN
 40
2.5
  9
$DIMTSZ
 40
0.0
  9
$DIMTOL
 70
     0
  9
$DIMLIM
 70
     0
  9
$DIMTIH
 70
     0
  9
$DIMTOH
 70
     0
  9
$DIMSE1
 70
     0
  9
$DIMSE2
 70
     0
  9
$DIMTAD
 70
     1
  9
$DIMZIN
 70
     8
  9
$DIMBLK
  1
Closed
  9
$DIMASO
 70
     1
  9
$DIMSHO
 70
     1
  9
$DIMPOST
  1

  9
$DIMAPOST
  1

  9
$DIMALT
 70
     0
  9
$DIMALTD
 70
     3
  9
$DIMALTF
 40
0.03937007874016
  9
$DIMLFAC
 40
1.0
  9
$DIMTOFL
 70
     1
  9
$DIMTVP
 40
0.0
  9
$DIMTIX
 70
     0
  9
$DIMSOXD
 70
     0
  9
$DIMSAH
 70
     0
  9
$DIMBLK1
  1

  9
$DIMBLK2
  1

  9
$DIMSTYLE
  2
sunpo
  9
$DIMCLRD
 70
     0
  9
$DIMCLRE
 70
     0
  9
$DIMCLRT
 70
     0
  9
$DIMTFAC
 40
1.0
  9
$DIMGAP
 40
1.0
  9
$DIMJUST
 70
     0
  9
$DIMSD1
 70
     0
  9
$DIMSD2
 70
     0
  9
$DIMTOLJ
 70
     0
  9
$DIMTZIN
 70
     8
  9
$DIMALTZ
 70
     0
  9
$DIMALTTZ
 70
     0
  9
$DIMUPT
 70
     0
  9
$DIMDEC
 70
     2
  9
$DIMTDEC
 70
     2
  9
$DIMALTU
 70
     2
  9
$DIMALTTD
 70
     3
  9
$DIMTXSTY
  7
OKANO
  9
$DIMAUNIT
 70
     0
  9
$DIMADEC
 70
     0
  9
$DIMALTRND
 40
0.0
  9
$DIMAZIN
 70
     0
  9
$DIMDSEP
 70
    46
  9
$DIMATFIT
 70
     3
  9
$DIMFRAC
 70
     0
  9
$DIMLDRBLK
  1
Closed
  9
$DIMLUNIT
 70
     2
  9
$DIMLWD
 70
    -2
  9
$DIMLWE
 70
    -2
  9
$DIMTMOVE
 70
     0
  9
$LUNITS
 70
     2
  9
$LUPREC
 70
     2
  9
$SKETCHINC
 40
1.0
  9
$FILLETRAD
 40
2.0
  9
$AUNITS
 70
     0
  9
$AUPREC
 70
     0
  9
$MENU
  1
.
  9
$ELEVATION
 40
0.0
  9
$PELEVATION
 40
0.0
  9
$THICKNESS
 40
0.0
  9
$LIMCHECK
 70
     0
  9
$CHAMFERA
 40
10.0
  9
$CHAMFERB
 40
10.0
  9
$CHAMFERC
 40
20.0
  9
$CHAMFERD
 40
0.0
  9
$SKPOLY
 70
     0
  9
$TDCREATE
 40
2452362.482225463
  9
$TDUCREATE
 40
2452362.107225463
  9
$TDUPDATE
 40
2455968.421227546
  9
$TDUUPDATE
 40
2455968.046227546
  9
$TDINDWG
 40
3.3189176157
  9
$TDUSRTIMER
 40
3.3189176157
  9
$USRTIMER
 70
     1
  9
$ANGBASE
 50
0.0
  9
$ANGDIR
 70
     0
  9
$PDMODE
 70
     0
  9
$PDSIZE
 40
0.0
  9
$PLINEWID
 40
0.0
  9
$SPLFRAME
 70
     0
  9
$SPLINETYPE
 70
     6
  9
$SPLINESEGS
 70
     8
  9
$HANDSEED
  5
4C00
  9
$SURFTAB1
 70
     6
  9
$SURFTAB2
 70
     6
  9
$SURFTYPE
 70
     6
  9
$SURFU
 70
     6
  9
$SURFV
 70
     6
  9
$UCSBASE
  2

  9
$UCSNAME
  2

  9
$UCSORG
 10
0.0
 20
0.0
 30
0.0
  9
$UCSXDIR
 10
1.0
 20
0.0
 30
0.0
  9
$UCSYDIR
 10
0.0
 20
1.0
 30
0.0
  9
$UCSORTHOREF
  2

  9
$UCSORTHOVIEW
 70
     0
  9
$UCSORGTOP
 10
0.0
 20
0.0
 30
0.0
  9
$UCSORGBOTTOM
 10
0.0
 20
0.0
 30
0.0
  9
$UCSORGLEFT
 10
0.0
 20
0.0
 30
0.0
  9
$UCSORGRIGHT
 10
0.0
 20
0.0
 30
0.0
  9
$UCSORGFRONT
 10
0.0
 20
0.0
 30
0.0
  9
$UCSORGBACK
 10
0.0
 20
0.0
 30
0.0
  9
$PUCSBASE
  2

  9
$PUCSNAME
  2

  9
$PUCSORG
 10
0.0
 20
0.0
 30
0.0
  9
$PUCSXDIR
 10
1.0
 20
0.0
 30
0.0
  9
$PUCSYDIR
 10
0.0
 20
1.0
 30
0.0
  9
$PUCSORTHOREF
  2

  9
$PUCSORTHOVIEW
 70
     0
  9
$PUCSORGTOP
 10
0.0
 20
0.0
 30
0.0
  9
$PUCSORGBOTTOM
 10
0.0
 20
0.0
 30
0.0
  9
$PUCSORGLEFT
 10
0.0
 20
0.0
 30
0.0
  9
$PUCSORGRIGHT
 10
0.0
 20
0.0
 30
0.0
  9
$PUCSORGFRONT
 10
0.0
 20
0.0
 30
0.0
  9
$PUCSORGBACK
 10
0.0
 20
0.0
 30
0.0
  9
$USERI1
 70
     0
  9
$USERI2
 70
     0
  9
$USERI3
 70
     0
  9
$USERI4
 70
     0
  9
$USERI5
 70
     0
  9
$USERR1
 40
0.0
  9
$USERR2
 40
0.0
  9
$USERR3
 40
0.0
  9
$USERR4
 40
0.0
  9
$USERR5
 40
0.0
  9
$WORLDVIEW
 70
     1
  9
$SHADEDGE
 70
     3
  9
$SHADEDIF
 70
    70
  9
$TILEMODE
 70
     0
  9
$MAXACTVP
 70
    64
  9
$PINSBASE
 10
0.0
 20
0.0
 30
0.0
  9
$PLIMCHECK
 70
     0
  9
$PEXTMIN
 10
-4.391850629656119
 20
-3.455038652015446
 30
0.0
  9
$PEXTMAX
 10
278.8458837249377
 20
202.387980773708
 30
0.0
  9
$PLIMMIN
 10
-3.757080078125
 20
-3.757083177566528
  9
$PLIMMAX
 10
293.2112426757812
 20
206.2162444591522
  9
$UNITMODE
 70
     0
  9
$VISRETAIN
 70
     1
  9
$PLINEGEN
 70
     0
  9
$PSLTSCALE
 70
     1
  9
$TREEDEPTH
 70
  3020
  9
$CMLSTYLE
  2
Standard
  9
$CMLJUST
 70
     0
  9
$CMLSCALE
 40
20.0
  9
$PROXYGRAPHICS
 70
     1
  9
$MEASUREMENT
 70
     1
  9
$CELWEIGHT
370
    -1
  9
$ENDCAPS
280
     0
  9
$JOINSTYLE
280
     0
  9
$LWDISPLAY
290
     0
  9
$INSUNITS
 70
     4
  9
$HYPERLINKBASE
  1

  9
$STYLESHEET
  1

  9
$XEDIT
290
     1
  9
$CEPSNTYPE
380
     0
  9
$PSTYLEMODE
290
     1
  9
$FINGERPRINTGUID
  2
{FF7F33C3-4233-11D6-AEE0-0000F45FD7F4}
  9
$VERSIONGUID
  2
{2BCA6DCE-4F1F-4ABA-90BD-A0D827208D28}
  9
$EXTNAMES
290
     1
  9
$PSVPSCALE
 40
0.0
  9
$OLESTARTUP
290
     0
  0
ENDSEC
  0
SECTION
  2
CLASSES
  0
CLASS
  1
ACDBDICTIONARYWDFLT
  2
AcDbDictionaryWithDefault
  3
AutoCAD 2000
 90
        0
280
     0
281
     0
  0
CLASS
  1
ACDBPLACEHOLDER
  2
AcDbPlaceHolder
  3
AutoCAD 2000
 90
        0
280
     0
281
     0
  0
CLASS
  1
LAYOUT
  2
AcDbLayout
  3
AutoCAD 2000
 90
        0
280
     0
281
     0
  0
CLASS
  1
DICTIONARYVAR
  2
AcDbDictionaryVar
  3
AutoCAD 2000
 90
        0
280
     0
281
     0
  0
ENDSEC
  0
SECTION
  2
TABLES
  0
TABLE
  2
VPORT
  5
8
330
0
100
AcDbSymbolTable
 70
     4
  0
VPORT
  5
4BFF
330
8
100
AcDbSymbolTableRecord
100
AcDbViewportTableRecord
  2
*Active
 70
     0
 10
0.0
 20
0.0
 11
1.0
 21
1.0
 12
1959.87857083749
 22
453.9504605090114
 13
0.0
 23
0.0
 14
5.0
 24
5.0
 15
10.0
 25
10.0
 16
0.0
 26
0.0
 36
1.0
 17
0.0
 27
0.0
 37
0.0
 40
5452.682362950445
 41
1.968879668049792
 42
50.0
 43
0.0
 44
0.0
 50
0.0
 51
0.0
 71
     0
 72
   100
 73
     1
 74
     3
 75
     0
 76
     0
 77
     0
 78
     0
281
     0
 65
     1
110
0.0
120
0.0
130
0.0
111
1.0
121
0.0
131
0.0
112
0.0
122
1.0
132
0.0
 79
     0
146
0.0
  0
ENDTAB
  0
TABLE
  2
LTYPE
  5
5
330
0
100
AcDbSymbolTable
 70
     5
  0
LTYPE
  5
14
330
5
100
AcDbSymbolTableRecord
100
AcDbLinetypeTableRecord
  2
ByBlock
 70
     0
  3

 72
    65
 73
     0
 40
0.0
  0
LTYPE
  5
15
330
5
100
AcDbSymbolTableRecord
100
AcDbLinetypeTableRecord
  2
ByLayer
 70
     0
  3

 72
    65
 73
     0
 40
0.0
  0
LTYPE
  5
16
330
5
100
AcDbSymbolTableRecord
100
AcDbLinetypeTableRecord
  2
Continuous
 70
     0
  3
Solid line
 72
    65
 73
     0
 40
0.0
  0
LTYPE
  5
33
330
5
100
AcDbSymbolTableRecord
100
AcDbLinetypeTableRecord
  2
DASHED2
 70
     0
  3
Dashed (.5x) _ _ _ _ _ _ _ _ _ _ _ _ _ _ _ _ _
 72
    65
 73
     2
 40
9.524999999999998
 49
6.349999999999999
 74
     0
 49
-3.174999999999999
 74
     0
  0
LTYPE
  5
34
330
5
100
AcDbSymbolTableRecord
100
AcDbLinetypeTableRecord
  2
CENTER2
 70
     0
  3
Center (.5x) ___ _ ___ _ ___ _ ___ _ ___ _ ___
 72
    65
 73
     4
 40
28.57499999999999
 49
19.05
 74
     0
 49
-3.174999999999999
 74
     0
 49
3.174999999999999
 74
     0
 49
-3.174999999999999
 74
     0
  0
LTYPE
  5
35
330
5
100
AcDbSymbolTableRecord
100
AcDbLinetypeTableRecord
  2
PHANTOM2
 70
     0
  3
Phantom (.5x) ___ _ _ ___ _ _ ___ _ _ ___ _ _
 72
    65
 73
     6
 40
31.75
 49
15.875
 74
     0
 49
-3.174999999999999
 74
     0
 49
3.174999999999999
 74
     0
 49
-3.174999999999999
 74
     0
 49
3.174999999999999
 74
     0
 49
-3.174999999999999
 74
     0
  0
LTYPE
  5
36
330
5
100
AcDbSymbolTableRecord
100
AcDbLinetypeTableRecord
  2
HIDDEN2
 70
     0
  3
Hidden (.5x) _ _ _ _ _ _ _ _ _ _ _ _ _ _ _ _ _
 72
    65
 73
     2
 40
4.762499999999999
 49
3.174999999999999
 74
     0
 49
-1.587499999999999
 74
     0
  0
ENDTAB
  0
TABLE
  2
LAYER
  5
2
330
0
100
AcDbSymbolTable
 70
    13
  0
LAYER
  5
10
330
2
100
AcDbSymbolTableRecord
100
AcDbLayerTableRecord
  2
0
 70
     0
 62
     7
  6
Continuous
370
    -3
390
F
  0
LAYER
  5
40
330
2
100
AcDbSymbolTableRecord
100
AcDbLayerTableRecord
  2
50-0-CON
 70
     0
 62
     4
  6
Continuous
370
    50
390
F
  0
LAYER
  5
41
330
2
100
AcDbSymbolTableRecord
100
AcDbLayerTableRecord
  2
70-0-CON
 70
     0
 62
   202
  6
Continuous
370
    70
390
F
  0
LAYER
  5
4E
330
2
100
AcDbSymbolTableRecord
100
AcDbLayerTableRecord
  2
極太線
 70
     0
 62
     7
  6
Continuous
370
    70
390
F
  0
LAYER
  5
4F
330
2
100
AcDbSymbolTableRecord
100
AcDbLayerTableRecord
  2
細線
 70
     0
 62
     8
  6
Continuous
370
    18
390
F
  0
LAYER
  5
AB
330
2
100
AcDbSymbolTableRecord
100
AcDbLayerTableRecord
  2
構築線
 70
     0
 62
     2
  6
Continuous
370
    18
390
F
  0
LAYER
  5
B8
330
2
100
AcDbSymbolTableRecord
100
AcDbLayerTableRecord
  2
太線
 70
     0
 62
     7
  6
Continuous
370
    35
390
F
  0
LAYER
  5
B9
330
2
100
AcDbSymbolTableRecord
100
AcDbLayerTableRecord
  2
寸法線
 70
     0
 62
     5
  6
Continuous
370
    18
390
F
  0
LAYER
  5
BA
330
2
100
AcDbSymbolTableRecord
100
AcDbLayerTableRecord
  2
破線
 70
     0
 62
     8
  6
HIDDEN2
370
    18
390
F
  0
LAYER
  5
BB
330
2
100
AcDbSymbolTableRecord
100
AcDbLayerTableRecord
  2
中心線
 70
     0
 62
     1
  6
CENTER2
370
    18
390
F
  0
LAYER
  5
BC
330
2
100
AcDbSymbolTableRecord
100
AcDbLayerTableRecord
  2
想像線
 70
     0
 62
     8
  6
PHANTOM2
370
    18
390
F
  0
LAYER
  5
BD
330
2
100
AcDbSymbolTableRecord
100
AcDbLayerTableRecord
  2
文字
 70
     0
 62
     7
  6
Continuous
370
    18
390
F
  0
LAYER
  5
180
330
2
100
AcDbSymbolTableRecord
100
AcDbLayerTableRecord
  2
Defpoints
 70
     0
 62
     7
  6
Continuous
290
     0
370
    -3
390
F
  0
ENDTAB
  0
TABLE
  2
STYLE
  5
3
330
0
100
AcDbSymbolTable
 70
     3
  0
STYLE
  5
11
330
3
100
AcDbSymbolTableRecord
100
AcDbTextStyleTableRecord
  2
Standard
 70
     0
 40
0.0
 41
1.0
 50
0.0
 71
     0
 42
3.0
  3
txt
  4

  0
STYLE
  5
32
330
3
100
AcDbSymbolTableRecord
100
AcDbTextStyleTableRecord
  2

 70
     1
 40
0.0
 41
1.0
 50
0.0
 71
     0
 42
2.5
  3
ltypeshp.shx
  4

  0
STYLE
  5
50
330
3
100
AcDbSymbolTableRecord
100
AcDbTextStyleTableRecord
  2
OKANO
 70
     0
 40
0.0
 41
1.0
 50
15.0
 71
     0
 42
5.0
  3
isocp.shx
  4
bigfont.shx
  0
ENDTAB
  0
TABLE
  2
VIEW
  5
6
330
0
100
AcDbSymbolTable
 70
     0
  0
ENDTAB
  0
TABLE
  2
UCS
  5
7
330
0
100
AcDbSymbolTable
 70
     0
  0
ENDTAB
  0
TABLE
  2
APPID
  5
9
330
0
100
AcDbSymbolTable
 70
     1
  0
APPID
  5
12
330
9
100
AcDbSymbolTableRecord
100
AcDbRegAppTableRecord
  2
ACAD
 70
     0
  0
ENDTAB
  0
TABLE
  2
DIMSTYLE
  5
A
330
0
100
AcDbSymbolTable
 70
     2
100
AcDbDimStyleTable
 71
     2
340
A2
340
27
  0
DIMSTYLE
105
27
330
A
100
AcDbSymbolTableRecord
100
AcDbDimStyleTableRecord
  2
ISO-25
 70
     0
 41
2.5
 42
0.625
 43
3.75
 44
1.25
 73
     0
 74
     0
 77
     1
 78
     8
140
2.5
141
2.5
143
0.03937007874016
147
0.625
171
     3
172
     1
271
     2
272
     2
274
     3
283
     0
284
     8
340
11
  0
DIMSTYLE
105
A2
102
{ACAD_REACTORS
330
46DA
330
46E7
330
4737
330
4744
330
49D1
330
49DF
330
4A19
330
4AE2
330
4B16
330
4B23
330
4B30
330
4B3D
330
4BAC
330
4BCE
102
}
330
A
100
AcDbSymbolTableRecord
100
AcDbDimStyleTableRecord
  2
sunpo
 70
     0
 40
0.0
 41
3.0
 42
2.0
 43
8.0
 44
3.0
 73
     0
 74
     0
 77
     1
 78
     8
140
5.0
141
2.5
143
0.03937007874016
147
1.0
171
     3
172
     1
271
     2
272
     2
274
     3
283
     0
284
     8
340
50
341
9B
342
9B
  0
ENDTAB
  0
TABLE
  2
BLOCK_RECORD
  5
1
330
0
100
AcDbSymbolTable
 70
    17
  0
BLOCK_RECORD
  5
1F
330
1
100
AcDbSymbolTableRecord
100
AcDbBlockTableRecord
  2
*Model_Space
340
22
  0
BLOCK_RECORD
  5
1B
330
1
100
AcDbSymbolTableRecord
100
AcDbBlockTableRecord
  2
*Paper_Space
340
1E
  0
BLOCK_RECORD
  5
9B
330
1
100
AcDbSymbolTableRecord
100
AcDbBlockTableRecord
  2
_Closed
340
0
102
{BLKREFS
331
4700
331
4701
331
4712
331
4713
331
4799
331
479A
331
49EF
331
49F0
331
49F9
331
49FA
331
4A34
331
4A35
331
4AC9
331
4ACA
331
4B56
331
4B57
331
4B68
331
4B69
331
4B7A
331
4B7B
331
4B8C
331
4B8D
331
4BC7
331
4BC8
331
4BDE
331
4BDF
331
4BE7
331
4BE8
102
}
  0
BLOCK_RECORD
  5
1510
330
1
100
AcDbSymbolTableRecord
100
AcDbBlockTableRecord
  2
A$C10A573AC
340
0
  0
BLOCK_RECORD
  5
3447
330
1
100
AcDbSymbolTableRecord
100
AcDbBlockTableRecord
  2
A$C22822BA6
340
0
  0
BLOCK_RECORD
  5
46DB
330
1
100
AcDbSymbolTableRecord
100
AcDbBlockTableRecord
  2
*D3
340
0
  0
BLOCK_RECORD
  5
46E8
330
1
100
AcDbSymbolTableRecord
100
AcDbBlockTableRecord
  2
*D4
340
0
  0
BLOCK_RECORD
  5
4738
330
1
100
AcDbSymbolTableRecord
100
AcDbBlockTableRecord
  2
*D5
340
0
  0
BLOCK_RECORD
  5
4745
330
1
100
AcDbSymbolTableRecord
100
AcDbBlockTableRecord
  2
*D6
340
0
  0
BLOCK_RECORD
  5
49D2
330
1
100
AcDbSymbolTableRecord
100
AcDbBlockTableRecord
  2
*D7
340
0
  0
BLOCK_RECORD
  5
49E0
330
1
100
AcDbSymbolTableRecord
100
AcDbBlockTableRecord
  2
*D8
340
0
  0
BLOCK_RECORD
  5
4A1A
330
1
100
AcDbSymbolTableRecord
100
AcDbBlockTableRecord
  2
*D9
340
0
  0
BLOCK_RECORD
  5
4AE3
330
1
100
AcDbSymbolTableRecord
100
AcDbBlockTableRecord
  2
*D10
340
0
  0
BLOCK_RECORD
  5
4B17
330
1
100
AcDbSymbolTableRecord
100
AcDbBlockTableRecord
  2
*D11
340
0
  0
BLOCK_RECORD
  5
4B24
330
1
100
AcDbSymbolTableRecord
100
AcDbBlockTableRecord
  2
*D12
340
0
  0
BLOCK_RECORD
  5
4B31
330
1
100
AcDbSymbolTableRecord
100
AcDbBlockTableRecord
  2
*D13
340
0
  0
BLOCK_RECORD
  5
4B3E
330
1
100
AcDbSymbolTableRecord
100
AcDbBlockTableRecord
  2
*D14
340
0
  0
BLOCK_RECORD
  5
4BAD
330
1
100
AcDbSymbolTableRecord
100
AcDbBlockTableRecord
  2
*D15
340
0
  0
BLOCK_RECORD
  5
4BCF
330
1
100
AcDbSymbolTableRecord
100
AcDbBlockTableRecord
  2
*D16
340
0
  0
ENDTAB
  0
ENDSEC
  0
SECTION
  2
BLOCKS
  0
BLOCK
  5
20
330
1F
100
AcDbEntity
  8
0
100
AcDbBlockBegin
  2
*Model_Space
 70
     0
 10
0.0
 20
0.0
 30
0.0
  3
*Model_Space
  1

  0
ENDBLK
  5
21
330
1F
100
AcDbEntity
  8
0
100
AcDbBlockEnd
  0
BLOCK
  5
1C
330
1B
100
AcDbEntity
 67
     1
  8
0
100
AcDbBlockBegin
  2
*Paper_Space
 70
     0
 10
0.0
 20
0.0
 30
0.0
  3
*Paper_Space
  1

  0
ENDBLK
  5
1D
330
1B
100
AcDbEntity
 67
     1
  8
0
100
AcDbBlockEnd
  0
BLOCK
  5
A0
330
9B
100
AcDbEntity
  8
0
100
AcDbBlockBegin
  2
_Closed
 70
     0
 10
0.0
 20
0.0
 30
0.0
  3
_Closed
  1

  0
LINE
  5
9C
330
9B
100
AcDbEntity
  8
0
 62
     0
370
    -2
100
AcDbLine
 10
-1.0
 20
0.1666666666666666
 30
0.0
 11
0.0
 21
0.0
 31
0.0
  0
LINE
  5
9D
330
9B
100
AcDbEntity
  8
0
 62
     0
370
    -2
100
AcDbLine
 10
0.0
 20
0.0
 30
0.0
 11
-1.0
 21
-0.1666666666666666
 31
0.0
  0
LINE
  5
9E
330
9B
100
AcDbEntity
  8
0
 62
     0
370
    -2
100
AcDbLine
 10
-1.0
 20
0.1666666666666666
 30
0.0
 11
-1.0
 21
-0.1666666666666666
 31
0.0
  0
LINE
  5
9F
330
9B
100
AcDbEntity
  8
0
 62
     0
370
    -2
100
AcDbLine
 10
0.0
 20
0.0
 30
0.0
 11
-1.0
 21
0.0
 31
0.0
  0
ENDBLK
  5
A1
330
9B
100
AcDbEntity
  8
0
100
AcDbBlockEnd
  0
BLOCK
  5
155B
330
1510
100
AcDbEntity
  8
0
100
AcDbBlockBegin
  2
A$C10A573AC
 70
     0
 10
0.0
 20
0.0
 30
0.0
  3
A$C10A573AC
  1

  0
TEXT
  5
1511
330
1510
100
AcDbEntity
  8
文字
100
AcDbText
 10
0.9844302777919438
 20
5.224957122252135
 30
0.0
 40
3.0
  1
Materal : Steel.
 51
15.0
  7
OKANO
100
AcDbText
  0
TEXT
  5
1512
330
1510
100
AcDbEntity
  8
文字
100
AcDbText
 10
-0.1141909619694843
 20
0.7500001922403499
 30
0.0
 40
3.0
  1
Surface treatment : Electro galvanized.
 51
15.0
  7
OKANO
100
AcDbText
  0
TEXT
  5
1513
330
1510
100
AcDbEntity
  8
文字
100
AcDbText
 10
-0.4901926332574931
 20
9.159967445193728
 30
0.0
 40
3.0
  1
5 TORGUE SCREW  M5-6
 51
15.0
  7
OKANO
100
AcDbText
  0
TEXT
  5
1514
330
1510
100
AcDbEntity
  8
文字
100
AcDbText
 10
1.364713526390005
 20
78.88822913323082
 30
0.0
 40
3.0
  1
Special standard,
 51
15.0
  7
OKANO
100
AcDbText
  0
TEXT
  5
1515
330
1510
100
AcDbEntity
  8
文字
100
AcDbText
 10
92.88160823408942
 20
89.92753849837379
 30
0.0
 40
3.0
  1
Screw Type
 51
15.0
  7
OKANO
100
AcDbText
  0
LINE
  5
1516
330
1510
100
AcDbEntity
  8
太線
100
AcDbLine
 10
113.9464587597784
 20
81.93930390144641
 30
0.0
 11
112.4464587597784
 21
81.93930390144641
 31
0.0
  0
LINE
  5
1517
330
1510
100
AcDbEntity
  8
太線
100
AcDbLine
 10
112.4464587597784
 20
76.9393039014464
 30
0.0
 11
121.4644995438761
 21
76.9393039014464
 31
0.0
  0
TEXT
  5
1518
330
1510
100
AcDbEntity
  8
文字
100
AcDbText
 10
93.46068240437217
 20
77.96976862235396
 30
0.0
 40
2.0
  1
17-30
 51
15.0
  7
OKANO
100
AcDbText
  0
LINE
  5
1519
330
1510
100
AcDbEntity
  8
太線
100
AcDbLine
 10
111.9464587597784
 20
81.43930390144641
 30
0.0
 11
111.9464587597784
 21
77.4393039014464
 31
0.0
  0
LINE
  5
151A
330
1510
100
AcDbEntity
  8
太線
100
AcDbLine
 10
91.94645875977846
 20
81.43930390144641
 30
0.0
 11
91.94645875977846
 21
77.43930390144639
 31
0.0
  0
LINE
  5
151B
330
1510
100
AcDbEntity
  8
太線
100
AcDbLine
 10
101.9644995438761
 20
77.4393039014464
 30
0.0
 11
101.9644995438761
 21
81.43930390144641
 31
0.0
  0
LINE
  5
151C
330
1510
100
AcDbEntity
  8
太線
100
AcDbLine
 10
92.44645875977846
 20
76.9393039014464
 30
0.0
 11
101.4644995438761
 21
76.9393039014464
 31
0.0
  0
ARC
  5
151D
330
1510
100
AcDbEntity
  8
太線
100
AcDbCircle
 10
92.44645875977846
 20
77.43930390144639
 30
0.0
 40
0.5
100
AcDbArc
 50
180.0
 51
270.0
  0
ARC
  5
151E
330
1510
100
AcDbEntity
  8
太線
100
AcDbCircle
 10
101.4644995438761
 20
77.4393039014464
 30
0.0
 40
0.5
100
AcDbArc
 50
270.0
 51
0.0
  0
ARC
  5
151F
330
1510
100
AcDbEntity
  8
太線
100
AcDbCircle
 10
112.4464587597784
 20
77.4393039014464
 30
0.0
 40
0.5
100
AcDbArc
 50
180.0
 51
270.0
  0
LINE
  5
1520
330
1510
100
AcDbEntity
  8
想像線
100
AcDbLine
 10
93.94645875977847
 20
81.93930390144641
 30
0.0
 11
99.96449954387617
 21
81.93930390144641
 31
0.0
  0
LINE
  5
1521
330
1510
100
AcDbEntity
  8
極太線
100
AcDbLine
 10
96.38762957111168
 20
85.43930390144641
 30
0.0
 11
97.50528794844525
 21
85.43930390144641
 31
0.0
  0
CIRCLE
  5
1522
330
1510
100
AcDbEntity
  8
太線
100
AcDbCircle
 10
96.94645875977847
 20
85.43930390144641
 30
0.0
 40
0.5588291886667776
  0
LINE
  5
1523
330
1510
100
AcDbEntity
  8
太線
100
AcDbLine
 10
99.46449954387617
 20
86.93930390144641
 30
0.0
 11
94.44645875977846
 21
86.93930390144641
 31
0.0
  0
LINE
  5
1524
330
1510
100
AcDbEntity
  8
太線
100
AcDbLine
 10
93.94645875977847
 20
86.43930390144641
 30
0.0
 11
93.94645875977847
 21
81.93930390144641
 31
0.0
  0
ARC
  5
1525
330
1510
100
AcDbEntity
  8
太線
100
AcDbCircle
 10
92.44645875977846
 20
81.43930390144641
 30
0.0
 40
0.5
100
AcDbArc
 50
90.0
 51
180.0
  0
LINE
  5
1526
330
1510
100
AcDbEntity
  8
太線
100
AcDbLine
 10
93.94645875977847
 20
81.93930390144641
 30
0.0
 11
92.44645875977846
 21
81.93930390144641
 31
0.0
  0
ARC
  5
1527
330
1510
100
AcDbEntity
  8
太線
100
AcDbCircle
 10
94.44645875977846
 20
86.43930390144641
 30
0.0
 40
0.5
100
AcDbArc
 50
90.0
 51
180.0
  0
LINE
  5
1528
330
1510
100
AcDbEntity
  8
太線
100
AcDbLine
 10
99.96449954387617
 20
81.93930390144641
 30
0.0
 11
99.96449954387617
 21
86.43930390144641
 31
0.0
  0
LINE
  5
1529
330
1510
100
AcDbEntity
  8
太線
100
AcDbLine
 10
101.4644995438761
 20
81.93930390144641
 30
0.0
 11
99.96449954387617
 21
81.93930390144641
 31
0.0
  0
ARC
  5
152A
330
1510
100
AcDbEntity
  8
太線
100
AcDbCircle
 10
101.4644995438761
 20
81.43930390144641
 30
0.0
 40
0.5
100
AcDbArc
 50
0.0
 51
90.0
  0
ARC
  5
152B
330
1510
100
AcDbEntity
  8
太線
100
AcDbCircle
 10
99.46449954387617
 20
86.43930390144641
 30
0.0
 40
0.5
100
AcDbArc
 50
0.0
 51
90.0
  0
LINE
  5
152C
330
1510
100
AcDbEntity
  8
極太線
100
AcDbLine
 10
96.94645875977847
 20
85.99813309011318
 30
0.0
 11
96.94645875977847
 21
84.88047471277964
 31
0.0
  0
ARC
  5
152D
330
1510
100
AcDbEntity
  8
太線
100
AcDbCircle
 10
112.4464587597784
 20
81.43930390144641
 30
0.0
 40
0.5
100
AcDbArc
 50
90.0
 51
180.0
  0
TEXT
  5
152E
330
1510
100
AcDbEntity
  8
文字
100
AcDbText
 10
134.3819212586066
 20
78.16263579228063
 30
0.0
 40
2.0
  1
101
 51
15.0
  7
OKANO
100
AcDbText
  0
TEXT
  5
152F
330
1510
100
AcDbEntity
  8
文字
100
AcDbText
 10
113.3422276612066
 20
77.96976862235396
 30
0.0
 40
2.0
  1
38-83
 51
15.0
  7
OKANO
100
AcDbText
  0
LINE
  5
1530
330
1510
100
AcDbEntity
  8
太線
100
AcDbLine
 10
141.9825403279738
 20
77.4393039014464
 30
0.0
 11
141.9825403279738
 21
81.43930390144641
 31
0.0
  0
LINE
  5
1531
330
1510
100
AcDbEntity
  8
太線
100
AcDbLine
 10
131.9644995438761
 20
81.43930390144641
 30
0.0
 11
131.9644995438761
 21
77.4393039014464
 31
0.0
  0
LINE
  5
1532
330
1510
100
AcDbEntity
  8
太線
100
AcDbLine
 10
121.9644995438761
 20
77.4393039014464
 30
0.0
 11
121.9644995438761
 21
81.43930390144641
 31
0.0
  0
ARC
  5
1533
330
1510
100
AcDbEntity
  8
太線
100
AcDbCircle
 10
121.4644995438761
 20
77.4393039014464
 30
0.0
 40
0.5
100
AcDbArc
 50
270.0
 51
0.0
  0
LINE
  5
1534
330
1510
100
AcDbEntity
  8
太線
100
AcDbLine
 10
132.4644995438761
 20
76.9393039014464
 30
0.0
 11
141.4825403279738
 21
76.9393039014464
 31
0.0
  0
ARC
  5
1535
330
1510
100
AcDbEntity
  8
太線
100
AcDbCircle
 10
132.4644995438761
 20
77.4393039014464
 30
0.0
 40
0.5
100
AcDbArc
 50
180.0
 51
270.0
  0
ARC
  5
1536
330
1510
100
AcDbEntity
  8
太線
100
AcDbCircle
 10
141.4825403279738
 20
77.4393039014464
 30
0.0
 40
0.5
100
AcDbArc
 50
270.0
 51
0.0
  0
ARC
  5
1537
330
1510
100
AcDbEntity
  8
太線
100
AcDbCircle
 10
121.4644995438761
 20
81.43930390144641
 30
0.0
 40
0.5
100
AcDbArc
 50
0.0
 51
90.0
  0
LINE
  5
1538
330
1510
100
AcDbEntity
  8
太線
100
AcDbLine
 10
119.9644995438761
 20
81.93930390144641
 30
0.0
 11
119.9644995438761
 21
86.43930390144641
 31
0.0
  0
LINE
  5
1539
330
1510
100
AcDbEntity
  8
太線
100
AcDbLine
 10
113.9464587597784
 20
86.43930390144641
 30
0.0
 11
113.9464587597784
 21
81.93930390144641
 31
0.0
  0
LINE
  5
153A
330
1510
100
AcDbEntity
  8
想像線
100
AcDbLine
 10
113.9464587597784
 20
81.93930390144641
 30
0.0
 11
119.9644995438761
 21
81.93930390144641
 31
0.0
  0
LINE
  5
153B
330
1510
100
AcDbEntity
  8
太線
100
AcDbLine
 10
121.4644995438761
 20
81.93930390144641
 30
0.0
 11
119.9644995438761
 21
81.93930390144641
 31
0.0
  0
LINE
  5
153C
330
1510
100
AcDbEntity
  8
太線
100
AcDbLine
 10
119.4644995438761
 20
86.93930390144641
 30
0.0
 11
114.4464587597784
 21
86.93930390144641
 31
0.0
  0
ARC
  5
153D
330
1510
100
AcDbEntity
  8
太線
100
AcDbCircle
 10
114.4464587597784
 20
86.43930390144641
 30
0.0
 40
0.5
100
AcDbArc
 50
90.0
 51
180.0
  0
CIRCLE
  5
153E
330
1510
100
AcDbEntity
  8
太線
100
AcDbCircle
 10
115.4464587597784
 20
85.43930390144641
 30
0.0
 40
0.5588291886667776
  0
LINE
  5
153F
330
1510
100
AcDbEntity
  8
極太線
100
AcDbLine
 10
115.4464587597784
 20
85.99813309011318
 30
0.0
 11
115.4464587597784
 21
84.88047471277964
 31
0.0
  0
LINE
  5
1540
330
1510
100
AcDbEntity
  8
極太線
100
AcDbLine
 10
114.8876295711116
 20
85.43930390144641
 30
0.0
 11
116.0052879484452
 21
85.43930390144641
 31
0.0
  0
ARC
  5
1541
330
1510
100
AcDbEntity
  8
太線
100
AcDbCircle
 10
119.4644995438761
 20
86.43930390144641
 30
0.0
 40
0.5
100
AcDbArc
 50
0.0
 51
90.0
  0
LINE
  5
1542
330
1510
100
AcDbEntity
  8
極太線
100
AcDbLine
 10
117.9056703552094
 20
85.43930390144641
 30
0.0
 11
119.0233287325429
 21
85.43930390144641
 31
0.0
  0
LINE
  5
1543
330
1510
100
AcDbEntity
  8
極太線
100
AcDbLine
 10
118.4644995438761
 20
85.99813309011318
 30
0.0
 11
118.4644995438761
 21
84.88047471277964
 31
0.0
  0
CIRCLE
  5
1544
330
1510
100
AcDbEntity
  8
太線
100
AcDbCircle
 10
118.4644995438761
 20
85.43930390144641
 30
0.0
 40
0.5588291886667776
  0
LINE
  5
1545
330
1510
100
AcDbEntity
  8
想像線
100
AcDbLine
 10
133.9644995438761
 20
81.93930390144641
 30
0.0
 11
139.9825403279738
 21
81.93930390144641
 31
0.0
  0
LINE
  5
1546
330
1510
100
AcDbEntity
  8
極太線
100
AcDbLine
 10
137.9237111393071
 20
85.43930390144641
 30
0.0
 11
139.0413695166406
 21
85.43930390144641
 31
0.0
  0
CIRCLE
  5
1547
330
1510
100
AcDbEntity
  8
太線
100
AcDbCircle
 10
138.4825403279738
 20
85.43930390144641
 30
0.0
 40
0.5588291886667776
  0
CIRCLE
  5
1548
330
1510
100
AcDbEntity
  8
太線
100
AcDbCircle
 10
138.4825403279738
 20
83.26342923362075
 30
0.0
 40
0.5588291886667776
  0
LINE
  5
1549
330
1510
100
AcDbEntity
  8
極太線
100
AcDbLine
 10
137.9237111393071
 20
83.26342923362075
 30
0.0
 11
139.0413695166406
 21
83.26342923362075
 31
0.0
  0
LINE
  5
154A
330
1510
100
AcDbEntity
  8
太線
100
AcDbLine
 10
139.4825403279738
 20
86.93930390144641
 30
0.0
 11
134.4644995438761
 21
86.93930390144641
 31
0.0
  0
LINE
  5
154B
330
1510
100
AcDbEntity
  8
太線
100
AcDbLine
 10
133.9644995438761
 20
86.43930390144641
 30
0.0
 11
133.9644995438761
 21
81.93930390144641
 31
0.0
  0
ARC
  5
154C
330
1510
100
AcDbEntity
  8
太線
100
AcDbCircle
 10
132.4644995438761
 20
81.43930390144641
 30
0.0
 40
0.5
100
AcDbArc
 50
90.0
 51
180.0
  0
LINE
  5
154D
330
1510
100
AcDbEntity
  8
太線
100
AcDbLine
 10
133.9644995438761
 20
81.93930390144641
 30
0.0
 11
132.4644995438761
 21
81.93930390144641
 31
0.0
  0
LINE
  5
154E
330
1510
100
AcDbEntity
  8
極太線
100
AcDbLine
 10
134.9056703552093
 20
83.26342923362075
 30
0.0
 11
136.0233287325429
 21
83.26342923362075
 31
0.0
  0
LINE
  5
154F
330
1510
100
AcDbEntity
  8
極太線
100
AcDbLine
 10
135.4644995438761
 20
83.82225842228752
 30
0.0
 11
135.4644995438761
 21
82.70460004495395
 31
0.0
  0
CIRCLE
  5
1550
330
1510
100
AcDbEntity
  8
太線
100
AcDbCircle
 10
135.4644995438761
 20
83.26342923362075
 30
0.0
 40
0.5588291886667776
  0
ARC
  5
1551
330
1510
100
AcDbEntity
  8
太線
100
AcDbCircle
 10
134.4644995438761
 20
86.43930390144641
 30
0.0
 40
0.5
100
AcDbArc
 50
90.0
 51
180.0
  0
CIRCLE
  5
1552
330
1510
100
AcDbEntity
  8
太線
100
AcDbCircle
 10
135.4644995438761
 20
85.43930390144641
 30
0.0
 40
0.5588291886667776
  0
LINE
  5
1553
330
1510
100
AcDbEntity
  8
極太線
100
AcDbLine
 10
135.4644995438761
 20
85.99813309011318
 30
0.0
 11
135.4644995438761
 21
84.88047471277964
 31
0.0
  0
LINE
  5
1554
330
1510
100
AcDbEntity
  8
極太線
100
AcDbLine
 10
134.9056703552093
 20
85.43930390144641
 30
0.0
 11
136.0233287325429
 21
85.43930390144641
 31
0.0
  0
LINE
  5
1555
330
1510
100
AcDbEntity
  8
太線
100
AcDbLine
 10
139.9825403279738
 20
81.93930390144641
 30
0.0
 11
139.9825403279738
 21
86.43930390144641
 31
0.0
  0
ARC
  5
1556
330
1510
100
AcDbEntity
  8
太線
100
AcDbCircle
 10
141.4825403279738
 20
81.43930390144641
 30
0.0
 40
0.5
100
AcDbArc
 50
0.0
 51
90.0
  0
LINE
  5
1557
330
1510
100
AcDbEntity
  8
極太線
100
AcDbLine
 10
138.4825403279738
 20
83.82225842228752
 30
0.0
 11
138.4825403279738
 21
82.70460004495395
 31
0.0
  0
LINE
  5
1558
330
1510
100
AcDbEntity
  8
太線
100
AcDbLine
 10
141.4825403279738
 20
81.93930390144641
 30
0.0
 11
139.9825403279738
 21
81.93930390144641
 31
0.0
  0
ARC
  5
1559
330
1510
100
AcDbEntity
  8
太線
100
AcDbCircle
 10
139.4825403279738
 20
86.43930390144641
 30
0.0
 40
0.5
100
AcDbArc
 50
0.0
 51
90.0
  0
LINE
  5
155A
330
1510
100
AcDbEntity
  8
極太線
100
AcDbLine
 10
138.4825403279738
 20
85.99813309011318
 30
0.0
 11
138.4825403279738
 21
84.88047471277964
 31
0.0
  0
ENDBLK
  5
155C
330
1510
100
AcDbEntity
  8
0
100
AcDbBlockEnd
  0
BLOCK
  5
3455
330
3447
100
AcDbEntity
  8
0
100
AcDbBlockBegin
  2
A$C22822BA6
 70
     0
 10
0.0
 20
0.0
 30
0.0
  3
A$C22822BA6
  1

  0
TEXT
  5
3448
330
3447
100
AcDbEntity
  8
文字
100
AcDbText
 10
3.359356214565821
 20
12.19433915927975
 30
0.0
 40
2.399999999999999
  1
DRAWN
 51
15.0
  7
OKANO
100
AcDbText
  0
TEXT
  5
3449
330
3447
100
AcDbEntity
  8
文字
100
AcDbText
 10
2.076787337233781
 20
18.60121631013655
 30
0.0
 40
2.399999999999999
  1
FILM NAME
 51
15.0
  7
OKANO
100
AcDbText
  0
TEXT
  5
344A
330
3447
100
AcDbEntity
  8
文字
100
AcDbText
 10
4.128897321820204
 20
5.018636915573026
 30
0.0
 40
2.399999999999999
  1
APPR
 51
15.0
  7
OKANO
100
AcDbText
  0
TEXT
  5
344B
330
3447
100
AcDbEntity
  8
文字
100
AcDbText
 10
3.872382888919503
 20
1.687060726304892
 30
0.0
 40
2.399999999999999
  1
ISSUED
 51
15.0
  7
OKANO
100
AcDbText
  0
TEXT
  5
344C
330
3447
100
AcDbEntity
  8
文字
100
AcDbText
 10
3.872382888919503
 20
8.606488332520711
 30
0.0
 40
2.399999999999999
  1
CHECK
 51
15.0
  7
OKANO
100
AcDbText
  0
LWPOLYLINE
  5
344D
330
3447
100
AcDbEntity
  8
太線
100
AcDbPolyline
 90
        4
 70
     1
 43
0.0
 10
-0.000000677138047
 20
25.20000013137139
 10
107.9999993228619
 20
25.20000013137139
 10
107.9999993228619
 20
0.0000001313713938
 10
-0.000000677138047
 20
0.0000001313713938
  0
LINE
  5
344E
330
3447
100
AcDbEntity
  8
太線
100
AcDbLine
 10
-0.0000006771380185
 20
16.80000013137139
 30
0.0
 11
107.9999993228619
 21
16.80000013137139
 31
0.0
  0
LINE
  5
344F
330
3447
100
AcDbEntity
  8
太線
100
AcDbLine
 10
23.99999932286198
 20
25.20000013137139
 30
0.0
 11
23.99999932286198
 21
0.0000001313713938
 31
0.0
  0
TEXT
  5
3450
330
3447
100
AcDbEntity
  8
文字
100
AcDbText
 10
34.9105405162727
 20
2.968436274513962
 30
0.0
 40
4.799999999999999
  1
joint kogyo T.okano
 51
15.0
  7
OKANO
100
AcDbText
  0
TEXT
  5
3451
330
3447
100
AcDbEntity
  8
文字
100
AcDbText
 10
35.68978841563694
 20
28.79028753138791
 30
0.0
 40
4.799999999999999
  1
JAN 4562182301093
 51
15.0
  7
OKANO
100
AcDbText
  0
TEXT
  5
3452
330
3447
100
AcDbEntity
  8
文字
100
AcDbText
 10
27.42222750447587
 20
17.72080778180175
 30
0.0
 40
4.799999999999999
  1
F-999-20040824 Auto CAD
 51
15.0
  7
OKANO
100
AcDbText
  0
TEXT
  5
3453
330
3447
100
AcDbEntity
  8
文字
100
AcDbText
 10
51.7866953961427
 20
10.47287221637466
 30
0.0
 40
3.599999999999999
  1
SET SCREW COUP
 51
15.0
  7
OKANO
100
AcDbText
  0
TEXT
  5
3454
330
3447
100
AcDbEntity
  8
文字
100
AcDbText
 10
29.0955182546395
 20
9.562999439741247
 30
0.0
 40
4.799999999999999
  1
24-2H
 51
15.0
  7
OKANO
100
AcDbText
  0
ENDBLK
  5
3456
330
3447
100
AcDbEntity
  8
0
100
AcDbBlockEnd
  0
BLOCK
  5
46E5
330
46DB
100
AcDbEntity
  8
0
100
AcDbBlockBegin
  2
*D3
 70
     1
 10
0.0
 20
0.0
 30
0.0
  3
*D3
  1

  0
LINE
  5
46FD
330
46DB
100
AcDbEntity
  8
寸法線
 62
     0
370
    -2
100
AcDbLine
 10
326.3043612993715
 20
112.0694692624661
 30
0.0
 11
326.3043612993715
 21
-0.3272439190768637
 31
0.0
  0
LINE
  5
46FE
330
46DB
100
AcDbEntity
  8
寸法線
 62
     0
370
    -2
100
AcDbLine
 10
480.4153321676376
 20
112.0694692624661
 30
0.0
 11
480.4153321676376
 21
-0.3272439190768637
 31
0.0
  0
LINE
  5
46FF
330
46DB
100
AcDbEntity
  8
寸法線
 62
     0
370
    -2
100
AcDbLine
 10
329.3043612993715
 20
2.672756080923136
 30
0.0
 11
477.4153321676376
 21
2.672756080923136
 31
0.0
  0
INSERT
  5
4700
330
46DB
100
AcDbEntity
  8
寸法線
 62
     0
370
    -2
100
AcDbBlockReference
  2
_Closed
 10
326.3043612993715
 20
2.672756080923136
 30
0.0
 41
3.0
 42
3.0
 43
3.0
 50
180.0
  0
INSERT
  5
4701
330
46DB
100
AcDbEntity
  8
寸法線
 62
     0
370
    -2
100
AcDbBlockReference
  2
_Closed
 10
480.4153321676376
 20
2.672756080923136
 30
0.0
 41
3.0
 42
3.0
 43
3.0
  0
MTEXT
  5
4702
330
46DB
100
AcDbEntity
  8
寸法線
 62
     0
100
AcDbMText
 10
403.3598467335045
 20
13.67275608092313
 30
0.0
 40
20.0
 41
0.0
 71
     5
 72
     1
  1
180
  7
OKANO
 73
     1
 44
1.0
  0
POINT
  5
4703
330
46DB
100
AcDbEntity
  8
Defpoints
 62
     0
100
AcDbPoint
 10
326.3043612993715
 20
114.0694692624661
 30
0.0
  0
POINT
  5
4704
330
46DB
100
AcDbEntity
  8
Defpoints
 62
     0
100
AcDbPoint
 10
480.4153321676376
 20
114.0694692624661
 30
0.0
  0
POINT
  5
4705
330
46DB
100
AcDbEntity
  8
Defpoints
 62
     0
100
AcDbPoint
 10
480.4153321676376
 20
2.672756080923136
 30
0.0
  0
ENDBLK
  5
46E6
330
46DB
100
AcDbEntity
  8
0
100
AcDbBlockEnd
  0
BLOCK
  5
46F2
330
46E8
100
AcDbEntity
  8
0
100
AcDbBlockBegin
  2
*D4
 70
     1
 10
0.0
 20
0.0
 30
0.0
  3
*D4
  1

  0
LINE
  5
470F
330
46E8
100
AcDbEntity
  8
寸法線
 62
     0
370
    -2
100
AcDbLine
 10
311.1885390808793
 20
562.9326992557171
 30
0.0
 11
234.7725314240579
 21
562.9326992557172
 31
0.0
  0
LINE
  5
4710
330
46E8
100
AcDbEntity
  8
寸法線
 62
     0
370
    -2
100
AcDbLine
 10
324.3043612993715
 20
114.0694692624661
 30
0.0
 11
234.7725314240578
 21
114.0694692624661
 31
0.0
  0
LINE
  5
4711
330
46E8
100
AcDbEntity
  8
寸法線
 62
     0
370
    -2
100
AcDbLine
 10
237.7725314240579
 20
559.9326992557172
 30
0.0
 11
237.7725314240578
 21
117.0694692624661
 31
0.0
  0
INSERT
  5
4712
330
46E8
100
AcDbEntity
  8
寸法線
 62
     0
370
    -2
100
AcDbBlockReference
  2
_Closed
 10
237.7725314240579
 20
562.9326992557172
 30
0.0
 41
3.0
 42
3.0
 43
3.0
 50
90.0
  0
INSERT
  5
4713
330
46E8
100
AcDbEntity
  8
寸法線
 62
     0
370
    -2
100
AcDbBlockReference
  2
_Closed
 10
237.7725314240578
 20
114.0694692624661
 30
0.0
 41
3.0
 42
3.0
 43
3.0
 50
270.0
  0
MTEXT
  5
4714
330
46E8
100
AcDbEntity
  8
寸法線
 62
     0
100
AcDbMText
 10
226.7725314240578
 20
338.5010842590917
 30
0.0
 40
20.0
 41
0.0
 71
     5
 72
     1
  1
450
  7
OKANO
 11
0.0000000000000001
 21
1.0
 31
0.0
 73
     1
 44
1.0
  0
POINT
  5
4715
330
46E8
100
AcDbEntity
  8
Defpoints
 62
     0
100
AcDbPoint
 10
313.1885390808793
 20
562.9326992557171
 30
0.0
  0
POINT
  5
4716
330
46E8
100
AcDbEntity
  8
Defpoints
 62
     0
100
AcDbPoint
 10
326.3043612993715
 20
114.0694692624661
 30
0.0
  0
POINT
  5
4717
330
46E8
100
AcDbEntity
  8
Defpoints
 62
     0
100
AcDbPoint
 10
237.7725314240578
 20
114.0694692624661
 30
0.0
  0
ENDBLK
  5
46F3
330
46E8
100
AcDbEntity
  8
0
100
AcDbBlockEnd
  0
BLOCK
  5
4742
330
4738
100
AcDbEntity
  8
0
100
AcDbBlockBegin
  2
*D5
 70
     1
 10
0.0
 20
0.0
 30
0.0
  3
*D5
  1

  0
LINE
  5
4796
330
4738
100
AcDbEntity
  8
寸法線
 62
     0
370
    -2
100
AcDbLine
 10
1952.108073383513
 20
690.8714105984791
 30
0.0
 11
2086.158413840436
 21
690.8714105984791
 31
0.0
  0
LINE
  5
4797
330
4738
100
AcDbEntity
  8
寸法線
 62
     0
370
    -2
100
AcDbLine
 10
1972.220334845617
 20
732.6101246302933
 30
0.0
 11
2086.158413840436
 21
732.6101246302933
 31
0.0
  0
LINE
  5
4798
330
4738
100
AcDbEntity
  8
寸法線
 62
     0
370
    -2
100
AcDbLine
 10
2083.158413840436
 20
693.871410598479
 30
0.0
 11
2083.158413840436
 21
729.6101246302932
 31
0.0
  0
INSERT
  5
4799
330
4738
100
AcDbEntity
  8
寸法線
 62
     0
370
    -2
100
AcDbBlockReference
  2
_Closed
 10
2083.158413840436
 20
690.8714105984791
 30
0.0
 41
3.0
 42
3.0
 43
3.0
 50
270.0
  0
INSERT
  5
479A
330
4738
100
AcDbEntity
  8
寸法線
 62
     0
370
    -2
100
AcDbBlockReference
  2
_Closed
 10
2083.158413840436
 20
732.6101246302933
 30
0.0
 41
3.0
 42
3.0
 43
3.0
 50
90.0
  0
MTEXT
  5
479B
330
4738
100
AcDbEntity
  8
寸法線
 62
     0
100
AcDbMText
 10
2072.158413840436
 20
711.7407676143865
 30
0.0
 40
20.0
 41
0.0
 71
     5
 72
     1
  1
40
  7
OKANO
 11
0.0000000000000001
 21
1.0
 31
0.0
 73
     1
 44
1.0
  0
POINT
  5
479C
330
4738
100
AcDbEntity
  8
Defpoints
 62
     0
100
AcDbPoint
 10
1950.108073383513
 20
690.8714105984791
 30
0.0
  0
POINT
  5
479D
330
4738
100
AcDbEntity
  8
Defpoints
 62
     0
100
AcDbPoint
 10
1970.220334845617
 20
732.6101246302933
 30
0.0
  0
POINT
  5
479E
330
4738
100
AcDbEntity
  8
Defpoints
 62
     0
100
AcDbPoint
 10
2083.158413840436
 20
732.6101246302933
 30
0.0
  0
ENDBLK
  5
4743
330
4738
100
AcDbEntity
  8
0
100
AcDbBlockEnd
  0
BLOCK
  5
474F
330
4745
100
AcDbEntity
  8
0
100
AcDbBlockBegin
  2
*D6
 70
     1
 10
0.0
 20
0.0
 30
0.0
  3
*D6
  1

  0
LINE
  5
4AC6
330
4745
100
AcDbEntity
  8
寸法線
 62
     0
370
    -2
100
AcDbLine
 10
1922.260329618723
 20
733.0642436611096
 30
0.0
 11
1922.260329618723
 21
768.073568033562
 31
0.0
  0
LINE
  5
4AC7
330
4745
100
AcDbEntity
  8
寸法線
 62
     0
370
    -2
100
AcDbLine
 10
1971.767431306154
 20
733.0642436611096
 30
0.0
 11
1971.767431306154
 21
768.073568033562
 31
0.0
  0
LINE
  5
4AC8
330
4745
100
AcDbEntity
  8
寸法線
 62
     0
370
    -2
100
AcDbLine
 10
1925.260329618723
 20
765.0735680335619
 30
0.0
 11
1968.767431306154
 21
765.0735680335619
 31
0.0
  0
INSERT
  5
4AC9
330
4745
100
AcDbEntity
  8
寸法線
 62
     0
370
    -2
100
AcDbBlockReference
  2
_Closed
 10
1922.260329618723
 20
765.0735680335619
 30
0.0
 41
3.0
 42
3.0
 43
3.0
 50
180.0
  0
INSERT
  5
4ACA
330
4745
100
AcDbEntity
  8
寸法線
 62
     0
370
    -2
100
AcDbBlockReference
  2
_Closed
 10
1971.767431306154
 20
765.0735680335619
 30
0.0
 41
3.0
 42
3.0
 43
3.0
  0
MTEXT
  5
4ACB
330
4745
100
AcDbEntity
  8
寸法線
 62
     0
100
AcDbMText
 10
1947.013880462439
 20
776.073568033562
 30
0.0
 40
20.0
 41
0.0
 71
     5
 72
     1
  1
50
  7
OKANO
 73
     1
 44
1.0
  0
POINT
  5
4ACC
330
4745
100
AcDbEntity
  8
Defpoints
 62
     0
100
AcDbPoint
 10
1922.260329618723
 20
731.0642436611097
 30
0.0
  0
POINT
  5
4ACD
330
4745
100
AcDbEntity
  8
Defpoints
 62
     0
100
AcDbPoint
 10
1971.767431306154
 20
731.0642436611097
 30
0.0
  0
POINT
  5
4ACE
330
4745
100
AcDbEntity
  8
Defpoints
 62
     0
100
AcDbPoint
 10
1971.767431306154
 20
765.0735680335619
 30
0.0
  0
ENDBLK
  5
4750
330
4745
100
AcDbEntity
  8
0
100
AcDbBlockEnd
  0
BLOCK
  5
49DC
330
49D2
100
AcDbEntity
  8
0
100
AcDbBlockBegin
  2
*D7
 70
     1
 10
0.0
 20
0.0
 30
0.0
  3
*D7
  1

  0
LINE
  5
49F5
330
49D2
100
AcDbEntity
  8
寸法線
 62
     0
370
    -2
100
AcDbLine
 10
1945.003487720813
 20
11.87038880438103
 30
0.0
 11
1799.904199238067
 21
11.87038880438107
 31
0.0
  0
LINE
  5
49F6
330
49D2
100
AcDbEntity
  8
寸法線
 62
     0
370
    -2
100
AcDbLine
 10
1945.003487720813
 20
36.87038880438104
 30
0.0
 11
1799.904199238067
 21
36.87038880438108
 31
0.0
  0
LINE
  5
49F7
330
49D2
100
AcDbEntity
  8
寸法線
 62
     0
370
    -2
100
AcDbLine
 10
1802.904199238068
 20
14.87038880438107
 30
0.0
 11
1802.904199238068
 21
33.87038880438108
 31
0.0
  0
LINE
  5
49F8
330
49D2
100
AcDbEntity
  8
寸法線
 62
     0
370
    -2
100
AcDbLine
 10
1802.904199238068
 20
36.87038880438108
 30
0.0
 11
1802.904199238068
 21
67.69347426814128
 31
0.0
  0
INSERT
  5
49F9
330
49D2
100
AcDbEntity
  8
寸法線
 62
     0
370
    -2
100
AcDbBlockReference
  2
_Closed
 10
1802.904199238068
 20
11.87038880438107
 30
0.0
 41
3.0
 42
3.0
 43
3.0
 50
270.0
  0
INSERT
  5
49FA
330
49D2
100
AcDbEntity
  8
寸法線
 62
     0
370
    -2
100
AcDbBlockReference
  2
_Closed
 10
1802.904199238068
 20
36.87038880438108
 30
0.0
 41
3.0
 42
3.0
 43
3.0
 50
90.0
  0
MTEXT
  5
49FB
330
49D2
100
AcDbEntity
  8
寸法線
 62
     0
100
AcDbMText
 10
1791.902230734131
 20
53.78193153626147
 30
0.0
 40
20.0
 41
0.0
 71
     5
 72
     1
  1
25
  7
OKANO
 11
0.0000000000000001
 21
1.0
 31
0.0
 73
     1
 44
1.0
  0
POINT
  5
49FC
330
49D2
100
AcDbEntity
  8
Defpoints
 62
     0
100
AcDbPoint
 10
1947.003487720813
 20
11.87038880438103
 30
0.0
  0
POINT
  5
49FD
330
49D2
100
AcDbEntity
  8
Defpoints
 62
     0
100
AcDbPoint
 10
1947.003487720813
 20
36.87038880438104
 30
0.0
  0
POINT
  5
49FE
330
49D2
100
AcDbEntity
  8
Defpoints
 62
     0
100
AcDbPoint
 10
1802.904199238068
 20
36.87038880438108
 30
0.0
  0
ENDBLK
  5
49DD
330
49D2
100
AcDbEntity
  8
0
100
AcDbBlockEnd
  0
BLOCK
  5
49EA
330
49E0
100
AcDbEntity
  8
0
100
AcDbBlockBegin
  2
*D8
 70
     1
 10
0.0
 20
0.0
 30
0.0
  3
*D8
  1

  0
LINE
  5
49EC
330
49E0
100
AcDbEntity
  8
寸法線
 62
     0
370
    -2
100
AcDbLine
 10
2574.003487720813
 20
551.870388804381
 30
0.0
 11
2696.866522928891
 21
551.870388804381
 31
0.0
  0
LINE
  5
49ED
330
49E0
100
AcDbEntity
  8
寸法線
 62
     0
370
    -2
100
AcDbLine
 10
2574.003487720813
 20
101.870388804381
 30
0.0
 11
2696.866522928891
 21
101.8703888043809
 31
0.0
  0
LINE
  5
49EE
330
49E0
100
AcDbEntity
  8
寸法線
 62
     0
370
    -2
100
AcDbLine
 10
2693.866522928891
 20
548.870388804381
 30
0.0
 11
2693.866522928891
 21
104.8703888043809
 31
0.0
  0
INSERT
  5
49EF
330
49E0
100
AcDbEntity
  8
寸法線
 62
     0
370
    -2
100
AcDbBlockReference
  2
_Closed
 10
2693.866522928891
 20
551.870388804381
 30
0.0
 41
3.0
 42
3.0
 43
3.0
 50
90.0
  0
INSERT
  5
49F0
330
49E0
100
AcDbEntity
  8
寸法線
 62
     0
370
    -2
100
AcDbBlockReference
  2
_Closed
 10
2693.866522928891
 20
101.8703888043809
 30
0.0
 41
3.0
 42
3.0
 43
3.0
 50
270.0
  0
MTEXT
  5
49F1
330
49E0
100
AcDbEntity
  8
寸法線
 62
     0
100
AcDbMText
 10
2682.866522928891
 20
326.8703888043814
 30
0.0
 40
20.0
 41
0.0
 71
     5
 72
     1
  1
450
  7
OKANO
 11
0.0000000000000001
 21
1.0
 31
0.0
 73
     1
 44
1.0
  0
POINT
  5
49F2
330
49E0
100
AcDbEntity
  8
Defpoints
 62
     0
100
AcDbPoint
 10
2572.003487720813
 20
551.870388804381
 30
0.0
  0
POINT
  5
49F3
330
49E0
100
AcDbEntity
  8
Defpoints
 62
     0
100
AcDbPoint
 10
2572.003487720813
 20
101.870388804381
 30
0.0
  0
POINT
  5
49F4
330
49E0
100
AcDbEntity
  8
Defpoints
 62
     0
100
AcDbPoint
 10
2693.866522928891
 20
101.8703888043809
 30
0.0
  0
ENDBLK
  5
49EB
330
49E0
100
AcDbEntity
  8
0
100
AcDbBlockEnd
  0
BLOCK
  5
4A25
330
4A1A
100
AcDbEntity
  8
0
100
AcDbBlockBegin
  2
*D9
 70
     1
 10
0.0
 20
0.0
 30
0.0
  3
*D9
  1

  0
LINE
  5
4A30
330
4A1A
100
AcDbEntity
  8
寸法線
 62
     0
370
    -2
100
AcDbLine
 10
550.0887813549962
 20
135.9651291490372
 30
0.0
 11
599.289329153029
 21
135.9651291490372
 31
0.0
  0
LINE
  5
4A31
330
4A1A
100
AcDbEntity
  8
寸法線
 62
     0
370
    -2
100
AcDbLine
 10
549.5080495741312
 20
151.0487104836156
 30
0.0
 11
599.289329153029
 21
151.0487104836156
 31
0.0
  0
LINE
  5
4A32
330
4A1A
100
AcDbEntity
  8
寸法線
 62
     0
370
    -2
100
AcDbLine
 10
596.289329153029
 20
138.9651291490372
 30
0.0
 11
596.289329153029
 21
148.0487104836156
 31
0.0
  0
LINE
  5
4A33
330
4A1A
100
AcDbEntity
  8
寸法線
 62
     0
370
    -2
100
AcDbLine
 10
596.289329153029
 20
151.0487104836156
 30
0.0
 11
596.289329153029
 21
173.1630822846888
 31
0.0
  0
INSERT
  5
4A34
330
4A1A
100
AcDbEntity
  8
寸法線
 62
     0
370
    -2
100
AcDbBlockReference
  2
_Closed
 10
596.289329153029
 20
135.9651291490372
 30
0.0
 41
3.0
 42
3.0
 43
3.0
 50
270.0
  0
INSERT
  5
4A35
330
4A1A
100
AcDbEntity
  8
寸法線
 62
     0
370
    -2
100
AcDbBlockReference
  2
_Closed
 10
596.289329153029
 20
151.0487104836156
 30
0.0
 41
3.0
 42
3.0
 43
3.0
 50
90.0
  0
MTEXT
  5
4A36
330
4A1A
100
AcDbEntity
  8
寸法線
 62
     0
100
AcDbMText
 10
585.289329153029
 20
163.6058963841523
 30
0.0
 40
20.0
 41
0.0
 71
     5
 72
     1
  1
16
  7
OKANO
 11
0.0000000000000001
 21
1.0
 31
0.0
 73
     1
 44
1.0
  0
POINT
  5
4A37
330
4A1A
100
AcDbEntity
  8
Defpoints
 62
     0
100
AcDbPoint
 10
548.0887813549961
 20
135.9651291490372
 30
0.0
  0
POINT
  5
4A38
330
4A1A
100
AcDbEntity
  8
Defpoints
 62
     0
100
AcDbPoint
 10
547.5080495741313
 20
151.0487104836156
 30
0.0
  0
POINT
  5
4A39
330
4A1A
100
AcDbEntity
  8
Defpoints
 62
     0
100
AcDbPoint
 10
596.289329153029
 20
151.0487104836156
 30
0.0
  0
ENDBLK
  5
4A26
330
4A1A
100
AcDbEntity
  8
0
100
AcDbBlockEnd
  0
BLOCK
  5
4AED
330
4AE3
100
AcDbEntity
  8
0
100
AcDbBlockBegin
  2
*D10
 70
     1
 10
0.0
 20
0.0
 30
0.0
  3
*D10
  1

  0
LINE
  5
4BE4
330
4AE3
100
AcDbEntity
  8
寸法線
 62
     0
370
    -2
100
AcDbLine
 10
2574.003487720813
 20
101.870388804381
 30
0.0
 11
2639.342371349433
 21
101.870388804381
 31
0.0
  0
LINE
  5
4BE5
330
4AE3
100
AcDbEntity
  8
寸法線
 62
     0
370
    -2
100
AcDbLine
 10
2574.003487720813
 20
11.87038880438103
 30
0.0
 11
2639.342371349433
 21
11.87038880438102
 31
0.0
  0
LINE
  5
4BE6
330
4AE3
100
AcDbEntity
  8
寸法線
 62
     0
370
    -2
100
AcDbLine
 10
2636.342371349434
 20
98.87038880438101
 30
0.0
 11
2636.342371349434
 21
14.87038880438102
 31
0.0
  0
INSERT
  5
4BE7
330
4AE3
100
AcDbEntity
  8
寸法線
 62
     0
370
    -2
100
AcDbBlockReference
  2
_Closed
 10
2636.342371349434
 20
101.870388804381
 30
0.0
 41
3.0
 42
3.0
 43
3.0
 50
90.0
  0
INSERT
  5
4BE8
330
4AE3
100
AcDbEntity
  8
寸法線
 62
     0
370
    -2
100
AcDbBlockReference
  2
_Closed
 10
2636.342371349434
 20
11.87038880438102
 30
0.0
 41
3.0
 42
3.0
 43
3.0
 50
270.0
  0
MTEXT
  5
4BE9
330
4AE3
100
AcDbEntity
  8
寸法線
 62
     0
100
AcDbMText
 10
2625.342371349434
 20
56.87038880438143
 30
0.0
 40
20.0
 41
0.0
 71
     5
 72
     1
  1
90
  7
OKANO
 11
0.0000000000000001
 21
1.0
 31
0.0
 73
     1
 44
1.0
  0
POINT
  5
4BEA
330
4AE3
100
AcDbEntity
  8
Defpoints
 62
     0
100
AcDbPoint
 10
2572.003487720813
 20
101.870388804381
 30
0.0
  0
POINT
  5
4BEB
330
4AE3
100
AcDbEntity
  8
Defpoints
 62
     0
100
AcDbPoint
 10
2572.003487720813
 20
11.87038880438103
 30
0.0
  0
POINT
  5
4BEC
330
4AE3
100
AcDbEntity
  8
Defpoints
 62
     0
100
AcDbPoint
 10
2636.342371349434
 20
11.87038880438102
 30
0.0
  0
ENDBLK
  5
4AEE
330
4AE3
100
AcDbEntity
  8
0
100
AcDbBlockEnd
  0
BLOCK
  5
4B21
330
4B17
100
AcDbEntity
  8
0
100
AcDbBlockBegin
  2
*D11
 70
     1
 10
0.0
 20
0.0
 30
0.0
  3
*D11
  1

  0
LINE
  5
4B65
330
4B17
100
AcDbEntity
  8
寸法線
 62
     0
370
    -2
100
AcDbLine
 10
2037.003487720813
 20
549.870388804381
 30
0.0
 11
2037.003487720813
 21
469.5204255864618
 31
0.0
  0
LINE
  5
4B66
330
4B17
100
AcDbEntity
  8
寸法線
 62
     0
370
    -2
100
AcDbLine
 10
2217.003487720813
 20
549.870388804381
 30
0.0
 11
2217.003487720813
 21
469.5204255864618
 31
0.0
  0
LINE
  5
4B67
330
4B17
100
AcDbEntity
  8
寸法線
 62
     0
370
    -2
100
AcDbLine
 10
2040.003487720813
 20
472.5204255864619
 30
0.0
 11
2214.003487720813
 21
472.5204255864619
 31
0.0
  0
INSERT
  5
4B68
330
4B17
100
AcDbEntity
  8
寸法線
 62
     0
370
    -2
100
AcDbBlockReference
  2
_Closed
 10
2037.003487720813
 20
472.5204255864619
 30
0.0
 41
3.0
 42
3.0
 43
3.0
 50
180.0
  0
INSERT
  5
4B69
330
4B17
100
AcDbEntity
  8
寸法線
 62
     0
370
    -2
100
AcDbBlockReference
  2
_Closed
 10
2217.003487720813
 20
472.5204255864619
 30
0.0
 41
3.0
 42
3.0
 43
3.0
  0
MTEXT
  5
4B6A
330
4B17
100
AcDbEntity
  8
寸法線
 62
     0
100
AcDbMText
 10
2127.003487720813
 20
483.5204255864619
 30
0.0
 40
20.0
 41
0.0
 71
     5
 72
     1
  1
内180
  7
OKANO
 73
     1
 44
1.0
  0
POINT
  5
4B6B
330
4B17
100
AcDbEntity
  8
Defpoints
 62
     0
100
AcDbPoint
 10
2037.003487720813
 20
551.870388804381
 30
0.0
  0
POINT
  5
4B6C
330
4B17
100
AcDbEntity
  8
Defpoints
 62
     0
100
AcDbPoint
 10
2217.003487720813
 20
551.870388804381
 30
0.0
  0
POINT
  5
4B6D
330
4B17
100
AcDbEntity
  8
Defpoints
 62
     0
100
AcDbPoint
 10
2217.003487720813
 20
472.5204255864619
 30
0.0
  0
ENDBLK
  5
4B22
330
4B17
100
AcDbEntity
  8
0
100
AcDbBlockEnd
  0
BLOCK
  5
4B2E
330
4B24
100
AcDbEntity
  8
0
100
AcDbBlockBegin
  2
*D12
 70
     1
 10
0.0
 20
0.0
 30
0.0
  3
*D12
  1

  0
LINE
  5
4B77
330
4B24
100
AcDbEntity
  8
寸法線
 62
     0
370
    -2
100
AcDbLine
 10
2217.003487720813
 20
549.870388804381
 30
0.0
 11
2217.003487720813
 21
469.5204255864618
 31
0.0
  0
LINE
  5
4B78
330
4B24
100
AcDbEntity
  8
寸法線
 62
     0
370
    -2
100
AcDbLine
 10
2397.003487720813
 20
549.870388804381
 30
0.0
 11
2397.003487720813
 21
469.5204255864618
 31
0.0
  0
LINE
  5
4B79
330
4B24
100
AcDbEntity
  8
寸法線
 62
     0
370
    -2
100
AcDbLine
 10
2220.003487720813
 20
472.5204255864619
 30
0.0
 11
2394.003487720814
 21
472.5204255864619
 31
0.0
  0
INSERT
  5
4B7A
330
4B24
100
AcDbEntity
  8
寸法線
 62
     0
370
    -2
100
AcDbBlockReference
  2
_Closed
 10
2217.003487720813
 20
472.5204255864619
 30
0.0
 41
3.0
 42
3.0
 43
3.0
 50
180.0
  0
INSERT
  5
4B7B
330
4B24
100
AcDbEntity
  8
寸法線
 62
     0
370
    -2
100
AcDbBlockReference
  2
_Closed
 10
2397.003487720813
 20
472.5204255864619
 30
0.0
 41
3.0
 42
3.0
 43
3.0
  0
MTEXT
  5
4B7C
330
4B24
100
AcDbEntity
  8
寸法線
 62
     0
100
AcDbMText
 10
2307.003487720813
 20
483.5204255864619
 30
0.0
 40
20.0
 41
0.0
 71
     5
 72
     1
  1
内180
  7
OKANO
 73
     1
 44
1.0
  0
POINT
  5
4B7D
330
4B24
100
AcDbEntity
  8
Defpoints
 62
     0
100
AcDbPoint
 10
2217.003487720813
 20
551.870388804381
 30
0.0
  0
POINT
  5
4B7E
330
4B24
100
AcDbEntity
  8
Defpoints
 62
     0
100
AcDbPoint
 10
2397.003487720813
 20
551.870388804381
 30
0.0
  0
POINT
  5
4B7F
330
4B24
100
AcDbEntity
  8
Defpoints
 62
     0
100
AcDbPoint
 10
2397.003487720813
 20
472.5204255864619
 30
0.0
  0
ENDBLK
  5
4B2F
330
4B24
100
AcDbEntity
  8
0
100
AcDbBlockEnd
  0
BLOCK
  5
4B3B
330
4B31
100
AcDbEntity
  8
0
100
AcDbBlockBegin
  2
*D13
 70
     1
 10
0.0
 20
0.0
 30
0.0
  3
*D13
  1

  0
LINE
  5
4B89
330
4B31
100
AcDbEntity
  8
寸法線
 62
     0
370
    -2
100
AcDbLine
 10
2397.003487720813
 20
549.870388804381
 30
0.0
 11
2397.003487720813
 21
469.5204255864618
 31
0.0
  0
LINE
  5
4B8A
330
4B31
100
AcDbEntity
  8
寸法線
 62
     0
370
    -2
100
AcDbLine
 10
2577.003487720813
 20
549.870388804381
 30
0.0
 11
2577.003487720813
 21
469.5204255864618
 31
0.0
  0
LINE
  5
4B8B
330
4B31
100
AcDbEntity
  8
寸法線
 62
     0
370
    -2
100
AcDbLine
 10
2400.003487720813
 20
472.5204255864619
 30
0.0
 11
2574.003487720813
 21
472.5204255864619
 31
0.0
  0
INSERT
  5
4B8C
330
4B31
100
AcDbEntity
  8
寸法線
 62
     0
370
    -2
100
AcDbBlockReference
  2
_Closed
 10
2397.003487720813
 20
472.5204255864619
 30
0.0
 41
3.0
 42
3.0
 43
3.0
 50
180.0
  0
INSERT
  5
4B8D
330
4B31
100
AcDbEntity
  8
寸法線
 62
     0
370
    -2
100
AcDbBlockReference
  2
_Closed
 10
2577.003487720813
 20
472.5204255864619
 30
0.0
 41
3.0
 42
3.0
 43
3.0
  0
MTEXT
  5
4B8E
330
4B31
100
AcDbEntity
  8
寸法線
 62
     0
100
AcDbMText
 10
2487.003487720814
 20
483.5204255864619
 30
0.0
 40
20.0
 41
0.0
 71
     5
 72
     1
  1
内180
  7
OKANO
 73
     1
 44
1.0
  0
POINT
  5
4B8F
330
4B31
100
AcDbEntity
  8
Defpoints
 62
     0
100
AcDbPoint
 10
2397.003487720813
 20
551.870388804381
 30
0.0
  0
POINT
  5
4B90
330
4B31
100
AcDbEntity
  8
Defpoints
 62
     0
100
AcDbPoint
 10
2577.003487720813
 20
551.870388804381
 30
0.0
  0
POINT
  5
4B91
330
4B31
100
AcDbEntity
  8
Defpoints
 62
     0
100
AcDbPoint
 10
2577.003487720813
 20
472.5204255864619
 30
0.0
  0
ENDBLK
  5
4B3C
330
4B31
100
AcDbEntity
  8
0
100
AcDbBlockEnd
  0
BLOCK
  5
4B48
330
4B3E
100
AcDbEntity
  8
0
100
AcDbBlockBegin
  2
*D14
 70
     1
 10
0.0
 20
0.0
 30
0.0
  3
*D14
  1

  0
LINE
  5
4B53
330
4B3E
100
AcDbEntity
  8
寸法線
 62
     0
370
    -2
100
AcDbLine
 10
1857.003487720813
 20
549.870388804381
 30
0.0
 11
1857.003487720813
 21
469.0204255864618
 31
0.0
  0
LINE
  5
4B54
330
4B3E
100
AcDbEntity
  8
寸法線
 62
     0
370
    -2
100
AcDbLine
 10
2037.003487720813
 20
549.870388804381
 30
0.0
 11
2037.003487720813
 21
469.0204255864618
 31
0.0
  0
LINE
  5
4B55
330
4B3E
100
AcDbEntity
  8
寸法線
 62
     0
370
    -2
100
AcDbLine
 10
1860.003487720813
 20
472.0204255864619
 30
0.0
 11
2034.003487720813
 21
472.0204255864619
 31
0.0
  0
INSERT
  5
4B56
330
4B3E
100
AcDbEntity
  8
寸法線
 62
     0
370
    -2
100
AcDbBlockReference
  2
_Closed
 10
1857.003487720813
 20
472.0204255864619
 30
0.0
 41
3.0
 42
3.0
 43
3.0
 50
180.0
  0
INSERT
  5
4B57
330
4B3E
100
AcDbEntity
  8
寸法線
 62
     0
370
    -2
100
AcDbBlockReference
  2
_Closed
 10
2037.003487720813
 20
472.0204255864619
 30
0.0
 41
3.0
 42
3.0
 43
3.0
  0
MTEXT
  5
4B58
330
4B3E
100
AcDbEntity
  8
寸法線
 62
     0
100
AcDbMText
 10
1947.003487720813
 20
483.0204255864619
 30
0.0
 40
20.0
 41
0.0
 71
     5
 72
     1
  1
内180
  7
OKANO
 73
     1
 44
1.0
  0
POINT
  5
4B59
330
4B3E
100
AcDbEntity
  8
Defpoints
 62
     0
100
AcDbPoint
 10
1857.003487720813
 20
551.870388804381
 30
0.0
  0
POINT
  5
4B5A
330
4B3E
100
AcDbEntity
  8
Defpoints
 62
     0
100
AcDbPoint
 10
2037.003487720813
 20
551.870388804381
 30
0.0
  0
POINT
  5
4B5B
330
4B3E
100
AcDbEntity
  8
Defpoints
 62
     0
100
AcDbPoint
 10
2037.003487720813
 20
472.0204255864619
 30
0.0
  0
ENDBLK
  5
4B49
330
4B3E
100
AcDbEntity
  8
0
100
AcDbBlockEnd
  0
BLOCK
  5
4BB8
330
4BAD
100
AcDbEntity
  8
0
100
AcDbBlockBegin
  2
*D15
 70
     1
 10
0.0
 20
0.0
 30
0.0
  3
*D15
  1

  0
LINE
  5
4BC3
330
4BAD
100
AcDbEntity
  8
寸法線
 62
     0
370
    -2
100
AcDbLine
 10
2954.68544874023
 20
128.565756644296
 30
0.0
 11
3115.778640757371
 21
128.5657566442959
 31
0.0
  0
LINE
  5
4BC4
330
4BAD
100
AcDbEntity
  8
寸法線
 62
     0
370
    -2
100
AcDbLine
 10
2954.263041882499
 20
118.4359150817599
 30
0.0
 11
3115.778640757371
 21
118.4359150817599
 31
0.0
  0
LINE
  5
4BC5
330
4BAD
100
AcDbEntity
  8
寸法線
 62
     0
370
    -2
100
AcDbLine
 10
3112.778640757371
 20
125.5657566442959
 30
0.0
 11
3112.778640757371
 21
121.4359150817599
 31
0.0
  0
LINE
  5
4BC6
330
4BAD
100
AcDbEntity
  8
寸法線
 62
     0
370
    -2
100
AcDbLine
 10
3112.778640757371
 20
118.4359150817599
 30
0.0
 11
3112.778640757371
 21
96.32154328068665
 31
0.0
  0
INSERT
  5
4BC7
330
4BAD
100
AcDbEntity
  8
寸法線
 62
     0
370
    -2
100
AcDbBlockReference
  2
_Closed
 10
3112.778640757371
 20
128.5657566442959
 30
0.0
 41
3.0
 42
3.0
 43
3.0
 50
90.0
  0
INSERT
  5
4BC8
330
4BAD
100
AcDbEntity
  8
寸法線
 62
     0
370
    -2
100
AcDbBlockReference
  2
_Closed
 10
3112.778640757371
 20
118.4359150817599
 30
0.0
 41
3.0
 42
3.0
 43
3.0
 50
270.0
  0
MTEXT
  5
4BC9
330
4BAD
100
AcDbEntity
  8
寸法線
 62
     0
100
AcDbMText
 10
3101.778640757371
 20
105.8787291812237
 30
0.0
 40
20.0
 41
0.0
 71
     5
 72
     1
  1
16
  7
OKANO
 11
0.0000000000000001
 21
1.0
 31
0.0
 73
     1
 44
1.0
  0
POINT
  5
4BCA
330
4BAD
100
AcDbEntity
  8
Defpoints
 62
     0
100
AcDbPoint
 10
2952.685448740231
 20
128.565756644296
 30
0.0
  0
POINT
  5
4BCB
330
4BAD
100
AcDbEntity
  8
Defpoints
 62
     0
100
AcDbPoint
 10
2952.263041882499
 20
118.4359150817599
 30
0.0
  0
POINT
  5
4BCC
330
4BAD
100
AcDbEntity
  8
Defpoints
 62
     0
100
AcDbPoint
 10
3112.778640757371
 20
118.4359150817599
 30
0.0
  0
ENDBLK
  5
4BB9
330
4BAD
100
AcDbEntity
  8
0
100
AcDbBlockEnd
  0
BLOCK
  5
4BD9
330
4BCF
100
AcDbEntity
  8
0
100
AcDbBlockBegin
  2
*D16
 70
     1
 10
0.0
 20
0.0
 30
0.0
  3
*D16
  1

  0
LINE
  5
4BDB
330
4BCF
100
AcDbEntity
  8
寸法線
 62
     0
370
    -2
100
AcDbLine
 10
1855.003487720813
 20
551.870388804381
 30
0.0
 11
1810.626498837644
 21
551.870388804381
 31
0.0
  0
LINE
  5
4BDC
330
4BCF
100
AcDbEntity
  8
寸法線
 62
     0
370
    -2
100
AcDbLine
 10
1855.003487720813
 20
731.870388804381
 30
0.0
 11
1810.626498837644
 21
731.870388804381
 31
0.0
  0
LINE
  5
4BDD
330
4BCF
100
AcDbEntity
  8
寸法線
 62
     0
370
    -2
100
AcDbLine
 10
1813.626498837644
 20
554.870388804381
 30
0.0
 11
1813.626498837644
 21
728.870388804381
 31
0.0
  0
INSERT
  5
4BDE
330
4BCF
100
AcDbEntity
  8
寸法線
 62
     0
370
    -2
100
AcDbBlockReference
  2
_Closed
 10
1813.626498837644
 20
551.870388804381
 30
0.0
 41
3.0
 42
3.0
 43
3.0
 50
270.0
  0
INSERT
  5
4BDF
330
4BCF
100
AcDbEntity
  8
寸法線
 62
     0
370
    -2
100
AcDbBlockReference
  2
_Closed
 10
1813.626498837644
 20
731.870388804381
 30
0.0
 41
3.0
 42
3.0
 43
3.0
 50
90.0
  0
MTEXT
  5
4BE0
330
4BCF
100
AcDbEntity
  8
寸法線
 62
     0
100
AcDbMText
 10
1802.626498837644
 20
641.8703888043814
 30
0.0
 40
20.0
 41
0.0
 71
     5
 72
     1
  1
180
  7
OKANO
 11
0.0000000000000001
 21
1.0
 31
0.0
 73
     1
 44
1.0
  0
POINT
  5
4BE1
330
4BCF
100
AcDbEntity
  8
Defpoints
 62
     0
100
AcDbPoint
 10
1857.003487720813
 20
551.870388804381
 30
0.0
  0
POINT
  5
4BE2
330
4BCF
100
AcDbEntity
  8
Defpoints
 62
     0
100
AcDbPoint
 10
1857.003487720813
 20
731.870388804381
 30
0.0
  0
POINT
  5
4BE3
330
4BCF
100
AcDbEntity
  8
Defpoints
 62
     0
100
AcDbPoint
 10
1813.626498837644
 20
731.870388804381
 30
0.0
  0
ENDBLK
  5
4BDA
330
4BCF
100
AcDbEntity
  8
0
100
AcDbBlockEnd
  0
ENDSEC
  0
SECTION
  2
ENTITIES
  0
MTEXT
  5
34A4
330
1F
100
AcDbEntity
  8
寸法線
100
AcDbMText
 10
-772.8184611274805
 20
345.0027423505277
 30
0.0
 40
5.0
 41
0.0
 71
     1
 72
     1
  1

  7
OKANO
 73
     1
 44
1.0
  0
MTEXT
  5
34A6
330
1F
100
AcDbEntity
  8
寸法線
100
AcDbMText
 10
-702.1334951197623
 20
343.5616720366422
 30
0.0
 40
5.0
 41
0.0
 71
     1
 72
     1
  1

  7
OKANO
 73
     1
 44
1.0
  0
CIRCLE
  5
410A
330
1F
100
AcDbEntity
  8
構築線
100
AcDbCircle
 10
-72.0216851317383
 20
108.3150951718826
 30
0.0
 40
7.615773105863908
  0
CIRCLE
  5
410B
330
1F
100
AcDbEntity
  8
構築線
100
AcDbCircle
 10
-17.0216851317383
 20
108.3150951718826
 30
0.0
 40
7.615773105863908
  0
CIRCLE
  5
4114
330
1F
100
AcDbEntity
  8
構築線
100
AcDbCircle
 10
-262.0216851317383
 20
108.3150951718826
 30
0.0
 40
7.615773105863908
  0
CIRCLE
  5
4115
330
1F
100
AcDbEntity
  8
構築線
100
AcDbCircle
 10
-317.0216851317383
 20
108.3150951718826
 30
0.0
 40
7.615773105863908
  0
LINE
  5
455D
330
1F
100
AcDbEntity
  8
構築線
100
AcDbLine
 10
-272.0216851317383
 20
138.3150951718826
 30
0.0
 11
-272.0216851317383
 21
135.1150951718826
 31
0.0
  0
LINE
  5
4650
330
1F
100
AcDbEntity
  8
太線
100
AcDbLine
 10
325.9607567921075
 20
562.4785040665515
 30
0.0
 11
479.9430864291089
 21
562.4785040665515
 31
0.0
  0
LINE
  5
4651
330
1F
100
AcDbEntity
  8
太線
100
AcDbLine
 10
479.9430864291089
 20
562.4785040665515
 30
0.0
 11
479.9430864291089
 21
113.1282891866278
 31
0.0
  0
LINE
  5
4652
330
1F
100
AcDbEntity
  8
太線
100
AcDbLine
 10
479.9430864291089
 20
113.1282891866278
 30
0.0
 11
325.9607567921075
 21
113.1282891866278
 31
0.0
  0
LINE
  5
4653
330
1F
100
AcDbEntity
  8
太線
100
AcDbLine
 10
325.9607567921075
 20
113.1282891866278
 30
0.0
 11
325.9607567921075
 21
562.4785040665515
 31
0.0
  0
LINE
  5
4657
330
1F
100
AcDbEntity
  8
太線
100
AcDbLine
 10
547.9133925229289
 20
586.590914352178
 30
0.0
 11
489.2977037841331
 21
586.590914352178
 31
0.0
  0
LINE
  5
465A
330
1F
100
AcDbEntity
  8
太線
100
AcDbLine
 10
479.9430864291089
 20
562.4785040665515
 30
0.0
 11
547.9133925229289
 21
586.590914352178
 31
0.0
  0
LINE
  5
465B
330
1F
100
AcDbEntity
  8
太線
100
AcDbLine
 10
479.9430864291089
 20
113.1282891866278
 30
0.0
 11
547.9133925229289
 21
137.2406994722543
 31
0.0
  0
LINE
  5
465C
330
1F
100
AcDbEntity
  8
太線
100
AcDbLine
 10
547.9133925229289
 20
137.2406994722544
 30
0.0
 11
547.9133925229289
 21
586.590914352178
 31
0.0
  0
LINE
  5
4661
330
1F
100
AcDbEntity
  8
太線
100
AcDbLine
 10
325.9607567921075
 20
562.4785040665515
 30
0.0
 11
374.5090091571209
 21
638.6142485059308
 31
0.0
  0
LINE
  5
4664
330
1F
100
AcDbEntity
  8
太線
100
AcDbLine
 10
479.9430864291089
 20
562.4785040665515
 30
0.0
 11
509.4163931849807
 21
638.4487375887192
 31
0.0
  0
LINE
  5
4665
330
1F
100
AcDbEntity
  8
太線
100
AcDbLine
 10
509.4163931849807
 20
638.4487375887192
 30
0.0
 11
547.9133925229289
 21
586.590914352178
 31
0.0
  0
LINE
  5
4666
330
1F
100
AcDbEntity
  8
太線
100
AcDbLine
 10
509.4163931849807
 20
638.4487375887192
 30
0.0
 11
459.9378061238494
 21
638.5094403173789
 31
0.0
  0
LINE
  5
4668
330
1F
100
AcDbEntity
  8
太線
100
AcDbLine
 10
457.9690296355056
 20
634.4556844807962
 30
0.0
 11
457.9690296355056
 21
715.2724468886353
 31
0.0
  0
LINE
  5
4669
330
1F
100
AcDbEntity
  8
太線
100
AcDbLine
 10
418.0447533285978
 20
635.5052534922297
 30
0.0
 11
418.0447533285978
 21
715.2724468886353
 31
0.0
  0
ARC
  5
466A
330
1F
100
AcDbEntity
  8
太線
100
AcDbCircle
 10
428.6094757493028
 20
714.007234506842
 30
0.0
 40
10.64021250716307
100
AcDbArc
 50
173.170883140402
 51
0.6866108847589921
  0
ARC
  5
466B
330
1F
100
AcDbEntity
  8
太線
100
AcDbCircle
 10
448.7721974235001
 20
712.0179246208877
 30
0.0
 40
9.755697716055365
100
AcDbArc
 50
19.48756114282737
 51
167.4681412007228
  0
ARC
  5
466C
330
1F
100
AcDbEntity
  8
太線
100
AcDbCircle
 10
428.4825855114522
 20
711.6423005599054
 30
0.0
 40
11.05107700839257
100
AcDbArc
 50
13.03452373661113
 51
160.8229702885496
  0
ARC
  5
466D
330
1F
100
AcDbEntity
  8
太線
100
AcDbCircle
 10
429.1764355490776
 20
710.5289139407887
 30
0.0
 40
9.649684438425062
100
AcDbArc
 50
12.46078815012653
 51
165.4952329269824
  0
LINE
  5
466E
330
1F
100
AcDbEntity
  8
太線
100
AcDbLine
 10
420.4434540919447
 20
713.0575452087718
 30
0.0
 11
420.4434540919447
 21
708.542000029714
 31
0.0
  0
LINE
  5
466F
330
1F
100
AcDbEntity
  8
太線
100
AcDbLine
 10
416.8725783768645
 20
638.5634753476258
 30
0.0
 11
373.1031569007609
 21
637.9725994027016
 31
0.0
  0
ARC
  5
4670
330
1F
100
AcDbEntity
  8
太線
100
AcDbCircle
 10
438.41082875475
 20
643.0286797166438
 30
0.0
 40
21.99623330021714
100
AcDbArc
 50
191.7123635026349
 51
348.1438556460248
  0
LINE
  5
4682
330
1F
100
AcDbEntity
  8
太線
100
AcDbLine
 10
1857.003487720813
 20
551.870388804381
 30
0.0
 11
1857.003487720813
 21
731.870388804381
 31
0.0
  0
LINE
  5
4683
330
1F
100
AcDbEntity
  8
太線
100
AcDbLine
 10
1857.003487720813
 20
731.870388804381
 30
0.0
 11
1923.003487720813
 21
731.8703888043809
 31
0.0
  0
LINE
  5
4684
330
1F
100
AcDbEntity
  8
太線
100
AcDbLine
 10
2037.003487720813
 20
731.870388804381
 30
0.0
 11
2037.003487720813
 21
551.870388804381
 31
0.0
  0
LINE
  5
4685
330
1F
100
AcDbEntity
  8
太線
100
AcDbLine
 10
2037.003487720813
 20
551.870388804381
 30
0.0
 11
2217.003487720813
 21
551.870388804381
 31
0.0
  0
LINE
  5
4686
330
1F
100
AcDbEntity
  8
太線
100
AcDbLine
 10
2217.003487720813
 20
551.870388804381
 30
0.0
 11
2217.003487720813
 21
731.870388804381
 31
0.0
  0
LINE
  5
4687
330
1F
100
AcDbEntity
  8
太線
100
AcDbLine
 10
2217.003487720813
 20
731.870388804381
 30
0.0
 11
2283.003487720813
 21
731.8703888043809
 31
0.0
  0
LINE
  5
4688
330
1F
100
AcDbEntity
  8
太線
100
AcDbLine
 10
2397.003487720813
 20
731.870388804381
 30
0.0
 11
2397.003487720813
 21
551.870388804381
 31
0.0
  0
LINE
  5
4689
330
1F
100
AcDbEntity
  8
太線
100
AcDbLine
 10
2397.003487720813
 20
551.870388804381
 30
0.0
 11
2577.003487720813
 21
551.870388804381
 31
0.0
  0
LINE
  5
468A
330
1F
100
AcDbEntity
  8
太線
100
AcDbLine
 10
2577.003487720813
 20
551.870388804381
 30
0.0
 11
2617.003487720813
 21
541.870388804381
 31
0.0
  0
LINE
  5
468B
330
1F
100
AcDbEntity
  8
太線
100
AcDbLine
 10
2617.003487720813
 20
541.870388804381
 30
0.0
 11
2617.003487720813
 21
111.870388804381
 31
0.0
  0
LINE
  5
4690
330
1F
100
AcDbEntity
  8
太線
  6
DASHED2
100
AcDbLine
 10
1857.003487720813
 20
551.870388804381
 30
0.0
 11
2037.003487720813
 21
551.870388804381
 31
0.0
  0
LINE
  5
4691
330
1F
100
AcDbEntity
  8
太線
  6
DASHED2
100
AcDbLine
 10
2217.003487720813
 20
551.870388804381
 30
0.0
 11
2397.003487720813
 21
551.870388804381
 31
0.0
  0
LINE
  5
4693
330
1F
100
AcDbEntity
  8
太線
  6
DASHED2
100
AcDbLine
 10
2037.003487720813
 20
551.870388804381
 30
0.0
 11
2037.003487720813
 21
101.870388804381
 31
0.0
  0
LINE
  5
4694
330
1F
100
AcDbEntity
  8
太線
  6
DASHED2
100
AcDbLine
 10
2217.003487720813
 20
551.870388804381
 30
0.0
 11
2217.003487720813
 21
101.870388804381
 31
0.0
  0
LINE
  5
4695
330
1F
100
AcDbEntity
  8
太線
  6
DASHED2
100
AcDbLine
 10
2397.003487720813
 20
551.870388804381
 30
0.0
 11
2397.003487720813
 21
101.870388804381
 31
0.0
  0
LINE
  5
469F
330
1F
100
AcDbEntity
  8
太線
100
AcDbLine
 10
1857.003487720813
 20
551.870388804381
 30
0.0
 11
1857.003487720813
 21
101.870388804381
 31
0.0
  0
LINE
  5
46A0
330
1F
100
AcDbEntity
  8
太線
100
AcDbLine
 10
1857.003487720813
 20
101.870388804381
 30
0.0
 11
1862.003487720813
 21
101.870388804381
 31
0.0
  0
LINE
  5
46A1
330
1F
100
AcDbEntity
  8
太線
100
AcDbLine
 10
1862.003487720813
 20
101.870388804381
 30
0.0
 11
1862.003487720813
 21
11.87038880438103
 31
0.0
  0
LINE
  5
46A2
330
1F
100
AcDbEntity
  8
太線
100
AcDbLine
 10
1862.003487720813
 20
11.87038880438103
 30
0.0
 11
1922.003487720813
 21
11.87038880438103
 31
0.0
  0
LINE
  5
46A3
330
1F
100
AcDbEntity
  8
太線
100
AcDbLine
 10
2032.003487720813
 20
11.87038880438103
 30
0.0
 11
2032.003487720813
 21
101.870388804381
 31
0.0
  0
LINE
  5
46A4
330
1F
100
AcDbEntity
  8
太線
100
AcDbLine
 10
2032.003487720813
 20
101.870388804381
 30
0.0
 11
2042.003487720813
 21
101.870388804381
 31
0.0
  0
LINE
  5
46A5
330
1F
100
AcDbEntity
  8
太線
100
AcDbLine
 10
2042.003487720813
 20
101.870388804381
 30
0.0
 11
2042.003487720813
 21
11.87038880438103
 31
0.0
  0
LINE
  5
46A6
330
1F
100
AcDbEntity
  8
太線
100
AcDbLine
 10
2042.003487720813
 20
11.87038880438103
 30
0.0
 11
2102.003487720813
 21
11.87038880438103
 31
0.0
  0
LINE
  5
46AB
330
1F
100
AcDbEntity
  8
太線
100
AcDbLine
 10
2212.003487720813
 20
11.87038880438103
 30
0.0
 11
2212.003487720813
 21
101.870388804381
 31
0.0
  0
LINE
  5
46AC
330
1F
100
AcDbEntity
  8
太線
100
AcDbLine
 10
2212.003487720813
 20
101.870388804381
 30
0.0
 11
2222.003487720813
 21
101.870388804381
 31
0.0
  0
LINE
  5
46AD
330
1F
100
AcDbEntity
  8
太線
100
AcDbLine
 10
2222.003487720813
 20
101.870388804381
 30
0.0
 11
2222.003487720813
 21
11.87038880438103
 31
0.0
  0
LINE
  5
46AE
330
1F
100
AcDbEntity
  8
太線
100
AcDbLine
 10
2222.003487720813
 20
11.87038880438103
 30
0.0
 11
2282.003487720813
 21
11.87038880438103
 31
0.0
  0
LINE
  5
46AF
330
1F
100
AcDbEntity
  8
太線
100
AcDbLine
 10
2392.003487720813
 20
11.87038880438103
 30
0.0
 11
2392.003487720813
 21
101.870388804381
 31
0.0
  0
LINE
  5
46B0
330
1F
100
AcDbEntity
  8
太線
100
AcDbLine
 10
2392.003487720813
 20
101.870388804381
 30
0.0
 11
2402.003487720813
 21
101.870388804381
 31
0.0
  0
LINE
  5
46B1
330
1F
100
AcDbEntity
  8
太線
100
AcDbLine
 10
2402.003487720813
 20
101.870388804381
 30
0.0
 11
2402.003487720813
 21
11.87038880438103
 31
0.0
  0
LINE
  5
46B2
330
1F
100
AcDbEntity
  8
太線
100
AcDbLine
 10
2402.003487720813
 20
11.87038880438103
 30
0.0
 11
2462.003487720814
 21
11.87038880438103
 31
0.0
  0
LINE
  5
46B3
330
1F
100
AcDbEntity
  8
太線
100
AcDbLine
 10
2572.003487720813
 20
11.87038880438103
 30
0.0
 11
2572.003487720813
 21
101.870388804381
 31
0.0
  0
LINE
  5
46B4
330
1F
100
AcDbEntity
  8
太線
100
AcDbLine
 10
2572.003487720813
 20
101.870388804381
 30
0.0
 11
2577.003487720813
 21
101.870388804381
 31
0.0
  0
LINE
  5
46B5
330
1F
100
AcDbEntity
  8
太線
100
AcDbLine
 10
2577.003487720813
 20
101.870388804381
 30
0.0
 11
2617.003487720813
 21
111.870388804381
 31
0.0
  0
LINE
  5
46B6
330
1F
100
AcDbEntity
  8
太線
  6
DASHED2
100
AcDbLine
 10
1862.003487720813
 20
101.870388804381
 30
0.0
 11
2577.003487720813
 21
101.870388804381
 31
0.0
  0
ARC
  5
46BF
330
1F
100
AcDbEntity
  8
太線
100
AcDbCircle
 10
2307.003487720813
 20
715.870388804381
 30
0.0
 40
24.0
100
AcDbArc
 50
180.0
 51
0.0
  0
ARC
  5
46C0
330
1F
100
AcDbEntity
  8
太線
100
AcDbCircle
 10
1947.003487720813
 20
715.870388804381
 30
0.0
 40
24.0
100
AcDbArc
 50
179.9999999999994
 51
359.9999999999994
  0
LINE
  5
46C1
330
1F
100
AcDbEntity
  8
太線
100
AcDbLine
 10
2331.003487720813
 20
715.870388804381
 30
0.0
 11
2331.003487720813
 21
731.8703888043812
 31
0.0
  0
LINE
  5
46C2
330
1F
100
AcDbEntity
  8
太線
100
AcDbLine
 10
2283.003487720813
 20
731.870388804381
 30
0.0
 11
2283.003487720813
 21
715.870388804381
 31
0.0
  0
LINE
  5
46C3
330
1F
100
AcDbEntity
  8
太線
100
AcDbLine
 10
1971.003487720813
 20
731.870388804381
 30
0.0
 11
1971.003487720813
 21
715.870388804381
 31
0.0
  0
LINE
  5
46C4
330
1F
100
AcDbEntity
  8
太線
100
AcDbLine
 10
1923.003487720813
 20
731.870388804381
 30
0.0
 11
1923.003487720813
 21
715.870388804381
 31
0.0
  0
LINE
  5
46C5
330
1F
100
AcDbEntity
  8
太線
100
AcDbLine
 10
2331.003487720813
 20
731.8703888043809
 30
0.0
 11
2397.003487720813
 21
731.870388804381
 31
0.0
  0
LINE
  5
46C6
330
1F
100
AcDbEntity
  8
太線
100
AcDbLine
 10
1971.003487720813
 20
731.8703888043809
 30
0.0
 11
2037.003487720813
 21
731.870388804381
 31
0.0
  0
TEXT
  5
46D5
330
1F
100
AcDbEntity
  8
文字
100
AcDbText
 10
2690.161706036415
 20
57.85147214653898
 30
0.0
 40
14.976
  1
止めしろ
 51
15.0
  7
OKANO
100
AcDbText
  0
DIMENSION
  5
46DA
330
1F
100
AcDbEntity
  8
寸法線
100
AcDbDimension
  2
*D3
 10
480.4153321676376
 20
2.672756080923136
 30
0.0
 11
403.3598467335045
 21
13.67275608092313
 31
0.0
 70
    32
  1
180
 71
     5
 42
154.1109708682661
  3
sunpo
100
AcDbAlignedDimension
 13
326.3043612993715
 23
114.0694692624661
 33
0.0
 14
480.4153321676376
 24
114.0694692624661
 34
0.0
100
AcDbRotatedDimension
1001
ACAD
1000
DSTYLE
1002
{
1070
   140
1040
20.0
1070
    40
1040
1.0
1002
}
  0
DIMENSION
  5
46E7
330
1F
100
AcDbEntity
  8
寸法線
100
AcDbDimension
  2
*D4
 10
237.7725314240578
 20
114.0694692624661
 30
0.0
 11
226.7725314240578
 21
338.5010842590917
 31
0.0
 70
    32
  1
450
 71
     5
 42
448.863229993251
  3
sunpo
100
AcDbAlignedDimension
 13
313.1885390808793
 23
562.9326992557171
 33
0.0
 14
326.3043612993715
 24
114.0694692624661
 34
0.0
 50
90.0
100
AcDbRotatedDimension
1001
ACAD
1000
DSTYLE
1002
{
1070
   140
1040
20.0
1070
    40
1040
1.0
1002
}
  0
DIMENSION
  5
4737
330
1F
100
AcDbEntity
  8
寸法線
100
AcDbDimension
  2
*D5
 10
2083.158413840436
 20
732.6101246302933
 30
0.0
 11
2072.158413840436
 21
711.7407676143865
 31
0.0
 70
    32
  1
40
 71
     5
 42
41.73871403181419
  3
sunpo
100
AcDbAlignedDimension
 13
1950.108073383513
 23
690.8714105984791
 33
0.0
 14
1970.220334845617
 24
732.6101246302933
 34
0.0
 50
90.0
100
AcDbRotatedDimension
1001
ACAD
1000
DSTYLE
1002
{
1070
   140
1040
20.0
1070
    40
1040
1.0
1002
}
  0
DIMENSION
  5
4744
330
1F
100
AcDbEntity
  8
寸法線
100
AcDbDimension
  2
*D6
 10
1971.767431306154
 20
765.0735680335619
 30
0.0
 11
1947.013880462439
 21
776.073568033562
 31
0.0
 70
    32
  1
50
 71
     5
 42
49.5071016874308
  3
sunpo
100
AcDbAlignedDimension
 13
1922.260329618723
 23
731.0642436611097
 33
0.0
 14
1971.767431306154
 24
731.0642436611097
 34
0.0
100
AcDbRotatedDimension
1001
ACAD
1000
DSTYLE
1002
{
1070
   140
1040
20.0
1070
    40
1040
1.0
1002
}
  0
TEXT
  5
4777
330
1F
100
AcDbEntity
  8
文字
100
AcDbText
 10
250.4882577691741
 20
760.1868788739611
 30
0.0
 40
20.0
  1
凝固までの水平、垂直の押さえ
 51
15.0
  7
OKANO
100
AcDbText
  0
TEXT
  5
4779
330
1F
100
AcDbEntity
  8
文字
100
AcDbText
 10
2433.927013976413
 20
198.907030463255
 30
0.0
 40
14.976
  1
折り曲げ
 51
15.0
  7
OKANO
100
AcDbText
  0
LEADER
  5
477A
330
1F
100
AcDbEntity
  8
寸法線
100
AcDbLeader
  3
sunpo
 76
     2
 10
2399.620640295128
 20
321.333274668199
 30
0.0
 10
2460.882013764448
 20
225.840803941368
 30
0.0
1001
ACAD
1000
DSTYLE
1002
{
1070
   147
1040
1.0
1070
    77
1070
     0
1002
}
  0
LINE
  5
47A0
330
1F
100
AcDbEntity
  8
想像線
100
AcDbLine
 10
416.5949111190866
 20
145.4148837216307
 30
0.0
 11
417.8962449504279
 21
145.3772023174711
 31
0.0
  0
LINE
  5
47A2
330
1F
100
AcDbEntity
  8
太線
  6
DASHED2
100
AcDbLine
 10
458.0933545514517
 20
635.4195893360365
 30
0.0
 11
458.0933545514517
 21
127.8457990779966
 31
0.0
  0
LINE
  5
47A3
330
1F
100
AcDbEntity
  8
太線
  6
DASHED2
100
AcDbLine
 10
417.8962449504279
 20
638.6320807179735
 30
0.0
 11
417.8962449504279
 21
132.6645344246312
 31
0.0
  0
LINE
  5
47A7
330
1F
100
AcDbEntity
  8
想像線
100
AcDbLine
 10
417.8962449504279
 20
132.6645344246312
 30
0.0
 11
417.8962449504279
 21
127.9307074744497
 31
0.0
  0
ELLIPSE
  5
47A8
330
1F
100
AcDbEntity
  8
想像線
100
AcDbEllipse
 10
437.9947997509398
 20
127.8882532762231
 30
0.0
 11
-20.09855480051192
 21
0.042454198226551
 31
0.0
210
0.0
220
0.0
230
1.0
 40
0.1801036456522971
 41
0.0
 42
6.283185307179586
  0
ARC
  5
47AA
330
1F
100
AcDbEntity
  8
想像線
100
AcDbCircle
 10
439.729830018794
 20
73.13476381532729
 30
0.0
 40
57.19241037177117
100
AcDbArc
 50
72.57782128693375
 51
110.6459720547177
  0
ARC
  5
47AB
330
1F
100
AcDbEntity
  8
想像線
100
AcDbCircle
 10
438.4868595631245
 20
200.6402450968699
 30
0.0
 40
74.97699902722164
100
AcDbArc
 50
253.9388117606858
 51
284.6652196442987
  0
ELLIPSE
  5
47AF
330
1F
100
AcDbEntity
  8
太線
  6
DASHED2
100
AcDbEllipse
 10
437.7551114870016
 20
128.0291671032077
 30
0.0
 11
-21.60199273188709
 21
0.836433846016007
 31
0.0
210
0.0
220
0.0
230
1.0
 40
0.2459671798569908
 41
0.0
 42
6.283185307179586
  0
LINE
  5
47C5
330
1F
100
AcDbEntity
  8
太線
100
AcDbLine
 10
624.3968152657371
 20
111.870388804381
 30
0.0
 11
804.396815265737
 21
111.870388804381
 31
0.0
  0
LINE
  5
47C6
330
1F
100
AcDbEntity
  8
太線
100
AcDbLine
 10
804.396815265737
 20
111.870388804381
 30
0.0
 11
804.3968152657367
 21
-68.12961119561896
 31
0.0
  0
LINE
  5
47C7
330
1F
100
AcDbEntity
  8
太線
100
AcDbLine
 10
804.3968152657367
 20
-68.12961119561896
 30
0.0
 11
624.396815265737
 21
-68.12961119561896
 31
0.0
  0
LINE
  5
47C8
330
1F
100
AcDbEntity
  8
太線
100
AcDbLine
 10
624.396815265737
 20
-68.12961119561896
 30
0.0
 11
624.3968152657371
 21
111.870388804381
 31
0.0
  0
LINE
  5
47C9
330
1F
100
AcDbEntity
  8
太線
100
AcDbLine
 10
834.3968152657371
 20
111.870388804381
 30
0.0
 11
1014.396815265737
 21
111.870388804381
 31
0.0
  0
LINE
  5
47CA
330
1F
100
AcDbEntity
  8
太線
100
AcDbLine
 10
1014.396815265737
 20
111.870388804381
 30
0.0
 11
1014.396815265737
 21
-68.12961119561896
 31
0.0
  0
LINE
  5
47CB
330
1F
100
AcDbEntity
  8
太線
100
AcDbLine
 10
1014.396815265737
 20
-68.12961119561896
 30
0.0
 11
834.3968152657371
 21
-68.12961119561896
 31
0.0
  0
LINE
  5
47CC
330
1F
100
AcDbEntity
  8
太線
100
AcDbLine
 10
834.3968152657371
 20
-68.12961119561896
 30
0.0
 11
834.3968152657371
 21
111.870388804381
 31
0.0
  0
LINE
  5
47CD
330
1F
100
AcDbEntity
  8
太線
100
AcDbLine
 10
714.3968152657371
 20
111.870388804381
 30
0.0
 11
714.3968152657371
 21
46.87038880438104
 31
0.0
  0
LINE
  5
47CE
330
1F
100
AcDbEntity
  8
太線
100
AcDbLine
 10
924.3968152657371
 20
111.870388804381
 30
0.0
 11
924.3968152657371
 21
41.87038880438104
 31
0.0
  0
CIRCLE
  5
47D1
330
1F
100
AcDbEntity
  8
太線
100
AcDbCircle
 10
714.3968152657372
 20
21.87038880438103
 30
0.0
 40
25.0
  0
LINE
  5
47D2
330
1F
100
AcDbEntity
  8
太線
100
AcDbLine
 10
689.3968152657372
 20
21.87038880438103
 30
0.0
 11
693.3108193622339
 21
21.87038880438103
 31
0.0
  0
LINE
  5
47D3
330
1F
100
AcDbEntity
  8
太線
100
AcDbLine
 10
714.3968152657371
 20
-3.129611195618963
 30
0.0
 11
714.3968152657371
 21
-68.12961119561896
 31
0.0
  0
LINE
  5
47D4
330
1F
100
AcDbEntity
  8
破線
100
AcDbLine
 10
739.3968152657372
 20
21.87038880438103
 30
0.0
 11
804.3968152657365
 21
21.87038880438103
 31
0.0
  0
LINE
  5
47D5
330
1F
100
AcDbEntity
  8
破線
100
AcDbLine
 10
689.3968152657372
 20
21.87038880438103
 30
0.0
 11
624.396815265737
 21
21.87038880438103
 31
0.0
  0
LINE
  5
47DA
330
1F
100
AcDbEntity
  8
太線
100
AcDbLine
 10
944.3968152657371
 20
1.870388804381036
 30
0.0
 11
944.3968152657371
 21
41.87038880438104
 31
0.0
  0
LINE
  5
47DB
330
1F
100
AcDbEntity
  8
太線
100
AcDbLine
 10
944.3968152657371
 20
41.87038880438104
 30
0.0
 11
904.396815265737
 21
41.87038880438104
 31
0.0
  0
LINE
  5
47DC
330
1F
100
AcDbEntity
  8
太線
100
AcDbLine
 10
904.396815265737
 20
41.87038880438104
 30
0.0
 11
904.396815265737
 21
1.870388804381036
 31
0.0
  0
LINE
  5
47DD
330
1F
100
AcDbEntity
  8
太線
100
AcDbLine
 10
904.396815265737
 20
1.870388804381036
 30
0.0
 11
944.3968152657367
 21
1.870388804381036
 31
0.0
  0
LINE
  5
47DE
330
1F
100
AcDbEntity
  8
太線
100
AcDbLine
 10
904.396815265737
 20
21.87038880438103
 30
0.0
 11
905.8968152657373
 21
21.87038880438103
 31
0.0
  0
LINE
  5
47DF
330
1F
100
AcDbEntity
  8
破線
100
AcDbLine
 10
834.3968152657373
 20
21.87038880438103
 30
0.0
 11
904.396815265737
 21
21.87038880438103
 31
0.0
  0
LINE
  5
47E0
330
1F
100
AcDbEntity
  8
破線
100
AcDbLine
 10
944.3968152657371
 20
21.87038880438103
 30
0.0
 11
1014.396815265736
 21
21.87038880438103
 31
0.0
  0
LINE
  5
47E1
330
1F
100
AcDbEntity
  8
太線
100
AcDbLine
 10
924.3968152657371
 20
1.870388804381036
 30
0.0
 11
924.3968152657371
 21
-68.12961119561896
 31
0.0
  0
CIRCLE
  5
47E2
330
1F
100
AcDbEntity
  8
太線
100
AcDbCircle
 10
714.3968152657372
 20
21.87038880438103
 30
0.0
 40
21.08599590350331
  0
CIRCLE
  5
47E3
330
1F
100
AcDbEntity
  8
太線
100
AcDbCircle
 10
714.3968152657372
 20
21.87038880438103
 30
0.0
 40
19.39299643170807
  0
LINE
  5
47E4
330
1F
100
AcDbEntity
  8
太線
100
AcDbLine
 10
735.4828111692405
 20
21.87038880438103
 30
0.0
 11
739.3968152657372
 21
21.87038880438103
 31
0.0
  0
LINE
  5
47EE
330
1F
100
AcDbEntity
  8
太線
100
AcDbLine
 10
907.8968152657372
 20
40.37038880438103
 30
0.0
 11
905.8968152657369
 21
40.37038880438103
 31
0.0
  0
LINE
  5
47EF
330
1F
100
AcDbEntity
  8
太線
100
AcDbLine
 10
905.8968152657369
 20
40.37038880438103
 30
0.0
 11
905.8968152657373
 21
5.37038880438103
 31
0.0
  0
LINE
  5
47F0
330
1F
100
AcDbEntity
  8
太線
100
AcDbLine
 10
907.8968152657374
 20
3.370388804381036
 30
0.0
 11
942.8968152657372
 21
3.370388804381036
 31
0.0
  0
LINE
  5
47F1
330
1F
100
AcDbEntity
  8
太線
100
AcDbLine
 10
942.8968152657372
 20
3.370388804381036
 30
0.0
 11
942.8968152657372
 21
5.370388804381036
 31
0.0
  0
LINE
  5
47F2
330
1F
100
AcDbEntity
  8
太線
100
AcDbLine
 10
940.896815265737
 20
7.370388804381036
 30
0.0
 11
911.8968152657366
 21
7.370388804381036
 31
0.0
  0
LINE
  5
47F3
330
1F
100
AcDbEntity
  8
太線
100
AcDbLine
 10
909.8968152657366
 20
9.370388804381057
 30
0.0
 11
909.8968152657372
 21
38.370388804381
 31
0.0
  0
ARC
  5
47F4
330
1F
100
AcDbEntity
  8
太線
100
AcDbCircle
 10
911.8968152657366
 20
9.370388804381036
 30
0.0
 40
2.0
100
AcDbArc
 50
179.9999999999994
 51
270.0
  0
ARC
  5
47F5
330
1F
100
AcDbEntity
  8
太線
100
AcDbCircle
 10
907.8968152657374
 20
5.370388804381036
 30
0.0
 40
2.0
100
AcDbArc
 50
180.0000000000001
 51
270.0
  0
ARC
  5
47F6
330
1F
100
AcDbEntity
  8
太線
100
AcDbCircle
 10
940.896815265737
 20
5.370388804381036
 30
0.0
 40
2.0
100
AcDbArc
 50
0.0
 51
90.0
  0
ARC
  5
47F7
330
1F
100
AcDbEntity
  8
太線
100
AcDbCircle
 10
907.8968152657372
 20
38.37038880438104
 30
0.0
 40
2.0
100
AcDbArc
 50
359.9999999999992
 51
90.0
  0
LINE
  5
47FF
330
1F
100
AcDbEntity
  8
太線
100
AcDbLine
 10
624.3968152657371
 20
832.4785040665515
 30
0.0
 11
804.396815265737
 21
832.4785040665515
 31
0.0
  0
LINE
  5
4800
330
1F
100
AcDbEntity
  8
太線
100
AcDbLine
 10
804.396815265737
 20
832.4785040665515
 30
0.0
 11
804.396815265737
 21
472.4785040665515
 31
0.0
  0
LINE
  5
4801
330
1F
100
AcDbEntity
  8
太線
100
AcDbLine
 10
804.396815265737
 20
472.4785040665515
 30
0.0
 11
624.3968152657371
 21
472.4785040665515
 31
0.0
  0
LINE
  5
4802
330
1F
100
AcDbEntity
  8
太線
100
AcDbLine
 10
624.3968152657371
 20
472.4785040665515
 30
0.0
 11
624.3968152657371
 21
832.4785040665515
 31
0.0
  0
LINE
  5
4803
330
1F
100
AcDbEntity
  8
太線
100
AcDbLine
 10
624.3968152657371
 20
652.4785040665515
 30
0.0
 11
689.3968152657371
 21
652.4785040665515
 31
0.0
  0
ARC
  5
480B
330
1F
100
AcDbEntity
  8
太線
100
AcDbCircle
 10
714.3968152657371
 20
637.4785040665515
 30
0.0
 40
25.0
100
AcDbArc
 50
180.0
 51
0.0
  0
ARC
  5
480C
330
1F
100
AcDbEntity
  8
太線
100
AcDbCircle
 10
714.3968152657371
 20
667.4785040665515
 30
0.0
 40
25.0
100
AcDbArc
 50
0.0
 51
180.0
  0
LINE
  5
480D
330
1F
100
AcDbEntity
  8
太線
100
AcDbLine
 10
739.3968152657371
 20
667.4785040665515
 30
0.0
 11
739.3968152657371
 21
637.4785040665515
 31
0.0
  0
LINE
  5
480E
330
1F
100
AcDbEntity
  8
太線
100
AcDbLine
 10
689.3968152657371
 20
667.4785040665515
 30
0.0
 11
689.3968152657371
 21
637.4785040665515
 31
0.0
  0
LINE
  5
480F
330
1F
100
AcDbEntity
  8
太線
100
AcDbLine
 10
739.3968152657371
 20
652.4785040665515
 30
0.0
 11
804.396815265737
 21
652.4785040665515
 31
0.0
  0
LINE
  5
4819
330
1F
100
AcDbEntity
  8
太線
100
AcDbLine
 10
899.3968152657371
 20
652.4785040665516
 30
0.0
 11
834.3968152657371
 21
652.4785040665517
 31
0.0
  0
LINE
  5
481A
330
1F
100
AcDbEntity
  8
太線
100
AcDbLine
 10
834.3968152657373
 20
742.4785040665518
 30
0.0
 11
1014.396815265737
 21
742.4785040665515
 31
0.0
  0
LINE
  5
481B
330
1F
100
AcDbEntity
  8
太線
100
AcDbLine
 10
1014.396815265736
 20
562.4785040665515
 30
0.0
 11
834.3968152657369
 21
562.478504066552
 31
0.0
  0
LINE
  5
481C
330
1F
100
AcDbEntity
  8
太線
100
AcDbLine
 10
834.3968152657369
 20
562.478504066552
 30
0.0
 11
834.3968152657373
 21
742.4785040665518
 31
0.0
  0
LINE
  5
481D
330
1F
100
AcDbEntity
  8
太線
100
AcDbLine
 10
924.3968152657371
 20
677.4785040665515
 30
0.0
 11
924.3968152657371
 21
673.5644999700548
 31
0.0
  0
CIRCLE
  5
481E
330
1F
100
AcDbEntity
  8
太線
100
AcDbCircle
 10
924.3968152657371
 20
652.4785040665514
 30
0.0
 40
25.0
  0
LINE
  5
481F
330
1F
100
AcDbEntity
  8
太線
100
AcDbLine
 10
1014.396815265737
 20
742.4785040665515
 30
0.0
 11
1014.396815265736
 21
562.4785040665515
 31
0.0
  0
LINE
  5
4820
330
1F
100
AcDbEntity
  8
破線
100
AcDbLine
 10
924.3968152657371
 20
677.4785040665515
 30
0.0
 11
924.3968152657371
 21
742.4785040665518
 31
0.0
  0
LINE
  5
4821
330
1F
100
AcDbEntity
  8
太線
100
AcDbLine
 10
1014.396815265737
 20
652.4785040665515
 30
0.0
 11
949.3968152657371
 21
652.4785040665516
 31
0.0
  0
LINE
  5
4822
330
1F
100
AcDbEntity
  8
破線
100
AcDbLine
 10
924.3968152657371
 20
627.4785040665515
 30
0.0
 11
924.396815265737
 21
562.4785040665521
 31
0.0
  0
CIRCLE
  5
4823
330
1F
100
AcDbEntity
  8
太線
100
AcDbCircle
 10
924.3968152657371
 20
652.4785040665514
 30
0.0
 40
19.39299643170807
  0
CIRCLE
  5
4824
330
1F
100
AcDbEntity
  8
太線
100
AcDbCircle
 10
924.3968152657371
 20
652.4785040665514
 30
0.0
 40
21.08599590350331
  0
LINE
  5
4825
330
1F
100
AcDbEntity
  8
太線
100
AcDbLine
 10
924.3968152657371
 20
631.3925081630482
 30
0.0
 11
924.3968152657371
 21
627.4785040665515
 31
0.0
  0
LINE
  5
4829
330
1F
100
AcDbEntity
  8
太線
100
AcDbLine
 10
1114.396815265737
 20
622.4785040665515
 30
0.0
 11
1114.396815265737
 21
652.4785040665515
 31
0.0
  0
LINE
  5
482A
330
1F
100
AcDbEntity
  8
太線
100
AcDbLine
 10
1154.396815265737
 20
652.4785040665515
 30
0.0
 11
1154.396815265737
 21
622.4785040665515
 31
0.0
  0
LINE
  5
482B
330
1F
100
AcDbEntity
  8
太線
100
AcDbLine
 10
1224.396815265737
 20
832.4785040665515
 30
0.0
 11
1224.396815265737
 21
472.4785040665515
 31
0.0
  0
LINE
  5
482C
330
1F
100
AcDbEntity
  8
太線
100
AcDbLine
 10
1044.396815265737
 20
472.4785040665515
 30
0.0
 11
1044.396815265737
 21
832.4785040665515
 31
0.0
  0
LINE
  5
482D
330
1F
100
AcDbEntity
  8
太線
100
AcDbLine
 10
1154.396815265737
 20
622.4785040665515
 30
0.0
 11
1114.396815265737
 21
622.4785040665515
 31
0.0
  0
LINE
  5
482E
330
1F
100
AcDbEntity
  8
太線
100
AcDbLine
 10
1224.396815265737
 20
472.4785040665515
 30
0.0
 11
1044.396815265737
 21
472.4785040665515
 31
0.0
  0
LINE
  5
482F
330
1F
100
AcDbEntity
  8
太線
100
AcDbLine
 10
1044.396815265737
 20
832.4785040665515
 30
0.0
 11
1224.396815265737
 21
832.4785040665515
 31
0.0
  0
LINE
  5
4830
330
1F
100
AcDbEntity
  8
太線
100
AcDbLine
 10
1114.396815265737
 20
682.4785040665515
 30
0.0
 11
1154.396815265737
 21
682.4785040665515
 31
0.0
  0
LINE
  5
4831
330
1F
100
AcDbEntity
  8
太線
100
AcDbLine
 10
1044.396815265737
 20
652.4785040665515
 30
0.0
 11
1114.396815265737
 21
652.4785040665514
 31
0.0
  0
LINE
  5
4832
330
1F
100
AcDbEntity
  8
太線
100
AcDbLine
 10
1114.396815265737
 20
652.4785040665515
 30
0.0
 11
1114.396815265737
 21
682.4785040665515
 31
0.0
  0
LINE
  5
4833
330
1F
100
AcDbEntity
  8
太線
100
AcDbLine
 10
1154.396815265737
 20
682.4785040665515
 30
0.0
 11
1154.396815265737
 21
652.4785040665515
 31
0.0
  0
LINE
  5
4834
330
1F
100
AcDbEntity
  8
太線
100
AcDbLine
 10
1154.396815265737
 20
652.4785040665514
 30
0.0
 11
1224.396815265737
 21
652.4785040665515
 31
0.0
  0
LINE
  5
484D
330
1F
100
AcDbEntity
  8
破線
100
AcDbLine
 10
1344.396815265737
 20
632.4785040665515
 30
0.0
 11
1344.396815265737
 21
562.4785040665515
 31
0.0
  0
LINE
  5
484E
330
1F
100
AcDbEntity
  8
太線
100
AcDbLine
 10
1254.396815265737
 20
562.4785040665515
 30
0.0
 11
1254.396815265737
 21
742.4785040665515
 31
0.0
  0
LINE
  5
484F
330
1F
100
AcDbEntity
  8
太線
100
AcDbLine
 10
1434.396815265737
 20
742.4785040665515
 30
0.0
 11
1434.396815265737
 21
562.4785040665515
 31
0.0
  0
LINE
  5
4850
330
1F
100
AcDbEntity
  8
太線
100
AcDbLine
 10
1434.396815265737
 20
562.4785040665515
 30
0.0
 11
1254.396815265737
 21
562.4785040665515
 31
0.0
  0
LINE
  5
4851
330
1F
100
AcDbEntity
  8
太線
100
AcDbLine
 10
1254.396815265737
 20
652.4785040665515
 30
0.0
 11
1324.396815265737
 21
652.4785040665515
 31
0.0
  0
LINE
  5
4852
330
1F
100
AcDbEntity
  8
太線
100
AcDbLine
 10
1254.396815265737
 20
742.4785040665515
 30
0.0
 11
1434.396815265737
 21
742.4785040665515
 31
0.0
  0
LINE
  5
4853
330
1F
100
AcDbEntity
  8
破線
100
AcDbLine
 10
1344.396815265737
 20
742.4785040665515
 30
0.0
 11
1344.396815265737
 21
672.4785040665515
 31
0.0
  0
LINE
  5
4854
330
1F
100
AcDbEntity
  8
太線
100
AcDbLine
 10
1364.396815265737
 20
652.4785040665515
 30
0.0
 11
1434.396815265737
 21
652.4785040665515
 31
0.0
  0
LINE
  5
4855
330
1F
100
AcDbEntity
  8
太線
100
AcDbLine
 10
1329.896815265736
 20
639.9785040665515
 30
0.0
 11
1329.896815265737
 21
668.9785040665515
 31
0.0
  0
LINE
  5
4856
330
1F
100
AcDbEntity
  8
太線
100
AcDbLine
 10
1325.896815265737
 20
670.9785040665515
 30
0.0
 11
1325.896815265737
 21
635.9785040665514
 31
0.0
  0
LINE
  5
4857
330
1F
100
AcDbEntity
  8
太線
100
AcDbLine
 10
1324.396815265737
 20
672.4785040665515
 30
0.0
 11
1324.396815265737
 21
632.4785040665515
 31
0.0
  0
LINE
  5
4858
330
1F
100
AcDbEntity
  8
太線
100
AcDbLine
 10
1364.396815265737
 20
632.4785040665515
 30
0.0
 11
1364.396815265737
 21
672.4785040665515
 31
0.0
  0
LINE
  5
485A
330
1F
100
AcDbEntity
  8
太線
100
AcDbLine
 10
1360.896815265737
 20
637.9785040665515
 30
0.0
 11
1331.896815265736
 21
637.9785040665515
 31
0.0
  0
LINE
  5
485B
330
1F
100
AcDbEntity
  8
太線
100
AcDbLine
 10
1327.896815265737
 20
633.9785040665515
 30
0.0
 11
1362.896815265737
 21
633.9785040665515
 31
0.0
  0
LINE
  5
485C
330
1F
100
AcDbEntity
  8
太線
100
AcDbLine
 10
1324.396815265737
 20
632.4785040665515
 30
0.0
 11
1364.396815265736
 21
632.4785040665515
 31
0.0
  0
ARC
  5
485D
330
1F
100
AcDbEntity
  8
太線
100
AcDbCircle
 10
1327.896815265737
 20
635.9785040665514
 30
0.0
 40
2.0
100
AcDbArc
 50
180.0000000000001
 51
270.0
  0
ARC
  5
485E
330
1F
100
AcDbEntity
  8
太線
100
AcDbCircle
 10
1331.896815265736
 20
639.9785040665515
 30
0.0
 40
2.0
100
AcDbArc
 50
179.9999999999994
 51
270.0
  0
LINE
  5
485F
330
1F
100
AcDbEntity
  8
太線
100
AcDbLine
 10
1324.396815265737
 20
652.4785040665515
 30
0.0
 11
1325.896815265737
 21
652.4785040665515
 31
0.0
  0
LINE
  5
4860
330
1F
100
AcDbEntity
  8
太線
100
AcDbLine
 10
1362.896815265737
 20
633.9785040665515
 30
0.0
 11
1362.896815265737
 21
635.9785040665514
 31
0.0
  0
ARC
  5
4861
330
1F
100
AcDbEntity
  8
太線
100
AcDbCircle
 10
1360.896815265737
 20
635.9785040665514
 30
0.0
 40
2.0
100
AcDbArc
 50
0.0
 51
90.0
  0
LINE
  5
4862
330
1F
100
AcDbEntity
  8
太線
100
AcDbLine
 10
1364.396815265737
 20
672.4785040665515
 30
0.0
 11
1324.396815265737
 21
672.4785040665515
 31
0.0
  0
LINE
  5
4863
330
1F
100
AcDbEntity
  8
太線
100
AcDbLine
 10
1327.896815265737
 20
670.9785040665515
 30
0.0
 11
1325.896815265737
 21
670.9785040665515
 31
0.0
  0
ARC
  5
4864
330
1F
100
AcDbEntity
  8
太線
100
AcDbCircle
 10
1327.896815265737
 20
668.9785040665515
 30
0.0
 40
2.0
100
AcDbArc
 50
359.9999999999992
 51
90.0
  0
LINE
  5
4866
330
1F
100
AcDbEntity
  8
太線
100
AcDbLine
 10
1344.396815265737
 20
633.9785040665515
 30
0.0
 11
1344.396815265737
 21
632.4785040665515
 31
0.0
  0
TEXT
  5
48A5
330
1F
100
AcDbEntity
  8
文字
100
AcDbText
 10
898.6624834519789
 20
428.5808419059922
 30
0.0
 40
20.0
  1
ガムテープで頂点押さえる為垂直調整が簡単に出来ます
 51
15.0
  7
OKANO
100
AcDbText
  0
ELLIPSE
  5
48BD
330
1F
100
AcDbEntity
  8
太線
  6
DASHED2
100
AcDbEllipse
 10
1167.457666849527
 20
358.0250035526447
 30
0.0
 11
-20.4434619075532
 21
-0.6376946229577652
 31
0.0
210
0.0
220
0.0
230
1.0
 40
0.1310139340387745
 41
0.0
 42
6.283185307179586
  0
ELLIPSE
  5
48BE
330
1F
100
AcDbEntity
  8
破線
100
AcDbEllipse
 10
1167.586316051068
 20
358.5115161380039
 30
0.0
 11
-24.98784626249069
 21
-0.7794479855194324
 31
0.0
210
0.0
220
0.0
230
1.0
 40
0.1828878454940422
 41
0.0
 42
6.283185307179586
  0
LINE
  5
48C1
330
1F
100
AcDbEntity
  8
太線
  6
DASHED2
100
AcDbLine
 10
1146.008759324517
 20
248.4036816305056
 30
0.0
 11
1152.307720690921
 21
46.46913158842184
 31
0.0
  0
LINE
  5
48C2
330
1F
100
AcDbEntity
  8
太線
  6
DASHED2
100
AcDbLine
 10
1195.984451849498
 20
249.962577601545
 30
0.0
 11
1202.283413215902
 21
48.02802755946069
 31
0.0
  0
LINE
  5
48C4
330
1F
100
AcDbEntity
  8
太線
  6
DASHED2
100
AcDbLine
 10
1192.574162313559
 20
359.2909641235233
 30
0.0
 11
1195.984451849498
 21
249.9625776015455
 31
0.0
  0
LINE
  5
48C5
330
1F
100
AcDbEntity
  8
太線
  6
DASHED2
100
AcDbLine
 10
1142.598469788577
 20
357.7320681524844
 30
0.0
 11
1146.008759324517
 21
248.4036816305061
 31
0.0
  0
LINE
  5
48C8
330
1F
100
AcDbEntity
  8
構築線
100
AcDbLine
 10
1239.679413797912
 20
250.3806291077308
 30
0.0
 11
1242.485426545782
 21
160.4243825627643
 31
0.0
  0
LINE
  5
48CA
330
1F
100
AcDbEntity
  8
破線
100
AcDbLine
 10
1100.178167744775
 20
136.873326715473
 30
0.0
 11
1278.536782459577
 21
136.873326715473
 31
0.0
  0
LINE
  5
48CB
330
1F
100
AcDbEntity
  8
太線
  6
DASHED2
100
AcDbLine
 10
1278.536782459577
 20
136.873326715473
 30
0.0
 11
1163.536782459577
 21
273.2067248356079
 31
0.0
  0
LINE
  5
48CC
330
1F
100
AcDbEntity
  8
太線
  6
DASHED2
100
AcDbLine
 10
1100.178167744775
 20
136.873326715473
 30
0.0
 11
1174.44021253664
 21
295.2802989571746
 31
0.0
  0
ELLIPSE
  5
48CD
330
1F
100
AcDbEntity
  8
太線
100
AcDbEllipse
 10
1188.393027350598
 20
358.3559264682274
 30
0.0
 11
-20.4534053203306
 21
0.0
 31
0.0
210
0.0
220
0.0
230
1.0
 40
0.1310139340387745
 41
0.0
 42
6.283185307179586
  0
ELLIPSE
  5
48CE
330
1F
100
AcDbEntity
  8
太線
100
AcDbEllipse
 10
1188.536782459578
 20
358.8381915212971
 30
0.0
 11
-25.0
 21
0.0
 31
0.0
210
0.0
220
0.0
230
1.0
 40
0.1828878454940423
 41
0.0
 42
6.283185307179586
  0
LINE
  5
48CF
330
1F
100
AcDbEntity
  8
太線
100
AcDbLine
 10
1278.536782459577
 20
136.873326715473
 30
0.0
 11
1278.536782459577
 21
46.87332671547301
 31
0.0
  0
LINE
  5
48D0
330
1F
100
AcDbEntity
  8
太線
100
AcDbLine
 10
1098.536782459577
 20
136.873326715473
 30
0.0
 11
1098.536782459577
 21
46.87332671547298
 31
0.0
  0
LINE
  5
48D1
330
1F
100
AcDbEntity
  8
太線
100
AcDbLine
 10
1163.536782459577
 20
249.4566292074496
 30
0.0
 11
1163.536782459577
 21
47.42386103606031
 31
0.0
  0
LINE
  5
48D2
330
1F
100
AcDbEntity
  8
太線
100
AcDbLine
 10
1213.536782459577
 20
249.4566292074501
 30
0.0
 11
1213.536782459577
 21
47.42386103606031
 31
0.0
  0
LINE
  5
48D3
330
1F
100
AcDbEntity
  8
太線
100
AcDbLine
 10
1188.536782459577
 20
292.7578993966719
 30
0.0
 11
1278.536782459577
 21
136.873326715473
 31
0.0
  0
LINE
  5
48D4
330
1F
100
AcDbEntity
  8
太線
100
AcDbLine
 10
1213.536782459577
 20
358.8381915212971
 30
0.0
 11
1213.536782459577
 21
249.4566292074505
 31
0.0
  0
LINE
  5
48D5
330
1F
100
AcDbEntity
  8
太線
100
AcDbLine
 10
1163.536782459577
 20
358.8381915212971
 30
0.0
 11
1163.536782459577
 21
249.4566292074499
 31
0.0
  0
LINE
  5
48D6
330
1F
100
AcDbEntity
  8
太線
100
AcDbLine
 10
1098.536782459577
 20
136.873326715473
 30
0.0
 11
1188.536782459577
 21
292.7578993966719
 31
0.0
  0
LINE
  5
48D7
330
1F
100
AcDbEntity
  8
太線
100
AcDbLine
 10
1278.536782459577
 20
136.873326715473
 30
0.0
 11
1098.536782459577
 21
136.873326715473
 31
0.0
  0
LINE
  5
48D8
330
1F
100
AcDbEntity
  8
構築線
100
AcDbLine
 10
1255.807374890422
 20
247.8254133871198
 30
0.0
 11
1255.807374890422
 21
157.8254133871197
 31
0.0
  0
LINE
  5
48D9
330
1F
100
AcDbEntity
  8
太線
100
AcDbLine
 10
1278.536782459577
 20
112.7578993966719
 30
0.0
 11
1278.536782459577
 21
136.873326715473
 31
0.0
  0
TEXT
  5
48DB
330
1F
100
AcDbEntity
  8
文字
100
AcDbText
 10
642.2062241360444
 20
136.9168011326646
 30
0.0
 40
20.0
  1
底パイプ用
 51
15.0
  7
OKANO
100
AcDbText
  0
TEXT
  5
48DC
330
1F
100
AcDbEntity
  8
文字
100
AcDbText
 10
847.8516662521551
 20
135.6387541934536
 30
0.0
 40
20.0
  1
底アングル用
 51
15.0
  7
OKANO
100
AcDbText
  0
TEXT
  5
48DD
330
1F
100
AcDbEntity
  8
文字
100
AcDbText
 10
736.1992460997453
 20
-112.3991296422482
 30
0.0
 40
20.0
  1
底は固定の為貫通
 51
15.0
  7
OKANO
100
AcDbText
  0
TEXT
  5
48DE
330
1F
100
AcDbEntity
  8
文字
100
AcDbText
 10
594.9093764421968
 20
857.2420216752517
 30
0.0
 40
20.0
  1
上蓋　平原寸パイプ用切込み
 51
15.0
  7
OKANO
100
AcDbText
  0
TEXT
  5
48DF
330
1F
100
AcDbEntity
  8
文字
100
AcDbText
 10
810.7364395908616
 20
765.6701845550806
 30
0.0
 40
20.0
  1
セット原寸パイプ用
 51
15.0
  7
OKANO
100
AcDbText
  0
TEXT
  5
48E0
330
1F
100
AcDbEntity
  8
文字
100
AcDbText
 10
1063.183881960713
 20
854.3729874740357
 30
0.0
 40
20.0
  1
上蓋　平原寸アングル用
 51
15.0
  7
OKANO
100
AcDbText
  0
SPLINE
  5
4982
330
1F
100
AcDbEntity
  8
太線
100
AcDbSpline
210
0.0
220
0.0
230
1.0
 70
     8
 71
     3
 72
    13
 73
     9
 74
     0
 42
0.0000000001
 43
0.0000000001
 40
43.89121906249177
 40
43.89121906249177
 40
43.89121906249177
 40
43.89121906249177
 40
137.5668998277927
 40
267.3441761309221
 40
453.0636764319395
 40
656.5602184313304
 40
716.1471000904923
 40
806.5436903485672
 40
806.5436903485672
 40
806.5436903485672
 40
806.5436903485672
 10
1104.054276253996
 20
-15.3752917349758
 30
0.0
 10
1119.395600958328
 20
-18.71983115736964
 30
0.0
 10
1156.08209933949
 20
-25.1935117229375
 30
0.0
 10
1224.512253100466
 20
-16.45258567926805
 30
0.0
 10
1310.730562502045
 20
-20.72538559139672
 30
0.0
 10
1385.960593072872
 20
-32.48264835400539
 30
0.0
 10
1444.042741071463
 20
-20.03507179693178
 30
0.0
 10
1468.983364634112
 20
-21.41194180452157
 30
0.0
 10
1484.054276253996
 20
-23.11757090554761
 30
0.0
  0
LINE
  5
4983
330
1F
100
AcDbEntity
  8
太線
100
AcDbLine
 10
1104.054276253996
 20
-15.37529173497659
 30
0.0
 11
1104.054276253996
 21
-41.10337842762328
 31
0.0
  0
LINE
  5
4984
330
1F
100
AcDbEntity
  8
破線
100
AcDbLine
 10
1194.054276253996
 20
-20.70104630450953
 30
0.0
 11
1194.054276253996
 21
-41.10337842762328
 31
0.0
  0
LINE
  5
4985
330
1F
100
AcDbEntity
  8
破線
100
AcDbLine
 10
1284.054276253996
 20
-20.10892311887209
 30
0.0
 11
1284.054276253996
 21
-41.10337842762328
 31
0.0
  0
LINE
  5
4986
330
1F
100
AcDbEntity
  8
破線
100
AcDbLine
 10
1374.054276253996
 20
-28.08009715321196
 30
0.0
 11
1374.054276253996
 21
-41.10337842762328
 31
0.0
  0
LINE
  5
4987
330
1F
100
AcDbEntity
  8
破線
100
AcDbLine
 10
1464.054276253996
 20
-21.50055772272213
 30
0.0
 11
1464.054276253996
 21
-41.10337842762328
 31
0.0
  0
LINE
  5
4988
330
1F
100
AcDbEntity
  8
太線
100
AcDbLine
 10
1484.054276253996
 20
-23.11757090554692
 30
0.0
 11
1484.054276253996
 21
-36.10337842762328
 31
0.0
  0
ARC
  5
4989
330
1F
100
AcDbEntity
  8
太線
100
AcDbCircle
 10
1149.054276253996
 20
-86.10337842762328
 30
0.0
 40
12.5
100
AcDbArc
 50
0.0
 51
180.0
  0
LINE
  5
498A
330
1F
100
AcDbEntity
  8
破線
100
AcDbLine
 10
1106.554276253996
 20
-41.10337842762328
 30
0.0
 11
1464.054276253996
 21
-41.10337842762328
 31
0.0
  0
LINE
  5
498B
330
1F
100
AcDbEntity
  8
太線
100
AcDbLine
 10
1106.554276253996
 20
-41.10337842762328
 30
0.0
 11
1106.554276253996
 21
-86.10337842762328
 31
0.0
  0
LINE
  5
498C
330
1F
100
AcDbEntity
  8
太線
100
AcDbLine
 10
1106.554276253996
 20
-86.10337842762328
 30
0.0
 11
1136.554276253996
 21
-86.10337842762328
 31
0.0
  0
LINE
  5
498D
330
1F
100
AcDbEntity
  8
太線
100
AcDbLine
 10
1104.054276253996
 20
-41.10337842762328
 30
0.0
 11
1106.554276253996
 21
-41.10337842762328
 31
0.0
  0
LINE
  5
498E
330
1F
100
AcDbEntity
  8
太線
100
AcDbLine
 10
1431.554276253996
 20
-86.10337842762328
 30
0.0
 11
1461.554276253996
 21
-86.10337842762328
 31
0.0
  0
LINE
  5
498F
330
1F
100
AcDbEntity
  8
太線
100
AcDbLine
 10
1286.554276253996
 20
-86.10337842762328
 30
0.0
 11
1316.554276253996
 21
-86.10337842762328
 31
0.0
  0
ARC
  5
4990
330
1F
100
AcDbEntity
  8
太線
100
AcDbCircle
 10
1239.054276253996
 20
-86.10337842762328
 30
0.0
 40
12.5
100
AcDbArc
 50
0.0
 51
180.0
  0
LINE
  5
4991
330
1F
100
AcDbEntity
  8
太線
100
AcDbLine
 10
1196.554276253996
 20
-41.10337842762328
 30
0.0
 11
1196.554276253996
 21
-86.10337842762328
 31
0.0
  0
LINE
  5
4992
330
1F
100
AcDbEntity
  8
太線
100
AcDbLine
 10
1191.554276253996
 20
-86.10337842762328
 30
0.0
 11
1191.554276253996
 21
-41.10337842762328
 31
0.0
  0
LINE
  5
4993
330
1F
100
AcDbEntity
  8
太線
100
AcDbLine
 10
1161.554276253996
 20
-86.10337842762328
 30
0.0
 11
1191.554276253996
 21
-86.10337842762328
 31
0.0
  0
LINE
  5
4994
330
1F
100
AcDbEntity
  8
太線
100
AcDbLine
 10
1196.554276253996
 20
-86.10337842762328
 30
0.0
 11
1226.554276253996
 21
-86.10337842762328
 31
0.0
  0
LINE
  5
4995
330
1F
100
AcDbEntity
  8
太線
100
AcDbLine
 10
1191.554276253996
 20
-41.10337842762328
 30
0.0
 11
1196.554276253996
 21
-41.10337842762328
 31
0.0
  0
LINE
  5
4996
330
1F
100
AcDbEntity
  8
太線
100
AcDbLine
 10
1286.554276253996
 20
-41.10337842762328
 30
0.0
 11
1286.554276253996
 21
-86.10337842762328
 31
0.0
  0
LINE
  5
4997
330
1F
100
AcDbEntity
  8
太線
100
AcDbLine
 10
1281.554276253996
 20
-86.10337842762328
 30
0.0
 11
1281.554276253996
 21
-41.10337842762328
 31
0.0
  0
LINE
  5
4998
330
1F
100
AcDbEntity
  8
太線
100
AcDbLine
 10
1251.554276253996
 20
-86.10337842762328
 30
0.0
 11
1281.554276253996
 21
-86.10337842762328
 31
0.0
  0
LINE
  5
4999
330
1F
100
AcDbEntity
  8
太線
100
AcDbLine
 10
1281.554276253996
 20
-41.10337842762328
 30
0.0
 11
1286.554276253996
 21
-41.10337842762328
 31
0.0
  0
LINE
  5
499A
330
1F
100
AcDbEntity
  8
太線
100
AcDbLine
 10
1341.554276253996
 20
-86.10337842762328
 30
0.0
 11
1371.554276253996
 21
-86.10337842762328
 31
0.0
  0
ARC
  5
499B
330
1F
100
AcDbEntity
  8
太線
100
AcDbCircle
 10
1329.054276253996
 20
-86.10337842762328
 30
0.0
 40
12.5
100
AcDbArc
 50
0.0
 51
180.0
  0
LINE
  5
499C
330
1F
100
AcDbEntity
  8
太線
100
AcDbLine
 10
1376.554276253996
 20
-41.10337842762328
 30
0.0
 11
1376.554276253996
 21
-86.10337842762328
 31
0.0
  0
LINE
  5
499D
330
1F
100
AcDbEntity
  8
太線
100
AcDbLine
 10
1371.554276253996
 20
-86.10337842762328
 30
0.0
 11
1371.554276253996
 21
-41.10337842762328
 31
0.0
  0
LINE
  5
499E
330
1F
100
AcDbEntity
  8
太線
100
AcDbLine
 10
1376.554276253996
 20
-86.10337842762328
 30
0.0
 11
1406.554276253996
 21
-86.10337842762328
 31
0.0
  0
ARC
  5
499F
330
1F
100
AcDbEntity
  8
太線
100
AcDbCircle
 10
1419.054276253996
 20
-86.10337842762328
 30
0.0
 40
12.5
100
AcDbArc
 50
0.0
 51
180.0
  0
LINE
  5
49A0
330
1F
100
AcDbEntity
  8
太線
100
AcDbLine
 10
1371.554276253996
 20
-41.10337842762328
 30
0.0
 11
1376.554276253996
 21
-41.10337842762328
 31
0.0
  0
LINE
  5
49A1
330
1F
100
AcDbEntity
  8
太線
100
AcDbLine
 10
1461.554276253996
 20
-86.10337842762328
 30
0.0
 11
1461.554276253996
 21
-41.10337842762328
 31
0.0
  0
LINE
  5
49A2
330
1F
100
AcDbEntity
  8
太線
100
AcDbLine
 10
1464.054276253996
 20
-41.10337842762328
 30
0.0
 11
1484.054276253996
 21
-36.10337842762328
 31
0.0
  0
LINE
  5
49A3
330
1F
100
AcDbEntity
  8
太線
100
AcDbLine
 10
1461.554276253996
 20
-41.10337842762328
 30
0.0
 11
1464.054276253996
 21
-41.10337842762328
 31
0.0
  0
TEXT
  5
49A4
330
1F
100
AcDbEntity
  8
文字
100
AcDbText
 10
1139.607095724272
 20
-1.792507693678089
 30
0.0
 40
20.0
  1
底パイプ用ミミの切り込み
 51
15.0
  7
OKANO
100
AcDbText
  0
LINE
  5
49A6
330
1F
100
AcDbEntity
  8
太線
  6
DASHED2
100
AcDbLine
 10
326.1610939949205
 20
273.6209829286254
 30
0.0
 11
480.3064910585017
 21
264.9046618931615
 31
0.0
  0
LINE
  5
49A7
330
1F
100
AcDbEntity
  8
太線
  6
DASHED2
100
AcDbLine
 10
480.3064910585017
 20
264.9046618931615
 30
0.0
 11
548.6539779217528
 21
292.5063497842047
 31
0.0
  0
LINE
  5
49A8
330
1F
100
AcDbEntity
  8
太線
  6
DASHED2
100
AcDbLine
 10
515.2073377326596
 20
280.8845837915123
 30
0.0
 11
516.6615442177262
 21
350.6151612993708
 31
0.0
  0
LINE
  5
49A9
330
1F
100
AcDbEntity
  8
太線
  6
DASHED2
100
AcDbLine
 10
329.069497884433
 20
275.0737031012031
 30
0.0
 11
416.3216054892108
 21
301.2226708196685
 31
0.0
  0
LINE
  5
49AB
330
1F
100
AcDbEntity
  8
太線
  6
DASHED2
100
AcDbLine
 10
359.6077341840136
 20
311.3917120277092
 30
0.0
 11
363.9703445585928
 21
311.3917120277092
 31
0.0
  0
LINE
  5
49AC
330
1F
100
AcDbEntity
  8
太線
  6
DASHED2
100
AcDbLine
 10
459.9476638319101
 20
301.2226708196685
 30
0.0
 11
550.1081844068194
 21
293.9590699567816
 31
0.0
  0
TEXT
  5
49AD
330
1F
100
AcDbEntity
  8
文字
100
AcDbText
 10
633.5705687444733
 20
386.4420305062176
 30
0.0
 40
20.0
  1
深さの変更
 51
15.0
  7
OKANO
100
AcDbText
  0
TEXT
  5
49AE
330
1F
100
AcDbEntity
  8
文字
100
AcDbText
 10
623.7115057124246
 20
298.9638708683023
 30
0.0
 40
20.0
  1
ハサミでカット
 51
15.0
  7
OKANO
100
AcDbText
  0
TEXT
  5
49AF
330
1F
100
AcDbEntity
  8
文字
100
AcDbText
 10
625.4388117831021
 20
345.5644702553436
 30
0.0
 40
20.0
  1
ハサミで切れ目
 51
15.0
  7
OKANO
100
AcDbText
  0
TEXT
  5
49B0
330
1F
100
AcDbEntity
  8
文字
100
AcDbText
 10
981.8933782503645
 20
390.1968475825242
 30
0.0
 40
20.0
  1
本体が垂直で無い場合に調整も出来る。
 51
15.0
  7
OKANO
100
AcDbText
  0
LINE
  5
49B1
330
1F
100
AcDbEntity
  8
太線
  6
DASHED2
100
AcDbLine
 10
406.0705866628705
 20
271.3486972739983
 30
0.0
 11
406.0705866628705
 21
271.3486972739983
 31
0.0
  0
LINE
  5
49B2
330
1F
100
AcDbEntity
  8
太線
  6
DASHED2
100
AcDbLine
 10
406.0705866628705
 20
271.3486972739983
 30
0.0
 11
407.797892733548
 21
326.5790398505323
 31
0.0
  0
LINE
  5
49B5
330
1F
100
AcDbEntity
  8
太線
  6
DASHED2
100
AcDbLine
 10
618.5295784197714
 20
307.5936094457219
 30
0.0
 11
616.8022723490939
 21
311.0455067215188
 31
0.0
  0
LINE
  5
49B6
330
1F
100
AcDbEntity
  8
太線
100
AcDbLine
 10
387.0701926435558
 20
400.7948174439507
 30
0.0
 11
387.0701926435558
 21
302.4157635320261
 31
0.0
  0
LINE
  5
49B7
330
1F
100
AcDbEntity
  8
太線
100
AcDbLine
 10
387.0701926435558
 20
302.4157635320261
 30
0.0
 11
387.0701926435558
 21
307.5936094457219
 31
0.0
  0
LINE
  5
49B8
330
1F
100
AcDbEntity
  8
太線
100
AcDbLine
 10
378.4336441289287
 20
321.4011939368365
 30
0.0
 11
387.0701926435558
 21
298.9638708683023
 31
0.0
  0
LINE
  5
49B9
330
1F
100
AcDbEntity
  8
太線
100
AcDbLine
 10
387.0701926435558
 20
298.9638708683023
 30
0.0
 11
397.4340472288604
 21
321.4011939368365
 31
0.0
  0
LEADER
  5
49BB
330
1F
100
AcDbEntity
  8
太線
100
AcDbLeader
  3
sunpo
 76
     2
 10
555.8316161912025
 20
294.4026453612114
 30
0.0
 10
623.0821099193089
 20
308.8021157081129
 30
0.0
1001
ACAD
1000
DSTYLE
1002
{
1070
   147
1040
1.0
1070
    77
1070
     0
1002
}
  0
TEXT
  5
49BC
330
1F
100
AcDbEntity
  8
文字
100
AcDbText
 10
1236.130592550064
 20
765.6701845550806
 30
0.0
 40
20.0
  1
セット原寸アングル用
 51
15.0
  7
OKANO
100
AcDbText
  0
LEADER
  5
49BE
330
1F
100
AcDbEntity
  8
太線
100
AcDbLeader
  3
sunpo
 76
     2
 10
523.4060460545552
 20
328.1208049253664
 30
0.0
 10
619.9061977820129
 20
351.49094628492
 30
0.0
1001
ACAD
1000
DSTYLE
1002
{
1070
   147
1040
1.0
1070
    77
1070
     0
1002
}
  0
ARC
  5
49C9
330
1F
100
AcDbEntity
  8
太線
100
AcDbCircle
 10
1947.003487720813
 20
11.87038880438103
 30
0.0
 40
25.0
100
AcDbArc
 50
0.0
 51
180.0
  0
ARC
  5
49CA
330
1F
100
AcDbEntity
  8
太線
100
AcDbCircle
 10
2127.003487720813
 20
11.87038880438103
 30
0.0
 40
25.0
100
AcDbArc
 50
0.0
 51
180.0
  0
ARC
  5
49CB
330
1F
100
AcDbEntity
  8
太線
100
AcDbCircle
 10
2307.003487720813
 20
11.87038880438102
 30
0.0
 40
25.0
100
AcDbArc
 50
0.0000000000000326
 51
179.9999999999999
  0
ARC
  5
49CC
330
1F
100
AcDbEntity
  8
太線
100
AcDbCircle
 10
2487.003487720814
 20
11.87038880438102
 30
0.0
 40
25.0
100
AcDbArc
 50
0.0000000000000326
 51
179.9999999999999
  0
LINE
  5
49CD
330
1F
100
AcDbEntity
  8
太線
100
AcDbLine
 10
2512.003487720813
 20
11.87038880438103
 30
0.0
 11
2572.003487720813
 21
11.87038880438103
 31
0.0
  0
LINE
  5
49CE
330
1F
100
AcDbEntity
  8
太線
100
AcDbLine
 10
2332.003487720813
 20
11.87038880438103
 30
0.0
 11
2392.003487720813
 21
11.87038880438103
 31
0.0
  0
LINE
  5
49CF
330
1F
100
AcDbEntity
  8
太線
100
AcDbLine
 10
2152.003487720813
 20
11.87038880438103
 30
0.0
 11
2212.003487720813
 21
11.87038880438103
 31
0.0
  0
LINE
  5
49D0
330
1F
100
AcDbEntity
  8
太線
100
AcDbLine
 10
1972.003487720813
 20
11.87038880438103
 30
0.0
 11
2032.003487720813
 21
11.87038880438103
 31
0.0
  0
DIMENSION
  5
49D1
330
1F
100
AcDbEntity
  8
寸法線
100
AcDbDimension
  2
*D7
 10
1802.904199238068
 20
36.87038880438108
 30
0.0
 11
1791.902230734131
 21
53.78193153626147
 31
0.0
 70
    32
 71
     5
 42
25.0
  3
sunpo
100
AcDbAlignedDimension
 13
1947.003487720813
 23
11.87038880438103
 33
0.0
 14
1947.003487720813
 24
36.87038880438104
 34
0.0
 50
90.0
100
AcDbRotatedDimension
1001
ACAD
1000
DSTYLE
1002
{
1070
   140
1040
20.0
1070
    40
1040
1.0
1002
}
  0
DIMENSION
  5
49DF
330
1F
100
AcDbEntity
  8
寸法線
100
AcDbDimension
  2
*D8
 10
2693.866522928891
 20
101.8703888043809
 30
0.0
 11
2682.866522928891
 21
326.8703888043814
 31
0.0
 70
    32
 71
     5
 42
450.0
  3
sunpo
100
AcDbAlignedDimension
 13
2572.003487720813
 23
551.870388804381
 33
0.0
 14
2572.003487720813
 24
101.870388804381
 34
0.0
 50
90.0
100
AcDbRotatedDimension
1001
ACAD
1000
DSTYLE
1002
{
1070
   140
1040
20.0
1070
    40
1040
1.0
1002
}
  0
LINE
  5
4A0C
330
1F
100
AcDbEntity
  8
太線
100
AcDbLine
 10
548.0544088820606
 20
151.4373706270907
 30
0.0
 11
479.6341863754951
 21
126.9343541805001
 31
0.0
  0
LINE
  5
4A0D
330
1F
100
AcDbEntity
  8
太線
100
AcDbLine
 10
479.6341863754951
 20
126.9343541805001
 30
0.0
 11
326.6568803926784
 21
126.2895400969145
 31
0.0
  0
LINE
  5
4A0F
330
1F
100
AcDbEntity
  8
太線
  6
DASHED2
100
AcDbLine
 10
325.7461348689103
 20
125.925332165767
 30
0.0
 11
417.5710412301286
 21
154.2651008547973
 31
0.0
  0
LINE
  5
4A11
330
1F
100
AcDbEntity
  8
太線
  6
DASHED2
100
AcDbLine
 10
548.9609741050771
 20
152.2152547269961
 30
0.0
 11
458.438001411736
 21
156.4541986238455
 31
0.0
  0
LINE
  5
4A12
330
1F
100
AcDbEntity
  8
太線
  6
DASHED2
100
AcDbLine
 10
405.3972053810776
 20
126.7816116634849
 30
0.0
 11
435.1000523583334
 21
138.7919400060682
 31
0.0
  0
LINE
  5
4A13
330
1F
100
AcDbEntity
  8
太線
  6
DASHED2
100
AcDbLine
 10
459.1452122921655
 20
147.26982272037
 30
0.0
 11
475.4110625420071
 21
155.041217324896
 31
0.0
  0
ARC
  5
4A14
330
1F
100
AcDbEntity
  8
太線
  6
DASHED2
100
AcDbCircle
 10
438.3613669942659
 20
185.689326133203
 30
0.0
 40
46.33408258235579
100
AcDbArc
 50
243.9101642809098
 51
296.0898357190903
  0
LINE
  5
4A15
330
1F
100
AcDbEntity
  8
太線
100
AcDbLine
 10
326.436644547768
 20
119.8851988927372
 30
0.0
 11
480.5915352521515
 21
118.7051383766092
 31
0.0
  0
LINE
  5
4A16
330
1F
100
AcDbEntity
  8
太線
100
AcDbLine
 10
406.1719311188771
 20
126.3755291917414
 30
0.0
 11
406.1719311188771
 21
119.8851988927372
 31
0.0
  0
LINE
  5
4A17
330
1F
100
AcDbEntity
  8
太線
100
AcDbLine
 10
480.5915352521515
 20
119.2951660949747
 30
0.0
 11
547.923559468074
 21
145.2564872909933
 31
0.0
  0
LINE
  5
4A18
330
1F
100
AcDbEntity
  8
太線
100
AcDbLine
 10
517.2107098259766
 20
132.8658594907465
 30
0.0
 11
517.2107098259766
 21
126.3755291917414
 31
0.0
  0
DIMENSION
  5
4A19
330
1F
100
AcDbEntity
  8
寸法線
100
AcDbDimension
  2
*D9
 10
596.289329153029
 20
151.0487104836156
 30
0.0
 11
585.289329153029
 21
163.6058963841523
 31
0.0
 70
    32
  1
16
 71
     5
 42
15.08358133457841
  3
sunpo
100
AcDbAlignedDimension
 13
548.0887813549961
 23
135.9651291490372
 33
0.0
 14
547.5080495741313
 24
151.0487104836156
 34
0.0
 50
90.0
100
AcDbRotatedDimension
1001
ACAD
1000
DSTYLE
1002
{
1070
   140
1040
20.0
1070
    40
1040
1.0
1002
}
  0
TEXT
  5
4A3A
330
1F
100
AcDbEntity
  8
文字
100
AcDbText
 10
632.3060618668941
 20
206.163343257559
 30
0.0
 40
20.0
  1
ダンボール　Ｗ使用　厚　8mm
 51
15.0
  7
OKANO
100
AcDbText
  0
LINE
  5
4A43
330
1F
100
AcDbEntity
  8
太線
100
AcDbLine
 10
2997.281421060636
 20
111.7919893703674
 30
0.0
 11
3064.613445276559
 21
137.7533105663861
 31
0.0
  0
LINE
  5
4A4A
330
1F
100
AcDbEntity
  8
太線
100
AcDbLine
 10
3064.603278331414
 20
129.7375227476471
 30
0.0
 11
3064.603278331414
 21
579.0877376275707
 31
0.0
  0
LINE
  5
4A4B
330
1F
100
AcDbEntity
  8
太線
100
AcDbLine
 10
2842.650642600592
 20
105.6251124620205
 30
0.0
 11
2842.650642600592
 21
554.9753273419441
 31
0.0
  0
LINE
  5
4A4C
330
1F
100
AcDbEntity
  8
太線
100
AcDbLine
 10
2996.632972237594
 20
554.9753273419441
 30
0.0
 11
2996.632972237594
 21
105.6251124620205
 31
0.0
  0
LINE
  5
4A4F
330
1F
100
AcDbEntity
  8
太線
100
AcDbLine
 10
2843.126530356253
 20
112.3820221681299
 30
0.0
 11
2997.281421060636
 21
111.201961652002
 31
0.0
  0
LINE
  5
4A52
330
1F
100
AcDbEntity
  8
太線
100
AcDbLine
 10
2996.632972237594
 20
105.6251124620205
 30
0.0
 11
2842.650642600592
 21
105.6251124620205
 31
0.0
  0
LINE
  5
4A53
330
1F
100
AcDbEntity
  8
太線
100
AcDbLine
 10
2996.632972237594
 20
105.6251124620205
 30
0.0
 11
3064.603278331414
 21
129.7375227476471
 31
0.0
  0
LINE
  5
4A59
330
1F
100
AcDbEntity
  8
太線
100
AcDbLine
 10
3033.900595634461
 20
125.3626827661392
 30
0.0
 11
3033.900595634461
 21
118.8723524671341
 31
0.0
  0
LINE
  5
4A5A
330
1F
100
AcDbEntity
  8
太線
100
AcDbLine
 10
3026.106278993466
 20
630.9455608641119
 30
0.0
 11
3064.603278331414
 21
579.0877376275707
 31
0.0
  0
LINE
  5
4A5B
330
1F
100
AcDbEntity
  8
太線
100
AcDbLine
 10
2996.632972237594
 20
554.9753273419441
 30
0.0
 11
3026.106278993466
 21
630.9455608641119
 31
0.0
  0
LINE
  5
4A5C
330
1F
100
AcDbEntity
  8
太線
100
AcDbLine
 10
2842.650642600592
 20
554.9753273419441
 30
0.0
 11
2891.198894965606
 21
631.1110717813235
 31
0.0
  0
LINE
  5
4A5F
330
1F
100
AcDbEntity
  8
太線
100
AcDbLine
 10
2842.650642600592
 20
554.9753273419441
 30
0.0
 11
2996.632972237594
 21
554.9753273419441
 31
0.0
  0
LINE
  5
4A6D
330
1F
100
AcDbEntity
  8
太線
100
AcDbLine
 10
2996.632972237594
 20
554.9753273419441
 30
0.0
 11
3064.603278331414
 21
579.0877376275707
 31
0.0
  0
LINE
  5
4A6E
330
1F
100
AcDbEntity
  8
太線
100
AcDbLine
 10
3064.603278331414
 20
579.0877376275707
 30
0.0
 11
3005.987589592618
 21
579.0877376275707
 31
0.0
  0
LINE
  5
4A74
330
1F
100
AcDbEntity
  8
太線
100
AcDbLine
 10
3026.106278993466
 20
630.9455608641119
 30
0.0
 11
2976.627691932334
 21
631.0062635927716
 31
0.0
  0
LINE
  5
4A77
330
1F
100
AcDbEntity
  8
太線
100
AcDbLine
 10
2933.562464185349
 20
631.0602986230185
 30
0.0
 11
2889.793042709246
 21
630.4694226780943
 31
0.0
  0
ARC
  5
4A78
330
1F
100
AcDbEntity
  8
太線
100
AcDbCircle
 10
2955.100714563235
 20
635.5255029920365
 30
0.0
 40
21.99623330021714
100
AcDbArc
 50
191.7123635026349
 51
348.1438556460248
  0
LINE
  5
4ABC
330
1F
100
AcDbEntity
  8
破線
100
AcDbLine
 10
2843.078937810467
 20
555.3418412264155
 30
0.0
 11
2927.422424691144
 21
583.4276909908003
 31
0.0
  0
LINE
  5
4ABD
330
1F
100
AcDbEntity
  8
破線
100
AcDbLine
 10
2927.422424691144
 20
583.4276909908003
 30
0.0
 11
3007.080160910001
 21
581.0872052762452
 31
0.0
  0
LINE
  5
4AC0
330
1F
100
AcDbEntity
  8
破線
100
AcDbLine
 10
2923.99460772609
 20
580.1712115796417
 30
0.0
 11
2923.99460772609
 21
154.8812938308337
 31
0.0
  0
LINE
  5
4AC3
330
1F
100
AcDbEntity
  8
破線
100
AcDbLine
 10
2923.380981329033
 20
583.2444507196169
 30
0.0
 11
2891.031119343421
 21
627.6801995296973
 31
0.0
  0
ELLIPSE
  5
4AC4
330
1F
100
AcDbEntity
  8
破線
100
AcDbEllipse
 10
2953.633819889153
 20
134.8052578196743
 30
0.0
 11
-23.07394122762889
 21
0.7683479265001552
 31
0.0
210
0.0
220
0.0
230
1.0
 40
0.2600887343703816
 41
0.0
 42
6.283185307179586
  0
LINE
  5
4ACF
330
1F
100
AcDbEntity
  8
太線
  6
DASHED2
 62
     0
100
AcDbLine
 10
2577.003487720813
 20
551.870388804381
 30
0.0
 11
2577.003487720813
 21
101.870388804381
 31
0.0
  0
LINE
  5
4AD0
330
1F
100
AcDbEntity
  8
寸法線
 62
     0
100
AcDbLine
 10
2572.003487720813
 20
101.870388804381
 30
0.0
 11
2572.003487720813
 21
11.87038880438103
 31
0.0
  0
LEADER
  5
4AE1
330
1F
100
AcDbEntity
  8
寸法線
100
AcDbLeader
  3
sunpo
 76
     2
 10
2601.917889589025
 20
208.3102673217435
 30
0.0
 10
2685.014340042142
 20
77.66876465622226
 30
0.0
1001
ACAD
1000
DSTYLE
1002
{
1070
   147
1040
1.0
1070
    77
1070
     0
1002
}
  0
DIMENSION
  5
4AE2
330
1F
100
AcDbEntity
  8
寸法線
100
AcDbDimension
  2
*D10
 10
2636.342371349434
 20
11.87038880438102
 30
0.0
 11
2625.342371349434
 21
56.87038880438143
 31
0.0
 70
    32
 71
     5
 42
89.99999999999998
  3
sunpo
100
AcDbAlignedDimension
 13
2572.003487720813
 23
101.870388804381
 33
0.0
 14
2572.003487720813
 24
11.87038880438103
 34
0.0
 50
90.0
100
AcDbRotatedDimension
1001
ACAD
1000
DSTYLE
1002
{
1070
   140
1040
20.0
1070
    40
1040
1.0
1002
}
  0
DIMENSION
  5
4B16
330
1F
100
AcDbEntity
  8
寸法線
100
AcDbDimension
  2
*D11
 10
2217.003487720813
 20
472.5204255864619
 30
0.0
 11
2127.003487720813
 21
483.5204255864619
 31
0.0
 70
    32
  1
内180
 71
     5
 42
180.0
  3
sunpo
100
AcDbAlignedDimension
 13
2037.003487720813
 23
551.870388804381
 33
0.0
 14
2217.003487720813
 24
551.870388804381
 34
0.0
100
AcDbRotatedDimension
1001
ACAD
1000
DSTYLE
1002
{
1070
   140
1040
20.0
1070
    40
1040
1.0
1070
   279
1070
     1
1002
}
  0
DIMENSION
  5
4B23
330
1F
100
AcDbEntity
  8
寸法線
100
AcDbDimension
  2
*D12
 10
2397.003487720813
 20
472.5204255864619
 30
0.0
 11
2307.003487720813
 21
483.5204255864619
 31
0.0
 70
    32
  1
内180
 71
     5
 42
180.0
  3
sunpo
100
AcDbAlignedDimension
 13
2217.003487720813
 23
551.870388804381
 33
0.0
 14
2397.003487720813
 24
551.870388804381
 34
0.0
100
AcDbRotatedDimension
1001
ACAD
1000
DSTYLE
1002
{
1070
   140
1040
20.0
1070
    40
1040
1.0
1070
   279
1070
     1
1002
}
  0
DIMENSION
  5
4B30
330
1F
100
AcDbEntity
  8
寸法線
100
AcDbDimension
  2
*D13
 10
2577.003487720813
 20
472.5204255864619
 30
0.0
 11
2487.003487720814
 21
483.5204255864619
 31
0.0
 70
    32
  1
内180
 71
     5
 42
180.0
  3
sunpo
100
AcDbAlignedDimension
 13
2397.003487720813
 23
551.870388804381
 33
0.0
 14
2577.003487720813
 24
551.870388804381
 34
0.0
100
AcDbRotatedDimension
1001
ACAD
1000
DSTYLE
1002
{
1070
   140
1040
20.0
1070
    40
1040
1.0
1070
   279
1070
     1
1002
}
  0
DIMENSION
  5
4B3D
330
1F
100
AcDbEntity
  8
寸法線
100
AcDbDimension
  2
*D14
 10
2037.003487720813
 20
472.0204255864619
 30
0.0
 11
1947.003487720813
 21
483.0204255864619
 31
0.0
 70
    32
  1
内180
 71
     5
 42
180.0
  3
sunpo
100
AcDbAlignedDimension
 13
1857.003487720813
 23
551.870388804381
 33
0.0
 14
2037.003487720813
 24
551.870388804381
 34
0.0
100
AcDbRotatedDimension
1001
ACAD
1000
DSTYLE
1002
{
1070
   140
1040
20.0
1070
    40
1040
1.0
1002
}
  0
ELLIPSE
  5
4B92
330
1F
100
AcDbEntity
  8
破線
100
AcDbEllipse
 10
2953.633819889153
 20
129.4616751948574
 30
0.0
 11
-23.07394122762889
 21
0.7683479265001552
 31
0.0
210
0.0
220
0.0
230
1.0
 40
0.2600887343703816
 41
0.0
 42
6.283185307179586
  0
LINE
  5
4B93
330
1F
100
AcDbEntity
  8
破線
100
AcDbLine
 10
3032.302366091595
 20
126.1592479826868
 30
0.0
 11
2975.88684462873
 21
128.5890356768513
 31
0.0
  0
ELLIPSE
  5
4B99
330
1F
100
AcDbEntity
  8
破線
100
AcDbEllipse
 10
2953.633819889153
 20
124.5435186911067
 30
0.0
 11
-23.07394122762889
 21
0.7683479265001552
 31
0.0
210
0.0
220
0.0
230
1.0
 40
0.2600887343703816
 41
0.0
 42
6.283185307179586
  0
LINE
  5
4B9A
330
1F
100
AcDbEntity
  8
破線
100
AcDbLine
 10
3033.042913133265
 20
118.1419203527593
 30
0.0
 11
2976.184792323023
 21
122.3503142833751
 31
0.0
  0
LINE
  5
4B9C
330
1F
100
AcDbEntity
  8
破線
100
AcDbLine
 10
2843.515863235134
 20
112.3553749899601
 30
0.0
 11
2926.170715621352
 21
143.3922881744001
 31
0.0
  0
LINE
  5
4B9D
330
1F
100
AcDbEntity
  8
破線
100
AcDbLine
 10
2926.170715621352
 20
143.3922881744001
 30
0.0
 11
3064.104285679523
 21
137.6057428116009
 31
0.0
  0
LINE
  5
4B9E
330
1F
100
AcDbEntity
  8
破線
100
AcDbLine
 10
2923.99460772609
 20
154.8812938308337
 30
0.0
 11
2923.99460772609
 21
143.1337735219613
 31
0.0
  0
LINE
  5
4B9F
330
1F
100
AcDbEntity
  8
破線
100
AcDbLine
 10
2931.637898944364
 20
130.7341902627904
 30
0.0
 11
2897.05240293906
 21
132.7375686326195
 31
0.0
  0
LINE
  5
4BA0
330
1F
100
AcDbEntity
  8
破線
100
AcDbLine
 10
2843.41980706126
 20
105.191128761302
 30
0.0
 11
2925.121790880408
 21
137.2451699647353
 31
0.0
  0
LINE
  5
4BA1
330
1F
100
AcDbEntity
  8
破線
100
AcDbLine
 10
2925.121790880408
 20
137.2451699647353
 30
0.0
 11
2924.620558217029
 21
143.2553008362783
 31
0.0
  0
LINE
  5
4BA2
330
1F
100
AcDbEntity
  8
破線
100
AcDbLine
 10
2925.121790880408
 20
137.2451699647353
 30
0.0
 11
3063.965049285027
 21
130.2333456703327
 31
0.0
  0
LINE
  5
4BA3
330
1F
100
AcDbEntity
  8
破線
100
AcDbLine
 10
3063.965049285027
 20
130.2333456703327
 30
0.0
 11
3070.982398356365
 21
129.2316564854181
 31
0.0
  0
LINE
  5
4BA4
330
1F
100
AcDbEntity
  8
破線
100
AcDbLine
 10
2931.050489407829
 20
126.0361314389483
 30
0.0
 11
2901.289287906505
 21
127.760059707437
 31
0.0
  0
LINE
  5
4BA5
330
1F
100
AcDbEntity
  8
破線
100
AcDbLine
 10
2921.561412724046
 20
111.3827411568017
 30
0.0
 11
2947.872043161449
 21
129.4839879759247
 31
0.0
  0
LINE
  5
4BA6
330
1F
100
AcDbEntity
  8
破線
100
AcDbLine
 10
2922.424057576026
 20
105.7799785221614
 30
0.0
 11
2947.009398309468
 21
124.3122031704606
 31
0.0
  0
LINE
  5
4BA7
330
1F
100
AcDbEntity
  8
破線
100
AcDbLine
 10
2963.399625465097
 20
140.2585354160282
 30
0.0
 11
2969.43813108496
 21
141.1204995502721
 31
0.0
  0
LINE
  5
4BA8
330
1F
100
AcDbEntity
  8
破線
100
AcDbLine
 10
2963.399625465097
 20
135.5177369156317
 30
0.0
 11
2969.869449338948
 21
135.9487189827541
 31
0.0
  0
LINE
  5
4BA9
330
1F
100
AcDbEntity
  8
破線
100
AcDbLine
 10
2963.399625465097
 20
139.827557586851
 30
0.0
 11
2963.399625465097
 21
134.6557727813878
 31
0.0
  0
LINE
  5
4BAA
330
1F
100
AcDbEntity
  8
破線
100
AcDbLine
 10
2947.440716563458
 20
129.9149700430461
 30
0.0
 11
2947.440716563458
 21
124.743185237583
 31
0.0
  0
LINE
  5
4BAB
330
1F
100
AcDbEntity
  8
太線
100
AcDbLine
 10
2923.28670242801
 20
111.3827411568017
 30
0.0
 11
2922.855375830017
 21
106.2109605892837
 31
0.0
  0
DIMENSION
  5
4BAC
330
1F
100
AcDbEntity
  8
寸法線
100
AcDbDimension
  2
*D15
 10
3112.778640757371
 20
118.4359150817599
 30
0.0
 11
3101.778640757371
 21
105.8787291812237
 31
0.0
 70
    32
  1
16
 71
     5
 42
10.12984156253605
  3
sunpo
100
AcDbAlignedDimension
 13
2952.685448740231
 23
128.565756644296
 33
0.0
 14
2952.263041882499
 24
118.4359150817599
 34
0.0
 50
90.0
100
AcDbRotatedDimension
1001
ACAD
1000
DSTYLE
1002
{
1070
   140
1040
20.0
1070
    40
1040
1.0
1002
}
  0
LINE
  5
4BCD
330
1F
100
AcDbEntity
  8
寸法線
100
AcDbLine
 10
1857.003487720813
 20
549.870388804381
 30
0.0
 11
1857.003487720813
 21
731.870388804381
 31
0.0
  0
DIMENSION
  5
4BCE
330
1F
100
AcDbEntity
  8
寸法線
100
AcDbDimension
  2
*D16
 10
1813.626498837644
 20
731.870388804381
 30
0.0
 11
1802.626498837644
 21
641.8703888043814
 31
0.0
 70
    32
 71
     5
 42
180.0
  3
sunpo
100
AcDbAlignedDimension
 13
1857.003487720813
 23
551.870388804381
 33
0.0
 14
1857.003487720813
 24
731.870388804381
 34
0.0
 50
90.0
100
AcDbRotatedDimension
1001
ACAD
1000
DSTYLE
1002
{
1070
   140
1040
20.0
1070
    40
1040
1.0
1002
}
  0
LINE
  5
4BEE
330
1F
100
AcDbEntity
  8
中心線
100
AcDbLine
 10
2307.003487720813
 20
832.4785040665515
 30
0.0
 11
2307.003487720813
 21
-120.668800370654
 31
0.0
  0
TEXT
  5
4BEF
330
1F
100
AcDbEntity
  8
文字
100
AcDbText
 10
1922.417859293144
 20
-73.53311407179444
 30
0.0
 40
20.0
  1
ダンボール　Ｗ使用　厚　8mm
 51
15.0
  7
OKANO
100
AcDbText
  0
VIEWPORT
  5
2E
330
1B
100
AcDbEntity
 67
     1
  8
0
100
AcDbViewport
 10
183.4231938862261
 20
123.8095016621874
 30
0.0
 40
559.987549974797
 41
284.4193878691803
 68
     2
 69
     1
 12
183.4231938862261
 22
123.8095016621874
 13
0.0
 23
0.0
 14
10.0
 24
10.0
 15
10.0
 25
10.0
 16
0.0
 26
0.0
 36
1.0
 17
0.0
 27
0.0
 37
0.0
 42
50.0
 43
0.0
 44
0.0
 45
284.4193878691803
 50
0.0
 51
0.0
 72
   100
 90
    32800
  1

281
     0
 71
     1
 74
     0
110
0.0
120
0.0
130
0.0
111
1.0
121
0.0
131
0.0
112
0.0
122
1.0
132
0.0
 79
     0
146
0.0
  0
VIEWPORT
  5
30
330
1B
100
AcDbEntity
 67
     1
  8
70-0-CON
100
AcDbViewport
 10
141.8594093064315
 20
100.3480256368386
 30
0.0
 40
261.6199023344245
 41
192.6196987113174
 68
     1
 69
     2
 12
870.2884698072498
 22
385.591173372717
 13
0.0
 23
0.0
 14
5.0
 24
5.0
 15
10.0
 25
10.0
 16
0.0
 26
0.0
 36
1.0
 17
0.0
 27
0.0
 37
0.0
 42
50.0
 43
0.0
 44
0.0
 45
1032.382358857367
 50
0.0
 51
0.0
 72
   100
 90
    32864
  1

281
     0
 71
     1
 74
     0
110
0.0
120
0.0
130
0.0
111
1.0
121
0.0
131
0.0
112
0.0
122
1.0
132
0.0
 79
     0
146
0.0
  0
LWPOLYLINE
  5
45
330
1B
100
AcDbEntity
 67
     1
  8
50-0-CON
100
AcDbPolyline
 90
        4
 70
     1
 43
0.0
 10
11.04945813921926
 20
4.038176281179858
 10
272.2125713060605
 20
4.033520706629644
 10
273.4987754093466
 20
195.9297862125246
 10
11.04945813921926
 20
196.6578749924973
  0
LINE
  5
4A
330
1B
100
AcDbEntity
 67
     1
  8
50-0-CON
100
AcDbLine
 10
10.38768783662635
 20
100.3480256368386
 30
0.0
 11
-4.391850629656119
 21
100.3480256368386
 31
0.0
  0
LINE
  5
4B
330
1B
100
AcDbEntity
 67
     1
  8
50-0-CON
100
AcDbLine
 10
141.8594093064315
 20
197.098652626247
 30
0.0
 11
141.8594093064315
 21
202.387980773708
 31
0.0
  0
LINE
  5
4C
330
1B
100
AcDbEntity
 67
     1
  8
50-0-CON
100
AcDbLine
 10
272.4487699456857
 20
100.7888032705883
 30
0.0
 11
278.8458837249377
 21
100.7888032705883
 31
0.0
  0
LINE
  5
4D
330
1B
100
AcDbEntity
 67
     1
  8
50-0-CON
100
AcDbLine
 10
140.9770484758805
 20
4.038176281179858
 30
0.0
 11
140.9770484758805
 21
-3.455038652015446
 31
0.0
  0
ENDSEC
  0
SECTION
  2
OBJECTS
  0
DICTIONARY
  5
C
330
0
100
AcDbDictionary
281
     1
  3
ACAD_GROUP
350
D
  3
ACAD_LAYOUT
350
1A
  3
ACAD_MLINESTYLE
350
17
  3
ACAD_PLOTSETTINGS
350
19
  3
ACAD_PLOTSTYLENAME
350
E
  3
AcadDim
350
4ADF
  3
AcDbVariableDictionary
350
6AD
  3
DWGPROPS
350
30F
  0
DICTIONARY
  5
D
102
{ACAD_REACTORS
330
C
102
}
330
C
100
AcDbDictionary
281
     1
  0
DICTIONARY
  5
1A
102
{ACAD_REACTORS
330
C
102
}
330
C
100
AcDbDictionary
281
     1
  3
A4
350
1E
  3
Model
350
22
  0
DICTIONARY
  5
17
102
{ACAD_REACTORS
330
C
102
}
330
C
100
AcDbDictionary
281
     1
  3
Standard
350
18
  0
DICTIONARY
  5
19
102
{ACAD_REACTORS
330
C
102
}
330
C
100
AcDbDictionary
281
     1
  0
ACDBDICTIONARYWDFLT
  5
E
102
{ACAD_REACTORS
330
C
102
}
330
C
100
AcDbDictionary
281
     1
  3
Normal
350
F
100
AcDbDictionaryWithDefault
340
F
  0
XRECORD
  5
4ADF
102
{ACAD_REACTORS
330
C
102
}
330
C
100
AcDbXrecord
280
     1
 90
   990106
  3

 60
     0
 61
     0
 62
     1
 63
     3
 64
     0
 65
     0
 66
     0
 67
     3
 68
     1
 69
     0
 70
     0
 71
     0
 72
     0
 40
0.0
170
     0
340
34A6
  0
DICTIONARY
  5
6AD
102
{ACAD_REACTORS
330
C
102
}
330
C
100
AcDbDictionary
281
     1
  3
SORTENTS
350
6AE
  0
XRECORD
  5
30F
102
{ACAD_REACTORS
330
C
102
}
330
C
100
AcDbXrecord
280
     1
  1
DWGPROPS COOKIE
  2

  3

  4

  6

  7

  8

  9

300
=
301
=
302
=
303
=
304
=
305
=
306
=
307
=
308
=
309
=
 40
0.3303803125
 41
2452362.482225463
 42
2452370.969861285
  1

 90
        0
  0
LAYOUT
  5
1E
102
{ACAD_REACTORS
330
1A
102
}
330
1A
100
AcDbPlotSettings
  1

  2
EPSON PM-920C
  4
A4
  6

 40
3.757083177566528
 41
14.7637300491333
 42
3.757080078125
 43
3.757080078125
 44
209.9733276367187
 45
296.9683227539062
 46
0.0
 47
0.0
 48
0.0
 49
0.0
140
0.0
141
0.0
142
1.0
143
1.0
 70
   688
 72
     1
 73
     1
 74
     5
  7
joint.ctb
 75
    16
147
1.0
148
0.0
149
0.0
100
AcDbLayout
  1
A4
 70
     1
 71
     1
 10
-3.757080078125
 20
-3.757083177566528
 11
293.2112426757812
 21
206.2162444591522
 12
0.0
 22
0.0
 32
0.0
 14
-4.391850629656119
 24
-3.455038652015446
 34
0.0
 15
278.8458837249377
 25
202.387980773708
 35
0.0
146
0.0
 13
0.0
 23
0.0
 33
0.0
 16
1.0
 26
0.0
 36
0.0
 17
0.0
 27
1.0
 37
0.0
 76
     0
330
1B
331
30
  0
LAYOUT
  5
22
102
{ACAD_REACTORS
330
1A
102
}
330
1A
100
AcDbPlotSettings
  1

  2
EPSON PM-920C
  4
A4
  6

 40
3.757083177566528
 41
14.7637300491333
 42
3.757080078125
 43
3.757080078125
 44
209.9733276367187
 45
296.9683227539062
 46
0.0
 47
0.0
 48
0.0
 49
0.0
140
0.0
141
0.0
142
1.0
143
1.0
 70
 11952
 72
     1
 73
     1
 74
     0
  7

 75
     0
147
1.0
148
-45.64199848979289
149
-84.48806419330498
100
AcDbLayout
  1
Model
 70
     1
 71
     0
 10
0.0
 20
0.0
 11
12.0
 21
9.0
 12
0.0
 22
0.0
 32
0.0
 14
0.0
 24
0.0
 34
0.0
 15
0.0
 25
0.0
 35
0.0
146
0.0
 13
0.0
 23
0.0
 33
0.0
 16
1.0
 26
0.0
 36
0.0
 17
0.0
 27
1.0
 37
0.0
 76
     0
330
1F
  0
MLINESTYLE
  5
18
102
{ACAD_REACTORS
330
17
102
}
330
17
100
AcDbMlineStyle
  2
STANDARD
 70
     0
  3

 62
   256
 51
90.0
 52
90.0
 71
     2
 49
0.5
 62
   256
  6
BYLAYER
 49
-0.5
 62
   256
  6
BYLAYER
  0
ACDBPLACEHOLDER
  5
F
102
{ACAD_REACTORS
330
E
102
}
330
E
  0
DICTIONARYVAR
  5
6AE
102
{ACAD_REACTORS
330
6AD
102
}
330
6AD
100
DictionaryVariables
280
     0
  1
96
  0
ENDSEC
  0
EOF
