  0
SECTION
  2
HEADER
  9
$ACADVER
  1
AC1015
  9
$ACADMAINTVER
 70
     6
  9
$DWGCODEPAGE
  3
ANSI_932
  9
$INSBASE
 10
0.0
 20
0.0
 30
0.0
  9
$EXTMIN
 10
6122.727450897414
 20
-2075.495321699762
 30
-0.00000001
  9
$EXTMAX
 10
10821.55850114538
 20
874.5046783002361
 30
0.00000001
  9
$LIMMIN
 10
0.0
 20
0.0
  9
$LIMMAX
 10
420.0
 20
297.0
  9
$ORTHOMODE
 70
     0
  9
$REGENMODE
 70
     1
  9
$FILLMODE
 70
     1
  9
$QTEXTMODE
 70
     0
  9
$MIRRTEXT
 70
     1
  9
$LTSCALE
 40
1.0
  9
$ATTMODE
 70
     1
  9
$TEXTSIZE
 40
2.0
  9
$TRACEWID
 40
1.0
  9
$TEXTSTYLE
  7
OKANO
  9
$CLAYER
  8
太線
  9
$CELTYPE
  6
ByLayer
  9
$CECOLOR
 62
   256
  9
$CELTSCALE
 40
1.0
  9
$DISPSILH
 70
     0
  9
$DIMSCALE
 40
0.0
  9
$DIMASZ
 40
3.0
  9
$DIMEXO
 40
2.0
  9
$DIMDLI
 40
8.0
  9
$DIMRND
 40
0.0
  9
$DIMDLE
 40
0.0
  9
$DIMEXE
 40
3.0
  9
$DIMTP
 40
0.0
  9
$DIMTM
 40
0.0
  9
$DIMTXT
 40
5.0
  9
$DIMCEN
 40
2.5
  9
$DIMTSZ
 40
0.0
  9
$DIMTOL
 70
     0
  9
$DIMLIM
 70
     0
  9
$DIMTIH
 70
     0
  9
$DIMTOH
 70
     0
  9
$DIMSE1
 70
     0
  9
$DIMSE2
 70
     0
  9
$DIMTAD
 70
     1
  9
$DIMZIN
 70
     8
  9
$DIMBLK
  1
Closed
  9
$DIMASO
 70
     1
  9
$DIMSHO
 70
     1
  9
$DIMPOST
  1

  9
$DIMAPOST
  1

  9
$DIMALT
 70
     0
  9
$DIMALTD
 70
     3
  9
$DIMALTF
 40
0.03937007874016
  9
$DIMLFAC
 40
1.0
  9
$DIMTOFL
 70
     1
  9
$DIMTVP
 40
0.0
  9
$DIMTIX
 70
     0
  9
$DIMSOXD
 70
     0
  9
$DIMSAH
 70
     0
  9
$DIMBLK1
  1

  9
$DIMBLK2
  1

  9
$DIMSTYLE
  2
sunpo
  9
$DIMCLRD
 70
     0
  9
$DIMCLRE
 70
     0
  9
$DIMCLRT
 70
     0
  9
$DIMTFAC
 40
1.0
  9
$DIMGAP
 40
1.0
  9
$DIMJUST
 70
     0
  9
$DIMSD1
 70
     0
  9
$DIMSD2
 70
     0
  9
$DIMTOLJ
 70
     0
  9
$DIMTZIN
 70
     8
  9
$DIMALTZ
 70
     0
  9
$DIMALTTZ
 70
     0
  9
$DIMUPT
 70
     0
  9
$DIMDEC
 70
     2
  9
$DIMTDEC
 70
     2
  9
$DIMALTU
 70
     2
  9
$DIMALTTD
 70
     3
  9
$DIMTXSTY
  7
OKANO
  9
$DIMAUNIT
 70
     0
  9
$DIMADEC
 70
     0
  9
$DIMALTRND
 40
0.0
  9
$DIMAZIN
 70
     0
  9
$DIMDSEP
 70
    46
  9
$DIMATFIT
 70
     3
  9
$DIMFRAC
 70
     0
  9
$DIMLDRBLK
  1
Closed
  9
$DIMLUNIT
 70
     2
  9
$DIMLWD
 70
    -2
  9
$DIMLWE
 70
    -2
  9
$DIMTMOVE
 70
     0
  9
$LUNITS
 70
     2
  9
$LUPREC
 70
     2
  9
$SKETCHINC
 40
1.0
  9
$FILLETRAD
 40
0.5
  9
$AUNITS
 70
     0
  9
$AUPREC
 70
     0
  9
$MENU
  1
.
  9
$ELEVATION
 40
0.0
  9
$PELEVATION
 40
0.0
  9
$THICKNESS
 40
0.0
  9
$LIMCHECK
 70
     0
  9
$CHAMFERA
 40
10.0
  9
$CHAMFERB
 40
10.0
  9
$CHAMFERC
 40
20.0
  9
$CHAMFERD
 40
0.0
  9
$SKPOLY
 70
     0
  9
$TDCREATE
 40
2452362.482225463
  9
$TDUCREATE
 40
2452362.107225463
  9
$TDUPDATE
 40
2455968.425532118
  9
$TDUUPDATE
 40
2455968.050532117
  9
$TDINDWG
 40
1.9329602199
  9
$TDUSRTIMER
 40
1.9329602199
  9
$USRTIMER
 70
     1
  9
$ANGBASE
 50
0.0
  9
$ANGDIR
 70
     0
  9
$PDMODE
 70
     0
  9
$PDSIZE
 40
0.0
  9
$PLINEWID
 40
0.0
  9
$SPLFRAME
 70
     0
  9
$SPLINETYPE
 70
     6
  9
$SPLINESEGS
 70
     8
  9
$HANDSEED
  5
3573
  9
$SURFTAB1
 70
     6
  9
$SURFTAB2
 70
     6
  9
$SURFTYPE
 70
     6
  9
$SURFU
 70
     6
  9
$SURFV
 70
     6
  9
$UCSBASE
  2

  9
$UCSNAME
  2

  9
$UCSORG
 10
0.0
 20
0.0
 30
0.0
  9
$UCSXDIR
 10
1.0
 20
0.0
 30
0.0
  9
$UCSYDIR
 10
0.0
 20
1.0
 30
0.0
  9
$UCSORTHOREF
  2

  9
$UCSORTHOVIEW
 70
     0
  9
$UCSORGTOP
 10
0.0
 20
0.0
 30
0.0
  9
$UCSORGBOTTOM
 10
0.0
 20
0.0
 30
0.0
  9
$UCSORGLEFT
 10
0.0
 20
0.0
 30
0.0
  9
$UCSORGRIGHT
 10
0.0
 20
0.0
 30
0.0
  9
$UCSORGFRONT
 10
0.0
 20
0.0
 30
0.0
  9
$UCSORGBACK
 10
0.0
 20
0.0
 30
0.0
  9
$PUCSBASE
  2

  9
$PUCSNAME
  2

  9
$PUCSORG
 10
0.0
 20
0.0
 30
0.0
  9
$PUCSXDIR
 10
1.0
 20
0.0
 30
0.0
  9
$PUCSYDIR
 10
0.0
 20
1.0
 30
0.0
  9
$PUCSORTHOREF
  2

  9
$PUCSORTHOVIEW
 70
     0
  9
$PUCSORGTOP
 10
0.0
 20
0.0
 30
0.0
  9
$PUCSORGBOTTOM
 10
0.0
 20
0.0
 30
0.0
  9
$PUCSORGLEFT
 10
0.0
 20
0.0
 30
0.0
  9
$PUCSORGRIGHT
 10
0.0
 20
0.0
 30
0.0
  9
$PUCSORGFRONT
 10
0.0
 20
0.0
 30
0.0
  9
$PUCSORGBACK
 10
0.0
 20
0.0
 30
0.0
  9
$USERI1
 70
     0
  9
$USERI2
 70
     0
  9
$USERI3
 70
     0
  9
$USERI4
 70
     0
  9
$USERI5
 70
     0
  9
$USERR1
 40
0.0
  9
$USERR2
 40
0.0
  9
$USERR3
 40
0.0
  9
$USERR4
 40
0.0
  9
$USERR5
 40
0.0
  9
$WORLDVIEW
 70
     1
  9
$SHADEDGE
 70
     3
  9
$SHADEDIF
 70
    70
  9
$TILEMODE
 70
     0
  9
$MAXACTVP
 70
    64
  9
$PINSBASE
 10
0.0
 20
0.0
 30
0.0
  9
$PLIMCHECK
 70
     0
  9
$PEXTMIN
 10
-4.391850629656119
 20
-3.455038652015446
 30
0.0
  9
$PEXTMAX
 10
278.8458837249377
 20
202.3879807737079
 30
0.0
  9
$PLIMMIN
 10
-3.757080078125
 20
-3.757083177566528
  9
$PLIMMAX
 10
293.2112426757811
 20
206.2162444591522
  9
$UNITMODE
 70
     0
  9
$VISRETAIN
 70
     1
  9
$PLINEGEN
 70
     0
  9
$PSLTSCALE
 70
     1
  9
$TREEDEPTH
 70
  3020
  9
$CMLSTYLE
  2
Standard
  9
$CMLJUST
 70
     0
  9
$CMLSCALE
 40
20.0
  9
$PROXYGRAPHICS
 70
     1
  9
$MEASUREMENT
 70
     1
  9
$CELWEIGHT
370
    -1
  9
$ENDCAPS
280
     0
  9
$JOINSTYLE
280
     0
  9
$LWDISPLAY
290
     0
  9
$INSUNITS
 70
     4
  9
$HYPERLINKBASE
  1

  9
$STYLESHEET
  1

  9
$XEDIT
290
     1
  9
$CEPSNTYPE
380
     0
  9
$PSTYLEMODE
290
     1
  9
$FINGERPRINTGUID
  2
{FF7F33C3-4233-11D6-AEE0-0000F45FD7F4}
  9
$VERSIONGUID
  2
{1A18A797-59CD-4789-A53C-B162D784F612}
  9
$EXTNAMES
290
     1
  9
$PSVPSCALE
 40
0.0
  9
$OLESTARTUP
290
     0
  0
ENDSEC
  0
SECTION
  2
CLASSES
  0
CLASS
  1
ACDBDICTIONARYWDFLT
  2
AcDbDictionaryWithDefault
  3
AutoCAD 2000
 90
        0
280
     0
281
     0
  0
CLASS
  1
ACDBPLACEHOLDER
  2
AcDbPlaceHolder
  3
AutoCAD 2000
 90
        0
280
     0
281
     0
  0
CLASS
  1
LAYOUT
  2
AcDbLayout
  3
AutoCAD 2000
 90
        0
280
     0
281
     0
  0
CLASS
  1
DICTIONARYVAR
  2
AcDbDictionaryVar
  3
AutoCAD 2000
 90
        0
280
     0
281
     0
  0
ENDSEC
  0
SECTION
  2
TABLES
  0
TABLE
  2
VPORT
  5
8
330
0
100
AcDbSymbolTable
 70
     2
  0
VPORT
  5
3572
330
8
100
AcDbSymbolTableRecord
100
AcDbViewportTableRecord
  2
*Active
 70
     0
 10
0.0
 20
0.0
 11
1.0
 21
1.0
 12
9716.327899449476
 22
-536.3710437929133
 13
0.0
 23
0.0
 14
5.0
 24
5.0
 15
10.0
 25
10.0
 16
0.0
 26
0.0
 36
1.0
 17
0.0
 27
0.0
 37
0.0
 40
3572.061758006896
 41
1.968879668049792
 42
50.0
 43
0.0
 44
0.0
 50
0.0
 51
0.0
 71
     0
 72
   100
 73
     1
 74
     3
 75
     0
 76
     1
 77
     0
 78
     0
281
     0
 65
     1
110
0.0
120
0.0
130
0.0
111
1.0
121
0.0
131
0.0
112
0.0
122
1.0
132
0.0
 79
     0
146
0.0
  0
ENDTAB
  0
TABLE
  2
LTYPE
  5
5
330
0
100
AcDbSymbolTable
 70
     5
  0
LTYPE
  5
14
330
5
100
AcDbSymbolTableRecord
100
AcDbLinetypeTableRecord
  2
ByBlock
 70
     0
  3

 72
    65
 73
     0
 40
0.0
  0
LTYPE
  5
15
330
5
100
AcDbSymbolTableRecord
100
AcDbLinetypeTableRecord
  2
ByLayer
 70
     0
  3

 72
    65
 73
     0
 40
0.0
  0
LTYPE
  5
16
330
5
100
AcDbSymbolTableRecord
100
AcDbLinetypeTableRecord
  2
Continuous
 70
     0
  3
Solid line
 72
    65
 73
     0
 40
0.0
  0
LTYPE
  5
33
330
5
100
AcDbSymbolTableRecord
100
AcDbLinetypeTableRecord
  2
DASHED2
 70
     0
  3
Dashed (.5x) _ _ _ _ _ _ _ _ _ _ _ _ _ _ _ _ _
 72
    65
 73
     2
 40
9.524999999999996
 49
6.349999999999998
 74
     0
 49
-3.174999999999998
 74
     0
  0
LTYPE
  5
34
330
5
100
AcDbSymbolTableRecord
100
AcDbLinetypeTableRecord
  2
CENTER2
 70
     0
  3
Center (.5x) ___ _ ___ _ ___ _ ___ _ ___ _ ___
 72
    65
 73
     4
 40
28.57499999999999
 49
19.05
 74
     0
 49
-3.174999999999998
 74
     0
 49
3.174999999999998
 74
     0
 49
-3.174999999999998
 74
     0
  0
LTYPE
  5
35
330
5
100
AcDbSymbolTableRecord
100
AcDbLinetypeTableRecord
  2
PHANTOM2
 70
     0
  3
Phantom (.5x) ___ _ _ ___ _ _ ___ _ _ ___ _ _
 72
    65
 73
     6
 40
31.75
 49
15.875
 74
     0
 49
-3.174999999999998
 74
     0
 49
3.174999999999998
 74
     0
 49
-3.174999999999998
 74
     0
 49
3.174999999999998
 74
     0
 49
-3.174999999999998
 74
     0
  0
LTYPE
  5
36
330
5
100
AcDbSymbolTableRecord
100
AcDbLinetypeTableRecord
  2
HIDDEN2
 70
     0
  3
Hidden (.5x) _ _ _ _ _ _ _ _ _ _ _ _ _ _ _ _ _
 72
    65
 73
     2
 40
4.762499999999998
 49
3.174999999999998
 74
     0
 49
-1.587499999999999
 74
     0
  0
ENDTAB
  0
TABLE
  2
LAYER
  5
2
330
0
100
AcDbSymbolTable
 70
    13
  0
LAYER
  5
10
330
2
100
AcDbSymbolTableRecord
100
AcDbLayerTableRecord
  2
0
 70
     0
 62
     7
  6
Continuous
370
    -3
390
F
  0
LAYER
  5
40
330
2
100
AcDbSymbolTableRecord
100
AcDbLayerTableRecord
  2
50-0-CON
 70
     0
 62
     4
  6
Continuous
370
    50
390
F
  0
LAYER
  5
41
330
2
100
AcDbSymbolTableRecord
100
AcDbLayerTableRecord
  2
70-0-CON
 70
     0
 62
   202
  6
Continuous
370
    70
390
F
  0
LAYER
  5
4E
330
2
100
AcDbSymbolTableRecord
100
AcDbLayerTableRecord
  2
極太線
 70
     0
 62
     7
  6
Continuous
370
    70
390
F
  0
LAYER
  5
4F
330
2
100
AcDbSymbolTableRecord
100
AcDbLayerTableRecord
  2
細線
 70
     0
 62
     8
  6
Continuous
370
    18
390
F
  0
LAYER
  5
AB
330
2
100
AcDbSymbolTableRecord
100
AcDbLayerTableRecord
  2
構築線
 70
     0
 62
    -2
  6
Continuous
370
    18
390
F
  0
LAYER
  5
B8
330
2
100
AcDbSymbolTableRecord
100
AcDbLayerTableRecord
  2
太線
 70
     0
 62
     7
  6
Continuous
370
    35
390
F
  0
LAYER
  5
B9
330
2
100
AcDbSymbolTableRecord
100
AcDbLayerTableRecord
  2
寸法線
 70
     0
 62
     5
  6
Continuous
370
    18
390
F
  0
LAYER
  5
BA
330
2
100
AcDbSymbolTableRecord
100
AcDbLayerTableRecord
  2
破線
 70
     0
 62
     8
  6
HIDDEN2
370
    18
390
F
  0
LAYER
  5
BB
330
2
100
AcDbSymbolTableRecord
100
AcDbLayerTableRecord
  2
中心線
 70
     0
 62
     1
  6
CENTER2
370
    18
390
F
  0
LAYER
  5
BC
330
2
100
AcDbSymbolTableRecord
100
AcDbLayerTableRecord
  2
想像線
 70
     0
 62
     8
  6
PHANTOM2
370
    18
390
F
  0
LAYER
  5
BD
330
2
100
AcDbSymbolTableRecord
100
AcDbLayerTableRecord
  2
文字
 70
     0
 62
     7
  6
Continuous
370
    18
390
F
  0
LAYER
  5
180
330
2
100
AcDbSymbolTableRecord
100
AcDbLayerTableRecord
  2
Defpoints
 70
     0
 62
     7
  6
Continuous
290
     0
370
    -3
390
F
  0
ENDTAB
  0
TABLE
  2
STYLE
  5
3
330
0
100
AcDbSymbolTable
 70
     3
  0
STYLE
  5
11
330
3
100
AcDbSymbolTableRecord
100
AcDbTextStyleTableRecord
  2
Standard
 70
     0
 40
0.0
 41
1.0
 50
0.0
 71
     0
 42
3.0
  3
txt
  4

  0
STYLE
  5
32
330
3
100
AcDbSymbolTableRecord
100
AcDbTextStyleTableRecord
  2

 70
     1
 40
0.0
 41
1.0
 50
0.0
 71
     0
 42
2.5
  3
ltypeshp.shx
  4

  0
STYLE
  5
50
330
3
100
AcDbSymbolTableRecord
100
AcDbTextStyleTableRecord
  2
OKANO
 70
     0
 40
0.0
 41
1.0
 50
15.0
 71
     0
 42
2.0
  3
isocp.shx
  4
bigfont.shx
  0
ENDTAB
  0
TABLE
  2
VIEW
  5
6
330
0
100
AcDbSymbolTable
 70
     0
  0
ENDTAB
  0
TABLE
  2
UCS
  5
7
330
0
100
AcDbSymbolTable
 70
     0
  0
ENDTAB
  0
TABLE
  2
APPID
  5
9
330
0
100
AcDbSymbolTable
 70
     1
  0
APPID
  5
12
330
9
100
AcDbSymbolTableRecord
100
AcDbRegAppTableRecord
  2
ACAD
 70
     0
  0
ENDTAB
  0
TABLE
  2
DIMSTYLE
  5
A
330
0
100
AcDbSymbolTable
 70
     2
100
AcDbDimStyleTable
 71
     2
340
A2
340
27
  0
DIMSTYLE
105
27
330
A
100
AcDbSymbolTableRecord
100
AcDbDimStyleTableRecord
  2
ISO-25
 70
     0
 41
2.5
 42
0.625
 43
3.75
 44
1.25
 73
     0
 74
     0
 77
     1
 78
     8
140
2.5
141
2.5
143
0.03937007874016
147
0.625
171
     3
172
     1
271
     2
272
     2
274
     3
283
     0
284
     8
340
11
  0
DIMSTYLE
105
A2
102
{ACAD_REACTORS
330
342D
102
}
330
A
100
AcDbSymbolTableRecord
100
AcDbDimStyleTableRecord
  2
sunpo
 70
     0
 40
0.0
 41
3.0
 42
2.0
 43
8.0
 44
3.0
 73
     0
 74
     0
 77
     1
 78
     8
140
5.0
141
2.5
143
0.03937007874016
147
1.0
171
     3
172
     1
271
     2
272
     2
274
     3
283
     0
284
     8
340
50
341
9B
342
9B
  0
ENDTAB
  0
TABLE
  2
BLOCK_RECORD
  5
1
330
0
100
AcDbSymbolTable
 70
     3
  0
BLOCK_RECORD
  5
1F
330
1
100
AcDbSymbolTableRecord
100
AcDbBlockTableRecord
  2
*Model_Space
340
22
  0
BLOCK_RECORD
  5
1B
330
1
100
AcDbSymbolTableRecord
100
AcDbBlockTableRecord
  2
*Paper_Space
340
1E
  0
BLOCK_RECORD
  5
9B
330
1
100
AcDbSymbolTableRecord
100
AcDbBlockTableRecord
  2
_Closed
340
0
102
{BLKREFS
331
3457
331
3458
102
}
  0
BLOCK_RECORD
  5
342E
330
1
100
AcDbSymbolTableRecord
100
AcDbBlockTableRecord
  2
*D1
340
0
  0
BLOCK_RECORD
  5
3500
330
1
100
AcDbSymbolTableRecord
100
AcDbBlockTableRecord
  2
A$C247145EA
340
0
  0
ENDTAB
  0
ENDSEC
  0
SECTION
  2
BLOCKS
  0
BLOCK
  5
20
330
1F
100
AcDbEntity
  8
0
100
AcDbBlockBegin
  2
*Model_Space
 70
     0
 10
0.0
 20
0.0
 30
0.0
  3
*Model_Space
  1

  0
ENDBLK
  5
21
330
1F
100
AcDbEntity
  8
0
100
AcDbBlockEnd
  0
BLOCK
  5
1C
330
1B
100
AcDbEntity
 67
     1
  8
0
100
AcDbBlockBegin
  2
*Paper_Space
 70
     0
 10
0.0
 20
0.0
 30
0.0
  3
*Paper_Space
  1

  0
ENDBLK
  5
1D
330
1B
100
AcDbEntity
 67
     1
  8
0
100
AcDbBlockEnd
  0
BLOCK
  5
A0
330
9B
100
AcDbEntity
  8
0
100
AcDbBlockBegin
  2
_Closed
 70
     0
 10
0.0
 20
0.0
 30
0.0
  3
_Closed
  1

  0
LINE
  5
9C
330
9B
100
AcDbEntity
  8
0
 62
     0
370
    -2
100
AcDbLine
 10
-1.0
 20
0.1666666666666666
 30
0.0
 11
0.0
 21
0.0
 31
0.0
  0
LINE
  5
9D
330
9B
100
AcDbEntity
  8
0
 62
     0
370
    -2
100
AcDbLine
 10
0.0
 20
0.0
 30
0.0
 11
-1.0
 21
-0.1666666666666666
 31
0.0
  0
LINE
  5
9E
330
9B
100
AcDbEntity
  8
0
 62
     0
370
    -2
100
AcDbLine
 10
-1.0
 20
0.1666666666666666
 30
0.0
 11
-1.0
 21
-0.1666666666666666
 31
0.0
  0
LINE
  5
9F
330
9B
100
AcDbEntity
  8
0
 62
     0
370
    -2
100
AcDbLine
 10
0.0
 20
0.0
 30
0.0
 11
-1.0
 21
0.0
 31
0.0
  0
ENDBLK
  5
A1
330
9B
100
AcDbEntity
  8
0
100
AcDbBlockEnd
  0
BLOCK
  5
3438
330
342E
100
AcDbEntity
  8
0
100
AcDbBlockBegin
  2
*D1
 70
     1
 10
0.0
 20
0.0
 30
0.0
  3
*D1
  1

  0
LINE
  5
3454
330
342E
100
AcDbEntity
  8
太線
 62
     0
370
    -2
100
AcDbLine
 10
10014.63407634648
 20
-213.3484939529021
 30
0.0
 11
10314.59952227779
 21
-213.3484939529021
 31
0.0
  0
LINE
  5
3455
330
342E
100
AcDbEntity
  8
太線
 62
     0
370
    -2
100
AcDbLine
 10
10011.72669254402
 20
-515.1404521266263
 30
0.0
 11
10314.59952227779
 21
-515.1404521266263
 31
0.0
  0
LINE
  5
3456
330
342E
100
AcDbEntity
  8
太線
 62
     0
370
    -2
100
AcDbLine
 10
10311.59952227779
 20
-216.3484939529021
 30
0.0
 11
10311.59952227779
 21
-512.1404521266263
 31
0.0
  0
INSERT
  5
3457
330
342E
100
AcDbEntity
  8
太線
 62
     0
370
    -2
100
AcDbBlockReference
  2
_Closed
 10
10311.59952227779
 20
-213.3484939529021
 30
0.0
 41
3.0
 42
3.0
 43
3.0
 50
90.0
  0
INSERT
  5
3458
330
342E
100
AcDbEntity
  8
太線
 62
     0
370
    -2
100
AcDbBlockReference
  2
_Closed
 10
10311.59952227779
 20
-515.1404521266263
 30
0.0
 41
3.0
 42
3.0
 43
3.0
 50
270.0
  0
MTEXT
  5
3459
330
342E
100
AcDbEntity
  8
太線
 62
     0
100
AcDbMText
 10
10265.59952227779
 20
-364.2444730397626
 30
0.0
 40
90.0
 41
0.0
 71
     5
 72
     1
  1
Φ48
  7
OKANO
 11
0.0000000000000001
 21
1.0
 31
0.0
 73
     1
 44
1.0
  0
POINT
  5
345A
330
342E
100
AcDbEntity
  8
Defpoints
 62
     0
100
AcDbPoint
 10
10012.63407634648
 20
-213.3484939529021
 30
0.0
  0
POINT
  5
345B
330
342E
100
AcDbEntity
  8
Defpoints
 62
     0
100
AcDbPoint
 10
10009.72669254402
 20
-515.1404521266263
 30
0.0
  0
POINT
  5
345C
330
342E
100
AcDbEntity
  8
Defpoints
 62
     0
100
AcDbPoint
 10
10311.59952227779
 20
-515.1404521266263
 30
0.0
  0
ENDBLK
  5
3439
330
342E
100
AcDbEntity
  8
0
100
AcDbBlockEnd
  0
BLOCK
  5
350C
330
3500
100
AcDbEntity
  8
0
100
AcDbBlockBegin
  2
A$C247145EA
 70
     0
 10
0.0
 20
0.0
 30
0.0
  3
A$C247145EA
  1

  0
TEXT
  5
3501
330
3500
100
AcDbEntity
  8
文字
100
AcDbText
 10
10.21133466007267
 20
0.8682686218653826
 30
0.0
 40
1.403999999999999
  1
joint kogyo T.okano
 51
15.0
  7
OKANO
100
AcDbText
  0
TEXT
  5
3502
330
3500
100
AcDbEntity
  8
文字
100
AcDbText
 10
8.021003104121971
 20
5.183337287746994
 30
0.0
 40
1.403999999999999
  1
F-999-20090728 Auto CAD
 51
15.0
  7
OKANO
100
AcDbText
  0
TEXT
  5
3503
330
3500
100
AcDbEntity
  8
文字
100
AcDbText
 10
9.887467473706694
 20
2.88634978794758
 30
0.0
 40
1.403999999999999
  1
R-CPL　螺旋階段プレート
 51
15.0
  7
OKANO
100
AcDbText
  0
LINE
  5
3504
330
3500
100
AcDbEntity
  8
太線
100
AcDbLine
 10
0.0000013610001588
 20
4.914001049996215
 30
0.0
 11
31.59000136100007
 21
4.914001049996215
 31
0.0
  0
LWPOLYLINE
  5
3505
330
3500
100
AcDbEntity
  8
太線
100
AcDbPolyline
 90
        4
 70
     1
 43
0.0
 10
0.0000013610001588
 20
7.37100104999611
 10
31.59000136100007
 20
7.37100104999611
 10
31.59000136100007
 20
0.0000010499961007
 10
0.0000013610001588
 20
0.0000010499961007
  0
LINE
  5
3506
330
3500
100
AcDbEntity
  8
太線
100
AcDbLine
 10
7.020001361000139
 20
7.371001049996039
 30
0.0
 11
7.020001361000139
 21
0.0000010499961434
 31
0.0
  0
TEXT
  5
3507
330
3500
100
AcDbEntity
  8
文字
100
AcDbText
 10
1.13267355407197
 20
2.517398848832256
 30
0.0
 40
0.7020000000000001
  1
CHECK
 51
15.0
  7
OKANO
100
AcDbText
  0
TEXT
  5
3508
330
3500
100
AcDbEntity
  8
文字
100
AcDbText
 10
1.13267355407197
 20
0.4934662740141535
 30
0.0
 40
0.7020000000000001
  1
ISSUED
 51
15.0
  7
OKANO
100
AcDbText
  0
TEXT
  5
3509
330
3500
100
AcDbEntity
  8
文字
100
AcDbText
 10
1.207704025695419
 20
1.467952309375107
 30
0.0
 40
0.7020000000000001
  1
APPR
 51
15.0
  7
OKANO
100
AcDbText
  0
TEXT
  5
350A
330
3500
100
AcDbEntity
  8
文字
100
AcDbText
 10
0.9826132518232951
 20
3.566845215659341
 30
0.0
 40
0.7020000000000001
  1
DRAWN
 51
15.0
  7
OKANO
100
AcDbText
  0
TEXT
  5
350B
330
3500
100
AcDbEntity
  8
文字
100
AcDbText
 10
0.6074618552038375
 20
5.440856782284966
 30
0.0
 40
0.7020000000000001
  1
FILM NAME
 51
15.0
  7
OKANO
100
AcDbText
  0
ENDBLK
  5
350D
330
3500
100
AcDbEntity
  8
0
100
AcDbBlockEnd
  0
ENDSEC
  0
SECTION
  2
ENTITIES
  0
LINE
  5
1FCE
330
1F
100
AcDbEntity
  8
構築線
100
AcDbLine
 10
6282.727450897414
 20
-2070.495321699763
 30
0.0
 11
6282.727450897414
 21
-2075.495321699762
 31
0.0
  0
LINE
  5
1FDF
330
1F
100
AcDbEntity
  8
構築線
100
AcDbLine
 10
6122.727450897414
 20
-2070.495321699763
 30
0.0
 11
6122.727450897414
 21
-2075.495321699762
 31
0.0
  0
LINE
  5
25E6
330
1F
100
AcDbEntity
  8
構築線
100
AcDbLine
 10
6227.727450897415
 20
874.5046783002361
 30
0.0
 11
6527.727450897415
 21
874.5046783002361
 31
0.0
  0
SPLINE
  5
31F1
330
1F
100
AcDbEntity
  8
太線
100
AcDbSpline
210
0.0
220
0.0
230
1.0
 70
     8
 71
     3
 72
    90
 73
    86
 74
     0
 42
0.0000000001
 43
0.0000000001
 40
0.0
 40
0.0
 40
0.0
 40
0.0
 40
1.120882137704649
 40
1.120882137704649
 40
3.362646413113948
 40
3.362646413113948
 40
5.327288793591208
 40
5.327288793591208
 40
6.999296381886101
 40
6.999296381886101
 40
8.255439887969235
 40
8.255439887969235
 40
10.33602541513854
 40
10.33602541513854
 40
12.41661094230783
 40
12.41661094230783
 40
13.68472154900461
 40
13.68472154900461
 40
15.48731878415877
 40
15.48731878415877
 40
17.28991601931291
 40
17.28991601931291
 40
20.87276212618395
 40
20.87276212618395
 40
22.53935596358846
 40
22.53935596358846
 40
23.7403762276906
 40
23.7403762276906
 40
24.94139649179273
 40
24.94139649179273
 40
27.343437019997
 40
27.343437019997
 40
29.32571998348
 40
29.32571998348
 40
33.21999469047701
 40
33.21999469047701
 40
36.15486129206532
 40
36.15486129206532
 40
38.33148625191081
 40
38.33148625191081
 40
39.71447128027763
 40
39.71447128027763
 40
41.09745630864447
 40
41.09745630864447
 40
44.13040184426104
 40
44.13040184426104
 40
45.51628190848153
 40
45.51628190848153
 40
46.48710730760926
 40
46.48710730760926
 40
47.457932706737
 40
47.457932706737
 40
49.9271989381667
 40
49.9271989381667
 40
52.3964651695964
 40
52.3964651695964
 40
54.86573140102612
 40
54.86573140102612
 40
57.7337403279106
 40
57.7337403279106
 40
59.60375627669153
 40
59.60375627669153
 40
61.25130062363184
 40
61.25130062363184
 40
62.89884497057215
 40
62.89884497057215
 40
65.19731041975949
 40
65.19731041975949
 40
67.04219890471401
 40
67.04219890471401
 40
68.88708738966854
 40
68.88708738966854
 40
73.9061979521773
 40
73.9061979521773
 40
75.84675437199611
 40
75.84675437199611
 40
77.4811693589685
 40
77.4811693589685
 40
79.53865564642409
 40
79.53865564642409
 40
81.5961419338797
 40
81.5961419338797
 40
83.65362822133526
 40
83.65362822133526
 40
85.14468131484198
 40
85.14468131484198
 40
85.14468131484198
 40
85.14468131484198
 10
8691.866111995556
 20
-285.5570028516321
 30
0.0
 10
8697.260590397887
 20
-287.2840921431743
 30
0.0
 10
8702.674002231466
 20
-289.0173321682996
 30
0.0
 10
8718.9610225355
 20
-294.0822181272686
 30
0.0
 10
8729.880655668955
 20
-297.2802668529648
 30
0.0
 10
8750.456799909041
 20
-302.1577178881825
 30
0.0
 10
8760.10385024491
 20
-303.9763041298401
 30
0.0
 10
8778.011392101431
 20
-305.9368789717308
 30
0.0
 10
8786.265412267461
 20
-306.2875832822437
 30
0.0
 10
8800.721011805817
 20
-305.59486267384
 30
0.0
 10
8806.922129089583
 20
-304.8759293515013
 30
0.0
 10
8823.342394386262
 20
-301.6292035892019
 30
0.0
 10
8833.241043860228
 20
-298.2231308724913
 30
0.0
 10
8852.462587371952
 20
-291.098571416458
 30
0.0
 10
8861.825386905261
 20
-287.3719736474703
 30
0.0
 10
8876.574827261855
 20
-282.8277054221516
 30
0.0
 10
8882.081569998776
 20
-281.4408058171848
 30
0.0
 10
8895.239963321019
 20
-279.388521216846
 30
0.0
 10
8903.080953015411
 20
-279.2697967176755
 30
0.0
 10
8919.194123277721
 20
-280.5857829081196
 30
0.0
 10
8927.43097263885
 20
-282.0251717972896
 30
0.0
 10
8952.42335292754
 20
-287.6578995989102
 30
0.0
 10
8969.527889894925
 20
-293.1805906144671
 30
0.0
 10
8994.877014539483
 20
-299.530565003819
 30
0.0
 10
9002.973217656723
 20
-301.2860919126906
 30
0.0
 10
9016.973503848744
 20
-303.2958775549776
 30
0.0
 10
9022.874623192143
 20
-303.8035053171661
 30
0.0
 10
9034.517479060992
 20
-304.106249848116
 30
0.0
 10
9040.284613343279
 20
-303.9321042065066
 30
0.0
 10
9057.525817283416
 20
-302.7425286308879
 30
0.0
 10
9068.93749013072
 20
-301.0662050985611
 30
0.0
 10
9090.254743369881
 20
-297.8040890857272
 30
0.0
 10
9100.072560883523
 20
-296.2528297958688
 30
0.0
 10
9130.372173257859
 20
-292.5924048650666
 30
0.0
 10
9152.021121860792
 20
-291.3367259595469
 30
0.0
 10
9187.328380282652
 20
-294.1177258643092
 30
0.0
 10
9201.622415731128
 20
-296.937950646572
 30
0.0
 10
9222.685808999512
 20
-305.567645762414
 30
0.0
 10
9230.430140787431
 20
-310.3879906131551
 30
0.0
 10
9240.602719481572
 20
-320.4731499961616
 30
0.0
 10
9243.942830675113
 20
-324.9244072788142
 30
0.0
 10
9249.363125829829
 20
-335.2836735355748
 30
0.0
 10
9251.463129280443
 20
-341.2151184113463
 30
0.0
 10
9255.97465024944
 20
-361.4721765213143
 30
0.0
 10
9255.717381757353
 20
-377.3521163909317
 30
0.0
 10
9250.413905150915
 20
-397.8186703463388
 30
0.0
 10
9248.055522978935
 20
-403.85311476923
 30
0.0
 10
9242.97169212248
 20
-412.8913965359851
 30
0.0
 10
9240.576339860146
 20
-416.2535848478655
 30
0.0
 10
9235.199171903429
 20
-422.1302264016111
 30
0.0
 10
9232.171740332303
 20
-424.708560976498
 30
0.0
 10
9220.331502105999
 20
-432.762736006547
 30
0.0
 10
9209.74151082234
 20
-436.5499997946371
 30
0.0
 10
9186.522273729837
 20
-441.126036131024
 30
0.0
 10
9173.94485088632
 20
-441.9180878678453
 30
0.0
 10
9149.415758274136
 20
-441.9733928194881
 30
0.0
 10
9137.387481311677
 20
-441.2266018765302
 30
0.0
 10
9111.636228677383
 20
-439.1122056019503
 30
0.0
 10
9097.954422112223
 20
-437.6611806622368
 30
0.0
 10
9075.314507908904
 20
-436.2319787421192
 30
0.0
 10
9066.368760860589
 20
-435.9183441249459
 30
0.0
 10
9049.442389571735
 20
-436.298955548802
 30
0.0
 10
9041.463100331403
 20
-436.8805094839354
 30
0.0
 10
9025.431082525685
 20
-439.2090914102773
 30
0.0
 10
9017.516745830659
 20
-440.9151275719104
 30
0.0
 10
8998.767028764884
 20
-445.3807075541498
 30
0.0
 10
8988.008201832553
 20
-448.2880275606566
 30
0.0
 10
8968.915781917273
 20
-452.363576433403
 30
0.0
 10
8960.563935538175
 20
-453.7530753388655
 30
0.0
 10
8943.951361677177
 20
-454.8580700778901
 30
0.0
 10
8935.550537298277
 20
-454.6422132005773
 30
0.0
 10
8903.931375666017
 20
-451.8818866830261
 30
0.0
 10
8880.118374660339
 20
-445.9118423569853
 30
0.0
 10
8846.427083573571
 20
-439.7146809075612
 30
0.0
 10
8836.956158478558
 20
-438.2182236941679
 30
0.0
 10
8819.367537961607
 20
-436.5228101711744
 30
0.0
 10
8811.271098522286
 20
-436.1568656930439
 30
0.0
 10
8792.878023247501
 20
-436.745008812034
 30
0.0
 10
8782.751908779365
 20
-438.1351557294618
 30
0.0
 10
8762.924620623195
 20
-441.5129457912479
 30
0.0
 10
8753.208146280192
 20
-443.4875880929003
 30
0.0
 10
8733.958076217083
 20
-446.6513683634511
 30
0.0
 10
8724.27360577476
 20
-447.9247493070925
 30
0.0
 10
8707.481298015734
 20
-449.8988887015428
 30
0.0
 10
8700.398203289839
 20
-450.6608607478884
 30
0.0
 10
8693.29149680844
 20
-451.4252550040664
 30
0.0
  0
SPLINE
  5
31F2
330
1F
100
AcDbEntity
  8
太線
100
AcDbSpline
210
0.0
220
0.0
230
1.0
 70
     8
 71
     3
 72
    19
 73
    15
 74
    13
 42
0.0000000001
 43
0.0000000001
 44
0.0000000001
 40
0.0
 40
0.0
 40
0.0
 40
0.0
 40
120.4391023470556
 40
198.3758916866822
 40
333.0416860457363
 40
420.0744928044407
 40
569.4801362074047
 40
668.5471648710923
 40
751.174720918891
 40
881.2185038080015
 40
962.7344092416777
 40
1118.084436845168
 40
1172.847577091038
 40
1226.083410933706
 40
1226.083410933706
 40
1226.083410933706
 40
1226.083410933706
 10
8694.061484466386
 20
-278.699864985565
 30
0.0
 10
8734.314139208185
 20
-291.5871033384183
 30
0.0
 10
8800.614502807297
 20
-312.8137427753287
 30
0.0
 10
8904.59300101444
 20
-252.442716025442
 30
0.0
 10
9006.495190115655
 20
-308.9156696094158
 30
0.0
 10
9122.141739952544
 20
-280.8165388768922
 30
0.0
 10
9271.890650756544
 20
-282.9365957791279
 30
0.0
 10
9263.168147102474
 20
-437.7239477044412
 30
0.0
 10
9145.505711966642
 20
-456.5450170428162
 30
0.0
 10
9051.313003479391
 20
-432.4647547181634
 30
0.0
 10
8931.471478316655
 20
-478.4711316299913
 30
0.0
 10
8834.024095354592
 20
-432.6618756536058
 30
0.0
 10
8747.428336184048
 20
-452.8438489710253
 30
0.0
 10
8711.681928136092
 20
-456.6887170631884
 30
0.0
 10
8694.061484466386
 20
-458.5839643155703
 30
0.0
 11
8694.061484466386
 21
-278.699864985565
 31
0.0
 11
8813.21024738823
 21
-296.2825174691534
 31
0.0
 11
8887.678218476173
 21
-273.2898139609823
 31
0.0
 11
9020.366619460359
 21
-296.2825174691534
 31
0.0
 11
9107.020269394958
 21
-288.1674447455079
 31
0.0
 11
9251.894333923862
 21
-324.6852720019068
 31
0.0
 11
9243.770548026082
 21
-423.4186517219332
 31
0.0
 11
9165.240683989269
 21
-449.1163845556248
 31
0.0
 11
9035.26021673829
 21
-445.0588481938028
 31
0.0
 11
8955.376393485819
 21
-461.28899364109
 31
0.0
 11
8801.024583843497
 21
-443.7063335310421
 31
0.0
 11
8746.866046896135
 21
-451.8214062546866
 31
0.0
 11
8694.061484466386
 21
-458.5839643155703
 31
0.0
  0
ARC
  5
31F8
330
1F
100
AcDbEntity
  8
細線
 62
     0
100
AcDbCircle
 10
10147.98084654262
 20
-1151.628615628826
 30
0.0
 40
304.8264111360556
100
AcDbArc
 50
136.4684717505699
 51
194.614371979125
  0
ARC
  5
31F9
330
1F
100
AcDbEntity
  8
細線
 62
     0
100
AcDbCircle
 10
10127.2830896619
 20
-1151.628615628826
 30
0.0
 40
304.8264111360556
100
AcDbArc
 50
136.4684717505699
 51
194.614371979125
  0
ARC
  5
31FA
330
1F
100
AcDbEntity
  8
細線
 62
     0
100
AcDbCircle
 10
9245.185692396734
 20
-1172.750134313087
 30
0.0
 40
360.4842448776039
100
AcDbArc
 50
130.5368914901004
 51
191.9417965673456
  0
ARC
  5
31FB
330
1F
100
AcDbEntity
  8
細線
 62
     0
100
AcDbCircle
 10
9177.447600681288
 20
-1167.109900191418
 30
0.0
 40
360.4842448776039
100
AcDbArc
 50
130.5368914901004
 51
191.9417965673456
  0
ARC
  5
31FC
330
1F
100
AcDbEntity
  8
細線
 62
     0
100
AcDbCircle
 10
10111.84340643509
 20
-1151.628615628826
 30
0.0
 40
304.8264111360556
100
AcDbArc
 50
136.4684717505699
 51
194.614371979125
  0
ARC
  5
31FD
330
1F
100
AcDbEntity
  8
細線
 62
     0
100
AcDbCircle
 10
9959.652276993409
 20
-1151.628615628826
 30
0.0
 40
304.8264111360556
100
AcDbArc
 50
136.4684717505699
 51
194.614371979125
  0
ARC
  5
31FE
330
1F
100
AcDbEntity
  8
細線
 62
     0
100
AcDbCircle
 10
9816.283816922506
 20
-1151.628615628826
 30
0.0
 40
304.8264111360556
100
AcDbArc
 50
136.4684717505699
 51
194.614371979125
  0
ARC
  5
31FF
330
1F
100
AcDbEntity
  8
細線
 62
     0
100
AcDbCircle
 10
9666.298342995592
 20
-1151.628615628826
 30
0.0
 40
304.8264111360556
100
AcDbArc
 50
136.4684717505699
 51
194.614371979125
  0
ARC
  5
3200
330
1F
100
AcDbEntity
  8
細線
 62
     0
100
AcDbCircle
 10
9520.724195868778
 20
-1156.035219253987
 30
0.0
 40
304.8264111360556
100
AcDbArc
 50
136.4684717505699
 51
193.7600330730161
  0
ARC
  5
3201
330
1F
100
AcDbEntity
  8
細線
 62
     0
100
AcDbCircle
 10
9236.192915471196
 20
-1153.831909581371
 30
0.0
 40
304.8264111360556
100
AcDbArc
 50
136.4684717505699
 51
194.1868014955262
  0
ARC
  5
3202
330
1F
100
AcDbEntity
  8
細線
 62
     0
100
AcDbCircle
 10
9370.738721941858
 20
-1151.628607768789
 30
0.0
 40
304.8264111360556
100
AcDbArc
 50
136.4684717505699
 51
194.6143735059053
  0
ARC
  5
3203
330
1F
100
AcDbEntity
  8
細線
 62
     0
100
AcDbCircle
 10
10127.2830896619
 20
-1151.628615628826
 30
0.0
 40
304.8264111360556
100
AcDbArc
 50
136.4684717505699
 51
194.614371979125
  0
ARC
  5
3204
330
1F
100
AcDbEntity
  8
細線
 62
     0
100
AcDbCircle
 10
9975.09194444966
 20
-1151.628615628826
 30
0.0
 40
304.8264111360556
100
AcDbArc
 50
136.4684717505699
 51
194.614371979125
  0
ARC
  5
3205
330
1F
100
AcDbEntity
  8
細線
 62
     0
100
AcDbCircle
 10
9831.723500149317
 20
-1151.628615628826
 30
0.0
 40
304.8264111360556
100
AcDbArc
 50
136.4684717505699
 51
194.614371979125
  0
ARC
  5
3206
330
1F
100
AcDbEntity
  8
細線
 62
     0
100
AcDbCircle
 10
9683.94368173716
 20
-1151.628615628826
 30
0.0
 40
304.8264111360556
100
AcDbArc
 50
136.4684717505699
 51
194.614371979125
  0
ARC
  5
3207
330
1F
100
AcDbEntity
  8
細線
 62
     0
100
AcDbCircle
 10
9540.575205895711
 20
-1156.035219253987
 30
0.0
 40
304.8264111360556
100
AcDbArc
 50
136.4684717505699
 51
193.7600330730161
  0
ARC
  5
3208
330
1F
100
AcDbEntity
  8
細線
 62
     0
100
AcDbCircle
 10
9388.384060683449
 20
-1151.628607768789
 30
0.0
 40
304.8264111360556
100
AcDbArc
 50
136.4684717505699
 51
194.6143735059053
  0
ARC
  5
3209
330
1F
100
AcDbEntity
  8
細線
 62
     0
100
AcDbCircle
 10
9249.426927412654
 20
-1153.831909581371
 30
0.0
 40
304.8264111360556
100
AcDbArc
 50
136.4684717505699
 51
194.1868014955262
  0
ARC
  5
320A
330
1F
100
AcDbEntity
  8
細線
 62
     0
100
AcDbCircle
 10
9194.38213010277
 20
-1172.750134313087
 30
0.0
 40
360.4842448776039
100
AcDbArc
 50
130.5368914901004
 51
191.9417965673456
  0
ARC
  5
320C
330
1F
100
AcDbEntity
  8
細線
 62
     0
100
AcDbCircle
 10
9149.002059538112
 20
-1162.324863132073
 30
0.0
 40
373.7455139878091
100
AcDbArc
 50
131.2131105652196
 51
191.6725568620036
  0
ARC
  5
320D
330
1F
100
AcDbEntity
  8
細線
 62
     0
100
AcDbCircle
 10
9118.896252540356
 20
-1152.924465568675
 30
0.0
 40
373.7455139878091
100
AcDbArc
 50
126.7722017750595
 51
191.6725568620036
  0
TEXT
  5
3211
330
1F
100
AcDbEntity
  8
文字
100
AcDbText
 10
9315.245569537522
 20
-398.9821145225263
 30
0.0
 40
43.2
  1
JVF joint flex
 51
15.0
  7
OKANO
100
AcDbText
  0
LINE
  5
3212
330
1F
100
AcDbEntity
  8
太線
100
AcDbLine
 10
8735.21299529473
 20
-515.748493952902
 30
0.0
 11
10009.72669254402
 21
-515.1404521266263
 31
0.0
  0
LINE
  5
3213
330
1F
100
AcDbEntity
  8
太線
100
AcDbLine
 10
8694.226729830658
 20
-213.3484939529021
 30
0.0
 11
9975.056955212476
 21
-217.1448690787809
 31
0.0
  0
LINE
  5
3214
330
1F
100
AcDbEntity
  8
細線
 62
     0
100
AcDbLine
 10
9016.912348011002
 20
-852.2365851617799
 30
0.0
 11
9911.348230266593
 21
-852.2365851617799
 31
0.0
  0
LINE
  5
3216
330
1F
100
AcDbEntity
  8
細線
 62
     0
100
AcDbLine
 10
9485.442246018847
 20
-881.0365851617802
 30
0.0
 11
9611.180661565946
 21
-881.0365851617792
 31
0.0
  0
ARC
  5
3217
330
1F
100
AcDbEntity
  8
細線
 62
     0
100
AcDbCircle
 10
9613.755340736121
 20
-931.4365851617804
 30
0.0
 40
7.2
100
AcDbArc
 50
185.0000000000028
 51
270.0
  0
LINE
  5
3218
330
1F
100
AcDbEntity
  8
太線
100
AcDbLine
 10
8925.143326994014
 20
-278.296385461404
 30
0.0
 11
8915.264695333377
 21
-453.9476767396071
 31
0.0
  0
LINE
  5
3219
330
1F
100
AcDbEntity
  8
太線
100
AcDbLine
 10
8713.856455958627
 20
-292.4740675159473
 30
0.0
 11
8705.596257725437
 21
-450.0880390711844
 31
0.0
  0
LINE
  5
321A
330
1F
100
AcDbEntity
  8
太線
100
AcDbLine
 10
8758.719891380302
 20
-303.508584278079
 30
0.0
 11
8751.371671331019
 21
-443.7209754500043
 31
0.0
  0
LINE
  5
321B
330
1F
100
AcDbEntity
  8
太線
100
AcDbLine
 10
8817.831446420493
 20
-302.6194108258786
 30
0.0
 11
8810.82286933462
 21
-436.3510281880817
 31
0.0
  0
LINE
  5
321C
330
1F
100
AcDbEntity
  8
太線
100
AcDbLine
 10
8862.089010140236
 20
-287.5157759989551
 30
0.0
 11
8854.039066225629
 21
-441.1178561625502
 31
0.0
  0
LINE
  5
321D
330
1F
100
AcDbEntity
  8
太線
100
AcDbLine
 10
8962.977150800627
 20
-291.0314456678497
 30
0.0
 11
8954.397594577251
 21
-454.7391306862954
 31
0.0
  0
LINE
  5
321E
330
1F
100
AcDbEntity
  8
太線
100
AcDbLine
 10
9021.590451318584
 20
-303.5970422370983
 30
0.0
 11
9014.353165294147
 21
-441.6926861176825
 31
0.0
  0
LINE
  5
321F
330
1F
100
AcDbEntity
  8
太線
100
AcDbLine
 10
9063.071273713523
 20
-301.8037236302451
 30
0.0
 11
9056.030238528279
 21
-436.154678422859
 31
0.0
  0
LINE
  5
3220
330
1F
100
AcDbEntity
  8
太線
100
AcDbLine
 10
9124.545345110837
 20
-293.5342148051586
 30
0.0
 11
9116.895079595805
 21
-439.5099767946422
 31
0.0
  0
LINE
  5
3221
330
1F
100
AcDbEntity
  8
太線
100
AcDbLine
 10
9162.227741560844
 20
-292.3672262430818
 30
0.0
 11
9154.392388505341
 21
-441.8746688916761
 31
0.0
  0
LINE
  5
3222
330
1F
100
AcDbEntity
  8
太線
100
AcDbLine
 10
9227.200482536387
 20
-308.9274723444349
 30
0.0
 11
9220.771533373719
 21
-431.5991300757176
 31
0.0
  0
LINE
  5
3223
330
1F
100
AcDbEntity
  8
太線
100
AcDbLine
 10
8694.226729830658
 20
-213.3484939529021
 30
0.0
 11
8694.226729830658
 21
-515.748493952902
 31
0.0
  0
LINE
  5
3225
330
1F
100
AcDbEntity
  8
細線
 62
     0
100
AcDbLine
 10
9149.110487747245
 20
-938.6365851617799
 30
0.0
 11
9028.826118323875
 21
-938.6365851617799
 31
0.0
  0
LINE
  5
3226
330
1F
100
AcDbEntity
  8
細線
 62
     0
100
AcDbLine
 10
9055.129387325678
 20
-924.2365851617796
 30
0.0
 11
9120.18750017898
 21
-924.2365851617799
 31
0.0
  0
LINE
  5
3227
330
1F
100
AcDbEntity
  8
細線
 62
     0
100
AcDbLine
 10
9053.366536216415
 20
-881.0365851617792
 30
0.0
 11
9163.918196904116
 21
-881.0365851617792
 31
0.0
  0
LINE
  5
3228
330
1F
100
AcDbEntity
  8
細線
 62
     0
100
AcDbLine
 10
9081.712348011
 20
-895.4365851617804
 30
0.0
 11
9149.110487747245
 21
-895.4365851617804
 31
0.0
  0
LINE
  5
3229
330
1F
100
AcDbEntity
  8
細線
 62
     0
100
AcDbLine
 10
9120.18750017898
 20
-909.8365851617803
 30
0.0
 11
9081.712348011
 21
-909.8365851617803
 31
0.0
  0
LINE
  5
322A
330
1F
100
AcDbEntity
  8
細線
 62
     0
100
AcDbLine
 10
8898.949490851066
 20
-853.2988782621764
 30
0.0
 11
8898.949490851066
 21
-881.1695056773773
 31
0.0
  0
LINE
  5
322B
330
1F
100
AcDbEntity
  8
細線
 62
     0
100
AcDbLine
 10
9010.257407711575
 20
-895.4365851617794
 30
0.0
 11
8960.053426427947
 21
-895.4365851617804
 31
0.0
  0
LINE
  5
322C
330
1F
100
AcDbEntity
  8
細線
 62
     0
100
AcDbLine
 10
8898.949490851066
 20
-881.1695056773773
 30
0.0
 11
9014.814302958445
 21
-881.1695056773773
 31
0.0
  0
LINE
  5
322D
330
1F
100
AcDbEntity
  8
細線
 62
     0
100
AcDbLine
 10
8943.155363729998
 20
-893.1463286908597
 30
0.0
 11
8960.053426427947
 21
-881.1695056773773
 31
0.0
  0
LINE
  5
322E
330
1F
100
AcDbEntity
  8
細線
 62
     0
100
AcDbLine
 10
8960.053426427947
 20
-895.4365851617804
 30
0.0
 11
8960.053426427947
 21
-881.1695056773773
 31
0.0
  0
LINE
  5
322F
330
1F
100
AcDbEntity
  8
細線
 62
     0
100
AcDbLine
 10
9015.195145479198
 20
-943.8816140715747
 30
0.0
 11
9021.65351649762
 21
-932.0641065095633
 31
0.0
  0
ARC
  5
3230
330
1F
100
AcDbEntity
  8
細線
 62
     0
100
AcDbCircle
 10
9028.826118323875
 20
-931.4365851617804
 30
0.0
 40
7.2
100
AcDbArc
 50
185.0000000000028
 51
270.0
  0
LINE
  5
3231
330
1F
100
AcDbEntity
  8
細線
 62
     0
100
AcDbLine
 10
9032.470377467616
 20
-887.6090638139972
 30
0.0
 11
9035.099852985252
 21
-917.6641065095633
 31
0.0
  0
ARC
  5
3232
330
1F
100
AcDbEntity
  8
細線
 62
     0
100
AcDbCircle
 10
9042.272454811536
 20
-917.0365851617802
 30
0.0
 40
7.2
100
AcDbArc
 50
185.0000000000028
 51
270.0
  0
LINE
  5
3233
330
1F
100
AcDbEntity
  8
細線
 62
     0
100
AcDbLine
 10
9021.65351649762
 20
-932.0641065095633
 30
0.0
 11
9017.387673858587
 21
-901.6369328860241
 31
0.0
  0
ARC
  5
3234
330
1F
100
AcDbEntity
  8
細線
 62
     0
100
AcDbCircle
 10
9010.257407711575
 20
-902.6365851617796
 30
0.0
 40
7.2
100
AcDbArc
 50
7.980761972178825
 51
90.0
  0
LINE
  5
3235
330
1F
100
AcDbEntity
  8
細線
 62
     0
100
AcDbLine
 10
9016.912348011002
 20
-881.0365851617802
 30
0.0
 11
9025.297775641361
 21
-881.0365851617802
 31
0.0
  0
ARC
  5
3236
330
1F
100
AcDbEntity
  8
細線
 62
     0
100
AcDbCircle
 10
9025.297775641361
 20
-888.2365851617802
 30
0.0
 40
7.2
100
AcDbArc
 50
5.000000000002865
 51
90.0
  0
ARC
  5
3237
330
1F
100
AcDbEntity
  8
細線
 62
     0
100
AcDbCircle
 10
9081.712348011
 20
-902.6365851617802
 30
0.0
 40
7.2
100
AcDbArc
 50
180.0
 51
270.0
  0
ARC
  5
3238
330
1F
100
AcDbEntity
  8
細線
 62
     0
100
AcDbCircle
 10
9067.312348010998
 20
-902.6365851617802
 30
0.0
 40
7.2
100
AcDbArc
 50
180.0
 51
270.0
  0
LINE
  5
3239
330
1F
100
AcDbEntity
  8
細線
 62
     0
100
AcDbLine
 10
9047.942837580476
 20
-917.4764746475444
 30
0.0
 11
9046.179986471214
 21
-888.6764746475442
 31
0.0
  0
LINE
  5
323A
330
1F
100
AcDbEntity
  8
細線
 62
     0
100
AcDbLine
 10
9042.272454811536
 20
-924.2365851617799
 30
0.0
 11
9055.129387325678
 21
-924.2365851617799
 31
0.0
  0
ARC
  5
323B
330
1F
100
AcDbEntity
  8
細線
 62
     0
100
AcDbCircle
 10
9055.129387325678
 20
-917.0365851617791
 30
0.0
 40
7.2
100
AcDbArc
 50
183.5027107028168
 51
270.0
  0
LINE
  5
323C
330
1F
100
AcDbEntity
  8
細線
 62
     0
100
AcDbLine
 10
9067.312348010998
 20
-909.8365851617803
 30
0.0
 11
9081.712348011
 21
-909.8365851617803
 31
0.0
  0
LINE
  5
323D
330
1F
100
AcDbEntity
  8
細線
 62
     0
100
AcDbLine
 10
9074.512348011003
 20
-909.8365851617803
 30
0.0
 11
9067.312348010998
 21
-909.8365851617803
 31
0.0
  0
ARC
  5
323E
330
1F
100
AcDbEntity
  8
細線
 62
     0
100
AcDbCircle
 10
9053.366536216415
 20
-888.2365851617796
 30
0.0
 40
7.2
100
AcDbArc
 50
90.0
 51
183.5027107028168
  0
LINE
  5
323F
330
1F
100
AcDbEntity
  8
細線
 62
     0
100
AcDbLine
 10
9074.512348011003
 20
-895.4365851617804
 30
0.0
 11
9081.712348011
 21
-895.4365851617804
 31
0.0
  0
ARC
  5
3240
330
1F
100
AcDbEntity
  8
細線
 62
     0
100
AcDbCircle
 10
9081.712348011
 20
-902.6365851617802
 30
0.0
 40
7.2
100
AcDbArc
 50
90.0
 51
180.0
  0
ARC
  5
3241
330
1F
100
AcDbEntity
  8
細線
 62
     0
100
AcDbCircle
 10
9067.312348010998
 20
-902.6365851617802
 30
0.0
 40
7.2
100
AcDbArc
 50
90.0
 51
180.0
  0
LINE
  5
3242
330
1F
100
AcDbEntity
  8
細線
 62
     0
100
AcDbLine
 10
9067.312348010998
 20
-895.4365851617804
 30
0.0
 11
9074.512348011003
 21
-895.4365851617804
 31
0.0
  0
LINE
  5
3243
330
1F
100
AcDbEntity
  8
細線
 62
     0
100
AcDbLine
 10
9060.112348011001
 20
-902.6365851617802
 30
0.0
 11
9060.112348011001
 21
-902.6365851617802
 31
0.0
  0
LINE
  5
3244
330
1F
100
AcDbEntity
  8
細線
 62
     0
100
AcDbLine
 10
9074.512348011003
 20
-902.6365851617802
 30
0.0
 11
9074.512348011003
 21
-902.6365851617802
 31
0.0
  0
LINE
  5
3245
330
1F
100
AcDbEntity
  8
細線
 62
     0
100
AcDbLine
 10
8898.949490851066
 20
-853.4778029459172
 30
0.0
 11
9017.400800993964
 21
-851.3428121826191
 31
0.0
  0
LINE
  5
3246
330
1F
100
AcDbEntity
  8
細線
 62
     0
100
AcDbLine
 10
8895.159093039714
 20
-853.5461218552368
 30
0.0
 11
9017.400800993964
 21
-851.3428121826191
 31
0.0
  0
LINE
  5
3247
330
1F
100
AcDbEntity
  8
太線
100
AcDbLine
 10
8694.226729830658
 20
-515.748493952902
 30
0.0
 11
8735.21299529473
 21
-515.748493952902
 31
0.0
  0
LINE
  5
3248
330
1F
100
AcDbEntity
  8
太線
100
AcDbLine
 10
8863.201425221221
 20
-442.8435889918055
 30
0.0
 11
8863.201425221221
 21
-442.8435889918055
 31
0.0
  0
LINE
  5
3249
330
1F
100
AcDbEntity
  8
細線
 62
     0
100
AcDbLine
 10
9339.046487747252
 20
-938.6365851617799
 30
0.0
 11
9442.242246018851
 21
-938.6365851617799
 31
0.0
  0
ARC
  5
324A
330
1F
100
AcDbEntity
  8
細線
 62
     0
100
AcDbCircle
 10
9360.444106282601
 20
-902.6365851617802
 30
0.0
 40
7.2
100
AcDbArc
 50
90.0
 51
180.0
  0
ARC
  5
324B
330
1F
100
AcDbEntity
  8
細線
 62
     0
100
AcDbCircle
 10
9360.444106282601
 20
-902.6365851617802
 30
0.0
 40
7.2
100
AcDbArc
 50
180.0
 51
270.0
  0
LINE
  5
324C
330
1F
100
AcDbEntity
  8
細線
 62
     0
100
AcDbLine
 10
9346.498294488045
 20
-881.0365851617792
 30
0.0
 11
9457.049955175717
 21
-881.0365851617792
 31
0.0
  0
LINE
  5
324D
330
1F
100
AcDbEntity
  8
細線
 62
     0
100
AcDbLine
 10
9348.26114559728
 20
-924.2365851617796
 30
0.0
 11
9413.319258450579
 21
-924.2365851617799
 31
0.0
  0
LINE
  5
324E
330
1F
100
AcDbEntity
  8
細線
 62
     0
100
AcDbLine
 10
9192.31048774724
 20
-881.0365851617802
 30
0.0
 11
9318.048903294311
 21
-881.0365851617792
 31
0.0
  0
LINE
  5
324F
330
1F
100
AcDbEntity
  8
細線
 62
     0
100
AcDbLine
 10
9221.110487747244
 20
-909.8365851617803
 30
0.0
 11
9274.246487747255
 21
-909.8365851617803
 31
0.0
  0
LINE
  5
3250
330
1F
100
AcDbEntity
  8
細線
 62
     0
100
AcDbLine
 10
9303.046487747254
 20
-895.4365851617804
 30
0.0
 11
9221.110487747244
 21
-895.4365851617804
 31
0.0
  0
LINE
  5
3251
330
1F
100
AcDbEntity
  8
細線
 62
     0
100
AcDbLine
 10
9274.246487747255
 20
-924.2365851617799
 30
0.0
 11
9192.31048774724
 21
-924.2365851617799
 31
0.0
  0
LINE
  5
3252
330
1F
100
AcDbEntity
  8
細線
 62
     0
100
AcDbLine
 10
9166.687582464502
 20
-938.6365851617799
 30
0.0
 11
9303.046487747254
 21
-938.6365851617799
 31
0.0
  0
ARC
  5
3253
330
1F
100
AcDbEntity
  8
細線
 62
     0
100
AcDbCircle
 10
9149.110487747245
 20
-931.4365851617804
 30
0.0
 40
7.2
100
AcDbArc
 50
270.0
 51
0.0
  0
ARC
  5
3254
330
1F
100
AcDbEntity
  8
細線
 62
     0
100
AcDbCircle
 10
9166.687582464502
 20
-931.4365851617804
 30
0.0
 40
7.2
100
AcDbArc
 50
185.0000000000028
 51
270.0
  0
LINE
  5
3255
330
1F
100
AcDbEntity
  8
細線
 62
     0
100
AcDbLine
 10
9156.310487747239
 20
-902.6365851617802
 30
0.0
 11
9159.514980638224
 21
-932.0641065095633
 31
0.0
  0
LINE
  5
3256
330
1F
100
AcDbEntity
  8
細線
 62
     0
100
AcDbLine
 10
9156.310487747239
 20
-902.6365851617802
 30
0.0
 11
9156.310487747239
 21
-931.4365851617804
 31
0.0
  0
LINE
  5
3257
330
1F
100
AcDbEntity
  8
細線
 62
     0
100
AcDbLine
 10
9120.18750017898
 20
-924.2365851617799
 30
0.0
 11
9134.587500178971
 21
-924.2365851617799
 31
0.0
  0
LINE
  5
3258
330
1F
100
AcDbEntity
  8
細線
 62
     0
100
AcDbLine
 10
9120.18750017898
 20
-909.8365851617803
 30
0.0
 11
9134.587500178971
 21
-909.8365851617803
 31
0.0
  0
ARC
  5
3259
330
1F
100
AcDbEntity
  8
細線
 62
     0
100
AcDbCircle
 10
9120.18750017898
 20
-917.0365851617802
 30
0.0
 40
7.2
100
AcDbArc
 50
270.0
 51
0.0
  0
ARC
  5
325A
330
1F
100
AcDbEntity
  8
細線
 62
     0
100
AcDbCircle
 10
9120.18750017898
 20
-917.0365851617802
 30
0.0
 40
7.2
100
AcDbArc
 50
0.0
 51
90.0
  0
ARC
  5
325B
330
1F
100
AcDbEntity
  8
細線
 62
     0
100
AcDbCircle
 10
9134.587500178971
 20
-917.0365851617802
 30
0.0
 40
7.2
100
AcDbArc
 50
270.0
 51
0.0
  0
ARC
  5
325C
330
1F
100
AcDbEntity
  8
細線
 62
     0
100
AcDbCircle
 10
9134.587500178971
 20
-917.0365851617802
 30
0.0
 40
7.2
100
AcDbArc
 50
0.0
 51
90.0
  0
LINE
  5
325D
330
1F
100
AcDbEntity
  8
細線
 62
     0
100
AcDbLine
 10
9127.387500178976
 20
-917.0365851617802
 30
0.0
 11
9127.387500178976
 21
-917.0365851617802
 31
0.0
  0
LINE
  5
325E
330
1F
100
AcDbEntity
  8
細線
 62
     0
100
AcDbLine
 10
9141.787500178978
 20
-917.0365851617802
 30
0.0
 11
9141.787500178978
 21
-917.0365851617802
 31
0.0
  0
ARC
  5
325F
330
1F
100
AcDbEntity
  8
細線
 62
     0
100
AcDbCircle
 10
9149.110487747245
 20
-902.6365851617802
 30
0.0
 40
7.2
100
AcDbArc
 50
0.0
 51
90.0
  0
ARC
  5
3260
330
1F
100
AcDbEntity
  8
細線
 62
     0
100
AcDbCircle
 10
9221.110487747244
 20
-902.6365851617802
 30
0.0
 40
7.2
100
AcDbArc
 50
180.0
 51
270.0
  0
ARC
  5
3261
330
1F
100
AcDbEntity
  8
細線
 62
     0
100
AcDbCircle
 10
9206.710487747242
 20
-902.6365851617802
 30
0.0
 40
7.2
100
AcDbArc
 50
180.0
 51
270.0
  0
LINE
  5
3262
330
1F
100
AcDbEntity
  8
細線
 62
     0
100
AcDbLine
 10
9185.110487747245
 20
-917.0365851617802
 30
0.0
 11
9185.110487747245
 21
-888.2365851617802
 31
0.0
  0
LINE
  5
3263
330
1F
100
AcDbEntity
  8
細線
 62
     0
100
AcDbLine
 10
9172.834667767439
 20
-917.4558182584227
 30
0.0
 11
9171.105981236619
 21
-887.8173520651367
 31
0.0
  0
ARC
  5
3264
330
1F
100
AcDbEntity
  8
細線
 62
     0
100
AcDbCircle
 10
9180.022452099938
 20
-917.0365851617802
 30
0.0
 40
7.2
100
AcDbArc
 50
183.3380389906383
 51
270.0
  0
LINE
  5
3265
330
1F
100
AcDbEntity
  8
細線
 62
     0
100
AcDbLine
 10
9213.910487747249
 20
-909.8365851617803
 30
0.0
 11
9221.110487747244
 21
-909.8365851617803
 31
0.0
  0
LINE
  5
3266
330
1F
100
AcDbEntity
  8
細線
 62
     0
100
AcDbLine
 10
9180.022452099938
 20
-924.2365851617799
 30
0.0
 11
9192.31048774724
 21
-924.2365851617799
 31
0.0
  0
ARC
  5
3267
330
1F
100
AcDbEntity
  8
細線
 62
     0
100
AcDbCircle
 10
9192.31048774724
 20
-917.0365851617802
 30
0.0
 40
7.2
100
AcDbArc
 50
180.0
 51
270.0
  0
LINE
  5
3268
330
1F
100
AcDbEntity
  8
細線
 62
     0
100
AcDbLine
 10
9213.910487747249
 20
-909.8365851617803
 30
0.0
 11
9206.710487747242
 21
-909.8365851617803
 31
0.0
  0
ARC
  5
3269
330
1F
100
AcDbEntity
  8
細線
 62
     0
100
AcDbCircle
 10
9163.918196904116
 20
-888.2365851617796
 30
0.0
 40
7.2
100
AcDbArc
 50
3.338038990638372
 51
90.0
  0
LINE
  5
326A
330
1F
100
AcDbEntity
  8
細線
 62
     0
100
AcDbLine
 10
9213.910487747249
 20
-895.4365851617804
 30
0.0
 11
9221.110487747244
 21
-895.4365851617804
 31
0.0
  0
ARC
  5
326B
330
1F
100
AcDbEntity
  8
細線
 62
     0
100
AcDbCircle
 10
9221.110487747244
 20
-902.6365851617802
 30
0.0
 40
7.2
100
AcDbArc
 50
90.0
 51
180.0
  0
ARC
  5
326C
330
1F
100
AcDbEntity
  8
細線
 62
     0
100
AcDbCircle
 10
9206.710487747242
 20
-902.6365851617802
 30
0.0
 40
7.2
100
AcDbArc
 50
90.0
 51
180.0
  0
ARC
  5
326D
330
1F
100
AcDbEntity
  8
細線
 62
     0
100
AcDbCircle
 10
9192.31048774724
 20
-888.2365851617802
 30
0.0
 40
7.2
100
AcDbArc
 50
90.0
 51
180.0
  0
LINE
  5
326E
330
1F
100
AcDbEntity
  8
細線
 62
     0
100
AcDbLine
 10
9206.710487747242
 20
-895.4365851617804
 30
0.0
 11
9213.910487747249
 21
-895.4365851617804
 31
0.0
  0
LINE
  5
326F
330
1F
100
AcDbEntity
  8
細線
 62
     0
100
AcDbLine
 10
9199.510487747245
 20
-902.6365851617802
 30
0.0
 11
9199.510487747245
 21
-902.6365851617802
 31
0.0
  0
LINE
  5
3270
330
1F
100
AcDbEntity
  8
細線
 62
     0
100
AcDbLine
 10
9213.910487747249
 20
-902.6365851617802
 30
0.0
 11
9213.910487747249
 21
-902.6365851617802
 31
0.0
  0
ARC
  5
3271
330
1F
100
AcDbEntity
  8
細線
 62
     0
100
AcDbCircle
 10
9303.046487747254
 20
-931.4365851617804
 30
0.0
 40
7.2
100
AcDbArc
 50
270.0
 51
0.0
  0
ARC
  5
3272
330
1F
100
AcDbEntity
  8
細線
 62
     0
100
AcDbCircle
 10
9320.623582464488
 20
-931.4365851617804
 30
0.0
 40
7.2
100
AcDbArc
 50
185.0000000000028
 51
270.0
  0
LINE
  5
3273
330
1F
100
AcDbEntity
  8
細線
 62
     0
100
AcDbLine
 10
9274.246487747255
 20
-924.2365851617799
 30
0.0
 11
9288.646487747252
 21
-924.2365851617799
 31
0.0
  0
LINE
  5
3274
330
1F
100
AcDbEntity
  8
細線
 62
     0
100
AcDbLine
 10
9274.246487747255
 20
-909.8365851617803
 30
0.0
 11
9288.646487747252
 21
-909.8365851617803
 31
0.0
  0
ARC
  5
3275
330
1F
100
AcDbEntity
  8
細線
 62
     0
100
AcDbCircle
 10
9274.246487747255
 20
-917.0365851617802
 30
0.0
 40
7.2
100
AcDbArc
 50
270.0
 51
359.9999999999967
  0
ARC
  5
3276
330
1F
100
AcDbEntity
  8
細線
 62
     0
100
AcDbCircle
 10
9274.246487747255
 20
-917.0365851617802
 30
0.0
 40
7.2
100
AcDbArc
 50
0.0
 51
90.0
  0
LINE
  5
3277
330
1F
100
AcDbEntity
  8
細線
 62
     0
100
AcDbLine
 10
9281.446487747253
 20
-917.0365851617802
 30
0.0
 11
9281.446487747253
 21
-917.0365851617802
 31
0.0
  0
LINE
  5
3278
330
1F
100
AcDbEntity
  8
細線
 62
     0
100
AcDbLine
 10
9341.074595852083
 20
-917.4764746475444
 30
0.0
 11
9339.31174474282
 21
-888.6764746475442
 31
0.0
  0
LINE
  5
3279
330
1F
100
AcDbEntity
  8
細線
 62
     0
100
AcDbLine
 10
9310.246487747255
 20
-902.6365851617802
 30
0.0
 11
9313.450980638233
 21
-932.0641065095633
 31
0.0
  0
LINE
  5
327A
330
1F
100
AcDbEntity
  8
細線
 62
     0
100
AcDbLine
 10
9325.221505120591
 20
-887.6090638139963
 30
0.0
 11
9327.850980638226
 21
-917.6641065095626
 31
0.0
  0
LINE
  5
327B
330
1F
100
AcDbEntity
  8
細線
 62
     0
100
AcDbLine
 10
9310.246487747255
 20
-931.4365851617804
 30
0.0
 11
9310.246487747255
 21
-902.6365851617802
 31
0.0
  0
ARC
  5
327C
330
1F
100
AcDbEntity
  8
細線
 62
     0
100
AcDbCircle
 10
9288.646487747252
 20
-917.0365851617802
 30
0.0
 40
7.2
100
AcDbArc
 50
270.0
 51
0.0
  0
ARC
  5
327D
330
1F
100
AcDbEntity
  8
細線
 62
     0
100
AcDbCircle
 10
9288.646487747252
 20
-917.0365851617802
 30
0.0
 40
7.2
100
AcDbArc
 50
0.0
 51
90.0
  0
ARC
  5
327E
330
1F
100
AcDbEntity
  8
細線
 62
     0
100
AcDbCircle
 10
9348.26114559728
 20
-917.0365851617791
 30
0.0
 40
7.2
100
AcDbArc
 50
183.5027107028168
 51
270.0
  0
LINE
  5
327F
330
1F
100
AcDbEntity
  8
細線
 62
     0
100
AcDbLine
 10
9335.404213083137
 20
-924.2365851617799
 30
0.0
 11
9348.26114559728
 21
-924.2365851617799
 31
0.0
  0
ARC
  5
3280
330
1F
100
AcDbEntity
  8
細線
 62
     0
100
AcDbCircle
 10
9335.023582464485
 20
-917.0365851617791
 30
0.0
 40
7.2
100
AcDbArc
 50
185.0000000000028
 51
270.0
  0
LINE
  5
3281
330
1F
100
AcDbEntity
  8
細線
 62
     0
100
AcDbLine
 10
9320.623582464488
 20
-938.6365851617799
 30
0.0
 11
9339.046487747252
 21
-938.6365851617799
 31
0.0
  0
LINE
  5
3282
330
1F
100
AcDbEntity
  8
細線
 62
     0
100
AcDbLine
 10
9335.023582464485
 20
-924.2365851617796
 30
0.0
 11
9339.046487747252
 21
-924.2365851617799
 31
0.0
  0
LINE
  5
3283
330
1F
100
AcDbEntity
  8
細線
 62
     0
100
AcDbLine
 10
9295.846487747256
 20
-917.0365851617802
 30
0.0
 11
9295.846487747256
 21
-917.0365851617802
 31
0.0
  0
ARC
  5
3284
330
1F
100
AcDbEntity
  8
細線
 62
     0
100
AcDbCircle
 10
9346.498294488045
 20
-888.2365851617796
 30
0.0
 40
7.2
100
AcDbArc
 50
90.0
 51
183.5027107028168
  0
ARC
  5
3285
330
1F
100
AcDbEntity
  8
細線
 62
     0
100
AcDbCircle
 10
9303.046487747254
 20
-902.6365851617802
 30
0.0
 40
7.2
100
AcDbArc
 50
0.0
 51
90.0
  0
ARC
  5
3286
330
1F
100
AcDbEntity
  8
細線
 62
     0
100
AcDbCircle
 10
9318.048903294311
 20
-888.2365851617796
 30
0.0
 40
7.2
100
AcDbArc
 50
5.000000000002865
 51
90.0
  0
LINE
  5
3287
330
1F
100
AcDbEntity
  8
細線
 62
     0
100
AcDbLine
 10
9473.154210371538
 20
-924.2365851617799
 30
0.0
 11
9485.442246018847
 21
-924.2365851617799
 31
0.0
  0
LINE
  5
3288
330
1F
100
AcDbEntity
  8
細線
 62
     0
100
AcDbLine
 10
9459.819340736109
 20
-938.6365851617799
 30
0.0
 11
9596.178246018853
 21
-938.6365851617799
 31
0.0
  0
ARC
  5
3289
330
1F
100
AcDbEntity
  8
細線
 62
     0
100
AcDbCircle
 10
9485.442246018847
 20
-917.0365851617802
 30
0.0
 40
7.2
100
AcDbArc
 50
180.0
 51
270.0
  0
ARC
  5
328A
330
1F
100
AcDbEntity
  8
細線
 62
     0
100
AcDbCircle
 10
9485.442246018847
 20
-888.2365851617802
 30
0.0
 40
7.2
100
AcDbArc
 50
90.0
 51
180.0
  0
ARC
  5
328B
330
1F
100
AcDbEntity
  8
細線
 62
     0
100
AcDbCircle
 10
9459.819340736109
 20
-931.4365851617804
 30
0.0
 40
7.2
100
AcDbArc
 50
185.0000000000028
 51
270.0
  0
ARC
  5
328C
330
1F
100
AcDbEntity
  8
細線
 62
     0
100
AcDbCircle
 10
9442.242246018851
 20
-931.4365851617804
 30
0.0
 40
7.2
100
AcDbArc
 50
270.0
 51
0.0
  0
ARC
  5
328D
330
1F
100
AcDbEntity
  8
細線
 62
     0
100
AcDbCircle
 10
9413.319258450579
 20
-917.0365851617802
 30
0.0
 40
7.2
100
AcDbArc
 50
0.0
 51
90.0
  0
ARC
  5
328E
330
1F
100
AcDbEntity
  8
細線
 62
     0
100
AcDbCircle
 10
9413.319258450579
 20
-917.0365851617802
 30
0.0
 40
7.2
100
AcDbArc
 50
270.0
 51
0.0
  0
LINE
  5
328F
330
1F
100
AcDbEntity
  8
細線
 62
     0
100
AcDbLine
 10
9413.319258450579
 20
-909.8365851617803
 30
0.0
 11
9427.719258450579
 21
-909.8365851617803
 31
0.0
  0
LINE
  5
3290
330
1F
100
AcDbEntity
  8
細線
 62
     0
100
AcDbLine
 10
9413.319258450579
 20
-924.2365851617799
 30
0.0
 11
9427.719258450579
 21
-924.2365851617799
 31
0.0
  0
LINE
  5
3291
330
1F
100
AcDbEntity
  8
細線
 62
     0
100
AcDbLine
 10
9374.8441062826
 20
-895.4365851617804
 30
0.0
 11
9442.242246018851
 21
-895.4365851617804
 31
0.0
  0
LINE
  5
3292
330
1F
100
AcDbEntity
  8
細線
 62
     0
100
AcDbLine
 10
9353.244106282602
 20
-902.6365851617802
 30
0.0
 11
9353.244106282602
 21
-902.6365851617802
 31
0.0
  0
ARC
  5
3293
330
1F
100
AcDbEntity
  8
細線
 62
     0
100
AcDbCircle
 10
9374.8441062826
 20
-902.6365851617802
 30
0.0
 40
7.2
100
AcDbArc
 50
180.0
 51
270.0
  0
LINE
  5
3294
330
1F
100
AcDbEntity
  8
細線
 62
     0
100
AcDbLine
 10
9367.644106282602
 20
-909.8365851617803
 30
0.0
 11
9360.444106282601
 21
-909.8365851617803
 31
0.0
  0
LINE
  5
3295
330
1F
100
AcDbEntity
  8
細線
 62
     0
100
AcDbLine
 10
9360.444106282601
 20
-909.8365851617803
 30
0.0
 11
9374.8441062826
 21
-909.8365851617803
 31
0.0
  0
LINE
  5
3296
330
1F
100
AcDbEntity
  8
細線
 62
     0
100
AcDbLine
 10
9413.319258450579
 20
-909.8365851617803
 30
0.0
 11
9374.8441062826
 21
-909.8365851617803
 31
0.0
  0
LINE
  5
3297
330
1F
100
AcDbEntity
  8
細線
 62
     0
100
AcDbLine
 10
9360.444106282601
 20
-895.4365851617804
 30
0.0
 11
9367.644106282602
 21
-895.4365851617804
 31
0.0
  0
ARC
  5
3298
330
1F
100
AcDbEntity
  8
細線
 62
     0
100
AcDbCircle
 10
9374.8441062826
 20
-902.6365851617802
 30
0.0
 40
7.2
100
AcDbArc
 50
90.0
 51
180.0
  0
LINE
  5
3299
330
1F
100
AcDbEntity
  8
細線
 62
     0
100
AcDbLine
 10
9367.644106282602
 20
-902.6365851617802
 30
0.0
 11
9367.644106282602
 21
-902.6365851617802
 31
0.0
  0
LINE
  5
329A
330
1F
100
AcDbEntity
  8
細線
 62
     0
100
AcDbLine
 10
9367.644106282602
 20
-895.4365851617804
 30
0.0
 11
9374.8441062826
 21
-895.4365851617804
 31
0.0
  0
LINE
  5
329B
330
1F
100
AcDbEntity
  8
細線
 62
     0
100
AcDbLine
 10
9449.442246018847
 20
-902.6365851617802
 30
0.0
 11
9449.442246018847
 21
-931.4365851617804
 31
0.0
  0
LINE
  5
329C
330
1F
100
AcDbEntity
  8
細線
 62
     0
100
AcDbLine
 10
9465.96642603904
 20
-917.4558182584227
 30
0.0
 11
9464.23773950822
 21
-887.8173520651367
 31
0.0
  0
LINE
  5
329D
330
1F
100
AcDbEntity
  8
細線
 62
     0
100
AcDbLine
 10
9449.442246018847
 20
-902.6365851617802
 30
0.0
 11
9452.646738909853
 21
-932.0641065095633
 31
0.0
  0
ARC
  5
329E
330
1F
100
AcDbEntity
  8
細線
 62
     0
100
AcDbCircle
 10
9427.719258450579
 20
-917.0365851617802
 30
0.0
 40
7.2
100
AcDbArc
 50
0.0
 51
90.0
  0
ARC
  5
329F
330
1F
100
AcDbEntity
  8
細線
 62
     0
100
AcDbCircle
 10
9427.719258450579
 20
-917.0365851617802
 30
0.0
 40
7.2
100
AcDbArc
 50
270.0
 51
0.0
  0
LINE
  5
32A0
330
1F
100
AcDbEntity
  8
細線
 62
     0
100
AcDbLine
 10
9434.919258450586
 20
-917.0365851617802
 30
0.0
 11
9434.919258450586
 21
-917.0365851617802
 31
0.0
  0
LINE
  5
32A1
330
1F
100
AcDbEntity
  8
細線
 62
     0
100
AcDbLine
 10
9420.519258450584
 20
-917.0365851617802
 30
0.0
 11
9420.519258450584
 21
-917.0365851617802
 31
0.0
  0
ARC
  5
32A2
330
1F
100
AcDbEntity
  8
細線
 62
     0
100
AcDbCircle
 10
9473.154210371538
 20
-917.0365851617802
 30
0.0
 40
7.2
100
AcDbArc
 50
183.3380389906383
 51
270.0
  0
ARC
  5
32A3
330
1F
100
AcDbEntity
  8
細線
 62
     0
100
AcDbCircle
 10
9457.049955175717
 20
-888.2365851617796
 30
0.0
 40
7.2
100
AcDbArc
 50
3.338038990638372
 51
90.0
  0
ARC
  5
32A4
330
1F
100
AcDbEntity
  8
細線
 62
     0
100
AcDbCircle
 10
9442.242246018851
 20
-902.6365851617802
 30
0.0
 40
7.2
100
AcDbArc
 50
0.0
 51
90.0
  0
LINE
  5
32A5
330
1F
100
AcDbEntity
  8
細線
 62
     0
100
AcDbLine
 10
9478.242246018851
 20
-917.0365851617802
 30
0.0
 11
9478.242246018851
 21
-888.2365851617802
 31
0.0
  0
ARC
  5
32A6
330
1F
100
AcDbEntity
  8
細線
 62
     0
100
AcDbCircle
 10
9596.178246018853
 20
-931.4365851617804
 30
0.0
 40
7.2
100
AcDbArc
 50
270.0
 51
0.0
  0
LINE
  5
32A7
330
1F
100
AcDbEntity
  8
細線
 62
     0
100
AcDbLine
 10
9514.24224601885
 20
-909.8365851617803
 30
0.0
 11
9567.378246018858
 21
-909.8365851617803
 31
0.0
  0
LINE
  5
32A8
330
1F
100
AcDbEntity
  8
細線
 62
     0
100
AcDbLine
 10
9567.378246018858
 20
-924.2365851617799
 30
0.0
 11
9485.442246018847
 21
-924.2365851617799
 31
0.0
  0
LINE
  5
32A9
330
1F
100
AcDbEntity
  8
細線
 62
     0
100
AcDbLine
 10
9596.178246018853
 20
-895.4365851617804
 30
0.0
 11
9514.24224601885
 21
-895.4365851617804
 31
0.0
  0
ARC
  5
32AA
330
1F
100
AcDbEntity
  8
細線
 62
     0
100
AcDbCircle
 10
9499.84224601885
 20
-902.6365851617802
 30
0.0
 40
7.2
100
AcDbArc
 50
180.0
 51
270.0
  0
ARC
  5
32AB
330
1F
100
AcDbEntity
  8
細線
 62
     0
100
AcDbCircle
 10
9514.24224601885
 20
-902.6365851617802
 30
0.0
 40
7.2
100
AcDbArc
 50
180.0
 51
270.0
  0
LINE
  5
32AC
330
1F
100
AcDbEntity
  8
細線
 62
     0
100
AcDbLine
 10
9507.042246018848
 20
-909.8365851617803
 30
0.0
 11
9499.84224601885
 21
-909.8365851617803
 31
0.0
  0
LINE
  5
32AD
330
1F
100
AcDbEntity
  8
細線
 62
     0
100
AcDbLine
 10
9507.042246018848
 20
-909.8365851617803
 30
0.0
 11
9514.24224601885
 21
-909.8365851617803
 31
0.0
  0
ARC
  5
32AE
330
1F
100
AcDbEntity
  8
細線
 62
     0
100
AcDbCircle
 10
9499.84224601885
 20
-902.6365851617802
 30
0.0
 40
7.2
100
AcDbArc
 50
90.0
 51
180.0
  0
LINE
  5
32AF
330
1F
100
AcDbEntity
  8
細線
 62
     0
100
AcDbLine
 10
9499.84224601885
 20
-895.4365851617804
 30
0.0
 11
9507.042246018848
 21
-895.4365851617804
 31
0.0
  0
LINE
  5
32B0
330
1F
100
AcDbEntity
  8
細線
 62
     0
100
AcDbLine
 10
9492.642246018853
 20
-902.6365851617802
 30
0.0
 11
9492.642246018853
 21
-902.6365851617802
 31
0.0
  0
ARC
  5
32B1
330
1F
100
AcDbEntity
  8
細線
 62
     0
100
AcDbCircle
 10
9514.24224601885
 20
-902.6365851617802
 30
0.0
 40
7.2
100
AcDbArc
 50
90.0
 51
180.0
  0
LINE
  5
32B2
330
1F
100
AcDbEntity
  8
細線
 62
     0
100
AcDbLine
 10
9507.042246018848
 20
-902.6365851617802
 30
0.0
 11
9507.042246018848
 21
-902.6365851617802
 31
0.0
  0
LINE
  5
32B3
330
1F
100
AcDbEntity
  8
細線
 62
     0
100
AcDbLine
 10
9507.042246018848
 20
-895.4365851617804
 30
0.0
 11
9514.24224601885
 21
-895.4365851617804
 31
0.0
  0
ARC
  5
32B4
330
1F
100
AcDbEntity
  8
細線
 62
     0
100
AcDbCircle
 10
9596.178246018853
 20
-902.6365851617802
 30
0.0
 40
7.2
100
AcDbArc
 50
0.0
 51
90.0
  0
LINE
  5
32B5
330
1F
100
AcDbEntity
  8
細線
 62
     0
100
AcDbLine
 10
9588.978246018857
 20
-917.0365851617802
 30
0.0
 11
9588.978246018857
 21
-917.0365851617802
 31
0.0
  0
ARC
  5
32B6
330
1F
100
AcDbEntity
  8
細線
 62
     0
100
AcDbCircle
 10
9567.378246018858
 20
-917.0365851617802
 30
0.0
 40
7.2
100
AcDbArc
 50
0.0
 51
90.0
  0
ARC
  5
32B7
330
1F
100
AcDbEntity
  8
細線
 62
     0
100
AcDbCircle
 10
9567.378246018858
 20
-917.0365851617802
 30
0.0
 40
7.2
100
AcDbArc
 50
270.0
 51
359.9999999999967
  0
LINE
  5
32B8
330
1F
100
AcDbEntity
  8
細線
 62
     0
100
AcDbLine
 10
9574.578246018857
 20
-917.0365851617802
 30
0.0
 11
9574.578246018857
 21
-917.0365851617802
 31
0.0
  0
LINE
  5
32B9
330
1F
100
AcDbEntity
  8
細線
 62
     0
100
AcDbLine
 10
9567.378246018858
 20
-909.8365851617803
 30
0.0
 11
9581.778246018853
 21
-909.8365851617803
 31
0.0
  0
LINE
  5
32BA
330
1F
100
AcDbEntity
  8
細線
 62
     0
100
AcDbLine
 10
9567.378246018858
 20
-924.2365851617799
 30
0.0
 11
9581.778246018853
 21
-924.2365851617799
 31
0.0
  0
ARC
  5
32BB
330
1F
100
AcDbEntity
  8
細線
 62
     0
100
AcDbCircle
 10
9581.778246018853
 20
-917.0365851617802
 30
0.0
 40
7.2
100
AcDbArc
 50
0.0
 51
90.0
  0
ARC
  5
32BC
330
1F
100
AcDbEntity
  8
細線
 62
     0
100
AcDbCircle
 10
9581.778246018853
 20
-917.0365851617802
 30
0.0
 40
7.2
100
AcDbArc
 50
270.0
 51
0.0
  0
LINE
  5
32BD
330
1F
100
AcDbEntity
  8
細線
 62
     0
100
AcDbLine
 10
9603.378246018856
 20
-931.4365851617804
 30
0.0
 11
9603.378246018856
 21
-902.6365851617802
 31
0.0
  0
LINE
  5
32BE
330
1F
100
AcDbEntity
  8
細線
 62
     0
100
AcDbLine
 10
9603.378246018856
 20
-902.6365851617802
 30
0.0
 11
9606.582738909835
 21
-932.0641065095633
 31
0.0
  0
ARC
  5
32BF
330
1F
100
AcDbEntity
  8
太線
100
AcDbCircle
 10
9994.332358750941
 20
-440.1484939529
 30
0.0
 40
77.78375708942454
100
AcDbArc
 50
283.6087007563424
 51
76.39129924365746
  0
ARC
  5
32C0
330
1F
100
AcDbEntity
  8
太線
100
AcDbCircle
 10
10026.9275673925
 20
-440.1484939529018
 30
0.0
 40
76.93935200067008
100
AcDbArc
 50
100.706382781199
 51
259.2936172188008
  0
LINE
  5
32C2
330
1F
100
AcDbEntity
  8
細線
 62
     0
100
AcDbLine
 10
9861.433960385612
 20
-924.2365851617799
 30
0.0
 11
9779.497960385604
 21
-924.2365851617799
 31
0.0
  0
LINE
  5
32C3
330
1F
100
AcDbEntity
  8
細線
 62
     0
100
AcDbLine
 10
9808.297960385608
 20
-909.8365851617803
 30
0.0
 11
9861.433960385612
 21
-909.8365851617803
 31
0.0
  0
LINE
  5
32C4
330
1F
100
AcDbEntity
  8
細線
 62
     0
100
AcDbLine
 10
9890.233960385607
 20
-895.4365851617804
 30
0.0
 11
9808.297960385608
 21
-895.4365851617804
 31
0.0
  0
LINE
  5
32C5
330
1F
100
AcDbEntity
  8
細線
 62
     0
100
AcDbLine
 10
9779.497960385604
 20
-881.0365851617802
 30
0.0
 11
9905.23637593267
 21
-881.0365851617792
 31
0.0
  0
LINE
  5
32C6
330
1F
100
AcDbEntity
  8
細線
 62
     0
100
AcDbLine
 10
9753.875055102831
 20
-938.6365851617799
 30
0.0
 11
9890.233960385607
 21
-938.6365851617799
 31
0.0
  0
LINE
  5
32C7
330
1F
100
AcDbEntity
  8
細線
 62
     0
100
AcDbLine
 10
9668.899820649333
 20
-895.4365851617804
 30
0.0
 11
9736.297960385606
 21
-895.4365851617804
 31
0.0
  0
LINE
  5
32C8
330
1F
100
AcDbEntity
  8
細線
 62
     0
100
AcDbLine
 10
9640.55400885477
 20
-881.0365851617792
 30
0.0
 11
9751.105669542447
 21
-881.0365851617792
 31
0.0
  0
LINE
  5
32C9
330
1F
100
AcDbEntity
  8
細線
 62
     0
100
AcDbLine
 10
9633.102202113981
 20
-938.6365851617799
 30
0.0
 11
9736.297960385606
 21
-938.6365851617799
 31
0.0
  0
LINE
  5
32CA
330
1F
100
AcDbEntity
  8
細線
 62
     0
100
AcDbLine
 10
9642.316859964033
 20
-924.2365851617796
 30
0.0
 11
9707.374972817305
 21
-924.2365851617799
 31
0.0
  0
LINE
  5
32CB
330
1F
100
AcDbEntity
  8
細線
 62
     0
100
AcDbLine
 10
9707.374972817305
 20
-909.8365851617803
 30
0.0
 11
9668.899820649333
 21
-909.8365851617803
 31
0.0
  0
ARC
  5
32CC
330
1F
100
AcDbEntity
  8
細線
 62
     0
100
AcDbCircle
 10
9668.899820649333
 20
-902.6365851617802
 30
0.0
 40
7.2
100
AcDbArc
 50
180.0
 51
270.0
  0
LINE
  5
32CD
330
1F
100
AcDbEntity
  8
細線
 62
     0
100
AcDbLine
 10
9635.130310218809
 20
-917.4764746475444
 30
0.0
 11
9633.367459109578
 21
-888.6764746475442
 31
0.0
  0
ARC
  5
32CE
330
1F
100
AcDbEntity
  8
細線
 62
     0
100
AcDbCircle
 10
9654.499820649334
 20
-902.6365851617802
 30
0.0
 40
7.2
100
AcDbArc
 50
180.0
 51
270.0
  0
LINE
  5
32CF
330
1F
100
AcDbEntity
  8
細線
 62
     0
100
AcDbLine
 10
9618.353263392201
 20
-887.6090638139963
 30
0.0
 11
9620.982738909834
 21
-917.6641065095626
 31
0.0
  0
LINE
  5
32D0
330
1F
100
AcDbEntity
  8
細線
 62
     0
100
AcDbLine
 10
9654.499820649334
 20
-909.8365851617803
 30
0.0
 11
9668.899820649333
 21
-909.8365851617803
 31
0.0
  0
LINE
  5
32D1
330
1F
100
AcDbEntity
  8
細線
 62
     0
100
AcDbLine
 10
9661.699820649335
 20
-909.8365851617803
 30
0.0
 11
9654.499820649334
 21
-909.8365851617803
 31
0.0
  0
LINE
  5
32D2
330
1F
100
AcDbEntity
  8
細線
 62
     0
100
AcDbLine
 10
9629.079296831235
 20
-924.2365851617796
 30
0.0
 11
9633.102202113981
 21
-924.2365851617799
 31
0.0
  0
LINE
  5
32D3
330
1F
100
AcDbEntity
  8
細線
 62
     0
100
AcDbLine
 10
9629.459927449865
 20
-924.2365851617799
 30
0.0
 11
9642.316859964033
 21
-924.2365851617799
 31
0.0
  0
ARC
  5
32D4
330
1F
100
AcDbEntity
  8
細線
 62
     0
100
AcDbCircle
 10
9642.316859964033
 20
-917.0365851617791
 30
0.0
 40
7.2
100
AcDbArc
 50
183.5027107028168
 51
270.0
  0
ARC
  5
32D5
330
1F
100
AcDbEntity
  8
細線
 62
     0
100
AcDbCircle
 10
9628.155340736112
 20
-917.0365851617791
 30
0.0
 40
7.2
100
AcDbArc
 50
185.0000000000028
 51
270.0
  0
LINE
  5
32D6
330
1F
100
AcDbEntity
  8
細線
 62
     0
100
AcDbLine
 10
9628.155340736112
 20
-924.2365851617796
 30
0.0
 11
9632.178246018852
 21
-924.2365851617799
 31
0.0
  0
LINE
  5
32D7
330
1F
100
AcDbEntity
  8
細線
 62
     0
100
AcDbLine
 10
9613.755340736121
 20
-938.6365851617799
 30
0.0
 11
9632.178246018852
 21
-938.6365851617799
 31
0.0
  0
LINE
  5
32D8
330
1F
100
AcDbEntity
  8
細線
 62
     0
100
AcDbLine
 10
9654.499820649334
 20
-895.4365851617804
 30
0.0
 11
9661.699820649335
 21
-895.4365851617804
 31
0.0
  0
ARC
  5
32D9
330
1F
100
AcDbEntity
  8
細線
 62
     0
100
AcDbCircle
 10
9640.55400885477
 20
-888.2365851617796
 30
0.0
 40
7.2
100
AcDbArc
 50
90.0
 51
183.5027107028168
  0
LINE
  5
32DA
330
1F
100
AcDbEntity
  8
細線
 62
     0
100
AcDbLine
 10
9647.299820649337
 20
-902.6365851617802
 30
0.0
 11
9647.299820649337
 21
-902.6365851617802
 31
0.0
  0
ARC
  5
32DB
330
1F
100
AcDbEntity
  8
細線
 62
     0
100
AcDbCircle
 10
9654.499820649334
 20
-902.6365851617802
 30
0.0
 40
7.2
100
AcDbArc
 50
90.0
 51
180.0
  0
ARC
  5
32DC
330
1F
100
AcDbEntity
  8
細線
 62
     0
100
AcDbCircle
 10
9611.180661565946
 20
-888.2365851617796
 30
0.0
 40
7.2
100
AcDbArc
 50
5.000000000002865
 51
90.0
  0
LINE
  5
32DD
330
1F
100
AcDbEntity
  8
細線
 62
     0
100
AcDbLine
 10
9661.699820649335
 20
-895.4365851617804
 30
0.0
 11
9668.899820649333
 21
-895.4365851617804
 31
0.0
  0
LINE
  5
32DE
330
1F
100
AcDbEntity
  8
細線
 62
     0
100
AcDbLine
 10
9661.699820649335
 20
-902.6365851617802
 30
0.0
 11
9661.699820649335
 21
-902.6365851617802
 31
0.0
  0
ARC
  5
32DF
330
1F
100
AcDbEntity
  8
細線
 62
     0
100
AcDbCircle
 10
9668.899820649333
 20
-902.6365851617802
 30
0.0
 40
7.2
100
AcDbArc
 50
90.0
 51
180.0
  0
LINE
  5
32E0
330
1F
100
AcDbEntity
  8
細線
 62
     0
100
AcDbLine
 10
9707.374972817305
 20
-924.2365851617799
 30
0.0
 11
9721.774972817307
 21
-924.2365851617799
 31
0.0
  0
LINE
  5
32E1
330
1F
100
AcDbEntity
  8
細線
 62
     0
100
AcDbLine
 10
9707.374972817305
 20
-909.8365851617803
 30
0.0
 11
9721.774972817307
 21
-909.8365851617803
 31
0.0
  0
LINE
  5
32E2
330
1F
100
AcDbEntity
  8
細線
 62
     0
100
AcDbLine
 10
9714.57497281731
 20
-917.0365851617802
 30
0.0
 11
9714.57497281731
 21
-917.0365851617802
 31
0.0
  0
ARC
  5
32E3
330
1F
100
AcDbEntity
  8
細線
 62
     0
100
AcDbCircle
 10
9707.374972817305
 20
-917.0365851617802
 30
0.0
 40
7.2
100
AcDbArc
 50
270.0
 51
0.0
  0
ARC
  5
32E4
330
1F
100
AcDbEntity
  8
細線
 62
     0
100
AcDbCircle
 10
9707.374972817305
 20
-917.0365851617802
 30
0.0
 40
7.2
100
AcDbArc
 50
0.0
 51
90.0
  0
LINE
  5
32E5
330
1F
100
AcDbEntity
  8
細線
 62
     0
100
AcDbLine
 10
9728.974972817312
 20
-917.0365851617802
 30
0.0
 11
9728.974972817312
 21
-917.0365851617802
 31
0.0
  0
ARC
  5
32E6
330
1F
100
AcDbEntity
  8
細線
 62
     0
100
AcDbCircle
 10
9721.774972817307
 20
-917.0365851617802
 30
0.0
 40
7.2
100
AcDbArc
 50
270.0
 51
0.0
  0
ARC
  5
32E7
330
1F
100
AcDbEntity
  8
細線
 62
     0
100
AcDbCircle
 10
9721.774972817307
 20
-917.0365851617802
 30
0.0
 40
7.2
100
AcDbArc
 50
0.0
 51
90.0
  0
ARC
  5
32E8
330
1F
100
AcDbEntity
  8
細線
 62
     0
100
AcDbCircle
 10
9736.297960385606
 20
-931.4365851617804
 30
0.0
 40
7.2
100
AcDbArc
 50
270.0
 51
0.0
  0
ARC
  5
32E9
330
1F
100
AcDbEntity
  8
細線
 62
     0
100
AcDbCircle
 10
9753.875055102831
 20
-931.4365851617804
 30
0.0
 40
7.2
100
AcDbArc
 50
185.0000000000028
 51
270.0
  0
LINE
  5
32EA
330
1F
100
AcDbEntity
  8
細線
 62
     0
100
AcDbLine
 10
9801.097960385602
 20
-909.8365851617803
 30
0.0
 11
9793.897960385605
 21
-909.8365851617803
 31
0.0
  0
LINE
  5
32EB
330
1F
100
AcDbEntity
  8
細線
 62
     0
100
AcDbLine
 10
9793.897960385605
 20
-895.4365851617804
 30
0.0
 11
9801.097960385602
 21
-895.4365851617804
 31
0.0
  0
LINE
  5
32EC
330
1F
100
AcDbEntity
  8
細線
 62
     0
100
AcDbLine
 10
9772.297960385607
 20
-917.0365851617802
 30
0.0
 11
9772.297960385607
 21
-888.2365851617802
 31
0.0
  0
ARC
  5
32ED
330
1F
100
AcDbEntity
  8
細線
 62
     0
100
AcDbCircle
 10
9793.897960385605
 20
-902.6365851617802
 30
0.0
 40
7.2
100
AcDbArc
 50
180.0
 51
270.0
  0
LINE
  5
32EE
330
1F
100
AcDbEntity
  8
細線
 62
     0
100
AcDbLine
 10
9743.497960385605
 20
-902.6365851617802
 30
0.0
 11
9746.702453276579
 21
-932.0641065095633
 31
0.0
  0
LINE
  5
32EF
330
1F
100
AcDbEntity
  8
細線
 62
     0
100
AcDbLine
 10
9760.022140405773
 20
-917.4558182584227
 30
0.0
 11
9758.293453874976
 21
-887.8173520651367
 31
0.0
  0
LINE
  5
32F0
330
1F
100
AcDbEntity
  8
細線
 62
     0
100
AcDbLine
 10
9743.497960385605
 20
-902.6365851617802
 30
0.0
 11
9743.497960385605
 21
-931.4365851617804
 31
0.0
  0
ARC
  5
32F1
330
1F
100
AcDbEntity
  8
細線
 62
     0
100
AcDbCircle
 10
9779.497960385604
 20
-917.0365851617802
 30
0.0
 40
7.2
100
AcDbArc
 50
180.0
 51
270.0
  0
ARC
  5
32F2
330
1F
100
AcDbEntity
  8
細線
 62
     0
100
AcDbCircle
 10
9767.209924738292
 20
-917.0365851617802
 30
0.0
 40
7.2
100
AcDbArc
 50
183.3380389906383
 51
270.0
  0
LINE
  5
32F3
330
1F
100
AcDbEntity
  8
細線
 62
     0
100
AcDbLine
 10
9767.209924738292
 20
-924.2365851617799
 30
0.0
 11
9779.497960385604
 21
-924.2365851617799
 31
0.0
  0
ARC
  5
32F4
330
1F
100
AcDbEntity
  8
細線
 62
     0
100
AcDbCircle
 10
9779.497960385604
 20
-888.2365851617802
 30
0.0
 40
7.2
100
AcDbArc
 50
90.0
 51
180.0
  0
ARC
  5
32F5
330
1F
100
AcDbEntity
  8
細線
 62
     0
100
AcDbCircle
 10
9736.297960385606
 20
-902.6365851617802
 30
0.0
 40
7.2
100
AcDbArc
 50
0.0
 51
90.0
  0
ARC
  5
32F6
330
1F
100
AcDbEntity
  8
細線
 62
     0
100
AcDbCircle
 10
9751.105669542447
 20
-888.2365851617796
 30
0.0
 40
7.2
100
AcDbArc
 50
3.338038990638372
 51
90.0
  0
LINE
  5
32F7
330
1F
100
AcDbEntity
  8
細線
 62
     0
100
AcDbLine
 10
9786.697960385607
 20
-902.6365851617802
 30
0.0
 11
9786.697960385607
 21
-902.6365851617802
 31
0.0
  0
ARC
  5
32F8
330
1F
100
AcDbEntity
  8
細線
 62
     0
100
AcDbCircle
 10
9793.897960385605
 20
-902.6365851617802
 30
0.0
 40
7.2
100
AcDbArc
 50
90.0
 51
180.0
  0
ARC
  5
32F9
330
1F
100
AcDbEntity
  8
細線
 62
     0
100
AcDbCircle
 10
9808.297960385608
 20
-902.6365851617802
 30
0.0
 40
7.2
100
AcDbArc
 50
180.0
 51
270.0
  0
LINE
  5
32FA
330
1F
100
AcDbEntity
  8
細線
 62
     0
100
AcDbLine
 10
9801.097960385602
 20
-909.8365851617803
 30
0.0
 11
9808.297960385608
 21
-909.8365851617803
 31
0.0
  0
LINE
  5
32FB
330
1F
100
AcDbEntity
  8
細線
 62
     0
100
AcDbLine
 10
9801.097960385602
 20
-895.4365851617804
 30
0.0
 11
9808.297960385608
 21
-895.4365851617804
 31
0.0
  0
LINE
  5
32FC
330
1F
100
AcDbEntity
  8
細線
 62
     0
100
AcDbLine
 10
9801.097960385602
 20
-902.6365851617802
 30
0.0
 11
9801.097960385602
 21
-902.6365851617802
 31
0.0
  0
ARC
  5
32FD
330
1F
100
AcDbEntity
  8
細線
 62
     0
100
AcDbCircle
 10
9808.297960385608
 20
-902.6365851617802
 30
0.0
 40
7.2
100
AcDbArc
 50
90.0
 51
180.0
  0
LINE
  5
32FE
330
1F
100
AcDbEntity
  8
細線
 62
     0
100
AcDbLine
 10
9911.348230266593
 20
-852.2365851617799
 30
0.0
 11
9905.23637593267
 21
-881.0365851617786
 31
0.0
  0
ARC
  5
32FF
330
1F
100
AcDbEntity
  8
細線
 62
     0
100
AcDbCircle
 10
9907.811055102845
 20
-931.4365851617804
 30
0.0
 40
7.2
100
AcDbArc
 50
185.0000000000028
 51
270.0
  0
ARC
  5
3300
330
1F
100
AcDbEntity
  8
細線
 62
     0
100
AcDbCircle
 10
9890.233960385607
 20
-931.4365851617804
 30
0.0
 40
7.2
100
AcDbArc
 50
270.0
 51
0.0
  0
LINE
  5
3301
330
1F
100
AcDbEntity
  8
細線
 62
     0
100
AcDbLine
 10
9922.211055102843
 20
-924.2365851617796
 30
0.0
 11
9926.233960385609
 21
-924.2365851617799
 31
0.0
  0
LINE
  5
3302
330
1F
100
AcDbEntity
  8
細線
 62
     0
100
AcDbLine
 10
9907.811055102845
 20
-938.6365851617799
 30
0.0
 11
9926.233960385609
 21
-938.6365851617799
 31
0.0
  0
LINE
  5
3303
330
1F
100
AcDbEntity
  8
細線
 62
     0
100
AcDbLine
 10
9897.433960385612
 20
-902.6365851617802
 30
0.0
 11
9900.638453276586
 21
-932.0641065095633
 31
0.0
  0
LINE
  5
3304
330
1F
100
AcDbEntity
  8
細線
 62
     0
100
AcDbLine
 10
9897.433960385612
 20
-931.4365851617804
 30
0.0
 11
9897.433960385612
 21
-902.6365851617802
 31
0.0
  0
LINE
  5
3305
330
1F
100
AcDbEntity
  8
細線
 62
     0
100
AcDbLine
 10
9912.408977758925
 20
-887.6090638139963
 30
0.0
 11
9915.038453276588
 21
-917.6641065095626
 31
0.0
  0
ARC
  5
3306
330
1F
100
AcDbEntity
  8
細線
 62
     0
100
AcDbCircle
 10
9875.833960385605
 20
-917.0365851617802
 30
0.0
 40
7.2
100
AcDbArc
 50
270.0
 51
0.0
  0
ARC
  5
3307
330
1F
100
AcDbEntity
  8
細線
 62
     0
100
AcDbCircle
 10
9875.833960385605
 20
-917.0365851617802
 30
0.0
 40
7.2
100
AcDbArc
 50
0.0
 51
90.0
  0
LINE
  5
3308
330
1F
100
AcDbEntity
  8
細線
 62
     0
100
AcDbLine
 10
9861.433960385612
 20
-924.2365851617799
 30
0.0
 11
9875.833960385605
 21
-924.2365851617799
 31
0.0
  0
LINE
  5
3309
330
1F
100
AcDbEntity
  8
細線
 62
     0
100
AcDbLine
 10
9861.433960385612
 20
-909.8365851617803
 30
0.0
 11
9875.833960385605
 21
-909.8365851617803
 31
0.0
  0
LINE
  5
330A
330
1F
100
AcDbEntity
  8
細線
 62
     0
100
AcDbLine
 10
9868.633960385608
 20
-917.0365851617802
 30
0.0
 11
9868.633960385608
 21
-917.0365851617802
 31
0.0
  0
ARC
  5
330B
330
1F
100
AcDbEntity
  8
細線
 62
     0
100
AcDbCircle
 10
9861.433960385612
 20
-917.0365851617802
 30
0.0
 40
7.2
100
AcDbArc
 50
270.0
 51
359.9999999999967
  0
ARC
  5
330C
330
1F
100
AcDbEntity
  8
細線
 62
     0
100
AcDbCircle
 10
9861.433960385612
 20
-917.0365851617802
 30
0.0
 40
7.2
100
AcDbArc
 50
0.0
 51
90.0
  0
LINE
  5
330D
330
1F
100
AcDbEntity
  8
細線
 62
     0
100
AcDbLine
 10
9883.03396038561
 20
-917.0365851617802
 30
0.0
 11
9883.03396038561
 21
-917.0365851617802
 31
0.0
  0
ARC
  5
330E
330
1F
100
AcDbEntity
  8
細線
 62
     0
100
AcDbCircle
 10
9922.211055102843
 20
-917.0365851617791
 30
0.0
 40
7.2
100
AcDbArc
 50
185.0000000000028
 51
270.0
  0
ARC
  5
330F
330
1F
100
AcDbEntity
  8
細線
 62
     0
100
AcDbCircle
 10
9890.233960385607
 20
-902.6365851617802
 30
0.0
 40
7.2
100
AcDbArc
 50
0.0
 51
90.0
  0
ARC
  5
3310
330
1F
100
AcDbEntity
  8
細線
 62
     0
100
AcDbCircle
 10
9905.23637593267
 20
-888.2365851617796
 30
0.0
 40
7.2
100
AcDbArc
 50
5.000000000002865
 51
90.0
  0
LINE
  5
3311
330
1F
100
AcDbEntity
  8
細線
 62
     0
100
AcDbLine
 10
9926.233960385609
 20
-924.2365851617799
 30
0.0
 11
9926.233960385609
 21
-938.6365851617799
 31
0.0
  0
LINE
  5
3314
330
1F
100
AcDbEntity
  8
太線
100
AcDbLine
 10
10040.17662232892
 20
-396.3785937957918
 30
0.0
 11
10035.91060095804
 21
-477.7791306862954
 31
0.0
  0
LINE
  5
3315
330
1F
100
AcDbEntity
  8
太線
100
AcDbLine
 10
10016.7636840143
 20
-380.8666560115898
 30
0.0
 11
10008.69467521548
 21
-501.0159363921411
 31
0.0
  0
ARC
  5
3316
330
1F
100
AcDbEntity
  8
太線
100
AcDbCircle
 10
9994.332358750941
 20
-440.1484939529
 30
0.0
 40
63.38375708942454
100
AcDbArc
 50
283.6087007563424
 51
76.39129924365746
  0
LINE
  5
3317
330
1F
100
AcDbEntity
  8
太線
100
AcDbLine
 10
10008.69467521548
 20
-501.0159363921411
 30
0.0
 11
9992.202701256877
 21
-506.5073693782459
 31
0.0
  0
LINE
  5
3318
330
1F
100
AcDbEntity
  8
太線
100
AcDbLine
 10
10008.69467521548
 20
-380.2044183242701
 30
0.0
 11
9993.577042621389
 21
-373.3401232784081
 31
0.0
  0
ARC
  5
3319
330
1F
100
AcDbEntity
  8
太線
100
AcDbCircle
 10
9993.599305472065
 20
-288.9484939529011
 30
0.0
 40
77.95949270128101
100
AcDbArc
 50
284.1323350642431
 51
75.86766493575679
  0
LINE
  5
331A
330
1F
100
AcDbEntity
  8
太線
100
AcDbLine
 10
9975.056955212476
 20
-217.1448690787809
 30
0.0
 11
10012.63407634648
 21
-213.3484939529021
 31
0.0
  0
TEXT
  5
33E0
330
1F
100
AcDbEntity
  8
文字
100
AcDbText
 10
8626.265862996111
 20
-37.09594186634785
 30
0.0
 40
93.59999999999999
  1
螺旋手摺（フレキシブルチューブ）
 51
15.0
  7
OKANO
100
AcDbText
  0
DIMENSION
  5
342D
330
1F
100
AcDbEntity
  8
太線
100
AcDbDimension
  2
*D1
 10
10311.59952227779
 20
-515.1404521266263
 30
0.0
 11
10265.59952227779
 21
-364.2444730397626
 31
0.0
 70
    32
  1
Φ48
 71
     5
 42
301.7919581737241
  3
sunpo
100
AcDbAlignedDimension
 13
10012.63407634648
 23
-213.3484939529021
 33
0.0
 14
10009.72669254402
 24
-515.1404521266263
 34
0.0
 50
90.0
100
AcDbRotatedDimension
1001
ACAD
1000
DSTYLE
1002
{
1070
   140
1040
90.0
1070
    40
1040
1.0
1002
}
  0
TEXT
  5
344D
330
1F
100
AcDbEntity
  8
文字
100
AcDbText
 10
8889.773931484803
 20
-747.4131306553934
 30
0.0
 40
93.59999999999999
  1
ＰＶＣ被服黒
 51
15.0
  7
OKANO
100
AcDbText
  0
LEADER
  5
344E
330
1F
100
AcDbEntity
  8
太線
100
AcDbLeader
  3
sunpo
 76
     2
 10
9484.718067122264
 20
-846.4686715561947
 30
0.0
 10
9250.99000041065
 20
-761.5639248414154
 30
0.0
1001
ACAD
1000
DSTYLE
1002
{
1070
   147
1040
1.0
1070
    77
1070
     0
1002
}
  0
TEXT
  5
3450
330
1F
100
AcDbEntity
  8
文字
100
AcDbText
 10
8875.608571325738
 20
-1462.02806223667
 30
0.0
 40
93.59999999999999
  1
亜鉛引鉄板
 51
15.0
  7
OKANO
100
AcDbText
  0
LEADER
  5
3451
330
1F
100
AcDbEntity
  8
太線
100
AcDbLeader
  3
sunpo
 76
     2
 10
9590.958097445717
 20
-1214.389228386011
 30
0.0
 10
9357.230030734113
 20
-1327.595545071493
 30
0.0
1001
ACAD
1000
DSTYLE
1002
{
1070
   147
1040
1.0
1070
    77
1070
     0
1002
}
  0
ARC
  5
3494
330
1F
100
AcDbEntity
  8
太線
100
AcDbCircle
 10
10310.150255695
 20
-1005.193495231176
 30
0.0
 40
150.9784759950649
100
AcDbArc
 50
278.6353629953163
 51
232.2360414009192
  0
CIRCLE
  5
3495
330
1F
100
AcDbEntity
  8
太線
100
AcDbCircle
 10
10310.150255695
 20
-1005.193495231176
 30
0.0
 40
129.7273924081049
  0
ELLIPSE
  5
3496
330
1F
100
AcDbEntity
  8
太線
100
AcDbEllipse
 10
10707.35211284312
 20
-1070.318406365694
 30
0.0
 11
3.90540787223756
 21
-13.65779522354841
 31
0.0
210
0.0
220
0.0
230
1.0
 40
0.9831990216670474
 41
0.0
 42
6.283185307179585
  0
ELLIPSE
  5
3497
330
1F
100
AcDbEntity
  8
太線
100
AcDbEllipse
 10
10124.14380568003
 20
-1091.130281993929
 30
0.0
 11
-3.905418273786835
 21
-12.35705225977568
 31
0.0
210
0.0
220
0.0
230
1.0
 40
0.365373419761301
 41
0.0
 42
6.283185307179585
  0
ARC
  5
3498
330
1F
100
AcDbEntity
  8
太線
100
AcDbCircle
 10
10447.22606674431
 20
-829.9397772118419
 30
0.0
 40
368.0623718524452
100
AcDbArc
 50
243.7577411456766
 51
316.1890816570664
  0
ARC
  5
3499
330
1F
100
AcDbEntity
  8
太線
100
AcDbCircle
 10
10437.18166358571
 20
-801.5038870119637
 30
0.0
 40
368.0623718524452
100
AcDbArc
 50
253.5280371985903
 51
316.1890816570664
  0
ARC
  5
349A
330
1F
100
AcDbEntity
  8
太線
100
AcDbCircle
 10
10291.57833445833
 20
-868.4126665561866
 30
0.0
 40
266.5800132343408
100
AcDbArc
 50
231.8504403989702
 51
282.9308464207353
  0
ARC
  5
349B
330
1F
100
AcDbEntity
  8
太線
100
AcDbCircle
 10
10281.53395210285
 20
-893.5031523597809
 30
0.0
 40
266.5800132343408
100
AcDbArc
 50
231.8504403989702
 51
282.9308464207353
  0
ARC
  5
349C
330
1F
100
AcDbEntity
  8
太線
100
AcDbCircle
 10
10437.18166358571
 20
-801.5038870119637
 30
0.0
 40
368.0623718524452
100
AcDbArc
 50
238.3579351143989
 51
244.8899801847947
  0
TEXT
  5
3555
330
1F
100
AcDbEntity
  8
文字
100
AcDbText
 10
10393.98516712681
 20
-1584.050056369324
 30
0.0
 40
28.07999999999999
  1
joint kogyo T.okano
 51
15.0
  7
OKANO
100
AcDbText
  0
TEXT
  5
3556
330
1F
100
AcDbEntity
  8
文字
100
AcDbText
 10
10350.1785360078
 20
-1497.748683051691
 30
0.0
 40
28.07999999999999
  1
F-999-20091113 Auto CAD
 51
15.0
  7
OKANO
100
AcDbText
  0
LINE
  5
3557
330
1F
100
AcDbEntity
  8
太線
100
AcDbLine
 10
10189.75850114537
 20
-1503.135407806708
 30
0.0
 11
10821.55850114536
 21
-1503.135407806708
 31
0.0
  0
LWPOLYLINE
  5
3558
330
1F
100
AcDbEntity
  8
太線
100
AcDbPolyline
 90
        4
 70
     1
 43
0.0
 10
10189.75850114539
 20
-1453.995407806711
 10
10821.55850114538
 20
-1453.995407806711
 10
10821.55850114538
 20
-1601.415407806701
 10
10189.75850114539
 20
-1601.415407806701
  0
LINE
  5
3559
330
1F
100
AcDbEntity
  8
太線
100
AcDbLine
 10
10330.15850114537
 20
-1453.99540780671
 30
0.0
 11
10330.15850114537
 21
-1601.415407806706
 31
0.0
  0
TEXT
  5
355A
330
1F
100
AcDbEntity
  8
文字
100
AcDbText
 10
10212.41194500678
 20
-1551.067451829985
 30
0.0
 40
14.03999999999999
  1
CHECK
 51
15.0
  7
OKANO
100
AcDbText
  0
TEXT
  5
355B
330
1F
100
AcDbEntity
  8
文字
100
AcDbText
 10
10212.41194500678
 20
-1591.54610332635
 30
0.0
 40
14.03999999999999
  1
ISSUED
 51
15.0
  7
OKANO
100
AcDbText
  0
TEXT
  5
355C
330
1F
100
AcDbEntity
  8
文字
100
AcDbText
 10
10213.91255443925
 20
-1572.05638261913
 30
0.0
 40
14.03999999999999
  1
APPR
 51
15.0
  7
OKANO
100
AcDbText
  0
TEXT
  5
355D
330
1F
100
AcDbEntity
  8
文字
100
AcDbText
 10
10209.41073896181
 20
-1530.078524493442
 30
0.0
 40
14.03999999999999
  1
DRAWN
 51
15.0
  7
OKANO
100
AcDbText
  0
TEXT
  5
355E
330
1F
100
AcDbEntity
  8
文字
100
AcDbText
 10
10201.90771102944
 20
-1492.598293160931
 30
0.0
 40
14.03999999999999
  1
FILM NAME
 51
15.0
  7
OKANO
100
AcDbText
  0
TEXT
  5
355F
330
1F
100
AcDbEntity
  8
文字
100
AcDbText
 10
10348.13420853982
 20
-1548.498295268669
 30
0.0
 40
28.07999999999999
  1
Ｒ-ＪＶＦ　螺旋手摺チューブ
 51
15.0
  7
OKANO
100
AcDbText
  0
TEXT
  5
3560
330
1F
100
AcDbEntity
  8
文字
100
AcDbText
 10
9748.416901826177
 20
-573.3919342250337
 30
0.0
 40
28.07999999999999
  1
定尺５m
 51
15.0
  7
OKANO
100
AcDbText
  0
VIEWPORT
  5
2E
330
1B
100
AcDbEntity
 67
     1
  8
0
100
AcDbViewport
 10
232.8103688807079
 20
111.2230047333024
 30
0.0
 40
633.0442549966457
 41
321.5251115999823
 68
     2
 69
     1
 12
232.8103688807079
 22
111.2230047333024
 13
0.0
 23
0.0
 14
10.0
 24
10.0
 15
10.0
 25
10.0
 16
0.0
 26
0.0
 36
1.0
 17
0.0
 27
0.0
 37
0.0
 42
50.0
 43
0.0
 44
0.0
 45
321.5251115999823
 50
0.0
 51
0.0
 72
   100
 90
    32800
  1

281
     0
 71
     1
 74
     0
110
0.0
120
0.0
130
0.0
111
1.0
121
0.0
131
0.0
112
0.0
122
1.0
132
0.0
 79
     0
146
0.0
  0
VIEWPORT
  5
30
330
1B
100
AcDbEntity
 67
     1
  8
70-0-CON
100
AcDbViewport
 10
141.8594093064315
 20
100.3480256368385
 30
0.0
 40
261.6199023344245
 41
192.6196987113174
 68
     1
 69
     2
 12
9575.569911879684
 22
-695.1539514346896
 13
0.0
 23
0.0
 14
5.0
 24
5.0
 15
10.0
 25
10.0
 16
0.0
 26
0.0
 36
1.0
 17
0.0
 27
0.0
 37
0.0
 42
50.0
 43
0.0
 44
0.0
 45
1963.057945362719
 50
0.0
 51
0.0
 72
   100
 90
    33120
  1

281
     0
 71
     1
 74
     0
110
0.0
120
0.0
130
0.0
111
1.0
121
0.0
131
0.0
112
0.0
122
1.0
132
0.0
 79
     0
146
0.0
  0
LWPOLYLINE
  5
45
330
1B
100
AcDbEntity
 67
     1
  8
50-0-CON
100
AcDbPolyline
 90
        4
 70
     1
 43
0.0
 10
11.04945813921925
 20
4.038176281179858
 10
272.2125713060605
 20
4.033520706629643
 10
273.4987754093466
 20
195.9297862125246
 10
11.04945813921925
 20
196.6578749924973
  0
LINE
  5
4A
330
1B
100
AcDbEntity
 67
     1
  8
50-0-CON
100
AcDbLine
 10
10.38768783662635
 20
100.3480256368385
 30
0.0
 11
-4.391850629656119
 21
100.3480256368385
 31
0.0
  0
LINE
  5
4B
330
1B
100
AcDbEntity
 67
     1
  8
50-0-CON
100
AcDbLine
 10
141.8594093064315
 20
197.0986526262469
 30
0.0
 11
141.8594093064315
 21
202.3879807737079
 31
0.0
  0
LINE
  5
4C
330
1B
100
AcDbEntity
 67
     1
  8
50-0-CON
100
AcDbLine
 10
272.4487699456856
 20
100.7888032705883
 30
0.0
 11
278.8458837249377
 21
100.7888032705883
 31
0.0
  0
LINE
  5
4D
330
1B
100
AcDbEntity
 67
     1
  8
50-0-CON
100
AcDbLine
 10
140.9770484758805
 20
4.038176281179858
 30
0.0
 11
140.9770484758805
 21
-3.455038652015446
 31
0.0
  0
ENDSEC
  0
SECTION
  2
OBJECTS
  0
DICTIONARY
  5
C
330
0
100
AcDbDictionary
281
     1
  3
ACAD_GROUP
350
D
  3
ACAD_LAYOUT
350
1A
  3
ACAD_MLINESTYLE
350
17
  3
ACAD_PLOTSETTINGS
350
19
  3
ACAD_PLOTSTYLENAME
350
E
  3
AcadDim
350
3453
  3
AcDbVariableDictionary
350
6AD
  3
DWGPROPS
350
30F
  0
DICTIONARY
  5
D
102
{ACAD_REACTORS
330
C
102
}
330
C
100
AcDbDictionary
281
     1
  0
DICTIONARY
  5
1A
102
{ACAD_REACTORS
330
C
102
}
330
C
100
AcDbDictionary
281
     1
  3
A4
350
1E
  3
Model
350
22
  0
DICTIONARY
  5
17
102
{ACAD_REACTORS
330
C
102
}
330
C
100
AcDbDictionary
281
     1
  3
Standard
350
18
  0
DICTIONARY
  5
19
102
{ACAD_REACTORS
330
C
102
}
330
C
100
AcDbDictionary
281
     1
  0
ACDBDICTIONARYWDFLT
  5
E
102
{ACAD_REACTORS
330
C
102
}
330
C
100
AcDbDictionary
281
     1
  3
Normal
350
F
100
AcDbDictionaryWithDefault
340
F
  0
XRECORD
  5
3453
102
{ACAD_REACTORS
330
C
102
}
330
C
100
AcDbXrecord
280
     1
 90
   990106
  3

 60
     0
 61
     0
 62
     1
 63
     3
 64
     0
 65
     0
 66
     0
 67
     3
 68
     1
 69
     0
 70
     0
 71
     0
 72
     0
 40
0.0
170
     0
  0
DICTIONARY
  5
6AD
102
{ACAD_REACTORS
330
C
102
}
330
C
100
AcDbDictionary
281
     1
  3
SORTENTS
350
6AE
  0
XRECORD
  5
30F
102
{ACAD_REACTORS
330
C
102
}
330
C
100
AcDbXrecord
280
     1
  1
DWGPROPS COOKIE
  2

  3

  4

  6

  7

  8

  9

300
=
301
=
302
=
303
=
304
=
305
=
306
=
307
=
308
=
309
=
 40
0.3303803125
 41
2452362.482225463
 42
2452370.969861285
  1

 90
        0
  0
LAYOUT
  5
1E
102
{ACAD_REACTORS
330
1A
102
}
330
1A
100
AcDbPlotSettings
  1

  2
EPSON PM-920C
  4
A4
  6

 40
3.757083177566528
 41
14.7637300491333
 42
3.757080078125
 43
3.757080078125
 44
209.9733276367186
 45
296.9683227539062
 46
0.0
 47
0.0
 48
0.0
 49
0.0
140
0.0
141
0.0
142
1.0
143
1.0
 70
   688
 72
     1
 73
     1
 74
     5
  7
joint.ctb
 75
    16
147
1.0
148
0.0
149
0.0
100
AcDbLayout
  1
A4
 70
     1
 71
     1
 10
-3.757080078125
 20
-3.757083177566528
 11
293.2112426757811
 21
206.2162444591522
 12
0.0
 22
0.0
 32
0.0
 14
-4.391850629656119
 24
-3.455038652015446
 34
0.0
 15
278.8458837249377
 25
202.3879807737079
 35
0.0
146
0.0
 13
0.0
 23
0.0
 33
0.0
 16
1.0
 26
0.0
 36
0.0
 17
0.0
 27
1.0
 37
0.0
 76
     0
330
1B
331
30
  0
LAYOUT
  5
22
102
{ACAD_REACTORS
330
1A
102
}
330
1A
100
AcDbPlotSettings
  1

  2
EPSON PM-920C
  4
A4
  6

 40
3.757083177566528
 41
14.7637300491333
 42
3.757080078125
 43
3.757080078125
 44
209.9733276367186
 45
296.9683227539062
 46
0.0
 47
0.0
 48
0.0
 49
0.0
140
0.0
141
0.0
142
1.0
143
1.0
 70
 11952
 72
     1
 73
     1
 74
     0
  7

 75
     0
147
1.0
148
-44.37397315802164
149
-138.0950166428746
100
AcDbLayout
  1
Model
 70
     1
 71
     0
 10
0.0
 20
0.0
 11
12.0
 21
9.0
 12
0.0
 22
0.0
 32
0.0
 14
0.0
 24
0.0
 34
0.0
 15
0.0
 25
0.0
 35
0.0
146
0.0
 13
0.0
 23
0.0
 33
0.0
 16
1.0
 26
0.0
 36
0.0
 17
0.0
 27
1.0
 37
0.0
 76
     0
330
1F
  0
MLINESTYLE
  5
18
102
{ACAD_REACTORS
330
17
102
}
330
17
100
AcDbMlineStyle
  2
STANDARD
 70
     0
  3

 62
   256
 51
90.0
 52
90.0
 71
     2
 49
0.5
 62
   256
  6
BYLAYER
 49
-0.5
 62
   256
  6
BYLAYER
  0
ACDBPLACEHOLDER
  5
F
102
{ACAD_REACTORS
330
E
102
}
330
E
  0
DICTIONARYVAR
  5
6AE
102
{ACAD_REACTORS
330
6AD
102
}
330
6AD
100
DictionaryVariables
280
     0
  1
96
  0
ENDSEC
  0
EOF
