  0
SECTION
  2
HEADER
  9
$ACADVER
  1
AC1015
  9
$ACADMAINTVER
 70
     6
  9
$DWGCODEPAGE
  3
ANSI_932
  9
$INSBASE
 10
0.0
 20
0.0
 30
0.0
  9
$EXTMIN
 10
88.91311434768326
 20
-19.66604678085212
 30
-0.00000001
  9
$EXTMAX
 10
620.1775870042998
 20
404.3851101797647
 30
0.00000001
  9
$LIMMIN
 10
0.0
 20
0.0
  9
$LIMMAX
 10
420.0
 20
297.0
  9
$ORTHOMODE
 70
     1
  9
$REGENMODE
 70
     1
  9
$FILLMODE
 70
     1
  9
$QTEXTMODE
 70
     0
  9
$MIRRTEXT
 70
     1
  9
$LTSCALE
 40
1.0
  9
$ATTMODE
 70
     1
  9
$TEXTSIZE
 40
5.0
  9
$TRACEWID
 40
1.0
  9
$TEXTSTYLE
  7
OKANO
  9
$CLAYER
  8
構築線
  9
$CELTYPE
  6
ByLayer
  9
$CECOLOR
 62
   256
  9
$CELTSCALE
 40
1.0
  9
$DISPSILH
 70
     0
  9
$DIMSCALE
 40
0.0
  9
$DIMASZ
 40
3.0
  9
$DIMEXO
 40
2.0
  9
$DIMDLI
 40
8.0
  9
$DIMRND
 40
0.0
  9
$DIMDLE
 40
0.0
  9
$DIMEXE
 40
3.0
  9
$DIMTP
 40
0.0
  9
$DIMTM
 40
0.0
  9
$DIMTXT
 40
5.0
  9
$DIMCEN
 40
2.5
  9
$DIMTSZ
 40
0.0
  9
$DIMTOL
 70
     0
  9
$DIMLIM
 70
     0
  9
$DIMTIH
 70
     0
  9
$DIMTOH
 70
     0
  9
$DIMSE1
 70
     0
  9
$DIMSE2
 70
     0
  9
$DIMTAD
 70
     1
  9
$DIMZIN
 70
     8
  9
$DIMBLK
  1
Closed
  9
$DIMASO
 70
     1
  9
$DIMSHO
 70
     1
  9
$DIMPOST
  1

  9
$DIMAPOST
  1

  9
$DIMALT
 70
     0
  9
$DIMALTD
 70
     3
  9
$DIMALTF
 40
0.03937007874016
  9
$DIMLFAC
 40
1.0
  9
$DIMTOFL
 70
     1
  9
$DIMTVP
 40
0.0
  9
$DIMTIX
 70
     0
  9
$DIMSOXD
 70
     0
  9
$DIMSAH
 70
     0
  9
$DIMBLK1
  1

  9
$DIMBLK2
  1

  9
$DIMSTYLE
  2
sunpo
  9
$DIMCLRD
 70
     0
  9
$DIMCLRE
 70
     0
  9
$DIMCLRT
 70
     0
  9
$DIMTFAC
 40
1.0
  9
$DIMGAP
 40
1.0
  9
$DIMJUST
 70
     0
  9
$DIMSD1
 70
     0
  9
$DIMSD2
 70
     0
  9
$DIMTOLJ
 70
     0
  9
$DIMTZIN
 70
     8
  9
$DIMALTZ
 70
     0
  9
$DIMALTTZ
 70
     0
  9
$DIMUPT
 70
     0
  9
$DIMDEC
 70
     2
  9
$DIMTDEC
 70
     2
  9
$DIMALTU
 70
     2
  9
$DIMALTTD
 70
     3
  9
$DIMTXSTY
  7
OKANO
  9
$DIMAUNIT
 70
     0
  9
$DIMADEC
 70
     0
  9
$DIMALTRND
 40
0.0
  9
$DIMAZIN
 70
     0
  9
$DIMDSEP
 70
    46
  9
$DIMATFIT
 70
     3
  9
$DIMFRAC
 70
     0
  9
$DIMLDRBLK
  1
Closed
  9
$DIMLUNIT
 70
     2
  9
$DIMLWD
 70
    -2
  9
$DIMLWE
 70
    -2
  9
$DIMTMOVE
 70
     0
  9
$LUNITS
 70
     2
  9
$LUPREC
 70
     2
  9
$SKETCHINC
 40
1.0
  9
$FILLETRAD
 40
1.0
  9
$AUNITS
 70
     0
  9
$AUPREC
 70
     0
  9
$MENU
  1
.
  9
$ELEVATION
 40
0.0
  9
$PELEVATION
 40
0.0
  9
$THICKNESS
 40
0.0
  9
$LIMCHECK
 70
     0
  9
$CHAMFERA
 40
10.0
  9
$CHAMFERB
 40
10.0
  9
$CHAMFERC
 40
20.0
  9
$CHAMFERD
 40
0.0
  9
$SKPOLY
 70
     0
  9
$TDCREATE
 40
2452362.482225463
  9
$TDUCREATE
 40
2452362.107225463
  9
$TDUPDATE
 40
2455968.429917361
  9
$TDUUPDATE
 40
2455968.054917361
  9
$TDINDWG
 40
2.5429969444
  9
$TDUSRTIMER
 40
2.5429969444
  9
$USRTIMER
 70
     1
  9
$ANGBASE
 50
0.0
  9
$ANGDIR
 70
     0
  9
$PDMODE
 70
     0
  9
$PDSIZE
 40
0.0
  9
$PLINEWID
 40
0.0
  9
$SPLFRAME
 70
     0
  9
$SPLINETYPE
 70
     6
  9
$SPLINESEGS
 70
     8
  9
$HANDSEED
  5
34E4
  9
$SURFTAB1
 70
     6
  9
$SURFTAB2
 70
     6
  9
$SURFTYPE
 70
     6
  9
$SURFU
 70
     6
  9
$SURFV
 70
     6
  9
$UCSBASE
  2

  9
$UCSNAME
  2

  9
$UCSORG
 10
0.0
 20
0.0
 30
0.0
  9
$UCSXDIR
 10
1.0
 20
0.0
 30
0.0
  9
$UCSYDIR
 10
0.0
 20
1.0
 30
0.0
  9
$UCSORTHOREF
  2

  9
$UCSORTHOVIEW
 70
     0
  9
$UCSORGTOP
 10
0.0
 20
0.0
 30
0.0
  9
$UCSORGBOTTOM
 10
0.0
 20
0.0
 30
0.0
  9
$UCSORGLEFT
 10
0.0
 20
0.0
 30
0.0
  9
$UCSORGRIGHT
 10
0.0
 20
0.0
 30
0.0
  9
$UCSORGFRONT
 10
0.0
 20
0.0
 30
0.0
  9
$UCSORGBACK
 10
0.0
 20
0.0
 30
0.0
  9
$PUCSBASE
  2

  9
$PUCSNAME
  2

  9
$PUCSORG
 10
0.0
 20
0.0
 30
0.0
  9
$PUCSXDIR
 10
1.0
 20
0.0
 30
0.0
  9
$PUCSYDIR
 10
0.0
 20
1.0
 30
0.0
  9
$PUCSORTHOREF
  2

  9
$PUCSORTHOVIEW
 70
     0
  9
$PUCSORGTOP
 10
0.0
 20
0.0
 30
0.0
  9
$PUCSORGBOTTOM
 10
0.0
 20
0.0
 30
0.0
  9
$PUCSORGLEFT
 10
0.0
 20
0.0
 30
0.0
  9
$PUCSORGRIGHT
 10
0.0
 20
0.0
 30
0.0
  9
$PUCSORGFRONT
 10
0.0
 20
0.0
 30
0.0
  9
$PUCSORGBACK
 10
0.0
 20
0.0
 30
0.0
  9
$USERI1
 70
     0
  9
$USERI2
 70
     0
  9
$USERI3
 70
     0
  9
$USERI4
 70
     0
  9
$USERI5
 70
     0
  9
$USERR1
 40
0.0
  9
$USERR2
 40
0.0
  9
$USERR3
 40
0.0
  9
$USERR4
 40
0.0
  9
$USERR5
 40
0.0
  9
$WORLDVIEW
 70
     1
  9
$SHADEDGE
 70
     3
  9
$SHADEDIF
 70
    70
  9
$TILEMODE
 70
     0
  9
$MAXACTVP
 70
    64
  9
$PINSBASE
 10
0.0
 20
0.0
 30
0.0
  9
$PLIMCHECK
 70
     0
  9
$PEXTMIN
 10
-4.391850629656119
 20
-3.455038652015446
 30
0.0
  9
$PEXTMAX
 10
278.8458837249377
 20
202.387980773708
 30
0.0
  9
$PLIMMIN
 10
-3.757080078125
 20
-3.757083177566528
  9
$PLIMMAX
 10
293.2112426757812
 20
206.2162444591522
  9
$UNITMODE
 70
     0
  9
$VISRETAIN
 70
     1
  9
$PLINEGEN
 70
     0
  9
$PSLTSCALE
 70
     1
  9
$TREEDEPTH
 70
  3020
  9
$CMLSTYLE
  2
Standard
  9
$CMLJUST
 70
     0
  9
$CMLSCALE
 40
20.0
  9
$PROXYGRAPHICS
 70
     1
  9
$MEASUREMENT
 70
     1
  9
$CELWEIGHT
370
    -1
  9
$ENDCAPS
280
     0
  9
$JOINSTYLE
280
     0
  9
$LWDISPLAY
290
     0
  9
$INSUNITS
 70
     4
  9
$HYPERLINKBASE
  1

  9
$STYLESHEET
  1

  9
$XEDIT
290
     1
  9
$CEPSNTYPE
380
     0
  9
$PSTYLEMODE
290
     1
  9
$FINGERPRINTGUID
  2
{FF7F33C3-4233-11D6-AEE0-0000F45FD7F4}
  9
$VERSIONGUID
  2
{A351BEAF-6645-45D5-81D6-802423D4C82A}
  9
$EXTNAMES
290
     1
  9
$PSVPSCALE
 40
0.0
  9
$OLESTARTUP
290
     0
  0
ENDSEC
  0
SECTION
  2
CLASSES
  0
CLASS
  1
ACDBDICTIONARYWDFLT
  2
AcDbDictionaryWithDefault
  3
AutoCAD 2000
 90
        0
280
     0
281
     0
  0
CLASS
  1
ACDBPLACEHOLDER
  2
AcDbPlaceHolder
  3
AutoCAD 2000
 90
        0
280
     0
281
     0
  0
CLASS
  1
LAYOUT
  2
AcDbLayout
  3
AutoCAD 2000
 90
        0
280
     0
281
     0
  0
CLASS
  1
DICTIONARYVAR
  2
AcDbDictionaryVar
  3
AutoCAD 2000
 90
        0
280
     0
281
     0
  0
ENDSEC
  0
SECTION
  2
TABLES
  0
TABLE
  2
VPORT
  5
8
330
0
100
AcDbSymbolTable
 70
     2
  0
VPORT
  5
34E3
330
8
100
AcDbSymbolTableRecord
100
AcDbViewportTableRecord
  2
*Active
 70
     0
 10
0.0
 20
0.0
 11
1.0
 21
1.0
 12
432.9427349117342
 22
159.6422326008798
 13
0.0
 23
0.0
 14
5.0
 24
5.0
 15
10.0
 25
10.0
 16
0.0
 26
0.0
 36
1.0
 17
0.0
 27
0.0
 37
0.0
 40
643.1347857027
 41
1.968879668049792
 42
50.0
 43
0.0
 44
0.0
 50
0.0
 51
0.0
 71
     0
 72
   100
 73
     1
 74
     3
 75
     0
 76
     0
 77
     0
 78
     0
281
     0
 65
     1
110
0.0
120
0.0
130
0.0
111
1.0
121
0.0
131
0.0
112
0.0
122
1.0
132
0.0
 79
     0
146
0.0
  0
ENDTAB
  0
TABLE
  2
LTYPE
  5
5
330
0
100
AcDbSymbolTable
 70
     5
  0
LTYPE
  5
14
330
5
100
AcDbSymbolTableRecord
100
AcDbLinetypeTableRecord
  2
ByBlock
 70
     0
  3

 72
    65
 73
     0
 40
0.0
  0
LTYPE
  5
15
330
5
100
AcDbSymbolTableRecord
100
AcDbLinetypeTableRecord
  2
ByLayer
 70
     0
  3

 72
    65
 73
     0
 40
0.0
  0
LTYPE
  5
16
330
5
100
AcDbSymbolTableRecord
100
AcDbLinetypeTableRecord
  2
Continuous
 70
     0
  3
Solid line
 72
    65
 73
     0
 40
0.0
  0
LTYPE
  5
33
330
5
100
AcDbSymbolTableRecord
100
AcDbLinetypeTableRecord
  2
DASHED2
 70
     0
  3
Dashed (.5x) _ _ _ _ _ _ _ _ _ _ _ _ _ _ _ _ _
 72
    65
 73
     2
 40
9.524999999999998
 49
6.349999999999999
 74
     0
 49
-3.174999999999999
 74
     0
  0
LTYPE
  5
34
330
5
100
AcDbSymbolTableRecord
100
AcDbLinetypeTableRecord
  2
CENTER2
 70
     0
  3
Center (.5x) ___ _ ___ _ ___ _ ___ _ ___ _ ___
 72
    65
 73
     4
 40
28.57499999999999
 49
19.05
 74
     0
 49
-3.174999999999999
 74
     0
 49
3.174999999999999
 74
     0
 49
-3.174999999999999
 74
     0
  0
LTYPE
  5
35
330
5
100
AcDbSymbolTableRecord
100
AcDbLinetypeTableRecord
  2
PHANTOM2
 70
     0
  3
Phantom (.5x) ___ _ _ ___ _ _ ___ _ _ ___ _ _
 72
    65
 73
     6
 40
31.75
 49
15.875
 74
     0
 49
-3.174999999999999
 74
     0
 49
3.174999999999999
 74
     0
 49
-3.174999999999999
 74
     0
 49
3.174999999999999
 74
     0
 49
-3.174999999999999
 74
     0
  0
LTYPE
  5
36
330
5
100
AcDbSymbolTableRecord
100
AcDbLinetypeTableRecord
  2
HIDDEN2
 70
     0
  3
Hidden (.5x) _ _ _ _ _ _ _ _ _ _ _ _ _ _ _ _ _
 72
    65
 73
     2
 40
4.762499999999999
 49
3.174999999999999
 74
     0
 49
-1.587499999999999
 74
     0
  0
ENDTAB
  0
TABLE
  2
LAYER
  5
2
330
0
100
AcDbSymbolTable
 70
    13
  0
LAYER
  5
10
330
2
100
AcDbSymbolTableRecord
100
AcDbLayerTableRecord
  2
0
 70
     0
 62
     7
  6
Continuous
370
    -3
390
F
  0
LAYER
  5
40
330
2
100
AcDbSymbolTableRecord
100
AcDbLayerTableRecord
  2
50-0-CON
 70
     0
 62
     4
  6
Continuous
370
    50
390
F
  0
LAYER
  5
41
330
2
100
AcDbSymbolTableRecord
100
AcDbLayerTableRecord
  2
70-0-CON
 70
     0
 62
   202
  6
Continuous
370
    70
390
F
  0
LAYER
  5
4E
330
2
100
AcDbSymbolTableRecord
100
AcDbLayerTableRecord
  2
極太線
 70
     0
 62
     7
  6
Continuous
370
    70
390
F
  0
LAYER
  5
4F
330
2
100
AcDbSymbolTableRecord
100
AcDbLayerTableRecord
  2
細線
 70
     0
 62
     8
  6
Continuous
370
    18
390
F
  0
LAYER
  5
AB
330
2
100
AcDbSymbolTableRecord
100
AcDbLayerTableRecord
  2
構築線
 70
     0
 62
     2
  6
Continuous
290
     0
370
    18
390
F
  0
LAYER
  5
B8
330
2
100
AcDbSymbolTableRecord
100
AcDbLayerTableRecord
  2
太線
 70
     0
 62
     7
  6
Continuous
370
    35
390
F
  0
LAYER
  5
B9
330
2
100
AcDbSymbolTableRecord
100
AcDbLayerTableRecord
  2
寸法線
 70
     0
 62
     5
  6
Continuous
370
    18
390
F
  0
LAYER
  5
BA
330
2
100
AcDbSymbolTableRecord
100
AcDbLayerTableRecord
  2
破線
 70
     0
 62
     8
  6
HIDDEN2
370
    18
390
F
  0
LAYER
  5
BB
330
2
100
AcDbSymbolTableRecord
100
AcDbLayerTableRecord
  2
中心線
 70
     0
 62
     1
  6
CENTER2
370
    18
390
F
  0
LAYER
  5
BC
330
2
100
AcDbSymbolTableRecord
100
AcDbLayerTableRecord
  2
想像線
 70
     0
 62
     8
  6
PHANTOM2
370
    18
390
F
  0
LAYER
  5
BD
330
2
100
AcDbSymbolTableRecord
100
AcDbLayerTableRecord
  2
文字
 70
     0
 62
     7
  6
Continuous
370
    18
390
F
  0
LAYER
  5
180
330
2
100
AcDbSymbolTableRecord
100
AcDbLayerTableRecord
  2
Defpoints
 70
     0
 62
     7
  6
Continuous
290
     0
370
    -3
390
F
  0
ENDTAB
  0
TABLE
  2
STYLE
  5
3
330
0
100
AcDbSymbolTable
 70
     3
  0
STYLE
  5
11
330
3
100
AcDbSymbolTableRecord
100
AcDbTextStyleTableRecord
  2
Standard
 70
     0
 40
0.0
 41
1.0
 50
0.0
 71
     0
 42
3.0
  3
txt
  4

  0
STYLE
  5
32
330
3
100
AcDbSymbolTableRecord
100
AcDbTextStyleTableRecord
  2

 70
     1
 40
0.0
 41
1.0
 50
0.0
 71
     0
 42
2.5
  3
ltypeshp.shx
  4

  0
STYLE
  5
50
330
3
100
AcDbSymbolTableRecord
100
AcDbTextStyleTableRecord
  2
OKANO
 70
     0
 40
0.0
 41
1.0
 50
15.0
 71
     0
 42
5.0
  3
isocp.shx
  4
bigfont.shx
  0
ENDTAB
  0
TABLE
  2
VIEW
  5
6
330
0
100
AcDbSymbolTable
 70
     0
  0
ENDTAB
  0
TABLE
  2
UCS
  5
7
330
0
100
AcDbSymbolTable
 70
     0
  0
ENDTAB
  0
TABLE
  2
APPID
  5
9
330
0
100
AcDbSymbolTable
 70
     1
  0
APPID
  5
12
330
9
100
AcDbSymbolTableRecord
100
AcDbRegAppTableRecord
  2
ACAD
 70
     0
  0
ENDTAB
  0
TABLE
  2
DIMSTYLE
  5
A
330
0
100
AcDbSymbolTable
 70
     2
100
AcDbDimStyleTable
 71
     2
340
A2
340
27
  0
DIMSTYLE
105
27
330
A
100
AcDbSymbolTableRecord
100
AcDbDimStyleTableRecord
  2
ISO-25
 70
     0
 41
2.5
 42
0.625
 43
3.75
 44
1.25
 73
     0
 74
     0
 77
     1
 78
     8
140
2.5
141
2.5
143
0.03937007874016
147
0.625
171
     3
172
     1
271
     2
272
     2
274
     3
283
     0
284
     8
340
11
  0
DIMSTYLE
105
A2
102
{ACAD_REACTORS
330
33A8
330
33B5
330
33C2
330
33CF
330
33DC
330
33E9
330
3416
330
3423
330
3430
330
34C9
102
}
330
A
100
AcDbSymbolTableRecord
100
AcDbDimStyleTableRecord
  2
sunpo
 70
     0
 40
0.0
 41
3.0
 42
2.0
 43
8.0
 44
3.0
 73
     0
 74
     0
 77
     1
 78
     8
140
5.0
141
2.5
143
0.03937007874016
147
1.0
171
     3
172
     1
271
     2
272
     2
274
     3
283
     0
284
     8
340
50
341
9B
342
9B
  0
ENDTAB
  0
TABLE
  2
BLOCK_RECORD
  5
1
330
0
100
AcDbSymbolTable
 70
    12
  0
BLOCK_RECORD
  5
1F
330
1
100
AcDbSymbolTableRecord
100
AcDbBlockTableRecord
  2
*Model_Space
340
22
  0
BLOCK_RECORD
  5
1B
330
1
100
AcDbSymbolTableRecord
100
AcDbBlockTableRecord
  2
*Paper_Space
340
1E
  0
BLOCK_RECORD
  5
9B
330
1
100
AcDbSymbolTableRecord
100
AcDbBlockTableRecord
  2
_Closed
340
0
102
{BLKREFS
331
3448
331
3449
331
3451
331
3452
331
345A
331
345B
331
3463
331
3464
331
346A
331
346B
331
3499
331
349A
331
34A0
331
34A1
331
34AB
331
34AC
331
34B4
331
34B5
331
34CE
331
34CF
102
}
  0
BLOCK_RECORD
  5
1510
330
1
100
AcDbSymbolTableRecord
100
AcDbBlockTableRecord
  2
A$C10A573AC
340
0
  0
BLOCK_RECORD
  5
33A9
330
1
100
AcDbSymbolTableRecord
100
AcDbBlockTableRecord
  2
*D2
340
0
  0
BLOCK_RECORD
  5
33B6
330
1
100
AcDbSymbolTableRecord
100
AcDbBlockTableRecord
  2
*D3
340
0
  0
BLOCK_RECORD
  5
33C3
330
1
100
AcDbSymbolTableRecord
100
AcDbBlockTableRecord
  2
*D4
340
0
  0
BLOCK_RECORD
  5
33D0
330
1
100
AcDbSymbolTableRecord
100
AcDbBlockTableRecord
  2
*D5
340
0
  0
BLOCK_RECORD
  5
33DD
330
1
100
AcDbSymbolTableRecord
100
AcDbBlockTableRecord
  2
*D6
340
0
  0
BLOCK_RECORD
  5
33EA
330
1
100
AcDbSymbolTableRecord
100
AcDbBlockTableRecord
  2
*D7
340
0
  0
BLOCK_RECORD
  5
3417
330
1
100
AcDbSymbolTableRecord
100
AcDbBlockTableRecord
  2
*D8
340
0
  0
BLOCK_RECORD
  5
3424
330
1
100
AcDbSymbolTableRecord
100
AcDbBlockTableRecord
  2
*D9
340
0
  0
BLOCK_RECORD
  5
3431
330
1
100
AcDbSymbolTableRecord
100
AcDbBlockTableRecord
  2
*D10
340
0
  0
BLOCK_RECORD
  5
34CA
330
1
100
AcDbSymbolTableRecord
100
AcDbBlockTableRecord
  2
*D11
340
0
  0
ENDTAB
  0
ENDSEC
  0
SECTION
  2
BLOCKS
  0
BLOCK
  5
20
330
1F
100
AcDbEntity
  8
0
100
AcDbBlockBegin
  2
*Model_Space
 70
     0
 10
0.0
 20
0.0
 30
0.0
  3
*Model_Space
  1

  0
ENDBLK
  5
21
330
1F
100
AcDbEntity
  8
0
100
AcDbBlockEnd
  0
BLOCK
  5
1C
330
1B
100
AcDbEntity
 67
     1
  8
0
100
AcDbBlockBegin
  2
*Paper_Space
 70
     0
 10
0.0
 20
0.0
 30
0.0
  3
*Paper_Space
  1

  0
ENDBLK
  5
1D
330
1B
100
AcDbEntity
 67
     1
  8
0
100
AcDbBlockEnd
  0
BLOCK
  5
A0
330
9B
100
AcDbEntity
  8
0
100
AcDbBlockBegin
  2
_Closed
 70
     0
 10
0.0
 20
0.0
 30
0.0
  3
_Closed
  1

  0
LINE
  5
9C
330
9B
100
AcDbEntity
  8
0
 62
     0
370
    -2
100
AcDbLine
 10
-1.0
 20
0.1666666666666666
 30
0.0
 11
0.0
 21
0.0
 31
0.0
  0
LINE
  5
9D
330
9B
100
AcDbEntity
  8
0
 62
     0
370
    -2
100
AcDbLine
 10
0.0
 20
0.0
 30
0.0
 11
-1.0
 21
-0.1666666666666666
 31
0.0
  0
LINE
  5
9E
330
9B
100
AcDbEntity
  8
0
 62
     0
370
    -2
100
AcDbLine
 10
-1.0
 20
0.1666666666666666
 30
0.0
 11
-1.0
 21
-0.1666666666666666
 31
0.0
  0
LINE
  5
9F
330
9B
100
AcDbEntity
  8
0
 62
     0
370
    -2
100
AcDbLine
 10
0.0
 20
0.0
 30
0.0
 11
-1.0
 21
0.0
 31
0.0
  0
ENDBLK
  5
A1
330
9B
100
AcDbEntity
  8
0
100
AcDbBlockEnd
  0
BLOCK
  5
155B
330
1510
100
AcDbEntity
  8
0
100
AcDbBlockBegin
  2
A$C10A573AC
 70
     0
 10
0.0
 20
0.0
 30
0.0
  3
A$C10A573AC
  1

  0
TEXT
  5
1511
330
1510
100
AcDbEntity
  8
文字
100
AcDbText
 10
0.9844302777919438
 20
5.224957122252135
 30
0.0
 40
3.0
  1
Materal : Steel.
 51
15.0
  7
OKANO
100
AcDbText
  0
TEXT
  5
1512
330
1510
100
AcDbEntity
  8
文字
100
AcDbText
 10
-0.1141909619694843
 20
0.7500001922403499
 30
0.0
 40
3.0
  1
Surface treatment : Electro galvanized.
 51
15.0
  7
OKANO
100
AcDbText
  0
TEXT
  5
1513
330
1510
100
AcDbEntity
  8
文字
100
AcDbText
 10
-0.4901926332574931
 20
9.159967445193728
 30
0.0
 40
3.0
  1
5 TORGUE SCREW  M5-6
 51
15.0
  7
OKANO
100
AcDbText
  0
TEXT
  5
1514
330
1510
100
AcDbEntity
  8
文字
100
AcDbText
 10
1.364713526390005
 20
78.88822913323082
 30
0.0
 40
3.0
  1
Special standard,
 51
15.0
  7
OKANO
100
AcDbText
  0
TEXT
  5
1515
330
1510
100
AcDbEntity
  8
文字
100
AcDbText
 10
92.88160823408942
 20
89.92753849837379
 30
0.0
 40
3.0
  1
Screw Type
 51
15.0
  7
OKANO
100
AcDbText
  0
LINE
  5
1516
330
1510
100
AcDbEntity
  8
太線
100
AcDbLine
 10
113.9464587597784
 20
81.93930390144641
 30
0.0
 11
112.4464587597784
 21
81.93930390144641
 31
0.0
  0
LINE
  5
1517
330
1510
100
AcDbEntity
  8
太線
100
AcDbLine
 10
112.4464587597784
 20
76.9393039014464
 30
0.0
 11
121.4644995438761
 21
76.9393039014464
 31
0.0
  0
TEXT
  5
1518
330
1510
100
AcDbEntity
  8
文字
100
AcDbText
 10
93.46068240437217
 20
77.96976862235396
 30
0.0
 40
2.0
  1
17-30
 51
15.0
  7
OKANO
100
AcDbText
  0
LINE
  5
1519
330
1510
100
AcDbEntity
  8
太線
100
AcDbLine
 10
111.9464587597784
 20
81.43930390144641
 30
0.0
 11
111.9464587597784
 21
77.4393039014464
 31
0.0
  0
LINE
  5
151A
330
1510
100
AcDbEntity
  8
太線
100
AcDbLine
 10
91.94645875977846
 20
81.43930390144641
 30
0.0
 11
91.94645875977846
 21
77.43930390144639
 31
0.0
  0
LINE
  5
151B
330
1510
100
AcDbEntity
  8
太線
100
AcDbLine
 10
101.9644995438761
 20
77.4393039014464
 30
0.0
 11
101.9644995438761
 21
81.43930390144641
 31
0.0
  0
LINE
  5
151C
330
1510
100
AcDbEntity
  8
太線
100
AcDbLine
 10
92.44645875977846
 20
76.9393039014464
 30
0.0
 11
101.4644995438761
 21
76.9393039014464
 31
0.0
  0
ARC
  5
151D
330
1510
100
AcDbEntity
  8
太線
100
AcDbCircle
 10
92.44645875977846
 20
77.43930390144639
 30
0.0
 40
0.5
100
AcDbArc
 50
180.0
 51
270.0
  0
ARC
  5
151E
330
1510
100
AcDbEntity
  8
太線
100
AcDbCircle
 10
101.4644995438761
 20
77.4393039014464
 30
0.0
 40
0.5
100
AcDbArc
 50
270.0
 51
0.0
  0
ARC
  5
151F
330
1510
100
AcDbEntity
  8
太線
100
AcDbCircle
 10
112.4464587597784
 20
77.4393039014464
 30
0.0
 40
0.5
100
AcDbArc
 50
180.0
 51
270.0
  0
LINE
  5
1520
330
1510
100
AcDbEntity
  8
想像線
100
AcDbLine
 10
93.94645875977847
 20
81.93930390144641
 30
0.0
 11
99.96449954387617
 21
81.93930390144641
 31
0.0
  0
LINE
  5
1521
330
1510
100
AcDbEntity
  8
極太線
100
AcDbLine
 10
96.38762957111168
 20
85.43930390144641
 30
0.0
 11
97.50528794844525
 21
85.43930390144641
 31
0.0
  0
CIRCLE
  5
1522
330
1510
100
AcDbEntity
  8
太線
100
AcDbCircle
 10
96.94645875977847
 20
85.43930390144641
 30
0.0
 40
0.5588291886667776
  0
LINE
  5
1523
330
1510
100
AcDbEntity
  8
太線
100
AcDbLine
 10
99.46449954387617
 20
86.93930390144641
 30
0.0
 11
94.44645875977846
 21
86.93930390144641
 31
0.0
  0
LINE
  5
1524
330
1510
100
AcDbEntity
  8
太線
100
AcDbLine
 10
93.94645875977847
 20
86.43930390144641
 30
0.0
 11
93.94645875977847
 21
81.93930390144641
 31
0.0
  0
ARC
  5
1525
330
1510
100
AcDbEntity
  8
太線
100
AcDbCircle
 10
92.44645875977846
 20
81.43930390144641
 30
0.0
 40
0.5
100
AcDbArc
 50
90.0
 51
180.0
  0
LINE
  5
1526
330
1510
100
AcDbEntity
  8
太線
100
AcDbLine
 10
93.94645875977847
 20
81.93930390144641
 30
0.0
 11
92.44645875977846
 21
81.93930390144641
 31
0.0
  0
ARC
  5
1527
330
1510
100
AcDbEntity
  8
太線
100
AcDbCircle
 10
94.44645875977846
 20
86.43930390144641
 30
0.0
 40
0.5
100
AcDbArc
 50
90.0
 51
180.0
  0
LINE
  5
1528
330
1510
100
AcDbEntity
  8
太線
100
AcDbLine
 10
99.96449954387617
 20
81.93930390144641
 30
0.0
 11
99.96449954387617
 21
86.43930390144641
 31
0.0
  0
LINE
  5
1529
330
1510
100
AcDbEntity
  8
太線
100
AcDbLine
 10
101.4644995438761
 20
81.93930390144641
 30
0.0
 11
99.96449954387617
 21
81.93930390144641
 31
0.0
  0
ARC
  5
152A
330
1510
100
AcDbEntity
  8
太線
100
AcDbCircle
 10
101.4644995438761
 20
81.43930390144641
 30
0.0
 40
0.5
100
AcDbArc
 50
0.0
 51
90.0
  0
ARC
  5
152B
330
1510
100
AcDbEntity
  8
太線
100
AcDbCircle
 10
99.46449954387617
 20
86.43930390144641
 30
0.0
 40
0.5
100
AcDbArc
 50
0.0
 51
90.0
  0
LINE
  5
152C
330
1510
100
AcDbEntity
  8
極太線
100
AcDbLine
 10
96.94645875977847
 20
85.99813309011318
 30
0.0
 11
96.94645875977847
 21
84.88047471277964
 31
0.0
  0
ARC
  5
152D
330
1510
100
AcDbEntity
  8
太線
100
AcDbCircle
 10
112.4464587597784
 20
81.43930390144641
 30
0.0
 40
0.5
100
AcDbArc
 50
90.0
 51
180.0
  0
TEXT
  5
152E
330
1510
100
AcDbEntity
  8
文字
100
AcDbText
 10
134.3819212586066
 20
78.16263579228063
 30
0.0
 40
2.0
  1
101
 51
15.0
  7
OKANO
100
AcDbText
  0
TEXT
  5
152F
330
1510
100
AcDbEntity
  8
文字
100
AcDbText
 10
113.3422276612066
 20
77.96976862235396
 30
0.0
 40
2.0
  1
38-83
 51
15.0
  7
OKANO
100
AcDbText
  0
LINE
  5
1530
330
1510
100
AcDbEntity
  8
太線
100
AcDbLine
 10
141.9825403279738
 20
77.4393039014464
 30
0.0
 11
141.9825403279738
 21
81.43930390144641
 31
0.0
  0
LINE
  5
1531
330
1510
100
AcDbEntity
  8
太線
100
AcDbLine
 10
131.9644995438761
 20
81.43930390144641
 30
0.0
 11
131.9644995438761
 21
77.4393039014464
 31
0.0
  0
LINE
  5
1532
330
1510
100
AcDbEntity
  8
太線
100
AcDbLine
 10
121.9644995438761
 20
77.4393039014464
 30
0.0
 11
121.9644995438761
 21
81.43930390144641
 31
0.0
  0
ARC
  5
1533
330
1510
100
AcDbEntity
  8
太線
100
AcDbCircle
 10
121.4644995438761
 20
77.4393039014464
 30
0.0
 40
0.5
100
AcDbArc
 50
270.0
 51
0.0
  0
LINE
  5
1534
330
1510
100
AcDbEntity
  8
太線
100
AcDbLine
 10
132.4644995438761
 20
76.9393039014464
 30
0.0
 11
141.4825403279738
 21
76.9393039014464
 31
0.0
  0
ARC
  5
1535
330
1510
100
AcDbEntity
  8
太線
100
AcDbCircle
 10
132.4644995438761
 20
77.4393039014464
 30
0.0
 40
0.5
100
AcDbArc
 50
180.0
 51
270.0
  0
ARC
  5
1536
330
1510
100
AcDbEntity
  8
太線
100
AcDbCircle
 10
141.4825403279738
 20
77.4393039014464
 30
0.0
 40
0.5
100
AcDbArc
 50
270.0
 51
0.0
  0
ARC
  5
1537
330
1510
100
AcDbEntity
  8
太線
100
AcDbCircle
 10
121.4644995438761
 20
81.43930390144641
 30
0.0
 40
0.5
100
AcDbArc
 50
0.0
 51
90.0
  0
LINE
  5
1538
330
1510
100
AcDbEntity
  8
太線
100
AcDbLine
 10
119.9644995438761
 20
81.93930390144641
 30
0.0
 11
119.9644995438761
 21
86.43930390144641
 31
0.0
  0
LINE
  5
1539
330
1510
100
AcDbEntity
  8
太線
100
AcDbLine
 10
113.9464587597784
 20
86.43930390144641
 30
0.0
 11
113.9464587597784
 21
81.93930390144641
 31
0.0
  0
LINE
  5
153A
330
1510
100
AcDbEntity
  8
想像線
100
AcDbLine
 10
113.9464587597784
 20
81.93930390144641
 30
0.0
 11
119.9644995438761
 21
81.93930390144641
 31
0.0
  0
LINE
  5
153B
330
1510
100
AcDbEntity
  8
太線
100
AcDbLine
 10
121.4644995438761
 20
81.93930390144641
 30
0.0
 11
119.9644995438761
 21
81.93930390144641
 31
0.0
  0
LINE
  5
153C
330
1510
100
AcDbEntity
  8
太線
100
AcDbLine
 10
119.4644995438761
 20
86.93930390144641
 30
0.0
 11
114.4464587597784
 21
86.93930390144641
 31
0.0
  0
ARC
  5
153D
330
1510
100
AcDbEntity
  8
太線
100
AcDbCircle
 10
114.4464587597784
 20
86.43930390144641
 30
0.0
 40
0.5
100
AcDbArc
 50
90.0
 51
180.0
  0
CIRCLE
  5
153E
330
1510
100
AcDbEntity
  8
太線
100
AcDbCircle
 10
115.4464587597784
 20
85.43930390144641
 30
0.0
 40
0.5588291886667776
  0
LINE
  5
153F
330
1510
100
AcDbEntity
  8
極太線
100
AcDbLine
 10
115.4464587597784
 20
85.99813309011318
 30
0.0
 11
115.4464587597784
 21
84.88047471277964
 31
0.0
  0
LINE
  5
1540
330
1510
100
AcDbEntity
  8
極太線
100
AcDbLine
 10
114.8876295711116
 20
85.43930390144641
 30
0.0
 11
116.0052879484452
 21
85.43930390144641
 31
0.0
  0
ARC
  5
1541
330
1510
100
AcDbEntity
  8
太線
100
AcDbCircle
 10
119.4644995438761
 20
86.43930390144641
 30
0.0
 40
0.5
100
AcDbArc
 50
0.0
 51
90.0
  0
LINE
  5
1542
330
1510
100
AcDbEntity
  8
極太線
100
AcDbLine
 10
117.9056703552094
 20
85.43930390144641
 30
0.0
 11
119.0233287325429
 21
85.43930390144641
 31
0.0
  0
LINE
  5
1543
330
1510
100
AcDbEntity
  8
極太線
100
AcDbLine
 10
118.4644995438761
 20
85.99813309011318
 30
0.0
 11
118.4644995438761
 21
84.88047471277964
 31
0.0
  0
CIRCLE
  5
1544
330
1510
100
AcDbEntity
  8
太線
100
AcDbCircle
 10
118.4644995438761
 20
85.43930390144641
 30
0.0
 40
0.5588291886667776
  0
LINE
  5
1545
330
1510
100
AcDbEntity
  8
想像線
100
AcDbLine
 10
133.9644995438761
 20
81.93930390144641
 30
0.0
 11
139.9825403279738
 21
81.93930390144641
 31
0.0
  0
LINE
  5
1546
330
1510
100
AcDbEntity
  8
極太線
100
AcDbLine
 10
137.9237111393071
 20
85.43930390144641
 30
0.0
 11
139.0413695166406
 21
85.43930390144641
 31
0.0
  0
CIRCLE
  5
1547
330
1510
100
AcDbEntity
  8
太線
100
AcDbCircle
 10
138.4825403279738
 20
85.43930390144641
 30
0.0
 40
0.5588291886667776
  0
CIRCLE
  5
1548
330
1510
100
AcDbEntity
  8
太線
100
AcDbCircle
 10
138.4825403279738
 20
83.26342923362075
 30
0.0
 40
0.5588291886667776
  0
LINE
  5
1549
330
1510
100
AcDbEntity
  8
極太線
100
AcDbLine
 10
137.9237111393071
 20
83.26342923362075
 30
0.0
 11
139.0413695166406
 21
83.26342923362075
 31
0.0
  0
LINE
  5
154A
330
1510
100
AcDbEntity
  8
太線
100
AcDbLine
 10
139.4825403279738
 20
86.93930390144641
 30
0.0
 11
134.4644995438761
 21
86.93930390144641
 31
0.0
  0
LINE
  5
154B
330
1510
100
AcDbEntity
  8
太線
100
AcDbLine
 10
133.9644995438761
 20
86.43930390144641
 30
0.0
 11
133.9644995438761
 21
81.93930390144641
 31
0.0
  0
ARC
  5
154C
330
1510
100
AcDbEntity
  8
太線
100
AcDbCircle
 10
132.4644995438761
 20
81.43930390144641
 30
0.0
 40
0.5
100
AcDbArc
 50
90.0
 51
180.0
  0
LINE
  5
154D
330
1510
100
AcDbEntity
  8
太線
100
AcDbLine
 10
133.9644995438761
 20
81.93930390144641
 30
0.0
 11
132.4644995438761
 21
81.93930390144641
 31
0.0
  0
LINE
  5
154E
330
1510
100
AcDbEntity
  8
極太線
100
AcDbLine
 10
134.9056703552093
 20
83.26342923362075
 30
0.0
 11
136.0233287325429
 21
83.26342923362075
 31
0.0
  0
LINE
  5
154F
330
1510
100
AcDbEntity
  8
極太線
100
AcDbLine
 10
135.4644995438761
 20
83.82225842228752
 30
0.0
 11
135.4644995438761
 21
82.70460004495395
 31
0.0
  0
CIRCLE
  5
1550
330
1510
100
AcDbEntity
  8
太線
100
AcDbCircle
 10
135.4644995438761
 20
83.26342923362075
 30
0.0
 40
0.5588291886667776
  0
ARC
  5
1551
330
1510
100
AcDbEntity
  8
太線
100
AcDbCircle
 10
134.4644995438761
 20
86.43930390144641
 30
0.0
 40
0.5
100
AcDbArc
 50
90.0
 51
180.0
  0
CIRCLE
  5
1552
330
1510
100
AcDbEntity
  8
太線
100
AcDbCircle
 10
135.4644995438761
 20
85.43930390144641
 30
0.0
 40
0.5588291886667776
  0
LINE
  5
1553
330
1510
100
AcDbEntity
  8
極太線
100
AcDbLine
 10
135.4644995438761
 20
85.99813309011318
 30
0.0
 11
135.4644995438761
 21
84.88047471277964
 31
0.0
  0
LINE
  5
1554
330
1510
100
AcDbEntity
  8
極太線
100
AcDbLine
 10
134.9056703552093
 20
85.43930390144641
 30
0.0
 11
136.0233287325429
 21
85.43930390144641
 31
0.0
  0
LINE
  5
1555
330
1510
100
AcDbEntity
  8
太線
100
AcDbLine
 10
139.9825403279738
 20
81.93930390144641
 30
0.0
 11
139.9825403279738
 21
86.43930390144641
 31
0.0
  0
ARC
  5
1556
330
1510
100
AcDbEntity
  8
太線
100
AcDbCircle
 10
141.4825403279738
 20
81.43930390144641
 30
0.0
 40
0.5
100
AcDbArc
 50
0.0
 51
90.0
  0
LINE
  5
1557
330
1510
100
AcDbEntity
  8
極太線
100
AcDbLine
 10
138.4825403279738
 20
83.82225842228752
 30
0.0
 11
138.4825403279738
 21
82.70460004495395
 31
0.0
  0
LINE
  5
1558
330
1510
100
AcDbEntity
  8
太線
100
AcDbLine
 10
141.4825403279738
 20
81.93930390144641
 30
0.0
 11
139.9825403279738
 21
81.93930390144641
 31
0.0
  0
ARC
  5
1559
330
1510
100
AcDbEntity
  8
太線
100
AcDbCircle
 10
139.4825403279738
 20
86.43930390144641
 30
0.0
 40
0.5
100
AcDbArc
 50
0.0
 51
90.0
  0
LINE
  5
155A
330
1510
100
AcDbEntity
  8
極太線
100
AcDbLine
 10
138.4825403279738
 20
85.99813309011318
 30
0.0
 11
138.4825403279738
 21
84.88047471277964
 31
0.0
  0
ENDBLK
  5
155C
330
1510
100
AcDbEntity
  8
0
100
AcDbBlockEnd
  0
BLOCK
  5
33B3
330
33A9
100
AcDbEntity
  8
0
100
AcDbBlockBegin
  2
*D2
 70
     1
 10
0.0
 20
0.0
 30
0.0
  3
*D2
  1

  0
LINE
  5
344E
330
33A9
100
AcDbEntity
  8
寸法線
 62
     0
370
    -2
100
AcDbLine
 10
241.1979086054084
 20
258.4128447996253
 30
0.0
 11
256.8803250897286
 21
258.4128447996253
 31
0.0
  0
LINE
  5
344F
330
33A9
100
AcDbEntity
  8
寸法線
 62
     0
370
    -2
100
AcDbLine
 10
241.1979086054084
 20
158.4128447996253
 30
0.0
 11
256.8803250897286
 21
158.4128447996253
 31
0.0
  0
LINE
  5
3450
330
33A9
100
AcDbEntity
  8
寸法線
 62
     0
370
    -2
100
AcDbLine
 10
253.8803250897285
 20
255.4128447996252
 30
0.0
 11
253.8803250897285
 21
161.4128447996252
 31
0.0
  0
INSERT
  5
3451
330
33A9
100
AcDbEntity
  8
寸法線
 62
     0
370
    -2
100
AcDbBlockReference
  2
_Closed
 10
253.8803250897285
 20
258.4128447996253
 30
0.0
 41
3.0
 42
3.0
 43
3.0
 50
90.0
  0
INSERT
  5
3452
330
33A9
100
AcDbEntity
  8
寸法線
 62
     0
370
    -2
100
AcDbBlockReference
  2
_Closed
 10
253.8803250897285
 20
158.4128447996253
 30
0.0
 41
3.0
 42
3.0
 43
3.0
 50
270.0
  0
MTEXT
  5
3453
330
33A9
100
AcDbEntity
  8
寸法線
 62
     0
100
AcDbMText
 10
250.3803250897285
 20
208.4128447996253
 30
0.0
 40
5.0
 41
0.0
 71
     5
 72
     1
  1
100
  7
OKANO
 11
0.0000000000000001
 21
1.0
 31
0.0
 73
     1
 44
1.0
  0
POINT
  5
3454
330
33A9
100
AcDbEntity
  8
Defpoints
 62
     0
100
AcDbPoint
 10
239.1979086054084
 20
258.4128447996253
 30
0.0
  0
POINT
  5
3455
330
33A9
100
AcDbEntity
  8
Defpoints
 62
     0
100
AcDbPoint
 10
239.1979086054084
 20
158.4128447996253
 30
0.0
  0
POINT
  5
3456
330
33A9
100
AcDbEntity
  8
Defpoints
 62
     0
100
AcDbPoint
 10
253.8803250897285
 20
158.4128447996253
 30
0.0
  0
ENDBLK
  5
33B4
330
33A9
100
AcDbEntity
  8
0
100
AcDbBlockEnd
  0
BLOCK
  5
33C0
330
33B6
100
AcDbEntity
  8
0
100
AcDbBlockBegin
  2
*D3
 70
     1
 10
0.0
 20
0.0
 30
0.0
  3
*D3
  1

  0
ARC
  5
3469
330
33B6
100
AcDbEntity
  8
寸法線
 62
     0
370
    -2
100
AcDbCircle
 10
239.1979086054084
 20
158.4128447996253
 30
0.0
 40
34.64669887244148
100
AcDbArc
 50
94.96269736084352
 51
175.0373026391563
  0
INSERT
  5
346A
330
33B6
100
AcDbEntity
  8
寸法線
 62
     0
370
    -2
100
AcDbBlockReference
  2
_Closed
 10
239.1979086054084
 20
193.0595436720668
 30
0.0
 41
3.0
 42
3.0
 43
3.0
 50
2.481348680421773
  0
INSERT
  5
346B
330
33B6
100
AcDbEntity
  8
寸法線
 62
     0
370
    -2
100
AcDbBlockReference
  2
_Closed
 10
204.5512097329669
 20
158.4128447996254
 30
0.0
 41
3.0
 42
3.0
 43
3.0
 50
267.5186513195781
  0
MTEXT
  5
346C
330
33B6
100
AcDbEntity
  8
寸法線
 62
     0
100
AcDbMText
 10
212.2232646867224
 20
185.3874887183113
 30
0.0
 40
5.0
 41
0.0
 71
     5
 72
     1
  1
90°
  7
OKANO
 11
0.7071067811865476
 21
0.7071067811865475
 31
0.0
 73
     1
 44
1.0
  0
POINT
  5
346D
330
33B6
100
AcDbEntity
  8
Defpoints
 62
     0
100
AcDbPoint
 10
221.8745591691877
 20
188.4177661804293
 30
0.0
  0
POINT
  5
346E
330
33B6
100
AcDbEntity
  8
Defpoints
 62
     0
100
AcDbPoint
 10
239.1979086054084
 20
158.4128447996253
 30
0.0
  0
POINT
  5
346F
330
33B6
100
AcDbEntity
  8
Defpoints
 62
     0
100
AcDbPoint
 10
239.1979086054084
 20
258.4128447996253
 30
0.0
  0
POINT
  5
3470
330
33B6
100
AcDbEntity
  8
Defpoints
 62
     0
100
AcDbPoint
 10
239.1979086054084
 20
158.4128447996253
 30
0.0
  0
POINT
  5
3471
330
33B6
100
AcDbEntity
  8
Defpoints
 62
     0
100
AcDbPoint
 10
139.1979086054084
 20
158.4128447996253
 30
0.0
  0
ENDBLK
  5
33C1
330
33B6
100
AcDbEntity
  8
0
100
AcDbBlockEnd
  0
BLOCK
  5
33CD
330
33C3
100
AcDbEntity
  8
0
100
AcDbBlockBegin
  2
*D4
 70
     1
 10
0.0
 20
0.0
 30
0.0
  3
*D4
  1

  0
LINE
  5
3496
330
33C3
100
AcDbEntity
  8
寸法線
 62
     0
370
    -2
100
AcDbLine
 10
501.6126100061578
 20
88.4128447996253
 30
0.0
 11
517.386262662
 21
88.4128447996253
 31
0.0
  0
LINE
  5
3497
330
33C3
100
AcDbEntity
  8
寸法線
 62
     0
370
    -2
100
AcDbLine
 10
484.2940385829854
 20
100.4128447996253
 30
0.0
 11
517.386262662
 21
100.4128447996253
 31
0.0
  0
LINE
  5
3498
330
33C3
100
AcDbEntity
  8
寸法線
 62
     0
370
    -2
100
AcDbLine
 10
514.386262662
 20
91.4128447996253
 30
0.0
 11
514.386262662
 21
97.4128447996253
 31
0.0
  0
INSERT
  5
3499
330
33C3
100
AcDbEntity
  8
寸法線
 62
     0
370
    -2
100
AcDbBlockReference
  2
_Closed
 10
514.386262662
 20
88.4128447996253
 30
0.0
 41
3.0
 42
3.0
 43
3.0
 50
270.0
  0
INSERT
  5
349A
330
33C3
100
AcDbEntity
  8
寸法線
 62
     0
370
    -2
100
AcDbBlockReference
  2
_Closed
 10
514.386262662
 20
100.4128447996253
 30
0.0
 41
3.0
 42
3.0
 43
3.0
 50
90.0
  0
MTEXT
  5
349B
330
33C3
100
AcDbEntity
  8
寸法線
 62
     0
100
AcDbMText
 10
510.8857705360158
 20
94.41284479962538
 30
0.0
 40
5.0
 41
0.0
 71
     5
 72
     1
  1
12
  7
OKANO
 11
0.0000000000000001
 21
1.0
 31
0.0
 73
     1
 44
1.0
  0
POINT
  5
349C
330
33C3
100
AcDbEntity
  8
Defpoints
 62
     0
100
AcDbPoint
 10
499.6126100061578
 20
88.4128447996253
 30
0.0
  0
POINT
  5
349D
330
33C3
100
AcDbEntity
  8
Defpoints
 62
     0
100
AcDbPoint
 10
482.2940385829854
 20
100.4128447996253
 30
0.0
  0
POINT
  5
349E
330
33C3
100
AcDbEntity
  8
Defpoints
 62
     0
100
AcDbPoint
 10
514.386262662
 20
100.4128447996253
 30
0.0
  0
ENDBLK
  5
33CE
330
33C3
100
AcDbEntity
  8
0
100
AcDbBlockEnd
  0
BLOCK
  5
33DA
330
33D0
100
AcDbEntity
  8
0
100
AcDbBlockBegin
  2
*D5
 70
     1
 10
0.0
 20
0.0
 30
0.0
  3
*D5
  1

  0
ARC
  5
349F
330
33D0
100
AcDbEntity
  8
寸法線
 62
     0
370
    -2
100
AcDbCircle
 10
473.1126100061579
 20
258.4128447996253
 30
0.0
 40
53.51949810284435
100
AcDbArc
 50
253.2120975746109
 51
286.787902425389
  0
INSERT
  5
34A0
330
33D0
100
AcDbEntity
  8
寸法線
 62
     0
370
    -2
100
AcDbBlockReference
  2
_Closed
 10
454.8078635943052
 20
208.120967364217
 30
0.0
 41
3.0
 42
3.0
 43
3.0
 50
161.6060487873054
  0
INSERT
  5
34A1
330
33D0
100
AcDbEntity
  8
寸法線
 62
     0
370
    -2
100
AcDbBlockReference
  2
_Closed
 10
491.4173564180105
 20
208.120967364217
 30
0.0
 41
3.0
 42
3.0
 43
3.0
 50
18.39395121269456
  0
MTEXT
  5
34A2
330
33D0
100
AcDbEntity
  8
寸法線
 62
     0
100
AcDbMText
 10
473.1126100061579
 20
208.3933466967809
 30
0.0
 40
5.0
 41
0.0
 71
     5
 72
     1
  1
40°
  7
OKANO
 73
     1
 44
1.0
  0
POINT
  5
34A3
330
33D0
100
AcDbEntity
  8
Defpoints
 62
     0
100
AcDbPoint
 10
466.899375508879
 20
205.2552263967831
 30
0.0
  0
POINT
  5
34A4
330
33D0
100
AcDbEntity
  8
Defpoints
 62
     0
100
AcDbPoint
 10
493.1907673908808
 20
203.2485607608427
 30
0.0
  0
POINT
  5
34A5
330
33D0
100
AcDbEntity
  8
Defpoints
 62
     0
100
AcDbPoint
 10
473.1126100061579
 20
258.4128447996253
 30
0.0
  0
POINT
  5
34A6
330
33D0
100
AcDbEntity
  8
Defpoints
 62
     0
100
AcDbPoint
 10
453.0344526214348
 20
203.2485607608427
 30
0.0
  0
POINT
  5
34A7
330
33D0
100
AcDbEntity
  8
Defpoints
 62
     0
100
AcDbPoint
 10
473.1126100061579
 20
258.4128447996253
 30
0.0
  0
ENDBLK
  5
33DB
330
33D0
100
AcDbEntity
  8
0
100
AcDbBlockEnd
  0
BLOCK
  5
33E7
330
33DD
100
AcDbEntity
  8
0
100
AcDbBlockBegin
  2
*D6
 70
     1
 10
0.0
 20
0.0
 30
0.0
  3
*D6
  1

  0
LINE
  5
34A8
330
33DD
100
AcDbEntity
  8
寸法線
 62
     0
370
    -2
100
AcDbLine
 10
446.3642980123317
 20
259.4386118071171
 30
0.0
 11
446.3642980123317
 21
306.594845755391
 31
0.0
  0
LINE
  5
34A9
330
33DD
100
AcDbEntity
  8
寸法線
 62
     0
370
    -2
100
AcDbLine
 10
499.6650909814412
 20
259.4386118071171
 30
0.0
 11
499.6650909814412
 21
306.594845755391
 31
0.0
  0
LINE
  5
34AA
330
33DD
100
AcDbEntity
  8
寸法線
 62
     0
370
    -2
100
AcDbLine
 10
449.3642980123317
 20
303.594845755391
 30
0.0
 11
496.6650909814411
 21
303.594845755391
 31
0.0
  0
INSERT
  5
34AB
330
33DD
100
AcDbEntity
  8
寸法線
 62
     0
370
    -2
100
AcDbBlockReference
  2
_Closed
 10
446.3642980123317
 20
303.594845755391
 30
0.0
 41
3.0
 42
3.0
 43
3.0
 50
180.0
  0
INSERT
  5
34AC
330
33DD
100
AcDbEntity
  8
寸法線
 62
     0
370
    -2
100
AcDbBlockReference
  2
_Closed
 10
499.6650909814412
 20
303.594845755391
 30
0.0
 41
3.0
 42
3.0
 43
3.0
  0
MTEXT
  5
34AD
330
33DD
100
AcDbEntity
  8
寸法線
 62
     0
100
AcDbMText
 10
473.0146944968864
 20
307.094845755391
 30
0.0
 40
5.0
 41
0.0
 71
     5
 72
     1
  1
54
  7
OKANO
 73
     1
 44
1.0
  0
POINT
  5
34AE
330
33DD
100
AcDbEntity
  8
Defpoints
 62
     0
100
AcDbPoint
 10
446.3642980123317
 20
257.4386118071171
 30
0.0
  0
POINT
  5
34AF
330
33DD
100
AcDbEntity
  8
Defpoints
 62
     0
100
AcDbPoint
 10
499.6650909814412
 20
257.4386118071171
 30
0.0
  0
POINT
  5
34B0
330
33DD
100
AcDbEntity
  8
Defpoints
 62
     0
100
AcDbPoint
 10
499.6650909814412
 20
303.594845755391
 30
0.0
  0
ENDBLK
  5
33E8
330
33DD
100
AcDbEntity
  8
0
100
AcDbBlockEnd
  0
BLOCK
  5
33F4
330
33EA
100
AcDbEntity
  8
0
100
AcDbBlockBegin
  2
*D7
 70
     1
 10
0.0
 20
0.0
 30
0.0
  3
*D7
  1

  0
LINE
  5
34B1
330
33EA
100
AcDbEntity
  8
寸法線
 62
     0
370
    -2
100
AcDbLine
 10
448.8353100509791
 20
260.4469428865032
 30
0.0
 11
448.8353100509791
 21
296.7038996239647
 31
0.0
  0
LINE
  5
34B2
330
33EA
100
AcDbEntity
  8
寸法線
 62
     0
370
    -2
100
AcDbLine
 10
497.2594695838447
 20
260.4469428865032
 30
0.0
 11
497.2594695838447
 21
296.7038996239647
 31
0.0
  0
LINE
  5
34B3
330
33EA
100
AcDbEntity
  8
寸法線
 62
     0
370
    -2
100
AcDbLine
 10
451.8353100509791
 20
293.7038996239647
 30
0.0
 11
494.2594695838447
 21
293.7038996239647
 31
0.0
  0
INSERT
  5
34B4
330
33EA
100
AcDbEntity
  8
寸法線
 62
     0
370
    -2
100
AcDbBlockReference
  2
_Closed
 10
448.8353100509791
 20
293.7038996239647
 30
0.0
 41
3.0
 42
3.0
 43
3.0
 50
180.0
  0
INSERT
  5
34B5
330
33EA
100
AcDbEntity
  8
寸法線
 62
     0
370
    -2
100
AcDbBlockReference
  2
_Closed
 10
497.2594695838447
 20
293.7038996239647
 30
0.0
 41
3.0
 42
3.0
 43
3.0
  0
MTEXT
  5
34B6
330
33EA
100
AcDbEntity
  8
寸法線
 62
     0
100
AcDbMText
 10
473.0473898174119
 20
297.2038996239647
 30
0.0
 40
5.0
 41
0.0
 71
     5
 72
     1
  1
49
  7
OKANO
 73
     1
 44
1.0
  0
POINT
  5
34B7
330
33EA
100
AcDbEntity
  8
Defpoints
 62
     0
100
AcDbPoint
 10
448.8353100509791
 20
258.4469428865032
 30
0.0
  0
POINT
  5
34B8
330
33EA
100
AcDbEntity
  8
Defpoints
 62
     0
100
AcDbPoint
 10
497.2594695838447
 20
258.4469428865032
 30
0.0
  0
POINT
  5
34B9
330
33EA
100
AcDbEntity
  8
Defpoints
 62
     0
100
AcDbPoint
 10
497.2594695838447
 20
293.7038996239647
 30
0.0
  0
ENDBLK
  5
33F5
330
33EA
100
AcDbEntity
  8
0
100
AcDbBlockEnd
  0
BLOCK
  5
3421
330
3417
100
AcDbEntity
  8
0
100
AcDbBlockBegin
  2
*D8
 70
     1
 10
0.0
 20
0.0
 30
0.0
  3
*D8
  1

  0
LINE
  5
3445
330
3417
100
AcDbEntity
  8
寸法線
 62
     0
370
    -2
100
AcDbLine
 10
309.1979086054084
 20
287.4128447996253
 30
0.0
 11
309.1979086054084
 21
299.381154735064
 31
0.0
  0
LINE
  5
3446
330
3417
100
AcDbEntity
  8
寸法線
 62
     0
370
    -2
100
AcDbLine
 10
239.1979086054084
 20
260.4128447996253
 30
0.0
 11
239.1979086054084
 21
299.381154735064
 31
0.0
  0
LINE
  5
3447
330
3417
100
AcDbEntity
  8
寸法線
 62
     0
370
    -2
100
AcDbLine
 10
306.1979086054084
 20
296.381154735064
 30
0.0
 11
242.1979086054084
 21
296.381154735064
 31
0.0
  0
INSERT
  5
3448
330
3417
100
AcDbEntity
  8
寸法線
 62
     0
370
    -2
100
AcDbBlockReference
  2
_Closed
 10
309.1979086054084
 20
296.381154735064
 30
0.0
 41
3.0
 42
3.0
 43
3.0
  0
INSERT
  5
3449
330
3417
100
AcDbEntity
  8
寸法線
 62
     0
370
    -2
100
AcDbBlockReference
  2
_Closed
 10
239.1979086054084
 20
296.381154735064
 30
0.0
 41
3.0
 42
3.0
 43
3.0
 50
180.0
  0
MTEXT
  5
344A
330
3417
100
AcDbEntity
  8
寸法線
 62
     0
100
AcDbMText
 10
274.1979086054084
 20
299.881154735064
 30
0.0
 40
5.0
 41
0.0
 71
     5
 72
     1
  1
70
  7
OKANO
 73
     1
 44
1.0
  0
POINT
  5
344B
330
3417
100
AcDbEntity
  8
Defpoints
 62
     0
100
AcDbPoint
 10
309.1979086054084
 20
285.4128447996253
 30
0.0
  0
POINT
  5
344C
330
3417
100
AcDbEntity
  8
Defpoints
 62
     0
100
AcDbPoint
 10
239.1979086054084
 20
258.4128447996253
 30
0.0
  0
POINT
  5
344D
330
3417
100
AcDbEntity
  8
Defpoints
 62
     0
100
AcDbPoint
 10
239.1979086054084
 20
296.381154735064
 30
0.0
  0
ENDBLK
  5
3422
330
3417
100
AcDbEntity
  8
0
100
AcDbBlockEnd
  0
BLOCK
  5
342E
330
3424
100
AcDbEntity
  8
0
100
AcDbBlockBegin
  2
*D9
 70
     1
 10
0.0
 20
0.0
 30
0.0
  3
*D9
  1

  0
LINE
  5
3460
330
3424
100
AcDbEntity
  8
寸法線
 62
     0
370
    -2
100
AcDbLine
 10
239.1979086054084
 20
260.4128447996253
 30
0.0
 11
239.1979086054084
 21
299.381154735064
 31
0.0
  0
LINE
  5
3461
330
3424
100
AcDbEntity
  8
寸法線
 62
     0
370
    -2
100
AcDbLine
 10
139.1979086054084
 20
160.4128447996252
 30
0.0
 11
139.1979086054084
 21
299.381154735064
 31
0.0
  0
LINE
  5
3462
330
3424
100
AcDbEntity
  8
寸法線
 62
     0
370
    -2
100
AcDbLine
 10
236.1979086054084
 20
296.381154735064
 30
0.0
 11
142.1979086054084
 21
296.381154735064
 31
0.0
  0
INSERT
  5
3463
330
3424
100
AcDbEntity
  8
寸法線
 62
     0
370
    -2
100
AcDbBlockReference
  2
_Closed
 10
239.1979086054084
 20
296.381154735064
 30
0.0
 41
3.0
 42
3.0
 43
3.0
  0
INSERT
  5
3464
330
3424
100
AcDbEntity
  8
寸法線
 62
     0
370
    -2
100
AcDbBlockReference
  2
_Closed
 10
139.1979086054084
 20
296.381154735064
 30
0.0
 41
3.0
 42
3.0
 43
3.0
 50
180.0
  0
MTEXT
  5
3465
330
3424
100
AcDbEntity
  8
寸法線
 62
     0
100
AcDbMText
 10
189.1979086054084
 20
299.881154735064
 30
0.0
 40
5.0
 41
0.0
 71
     5
 72
     1
  1
100
  7
OKANO
 73
     1
 44
1.0
  0
POINT
  5
3466
330
3424
100
AcDbEntity
  8
Defpoints
 62
     0
100
AcDbPoint
 10
239.1979086054084
 20
258.4128447996253
 30
0.0
  0
POINT
  5
3467
330
3424
100
AcDbEntity
  8
Defpoints
 62
     0
100
AcDbPoint
 10
139.1979086054084
 20
158.4128447996253
 30
0.0
  0
POINT
  5
3468
330
3424
100
AcDbEntity
  8
Defpoints
 62
     0
100
AcDbPoint
 10
139.1979086054084
 20
296.381154735064
 30
0.0
  0
ENDBLK
  5
342F
330
3424
100
AcDbEntity
  8
0
100
AcDbBlockEnd
  0
BLOCK
  5
343B
330
3431
100
AcDbEntity
  8
0
100
AcDbBlockBegin
  2
*D10
 70
     1
 10
0.0
 20
0.0
 30
0.0
  3
*D10
  1

  0
LINE
  5
3457
330
3431
100
AcDbEntity
  8
寸法線
 62
     0
370
    -2
100
AcDbLine
 10
139.1979086054084
 20
160.4128447996252
 30
0.0
 11
139.1979086054084
 21
299.381154735064
 31
0.0
  0
LINE
  5
3458
330
3431
100
AcDbEntity
  8
寸法線
 62
     0
370
    -2
100
AcDbLine
 10
112.1979086054084
 20
90.41284479962531
 30
0.0
 11
112.1979086054084
 21
299.381154735064
 31
0.0
  0
LINE
  5
3459
330
3431
100
AcDbEntity
  8
寸法線
 62
     0
370
    -2
100
AcDbLine
 10
136.1979086054084
 20
296.381154735064
 30
0.0
 11
115.1979086054084
 21
296.381154735064
 31
0.0
  0
INSERT
  5
345A
330
3431
100
AcDbEntity
  8
寸法線
 62
     0
370
    -2
100
AcDbBlockReference
  2
_Closed
 10
139.1979086054084
 20
296.381154735064
 30
0.0
 41
3.0
 42
3.0
 43
3.0
  0
INSERT
  5
345B
330
3431
100
AcDbEntity
  8
寸法線
 62
     0
370
    -2
100
AcDbBlockReference
  2
_Closed
 10
112.1979086054084
 20
296.381154735064
 30
0.0
 41
3.0
 42
3.0
 43
3.0
 50
180.0
  0
MTEXT
  5
345C
330
3431
100
AcDbEntity
  8
寸法線
 62
     0
100
AcDbMText
 10
125.6979086054084
 20
299.8816468610482
 30
0.0
 40
5.0
 41
0.0
 71
     5
 72
     1
  1
27
  7
OKANO
 73
     1
 44
1.0
  0
POINT
  5
345D
330
3431
100
AcDbEntity
  8
Defpoints
 62
     0
100
AcDbPoint
 10
139.1979086054084
 20
158.4128447996253
 30
0.0
  0
POINT
  5
345E
330
3431
100
AcDbEntity
  8
Defpoints
 62
     0
100
AcDbPoint
 10
112.1979086054084
 20
88.4128447996253
 30
0.0
  0
POINT
  5
345F
330
3431
100
AcDbEntity
  8
Defpoints
 62
     0
100
AcDbPoint
 10
112.1979086054084
 20
296.381154735064
 30
0.0
  0
ENDBLK
  5
343C
330
3431
100
AcDbEntity
  8
0
100
AcDbBlockEnd
  0
BLOCK
  5
34D4
330
34CA
100
AcDbEntity
  8
0
100
AcDbBlockBegin
  2
*D11
 70
     1
 10
0.0
 20
0.0
 30
0.0
  3
*D11
  1

  0
LINE
  5
34CB
330
34CA
100
AcDbEntity
  8
寸法線
 62
     0
370
    -2
100
AcDbLine
 10
277.1979086054084
 20
229.4128447996253
 30
0.0
 11
277.1979086054084
 21
211.6246940184648
 31
0.0
  0
LINE
  5
34CC
330
34CA
100
AcDbEntity
  8
寸法線
 62
     0
370
    -2
100
AcDbLine
 10
309.1979086054084
 20
229.4128447996253
 30
0.0
 11
309.1979086054084
 21
211.6246940184648
 31
0.0
  0
LINE
  5
34CD
330
34CA
100
AcDbEntity
  8
寸法線
 62
     0
370
    -2
100
AcDbLine
 10
280.1979086054084
 20
214.6246940184648
 30
0.0
 11
306.1979086054084
 21
214.6246940184648
 31
0.0
  0
INSERT
  5
34CE
330
34CA
100
AcDbEntity
  8
寸法線
 62
     0
370
    -2
100
AcDbBlockReference
  2
_Closed
 10
277.1979086054084
 20
214.6246940184648
 30
0.0
 41
3.0
 42
3.0
 43
3.0
 50
180.0
  0
INSERT
  5
34CF
330
34CA
100
AcDbEntity
  8
寸法線
 62
     0
370
    -2
100
AcDbBlockReference
  2
_Closed
 10
309.1979086054084
 20
214.6246940184648
 30
0.0
 41
3.0
 42
3.0
 43
3.0
  0
MTEXT
  5
34D0
330
34CA
100
AcDbEntity
  8
寸法線
 62
     0
100
AcDbMText
 10
293.1979086054084
 20
218.1251861444491
 30
0.0
 40
5.0
 41
0.0
 71
     5
 72
     1
  1
32
  7
OKANO
 73
     1
 44
1.0
  0
POINT
  5
34D1
330
34CA
100
AcDbEntity
  8
Defpoints
 62
     0
100
AcDbPoint
 10
277.1979086054084
 20
231.4128447996253
 30
0.0
  0
POINT
  5
34D2
330
34CA
100
AcDbEntity
  8
Defpoints
 62
     0
100
AcDbPoint
 10
309.1979086054084
 20
231.4128447996253
 30
0.0
  0
POINT
  5
34D3
330
34CA
100
AcDbEntity
  8
Defpoints
 62
     0
100
AcDbPoint
 10
309.1979086054084
 20
214.6246940184648
 30
0.0
  0
ENDBLK
  5
34D5
330
34CA
100
AcDbEntity
  8
0
100
AcDbBlockEnd
  0
ENDSEC
  0
SECTION
  2
ENTITIES
  0
TEXT
  5
29C2
330
1F
100
AcDbEntity
  8
文字
100
AcDbText
 10
510.5433987944158
 20
-15.21339256613827
 30
0.0
 40
7.199999999999999
  1
joint kogyo T.okano
 51
15.0
  7
OKANO
100
AcDbText
  0
TEXT
  5
29C3
330
1F
100
AcDbEntity
  8
文字
100
AcDbText
 10
499.3109292767205
 20
6.915164694793404
 30
0.0
 40
7.199999999999999
  1
F-999-20050801Auto CAD
 51
15.0
  7
OKANO
100
AcDbText
  0
LINE
  5
29C4
330
1F
100
AcDbEntity
  8
太線
100
AcDbLine
 10
458.1775870042997
 20
5.533953219147875
 30
0.0
 11
620.1775870042998
 21
5.533953219147875
 31
0.0
  0
LWPOLYLINE
  5
29C5
330
1F
100
AcDbEntity
  8
太線
100
AcDbPolyline
 90
        4
 70
     1
 43
0.0
 10
458.1775870042998
 20
18.13395321914787
 10
620.1775870042998
 20
18.13395321914787
 10
620.1775870042998
 20
-19.66604678085212
 10
458.1775870042998
 20
-19.66604678085212
  0
TEXT
  5
29C6
330
1F
100
AcDbEntity
  8
文字
100
AcDbText
 10
463.9861623533859
 20
-6.75631447912815
 30
0.0
 40
3.599999999999999
  1
CHECK
 51
15.0
  7
OKANO
100
AcDbText
  0
LINE
  5
29C7
330
1F
100
AcDbEntity
  8
太線
100
AcDbLine
 10
494.1775870042997
 20
18.13395321914787
 30
0.0
 11
494.1775870042997
 21
-19.66604678085212
 31
0.0
  0
TEXT
  5
29C8
330
1F
100
AcDbEntity
  8
文字
100
AcDbText
 10
463.9861623533859
 20
-17.13545588845188
 30
0.0
 40
3.599999999999999
  1
ISSUED
 51
15.0
  7
OKANO
100
AcDbText
  0
TEXT
  5
29C9
330
1F
100
AcDbEntity
  8
文字
100
AcDbText
 10
464.370934002737
 20
-12.13809160454967
 30
0.0
 40
3.599999999999999
  1
APPR
 51
15.0
  7
OKANO
100
AcDbText
  0
TEXT
  5
29CA
330
1F
100
AcDbEntity
  8
文字
100
AcDbText
 10
461.2927690258573
 20
8.235777487295614
 30
0.0
 40
3.599999999999999
  1
FILM NAME
 51
15.0
  7
OKANO
100
AcDbText
  0
TEXT
  5
29CB
330
1F
100
AcDbEntity
  8
文字
100
AcDbText
 10
463.2166223418554
 20
-1.374538238989593
 30
0.0
 40
3.599999999999999
  1
DRAWN
 51
15.0
  7
OKANO
100
AcDbText
  0
TEXT
  5
29CC
330
1F
100
AcDbEntity
  8
文字
100
AcDbText
 10
509.7738571392994
 20
-4.065426359058871
 30
0.0
 40
7.199999999999999
  1
P-L 90
 51
15.0
  7
OKANO
100
AcDbText
  0
XLINE
  5
2FE7
330
1F
100
AcDbEntity
  8
構築線
100
AcDbXline
 10
1240.750610039276
 20
82.62557587280014
 30
0.0
 11
0.0
 21
-1.0
 31
0.0
  0
ARC
  5
3306
330
1F
100
AcDbEntity
  8
太線
100
AcDbCircle
 10
239.1979086054084
 20
158.4128447996253
 30
0.0
 40
75.5
100
AcDbArc
 50
90.0
 51
180.0
  0
ARC
  5
3307
330
1F
100
AcDbEntity
  8
太線
100
AcDbCircle
 10
239.1979086054084
 20
158.4128447996253
 30
0.0
 40
124.5
100
AcDbArc
 50
90.0
 51
180.0
  0
LINE
  5
330B
330
1F
100
AcDbEntity
  8
太線
100
AcDbLine
 10
269.1979086054084
 20
282.9128447996253
 30
0.0
 11
239.1979086054084
 21
282.9128447996253
 31
0.0
  0
LINE
  5
330C
330
1F
100
AcDbEntity
  8
太線
100
AcDbLine
 10
239.1979086054084
 20
233.9128447996253
 30
0.0
 11
269.1979086054084
 21
233.9128447996253
 31
0.0
  0
LINE
  5
330D
330
1F
100
AcDbEntity
  8
太線
100
AcDbLine
 10
114.6979086054084
 20
158.4128447996253
 30
0.0
 11
114.6979086054084
 21
128.4128447996253
 31
0.0
  0
LINE
  5
330E
330
1F
100
AcDbEntity
  8
太線
100
AcDbLine
 10
163.6979086054084
 20
158.4128447996253
 30
0.0
 11
163.6979086054084
 21
128.4128447996253
 31
0.0
  0
LINE
  5
3314
330
1F
100
AcDbEntity
  8
太線
100
AcDbLine
 10
309.1979086054084
 20
282.9128447996253
 30
0.0
 11
309.1979086054084
 21
231.4128447996253
 31
0.0
  0
LINE
  5
3315
330
1F
100
AcDbEntity
  8
太線
100
AcDbLine
 10
309.1979086054084
 20
231.4128447996253
 30
0.0
 11
277.1979086054084
 21
231.4128447996253
 31
0.0
  0
LINE
  5
3316
330
1F
100
AcDbEntity
  8
太線
100
AcDbLine
 10
309.1979086054084
 20
282.9128447996253
 30
0.0
 11
309.1979086054084
 21
285.4128447996253
 31
0.0
  0
LINE
  5
3317
330
1F
100
AcDbEntity
  8
太線
100
AcDbLine
 10
309.1979086054084
 20
285.4128447996253
 30
0.0
 11
277.1979086054084
 21
285.4128447996253
 31
0.0
  0
LINE
  5
3318
330
1F
100
AcDbEntity
  8
太線
100
AcDbLine
 10
166.1979086054084
 20
120.4128447996253
 30
0.0
 11
166.1979086054084
 21
103.9128447996253
 31
0.0
  0
LINE
  5
3319
330
1F
100
AcDbEntity
  8
太線
100
AcDbLine
 10
166.1979086054084
 20
88.4128447996253
 30
0.0
 11
112.1979086054084
 21
88.4128447996253
 31
0.0
  0
LINE
  5
331A
330
1F
100
AcDbEntity
  8
太線
100
AcDbLine
 10
112.1979086054084
 20
88.4128447996253
 30
0.0
 11
112.1979086054084
 21
120.4128447996253
 31
0.0
  0
LINE
  5
331B
330
1F
100
AcDbEntity
  8
太線
100
AcDbLine
 10
269.1979086054084
 20
282.9128447996253
 30
0.0
 11
277.1979086054084
 21
285.4128447996253
 31
0.0
  0
LINE
  5
331C
330
1F
100
AcDbEntity
  8
太線
100
AcDbLine
 10
269.1979086054084
 20
233.9128447996253
 30
0.0
 11
277.1979086054084
 21
231.4128447996253
 31
0.0
  0
LINE
  5
331D
330
1F
100
AcDbEntity
  8
太線
100
AcDbLine
 10
163.6979086054084
 20
128.4128447996253
 30
0.0
 11
166.1979086054084
 21
120.4128447996253
 31
0.0
  0
LINE
  5
331E
330
1F
100
AcDbEntity
  8
太線
100
AcDbLine
 10
114.6979086054084
 20
128.4128447996253
 30
0.0
 11
112.1979086054084
 21
120.4128447996253
 31
0.0
  0
LINE
  5
331F
330
1F
100
AcDbEntity
  8
太線
100
AcDbLine
 10
269.1979086054084
 20
282.9128447996253
 30
0.0
 11
269.1979086054084
 21
233.9128447996253
 31
0.0
  0
LINE
  5
3320
330
1F
100
AcDbEntity
  8
太線
100
AcDbLine
 10
277.1979086054084
 20
285.4128447996253
 30
0.0
 11
277.1979086054084
 21
231.4128447996253
 31
0.0
  0
LINE
  5
332A
330
1F
100
AcDbEntity
  8
構築線
100
AcDbLine
 10
200.8775430414918
 20
91.21489000005125
 30
0.0
 11
198.4775430414918
 21
99.21489000005124
 31
0.0
  0
LINE
  5
3332
330
1F
100
AcDbEntity
  8
太線
100
AcDbLine
 10
161.2979086054084
 20
154.0455051807668
 30
0.0
 11
161.2979086054084
 21
128.4128447996253
 31
0.0
  0
LINE
  5
3333
330
1F
100
AcDbEntity
  8
太線
100
AcDbLine
 10
161.2979086054084
 20
128.4128447996253
 30
0.0
 11
163.6979086054084
 21
120.4128447996253
 31
0.0
  0
LINE
  5
3334
330
1F
100
AcDbEntity
  8
太線
100
AcDbLine
 10
163.6979086054084
 20
120.4128447996253
 30
0.0
 11
163.6979086054084
 21
88.4128447996253
 31
0.0
  0
LINE
  5
3335
330
1F
100
AcDbEntity
  8
太線
100
AcDbLine
 10
166.1979086054084
 20
103.9128447996253
 30
0.0
 11
167.1979086054084
 21
103.9128447996253
 31
0.0
  0
LINE
  5
3336
330
1F
100
AcDbEntity
  8
太線
100
AcDbLine
 10
167.1979086054084
 20
103.9128447996253
 30
0.0
 11
167.1979086054084
 21
96.91284479962531
 31
0.0
  0
LINE
  5
3337
330
1F
100
AcDbEntity
  8
太線
100
AcDbLine
 10
167.1979086054084
 20
96.91284479962531
 30
0.0
 11
166.1979086054084
 21
96.91284479962531
 31
0.0
  0
LINE
  5
3338
330
1F
100
AcDbEntity
  8
破線
100
AcDbLine
 10
163.6979086054084
 20
102.9128447996253
 30
0.0
 11
167.1979086054084
 21
102.9128447996253
 31
0.0
  0
LINE
  5
3339
330
1F
100
AcDbEntity
  8
破線
100
AcDbLine
 10
163.6979086054084
 20
97.91284479962531
 30
0.0
 11
167.1979086054084
 21
97.91284479962531
 31
0.0
  0
LINE
  5
333A
330
1F
100
AcDbEntity
  8
破線
100
AcDbLine
 10
163.6979086054084
 20
103.4128447996253
 30
0.0
 11
167.1979086054084
 21
103.4128447996253
 31
0.0
  0
LINE
  5
333B
330
1F
100
AcDbEntity
  8
破線
100
AcDbLine
 10
163.6979086054084
 20
97.4128447996253
 30
0.0
 11
167.1979086054084
 21
97.4128447996253
 31
0.0
  0
SPLINE
  5
333C
330
1F
100
AcDbEntity
  8
太線
100
AcDbSpline
210
0.0
220
0.0
230
1.0
 70
     8
 71
     3
 72
    12
 73
     8
 74
     0
 42
0.0000000001
 43
0.0000000001
 40
8.411742059790206
 40
8.411742059790206
 40
8.411742059790206
 40
8.411742059790206
 40
13.10093237311641
 40
32.69217266458832
 40
47.09834114280529
 40
62.80895162544782
 40
87.62472632358628
 40
87.62472632358628
 40
87.62472632358628
 40
87.62472632358628
 10
145.4222791326674
 20
88.4128447996253
 30
0.0
 10
145.5438774862237
 20
89.97308867410476
 30
0.0
 10
145.5377874464247
 20
98.13915578651597
 30
0.0
 10
137.3595212232795
 20
112.2706754888592
 30
0.0
 10
155.781274507119
 20
123.4614768249917
 30
0.0
 10
144.2555351985563
 20
144.3740179289374
 30
0.0
 10
154.6805344922141
 20
152.318020118074
 30
0.0
 10
163.6979086054092
 20
156.1410258946119
 30
0.0
  0
SPLINE
  5
333D
330
1F
100
AcDbEntity
  8
太線
100
AcDbSpline
210
0.0
220
0.0
230
1.0
 70
     8
 71
     3
 72
    12
 73
     8
 74
     0
 42
0.0000000001
 43
0.0000000001
 40
8.640609002791801
 40
8.640609002791801
 40
8.640609002791801
 40
8.640609002791801
 40
13.10093237311641
 40
32.69217266458832
 40
47.09834114280529
 40
62.80895162544782
 40
83.7632404042006
 40
83.7632404042006
 40
83.7632404042006
 40
83.7632404042006
 10
147.040540317934
 20
88.41284479962533
 30
0.0
 10
147.1446490379995
 20
89.89852205315537
 30
0.0
 10
147.0907473206121
 20
97.99418124447177
 30
0.0
 10
138.9608630910748
 20
112.0420999637639
 30
0.0
 10
157.3826163749143
 20
123.2329012998965
 30
0.0
 10
146.6670793432529
 20
142.6753945427369
 30
0.0
 10
154.4670668388058
 20
150.5076356560106
 30
0.0
 10
161.2979086054116
 20
154.0455051807606
 30
0.0
  0
LINE
  5
333E
330
1F
100
AcDbEntity
  8
太線
100
AcDbLine
 10
166.1979086054084
 20
96.91284479962531
 30
0.0
 11
166.1979086054084
 21
88.4128447996253
 31
0.0
  0
LINE
  5
333F
330
1F
100
AcDbEntity
  8
太線
100
AcDbLine
 10
151.5761486585659
 20
128.4128447996253
 30
0.0
 11
114.6979086054084
 21
128.4128447996253
 31
0.0
  0
LINE
  5
3340
330
1F
100
AcDbEntity
  8
太線
100
AcDbLine
 10
149.0716309998314
 20
120.4128447996253
 30
0.0
 11
112.1979086054084
 21
120.4128447996253
 31
0.0
  0
LINE
  5
3342
330
1F
100
AcDbEntity
  8
太線
100
AcDbLine
 10
161.2646251426306
 20
128.308142806026
 30
0.0
 11
163.72050634142
 21
128.308142806026
 31
0.0
  0
LINE
  5
3343
330
1F
100
AcDbEntity
  8
太線
100
AcDbLine
 10
163.5450870667396
 20
120.5959744924584
 30
0.0
 11
165.825547098638
 21
120.5959744924584
 31
0.0
  0
LINE
  5
3348
330
1F
100
AcDbEntity
  8
太線
100
AcDbLine
 10
175.4419792301589
 20
103.4128447996253
 30
0.0
 11
175.4419792301589
 21
97.4128447996253
 31
0.0
  0
LINE
  5
334B
330
1F
100
AcDbEntity
  8
太線
100
AcDbLine
 10
175.4419792301589
 20
103.4128447996253
 30
0.0
 11
181.4419792301589
 21
103.4128447996253
 31
0.0
  0
LINE
  5
334C
330
1F
100
AcDbEntity
  8
太線
100
AcDbLine
 10
181.4419792301589
 20
103.4128447996253
 30
0.0
 11
181.4419792301589
 21
105.4128447996253
 31
0.0
  0
LINE
  5
334D
330
1F
100
AcDbEntity
  8
太線
100
AcDbLine
 10
181.4419792301589
 20
105.4128447996253
 30
0.0
 11
183.4419792301589
 21
105.4128447996253
 31
0.0
  0
LINE
  5
334E
330
1F
100
AcDbEntity
  8
太線
100
AcDbLine
 10
184.4419792301589
 20
104.4128447996253
 30
0.0
 11
184.441979230159
 21
96.41284479962529
 31
0.0
  0
LINE
  5
334F
330
1F
100
AcDbEntity
  8
太線
100
AcDbLine
 10
183.441979230159
 20
95.41284479962529
 30
0.0
 11
181.4419792301589
 21
95.41284479962531
 31
0.0
  0
LINE
  5
3350
330
1F
100
AcDbEntity
  8
太線
100
AcDbLine
 10
181.4419792301589
 20
95.41284479962531
 30
0.0
 11
181.4419792301589
 21
97.4128447996253
 31
0.0
  0
LINE
  5
3351
330
1F
100
AcDbEntity
  8
太線
100
AcDbLine
 10
181.4419792301589
 20
97.4128447996253
 30
0.0
 11
175.4419792301589
 21
97.4128447996253
 31
0.0
  0
LINE
  5
3354
330
1F
100
AcDbEntity
  8
太線
100
AcDbLine
 10
181.4419792301589
 20
103.4128447996253
 30
0.0
 11
181.4419792301589
 21
97.4128447996253
 31
0.0
  0
LINE
  5
3355
330
1F
100
AcDbEntity
  8
細線
100
AcDbLine
 10
181.4419792301589
 20
102.9128447996253
 30
0.0
 11
175.4419792301589
 21
102.9128447996253
 31
0.0
  0
LINE
  5
3356
330
1F
100
AcDbEntity
  8
細線
100
AcDbLine
 10
181.4419792301589
 20
97.91284479962531
 30
0.0
 11
175.4419792301589
 21
97.91284479962531
 31
0.0
  0
LINE
  5
3357
330
1F
100
AcDbEntity
  8
太線
100
AcDbLine
 10
184.4691776581555
 20
99.7404607937333
 30
0.0
 11
183.6343069390336
 21
100.3958942875396
 31
0.0
  0
LINE
  5
3358
330
1F
100
AcDbEntity
  8
太線
100
AcDbLine
 10
183.6343069390336
 20
100.3958942875396
 30
0.0
 11
184.4691776581555
 21
100.9321576949985
 31
0.0
  0
ARC
  5
3359
330
1F
100
AcDbEntity
  8
太線
100
AcDbCircle
 10
183.4419792301589
 20
104.4128447996253
 30
0.0
 40
1.0
100
AcDbArc
 50
0.0000000000001781
 51
90.0000000000003
  0
ARC
  5
335A
330
1F
100
AcDbEntity
  8
太線
100
AcDbCircle
 10
183.441979230159
 20
96.41284479962529
 30
0.0
 40
1.0
100
AcDbArc
 50
270.0
 51
0.0000000000003817
  0
CIRCLE
  5
3360
330
1F
100
AcDbEntity
  8
太線
100
AcDbCircle
 10
473.1126100061579
 20
258.4128447996253
 30
0.0
 40
26.5
  0
CIRCLE
  5
3361
330
1F
100
AcDbEntity
  8
太線
100
AcDbCircle
 10
473.1126100061579
 20
258.4128447996253
 30
0.0
 40
24.5
  0
LINE
  5
3362
330
1F
100
AcDbEntity
  8
太線
100
AcDbLine
 10
497.6126100061578
 20
248.3133398612632
 30
0.0
 11
497.6126100061578
 21
128.4128447996253
 31
0.0
  0
LINE
  5
3363
330
1F
100
AcDbEntity
  8
太線
100
AcDbLine
 10
448.6126100061579
 20
248.3133398612632
 30
0.0
 11
448.6126100061579
 21
128.4128447996253
 31
0.0
  0
LINE
  5
3364
330
1F
100
AcDbEntity
  8
太線
100
AcDbLine
 10
446.6126100061578
 20
120.4128447996253
 30
0.0
 11
446.6126100061578
 21
88.41284479962528
 31
0.0
  0
LINE
  5
3365
330
1F
100
AcDbEntity
  8
太線
100
AcDbLine
 10
446.6126100061578
 20
88.41284479962528
 30
0.0
 11
499.6126100061578
 21
88.4128447996253
 31
0.0
  0
LINE
  5
3366
330
1F
100
AcDbEntity
  8
太線
100
AcDbLine
 10
499.6126100061578
 20
88.4128447996253
 30
0.0
 11
499.6126100061578
 21
120.4128447996253
 31
0.0
  0
LINE
  5
3367
330
1F
100
AcDbEntity
  8
太線
100
AcDbLine
 10
448.6126100061579
 20
128.4128447996253
 30
0.0
 11
446.6126100061578
 21
120.4128447996253
 31
0.0
  0
LINE
  5
3368
330
1F
100
AcDbEntity
  8
太線
100
AcDbLine
 10
497.6126100061578
 20
128.4128447996253
 30
0.0
 11
499.6126100061578
 21
120.4128447996253
 31
0.0
  0
LINE
  5
3369
330
1F
100
AcDbEntity
  8
太線
100
AcDbLine
 10
448.6126100061579
 20
128.4128447996253
 30
0.0
 11
497.6126100061578
 21
128.4128447996253
 31
0.0
  0
LINE
  5
336A
330
1F
100
AcDbEntity
  8
太線
100
AcDbLine
 10
446.6126100061578
 20
120.4128447996253
 30
0.0
 11
499.6126100061578
 21
120.4128447996253
 31
0.0
  0
ARC
  5
3372
330
1F
100
AcDbEntity
  8
太線
100
AcDbCircle
 10
473.1126100061579
 20
258.4128447996253
 30
0.0
 40
27.93496613046308
100
AcDbArc
 50
284.8655264620698
 51
295.1344735379303
  0
LINE
  5
3373
330
1F
100
AcDbEntity
  8
太線
100
AcDbLine
 10
484.977825004085
 20
233.1229455162536
 30
0.0
 11
484.4849526510105
 21
234.4771011769996
 31
0.0
  0
LINE
  5
3374
330
1F
100
AcDbEntity
  8
太線
100
AcDbLine
 10
480.2793619001555
 20
231.4128447996253
 30
0.0
 11
479.786489547081
 21
232.7670004603713
 31
0.0
  0
LINE
  5
3375
330
1F
100
AcDbEntity
  8
細線
100
AcDbLine
 10
466.3989821754263
 20
234.850646231783
 30
0.0
 11
465.7133228443853
 21
232.9668127023094
 31
0.0
  0
LINE
  5
3376
330
1F
100
AcDbEntity
  8
細線
100
AcDbLine
 10
463.1100580026756
 20
236.0477167334229
 30
0.0
 11
462.4243986716346
 21
234.1638832039492
 31
0.0
  0
CIRCLE
  5
3378
330
1F
100
AcDbEntity
  8
太線
100
AcDbCircle
 10
297.1979086054084
 20
233.9128447996253
 30
0.0
 40
1.557667406115594
  0
CIRCLE
  5
337B
330
1F
100
AcDbEntity
  8
太線
100
AcDbCircle
 10
482.2940385829854
 20
100.4128447996253
 30
0.0
 40
3.5
  0
CIRCLE
  5
337C
330
1F
100
AcDbEntity
  8
太線
100
AcDbCircle
 10
464.3662434251812
 20
100.4128447996253
 30
0.0
 40
2.5
  0
CIRCLE
  5
337D
330
1F
100
AcDbEntity
  8
太線
100
AcDbCircle
 10
482.2940385829854
 20
100.4128447996253
 30
0.0
 40
2.5
  0
LINE
  5
337E
330
1F
100
AcDbEntity
  8
太線
100
AcDbLine
 10
486.9439121854819
 20
230.6266018491698
 30
0.0
 11
479.3538950481568
 21
228.0984325796956
 31
0.0
  0
LINE
  5
337F
330
1F
100
AcDbEntity
  8
太線
100
AcDbLine
 10
482.8775802488888
 20
230.1234413103359
 30
0.0
 11
483.6501981174889
 21
229.5008265105227
 31
0.0
  0
LINE
  5
3380
330
1F
100
AcDbEntity
  8
太線
100
AcDbLine
 10
485.0470965672633
 20
233.1568371169822
 30
0.0
 11
479.3545837142697
 21
231.2607101648767
 31
0.0
  0
LINE
  5
3381
330
1F
100
AcDbEntity
  8
太線
100
AcDbLine
 10
483.1509696151581
 20
238.849349969976
 30
0.0
 11
477.4584567621642
 21
236.9532230178705
 31
0.0
  0
LINE
  5
3382
330
1F
100
AcDbEntity
  8
細線
100
AcDbLine
 10
479.8289597853525
 20
231.4187207442188
 30
0.0
 11
479.4114006864983
 21
232.6723079760613
 31
0.0
  0
LINE
  5
3383
330
1F
100
AcDbEntity
  8
太線
100
AcDbLine
 10
479.3545837142697
 20
231.2607101648767
 30
0.0
 11
478.9226028228917
 21
232.5575942019323
 31
0.0
  0
LINE
  5
3384
330
1F
100
AcDbEntity
  8
太線
100
AcDbLine
 10
478.0891217473069
 20
228.731163563177
 30
0.0
 11
477.4570794299385
 21
230.6286678475082
 31
0.0
  0
ARC
  5
3385
330
1F
100
AcDbEntity
  8
太線
100
AcDbCircle
 10
479.0378738894725
 20
229.0471847218613
 30
0.0
 40
1.0
100
AcDbArc
 50
198.4224712145922
 51
288.4224712145926
  0
LINE
  5
3386
330
1F
100
AcDbEntity
  8
太線
100
AcDbLine
 10
482.5195731296012
 20
229.1242250749846
 30
0.0
 11
482.8775802488888
 21
230.1234413103359
 31
0.0
  0
LINE
  5
3387
330
1F
100
AcDbEntity
  8
太線
100
AcDbLine
 10
477.4570794299385
 20
230.6286678475082
 30
0.0
 11
479.3545837142697
 21
231.2607101648767
 31
0.0
  0
LINE
  5
3388
330
1F
100
AcDbEntity
  8
細線
100
AcDbLine
 10
484.5727204961807
 20
232.9988265376401
 30
0.0
 11
484.1347097321019
 21
234.3138133329596
 31
0.0
  0
LINE
  5
3389
330
1F
100
AcDbEntity
  8
太線
100
AcDbLine
 10
483.1509696151581
 20
238.849349969976
 30
0.0
 11
483.9529768105747
 21
236.4415806679078
 31
0.0
  0
LINE
  5
338A
330
1F
100
AcDbEntity
  8
太線
100
AcDbLine
 10
486.9446008515946
 20
233.7888794343507
 30
0.0
 11
487.5766431689633
 21
231.8913751500195
 31
0.0
  0
ARC
  5
338B
330
1F
100
AcDbEntity
  8
太線
100
AcDbCircle
 10
486.6278910267975
 20
231.5753539913353
 30
0.0
 40
1.0
100
AcDbArc
 50
288.4224712145924
 51
18.42247121459253
  0
LINE
  5
338C
330
1F
100
AcDbEntity
  8
太線
100
AcDbLine
 10
485.0470965672633
 20
233.1568371169822
 30
0.0
 11
486.9446008515946
 21
233.7888794343507
 31
0.0
  0
LINE
  5
338D
330
1F
100
AcDbEntity
  8
太線
100
AcDbLine
 10
484.5905250323901
 20
234.5275466718942
 30
0.0
 11
485.0470965672633
 21
233.1568371169822
 31
0.0
  0
LINE
  5
338E
330
1F
100
AcDbEntity
  8
細線
100
AcDbLine
 10
483.4987004118937
 20
236.2232272706122
 30
0.0
 11
482.6765935440752
 21
238.6913393906339
 31
0.0
  0
LINE
  5
338F
330
1F
100
AcDbEntity
  8
太線
100
AcDbLine
 10
478.2870917850555
 20
234.4655122066233
 30
0.0
 11
477.4584567621642
 21
236.9532230178705
 31
0.0
  0
LINE
  5
3390
330
1F
100
AcDbEntity
  8
細線
100
AcDbLine
 10
478.7770781118224
 20
234.5766580013996
 30
0.0
 11
477.932832833247
 21
237.1112335972127
 31
0.0
  0
ARC
  5
3391
330
1F
100
AcDbEntity
  8
想像線
100
AcDbCircle
 10
239.1979086054084
 20
158.4128447996253
 30
0.0
 40
100.0
100
AcDbArc
 50
90.0
 51
180.0
  0
LINE
  5
3393
330
1F
100
AcDbEntity
  8
想像線
100
AcDbLine
 10
309.1979086054084
 20
258.4128447996253
 30
0.0
 11
239.1979086054084
 21
258.4128447996253
 31
0.0
  0
LINE
  5
3394
330
1F
100
AcDbEntity
  8
想像線
100
AcDbLine
 10
139.1979086054084
 20
158.4128447996253
 30
0.0
 11
139.1979086054084
 21
88.4128447996253
 31
0.0
  0
LINE
  5
3395
330
1F
100
AcDbEntity
  8
想像線
100
AcDbLine
 10
239.1979086054084
 20
258.4128447996253
 30
0.0
 11
239.1979086054084
 21
158.4128447996253
 31
0.0
  0
LINE
  5
3396
330
1F
100
AcDbEntity
  8
想像線
100
AcDbLine
 10
239.1979086054084
 20
158.4128447996253
 30
0.0
 11
139.1979086054084
 21
158.4128447996253
 31
0.0
  0
LINE
  5
3398
330
1F
100
AcDbEntity
  8
破線
100
AcDbLine
 10
493.1907673908808
 20
203.2485607608427
 30
0.0
 11
473.1126100061579
 21
258.4128447996253
 31
0.0
  0
LINE
  5
3399
330
1F
100
AcDbEntity
  8
破線
100
AcDbLine
 10
473.1126100061579
 20
258.4128447996253
 30
0.0
 11
453.0344526214348
 21
203.2485607608427
 31
0.0
  0
DIMENSION
  5
33A8
330
1F
100
AcDbEntity
  8
寸法線
100
AcDbDimension
  2
*D2
 10
253.8803250897285
 20
158.4128447996253
 30
0.0
 11
250.3803250897285
 21
208.4128447996253
 31
0.0
 70
    32
 71
     5
 42
100.0
  3
sunpo
100
AcDbAlignedDimension
 13
239.1979086054084
 23
258.4128447996253
 33
0.0
 14
239.1979086054084
 24
158.4128447996253
 34
0.0
 50
90.0
100
AcDbRotatedDimension
1001
ACAD
1000
DSTYLE
1002
{
1070
    40
1040
1.0
1002
}
  0
DIMENSION
  5
33B5
330
1F
100
AcDbEntity
  8
寸法線
100
AcDbDimension
  2
*D3
 10
139.1979086054084
 20
158.4128447996253
 30
0.0
 11
212.2232646867224
 21
185.3874887183113
 31
0.0
 70
    34
 71
     5
 42
1.570796326794895
  3
sunpo
100
AcDb2LineAngularDimension
 13
239.1979086054084
 23
258.4128447996253
 33
0.0
 14
239.1979086054084
 24
158.4128447996253
 34
0.0
 15
239.1979086054084
 25
158.4128447996253
 35
0.0
 16
221.8745591691877
 26
188.4177661804293
 36
0.0
1001
ACAD
1000
DSTYLE
1002
{
1070
    40
1040
1.0
1002
}
  0
DIMENSION
  5
33C2
330
1F
100
AcDbEntity
  8
寸法線
100
AcDbDimension
  2
*D4
 10
514.386262662
 20
100.4128447996253
 30
0.0
 11
510.8857705360158
 21
94.41284479962538
 31
0.0
 70
    32
 71
     5
 42
12.0
  3
sunpo
100
AcDbAlignedDimension
 13
499.6126100061578
 23
88.4128447996253
 33
0.0
 14
482.2940385829854
 24
100.4128447996253
 34
0.0
 50
90.0
100
AcDbRotatedDimension
1001
ACAD
1000
DSTYLE
1002
{
1070
    40
1040
1.0
1002
}
  0
DIMENSION
  5
33CF
330
1F
100
AcDbEntity
  8
寸法線
100
AcDbDimension
  2
*D5
 10
473.1126100061579
 20
258.4128447996253
 30
0.0
 11
473.1126100061579
 21
208.3933466967809
 31
0.0
 70
    34
 71
     5
 42
0.6981317007977311
  3
sunpo
100
AcDb2LineAngularDimension
 13
473.1126100061579
 23
258.4128447996253
 33
0.0
 14
453.0344526214348
 24
203.2485607608427
 34
0.0
 15
493.1907673908808
 25
203.2485607608427
 35
0.0
 16
466.899375508879
 26
205.2552263967831
 36
0.0
1001
ACAD
1000
DSTYLE
1002
{
1070
    40
1040
1.0
1002
}
  0
DIMENSION
  5
33DC
330
1F
100
AcDbEntity
  8
寸法線
100
AcDbDimension
  2
*D6
 10
499.6650909814412
 20
303.594845755391
 30
0.0
 11
473.0146944968864
 21
307.094845755391
 31
0.0
 70
    32
  1
54
 71
     5
 42
53.30079296910935
  3
sunpo
100
AcDbAlignedDimension
 13
446.3642980123317
 23
257.4386118071171
 33
0.0
 14
499.6650909814412
 24
257.4386118071171
 34
0.0
100
AcDbRotatedDimension
1001
ACAD
1000
DSTYLE
1002
{
1070
    40
1040
1.0
1002
}
  0
DIMENSION
  5
33E9
330
1F
100
AcDbEntity
  8
寸法線
100
AcDbDimension
  2
*D7
 10
497.2594695838447
 20
293.7038996239647
 30
0.0
 11
473.0473898174119
 21
297.2038996239647
 31
0.0
 70
    32
  1
49
 71
     5
 42
48.42415953286558
  3
sunpo
100
AcDbAlignedDimension
 13
448.8353100509791
 23
258.4469428865032
 33
0.0
 14
497.2594695838447
 24
258.4469428865032
 34
0.0
100
AcDbRotatedDimension
1001
ACAD
1000
DSTYLE
1002
{
1070
    40
1040
1.0
1002
}
  0
CIRCLE
  5
33F6
330
1F
100
AcDbEntity
  8
太線
100
AcDbCircle
 10
473.1126100061579
 20
258.4128447996253
 30
0.0
 40
22.53853815013667
  0
DIMENSION
  5
3416
330
1F
100
AcDbEntity
  8
寸法線
100
AcDbDimension
  2
*D8
 10
239.1979086054084
 20
296.381154735064
 30
0.0
 11
274.1979086054084
 21
299.881154735064
 31
0.0
 70
    32
 71
     5
 42
70.0
  3
sunpo
100
AcDbAlignedDimension
 13
309.1979086054084
 23
285.4128447996253
 33
0.0
 14
239.1979086054084
 24
258.4128447996253
 34
0.0
100
AcDbRotatedDimension
1001
ACAD
1000
DSTYLE
1002
{
1070
    40
1040
1.0
1002
}
  0
DIMENSION
  5
3423
330
1F
100
AcDbEntity
  8
寸法線
100
AcDbDimension
  2
*D9
 10
139.1979086054084
 20
296.381154735064
 30
0.0
 11
189.1979086054084
 21
299.881154735064
 31
0.0
 70
    32
 71
     5
 42
99.99999999999998
  3
sunpo
100
AcDbAlignedDimension
 13
239.1979086054084
 23
258.4128447996253
 33
0.0
 14
139.1979086054084
 24
158.4128447996253
 34
0.0
100
AcDbRotatedDimension
1001
ACAD
1000
DSTYLE
1002
{
1070
    40
1040
1.0
1070
   279
1070
     1
1002
}
  0
DIMENSION
  5
3430
330
1F
100
AcDbEntity
  8
寸法線
100
AcDbDimension
  2
*D10
 10
112.1979086054084
 20
296.381154735064
 30
0.0
 11
125.6979086054084
 21
299.8816468610482
 31
0.0
 70
    32
 71
     5
 42
27.00000000000002
  3
sunpo
100
AcDbAlignedDimension
 13
139.1979086054084
 23
158.4128447996253
 33
0.0
 14
112.1979086054084
 24
88.4128447996253
 34
0.0
100
AcDbRotatedDimension
1001
ACAD
1000
DSTYLE
1002
{
1070
    40
1040
1.0
1070
   279
1070
     1
1002
}
  0
LEADER
  5
343D
330
1F
100
AcDbEntity
  8
寸法線
100
AcDbLeader
  3
sunpo
 76
     2
 10
464.3662434251812
 20
100.4128447996253
 30
0.0
 10
435.8535037377789
 20
73.91821815065179
 30
0.0
1001
ACAD
1000
DSTYLE
1002
{
1070
   147
1040
1.0
1070
    77
1070
     0
1002
}
  0
TEXT
  5
343E
330
1F
100
AcDbEntity
  8
文字
100
AcDbText
 10
435.2262789503836
 20
67.02439374755124
 30
0.0
 40
7.199999999999999
  1
φ3.5mm
 51
15.0
  7
OKANO
100
AcDbText
  0
TEXT
  5
3440
330
1F
100
AcDbEntity
  8
寸法線
100
AcDbText
 10
183.8496839335178
 20
117.7880063248037
 30
0.0
 40
7.199999999999999
  1
バーリング加工(Burring)
 51
15.0
  7
OKANO
100
AcDbText
  0
TEXT
  5
3441
330
1F
100
AcDbEntity
  8
寸法線
100
AcDbText
 10
197.6486199163593
 20
97.10653443623881
 30
0.0
 40
7.199999999999999
  1
ビス　5-6mm　SUS(304)
 51
15.0
  7
OKANO
100
AcDbText
  0
LEADER
  5
3442
330
1F
100
AcDbEntity
  8
寸法線
100
AcDbLeader
  3
sunpo
 76
     2
 10
167.5418511360583
 20
105.8804924672903
 30
0.0
 10
186.9858055355305
 20
117.1612948953639
 30
0.0
1001
ACAD
1000
DSTYLE
1002
{
1070
   147
1040
1.0
1070
    77
1070
     0
1002
}
  0
TEXT
  5
34BA
330
1F
100
AcDbEntity
  8
寸法線
100
AcDbText
 10
197.6486199163593
 20
73.2915064651703
 30
0.0
 40
7.199999999999999
  1
重量　780g
 51
15.0
  7
OKANO
100
AcDbText
  0
TEXT
  5
34BC
330
1F
100
AcDbEntity
  8
文字
100
AcDbText
 10
91.88457292001658
 20
397.1723179736288
 30
0.0
 40
7.199999999999999
  1
材料　一般構造用炭素鋼管　JIS G 3444 STK
 51
15.0
  7
OKANO
100
AcDbText
  0
TEXT
  5
34BE
330
1F
100
AcDbEntity
  8
文字
100
AcDbText
 10
91.88457292001658
 20
382.7579590807124
 30
0.0
 40
7.199999999999999
  1
規格　足場・単管ハイプ　丸一鋼管製を使用
 51
15.0
  7
OKANO
100
AcDbText
  0
TEXT
  5
34BF
330
1F
100
AcDbEntity
  8
文字
100
AcDbText
 10
91.88457292001658
 20
366.4634665138648
 30
0.0
 40
7.199999999999999
  1
40.A 外径　48.6mm  肉厚2.4mm　ドブメッキ
 51
15.0
  7
OKANO
100
AcDbText
  0
TEXT
  5
34C0
330
1F
100
AcDbEntity
  8
文字
100
AcDbText
 10
91.88457292001658
 20
352.6758192086479
 30
0.0
 40
7.199999999999999
  1
切断面、塗装処理
 51
15.0
  7
OKANO
100
AcDbText
  0
DIMENSION
  5
34C9
330
1F
100
AcDbEntity
  8
寸法線
100
AcDbDimension
  2
*D11
 10
309.1979086054084
 20
214.6246940184648
 30
0.0
 11
293.1979086054084
 21
218.1251861444491
 31
0.0
 70
    32
 71
     5
 42
32.0
  3
sunpo
100
AcDbAlignedDimension
 13
277.1979086054084
 23
231.4128447996253
 33
0.0
 14
309.1979086054084
 24
231.4128447996253
 34
0.0
100
AcDbRotatedDimension
1001
ACAD
1000
DSTYLE
1002
{
1070
    40
1040
1.0
1002
}
  0
VIEWPORT
  5
2E
330
1B
100
AcDbEntity
 67
     1
  8
0
100
AcDbViewport
 10
252.5506615012814
 20
81.05992233579838
 30
0.0
 40
563.4455686352281
 41
286.1757261139936
 68
     2
 69
     1
 12
252.5506615012814
 22
81.05992233579838
 13
0.0
 23
0.0
 14
10.0
 24
10.0
 15
10.0
 25
10.0
 16
0.0
 26
0.0
 36
1.0
 17
0.0
 27
0.0
 37
0.0
 42
50.0
 43
0.0
 44
0.0
 45
286.1757261139936
 50
0.0
 51
0.0
 72
   100
 90
    32800
  1

281
     0
 71
     1
 74
     0
110
0.0
120
0.0
130
0.0
111
1.0
121
0.0
131
0.0
112
0.0
122
1.0
132
0.0
 79
     0
146
0.0
  0
VIEWPORT
  5
30
330
1B
100
AcDbEntity
 67
     1
  8
70-0-CON
100
AcDbViewport
 10
141.8594093064315
 20
100.3480256368386
 30
0.0
 40
261.6199023344245
 41
192.6196987113174
 68
     1
 69
     2
 12
324.9212079211543
 22
200.086126090263
 13
0.0
 23
0.0
 14
5.0
 24
5.0
 15
10.0
 25
10.0
 16
0.0
 26
0.0
 36
1.0
 17
0.0
 27
0.0
 37
0.0
 42
50.0
 43
0.0
 44
0.0
 45
475.1347788005254
 50
0.0
 51
0.0
 72
   100
 90
    32864
  1

281
     0
 71
     1
 74
     0
110
0.0
120
0.0
130
0.0
111
1.0
121
0.0
131
0.0
112
0.0
122
1.0
132
0.0
 79
     0
146
0.0
  0
LWPOLYLINE
  5
45
330
1B
100
AcDbEntity
 67
     1
  8
50-0-CON
100
AcDbPolyline
 90
        4
 70
     1
 43
0.0
 10
11.04945813921926
 20
4.038176281179858
 10
272.2125713060605
 20
4.033520706629644
 10
273.4987754093466
 20
195.9297862125246
 10
11.04945813921926
 20
196.6578749924973
  0
LINE
  5
4A
330
1B
100
AcDbEntity
 67
     1
  8
50-0-CON
100
AcDbLine
 10
10.38768783662635
 20
100.3480256368386
 30
0.0
 11
-4.391850629656119
 21
100.3480256368386
 31
0.0
  0
LINE
  5
4B
330
1B
100
AcDbEntity
 67
     1
  8
50-0-CON
100
AcDbLine
 10
141.8594093064315
 20
197.098652626247
 30
0.0
 11
141.8594093064315
 21
202.387980773708
 31
0.0
  0
LINE
  5
4C
330
1B
100
AcDbEntity
 67
     1
  8
50-0-CON
100
AcDbLine
 10
272.4487699456857
 20
100.7888032705883
 30
0.0
 11
278.8458837249377
 21
100.7888032705883
 31
0.0
  0
LINE
  5
4D
330
1B
100
AcDbEntity
 67
     1
  8
50-0-CON
100
AcDbLine
 10
140.9770484758805
 20
4.038176281179858
 30
0.0
 11
140.9770484758805
 21
-3.455038652015446
 31
0.0
  0
ENDSEC
  0
SECTION
  2
OBJECTS
  0
DICTIONARY
  5
C
330
0
100
AcDbDictionary
281
     1
  3
ACAD_GROUP
350
D
  3
ACAD_LAYOUT
350
1A
  3
ACAD_MLINESTYLE
350
17
  3
ACAD_PLOTSETTINGS
350
19
  3
ACAD_PLOTSTYLENAME
350
E
  3
AcadDim
350
31FC
  3
AcDbVariableDictionary
350
6AD
  3
DWGPROPS
350
30F
  0
DICTIONARY
  5
D
102
{ACAD_REACTORS
330
C
102
}
330
C
100
AcDbDictionary
281
     1
  0
DICTIONARY
  5
1A
102
{ACAD_REACTORS
330
C
102
}
330
C
100
AcDbDictionary
281
     1
  3
A4
350
1E
  3
Model
350
22
  0
DICTIONARY
  5
17
102
{ACAD_REACTORS
330
C
102
}
330
C
100
AcDbDictionary
281
     1
  3
Standard
350
18
  0
DICTIONARY
  5
19
102
{ACAD_REACTORS
330
C
102
}
330
C
100
AcDbDictionary
281
     1
  0
ACDBDICTIONARYWDFLT
  5
E
102
{ACAD_REACTORS
330
C
102
}
330
C
100
AcDbDictionary
281
     1
  3
Normal
350
F
100
AcDbDictionaryWithDefault
340
F
  0
XRECORD
  5
31FC
102
{ACAD_REACTORS
330
C
102
}
330
C
100
AcDbXrecord
280
     1
 90
   990106
  3

 60
     0
 61
     0
 62
     1
 63
     3
 64
     0
 65
     0
 66
     0
 67
     3
 68
     1
 69
     0
 70
     0
 71
     0
 72
     0
 40
0.0
170
     0
  0
DICTIONARY
  5
6AD
102
{ACAD_REACTORS
330
C
102
}
330
C
100
AcDbDictionary
281
     1
  3
SORTENTS
350
6AE
  0
XRECORD
  5
30F
102
{ACAD_REACTORS
330
C
102
}
330
C
100
AcDbXrecord
280
     1
  1
DWGPROPS COOKIE
  2

  3

  4

  6

  7

  8

  9

300
=
301
=
302
=
303
=
304
=
305
=
306
=
307
=
308
=
309
=
 40
0.3303803125
 41
2452362.482225463
 42
2452370.969861285
  1

 90
        0
  0
LAYOUT
  5
1E
102
{ACAD_REACTORS
330
1A
102
}
330
1A
100
AcDbPlotSettings
  1

  2
EPSON PM-920C
  4
A4
  6

 40
3.757083177566528
 41
14.7637300491333
 42
3.757080078125
 43
3.757080078125
 44
209.9733276367187
 45
296.9683227539062
 46
0.0
 47
0.0
 48
0.0
 49
0.0
140
0.0
141
0.0
142
1.0
143
1.0
 70
   688
 72
     1
 73
     1
 74
     5
  7
joint.ctb
 75
    16
147
1.0
148
0.0
149
0.0
100
AcDbLayout
  1
A4
 70
     1
 71
     1
 10
-3.757080078125
 20
-3.757083177566528
 11
293.2112426757812
 21
206.2162444591522
 12
0.0
 22
0.0
 32
0.0
 14
-4.391850629656119
 24
-3.455038652015446
 34
0.0
 15
278.8458837249377
 25
202.387980773708
 35
0.0
146
0.0
 13
0.0
 23
0.0
 33
0.0
 16
1.0
 26
0.0
 36
0.0
 17
0.0
 27
1.0
 37
0.0
 76
     0
330
1B
331
30
  0
LAYOUT
  5
22
102
{ACAD_REACTORS
330
1A
102
}
330
1A
100
AcDbPlotSettings
  1

  2
EPSON PM-920C
  4
A4
  6

 40
3.757083177566528
 41
14.7637300491333
 42
3.757080078125
 43
3.757080078125
 44
209.9733276367187
 45
296.9683227539062
 46
0.0
 47
0.0
 48
0.0
 49
0.0
140
0.0
141
0.0
142
1.0
143
1.0
 70
 11952
 72
     1
 73
     1
 74
     0
  7

 75
     0
147
1.0
148
-45.64199848979289
149
-84.48806419330498
100
AcDbLayout
  1
Model
 70
     1
 71
     0
 10
0.0
 20
0.0
 11
12.0
 21
9.0
 12
0.0
 22
0.0
 32
0.0
 14
0.0
 24
0.0
 34
0.0
 15
0.0
 25
0.0
 35
0.0
146
0.0
 13
0.0
 23
0.0
 33
0.0
 16
1.0
 26
0.0
 36
0.0
 17
0.0
 27
1.0
 37
0.0
 76
     0
330
1F
  0
MLINESTYLE
  5
18
102
{ACAD_REACTORS
330
17
102
}
330
17
100
AcDbMlineStyle
  2
STANDARD
 70
     0
  3

 62
   256
 51
90.0
 52
90.0
 71
     2
 49
0.5
 62
   256
  6
BYLAYER
 49
-0.5
 62
   256
  6
BYLAYER
  0
ACDBPLACEHOLDER
  5
F
102
{ACAD_REACTORS
330
E
102
}
330
E
  0
DICTIONARYVAR
  5
6AE
102
{ACAD_REACTORS
330
6AD
102
}
330
6AD
100
DictionaryVariables
280
     0
  1
96
  0
ENDSEC
  0
EOF
