  0
SECTION
  2
HEADER
  9
$ACADVER
  1
AC1015
  9
$ACADMAINTVER
 70
     6
  9
$DWGCODEPAGE
  3
ANSI_932
  9
$INSBASE
 10
0.0
 20
0.0
 30
0.0
  9
$EXTMIN
 10
945.8823289102534
 20
-7120.971277142388
 30
0.0
  9
$EXTMAX
 10
10897.71756338572
 20
2057.301144846233
 30
0.0
  9
$LIMMIN
 10
0.0
 20
0.0
  9
$LIMMAX
 10
420.0
 20
297.0
  9
$ORTHOMODE
 70
     0
  9
$REGENMODE
 70
     1
  9
$FILLMODE
 70
     1
  9
$QTEXTMODE
 70
     0
  9
$MIRRTEXT
 70
     1
  9
$LTSCALE
 40
1.0
  9
$ATTMODE
 70
     1
  9
$TEXTSIZE
 40
5.0
  9
$TRACEWID
 40
1.0
  9
$TEXTSTYLE
  7
OKANO
  9
$CLAYER
  8
太線
  9
$CELTYPE
  6
ByLayer
  9
$CECOLOR
 62
   256
  9
$CELTSCALE
 40
1.0
  9
$DISPSILH
 70
     0
  9
$DIMSCALE
 40
0.0
  9
$DIMASZ
 40
3.0
  9
$DIMEXO
 40
2.0
  9
$DIMDLI
 40
8.0
  9
$DIMRND
 40
0.0
  9
$DIMDLE
 40
0.0
  9
$DIMEXE
 40
3.0
  9
$DIMTP
 40
0.0
  9
$DIMTM
 40
0.0
  9
$DIMTXT
 40
5.0
  9
$DIMCEN
 40
2.5
  9
$DIMTSZ
 40
0.0
  9
$DIMTOL
 70
     0
  9
$DIMLIM
 70
     0
  9
$DIMTIH
 70
     0
  9
$DIMTOH
 70
     0
  9
$DIMSE1
 70
     0
  9
$DIMSE2
 70
     0
  9
$DIMTAD
 70
     1
  9
$DIMZIN
 70
     8
  9
$DIMBLK
  1
Closed
  9
$DIMASO
 70
     1
  9
$DIMSHO
 70
     1
  9
$DIMPOST
  1

  9
$DIMAPOST
  1

  9
$DIMALT
 70
     0
  9
$DIMALTD
 70
     3
  9
$DIMALTF
 40
0.03937007874016
  9
$DIMLFAC
 40
1.0
  9
$DIMTOFL
 70
     1
  9
$DIMTVP
 40
0.0
  9
$DIMTIX
 70
     0
  9
$DIMSOXD
 70
     0
  9
$DIMSAH
 70
     0
  9
$DIMBLK1
  1

  9
$DIMBLK2
  1

  9
$DIMSTYLE
  2
sunpo
  9
$DIMCLRD
 70
     0
  9
$DIMCLRE
 70
     0
  9
$DIMCLRT
 70
     0
  9
$DIMTFAC
 40
1.0
  9
$DIMGAP
 40
1.0
  9
$DIMJUST
 70
     0
  9
$DIMSD1
 70
     0
  9
$DIMSD2
 70
     0
  9
$DIMTOLJ
 70
     0
  9
$DIMTZIN
 70
     8
  9
$DIMALTZ
 70
     0
  9
$DIMALTTZ
 70
     0
  9
$DIMUPT
 70
     0
  9
$DIMDEC
 70
     2
  9
$DIMTDEC
 70
     2
  9
$DIMALTU
 70
     2
  9
$DIMALTTD
 70
     3
  9
$DIMTXSTY
  7
OKANO
  9
$DIMAUNIT
 70
     0
  9
$DIMADEC
 70
     0
  9
$DIMALTRND
 40
0.0
  9
$DIMAZIN
 70
     0
  9
$DIMDSEP
 70
    46
  9
$DIMATFIT
 70
     3
  9
$DIMFRAC
 70
     0
  9
$DIMLDRBLK
  1
Closed
  9
$DIMLUNIT
 70
     2
  9
$DIMLWD
 70
    -2
  9
$DIMLWE
 70
    -2
  9
$DIMTMOVE
 70
     0
  9
$LUNITS
 70
     2
  9
$LUPREC
 70
     2
  9
$SKETCHINC
 40
1.0
  9
$FILLETRAD
 40
0.5
  9
$AUNITS
 70
     0
  9
$AUPREC
 70
     0
  9
$MENU
  1
.
  9
$ELEVATION
 40
0.0
  9
$PELEVATION
 40
0.0
  9
$THICKNESS
 40
0.0
  9
$LIMCHECK
 70
     0
  9
$CHAMFERA
 40
10.0
  9
$CHAMFERB
 40
10.0
  9
$CHAMFERC
 40
20.0
  9
$CHAMFERD
 40
0.0
  9
$SKPOLY
 70
     0
  9
$TDCREATE
 40
2452362.482225463
  9
$TDUCREATE
 40
2452362.107225463
  9
$TDUPDATE
 40
2455967.606641863
  9
$TDUUPDATE
 40
2455967.231641863
  9
$TDINDWG
 40
2.9449293519
  9
$TDUSRTIMER
 40
2.9449293519
  9
$USRTIMER
 70
     1
  9
$ANGBASE
 50
0.0
  9
$ANGDIR
 70
     0
  9
$PDMODE
 70
     0
  9
$PDSIZE
 40
0.0
  9
$PLINEWID
 40
0.0
  9
$SPLFRAME
 70
     0
  9
$SPLINETYPE
 70
     6
  9
$SPLINESEGS
 70
     8
  9
$HANDSEED
  5
57C2
  9
$SURFTAB1
 70
     6
  9
$SURFTAB2
 70
     6
  9
$SURFTYPE
 70
     6
  9
$SURFU
 70
     6
  9
$SURFV
 70
     6
  9
$UCSBASE
  2

  9
$UCSNAME
  2

  9
$UCSORG
 10
0.0
 20
0.0
 30
0.0
  9
$UCSXDIR
 10
1.0
 20
0.0
 30
0.0
  9
$UCSYDIR
 10
0.0
 20
1.0
 30
0.0
  9
$UCSORTHOREF
  2

  9
$UCSORTHOVIEW
 70
     0
  9
$UCSORGTOP
 10
0.0
 20
0.0
 30
0.0
  9
$UCSORGBOTTOM
 10
0.0
 20
0.0
 30
0.0
  9
$UCSORGLEFT
 10
0.0
 20
0.0
 30
0.0
  9
$UCSORGRIGHT
 10
0.0
 20
0.0
 30
0.0
  9
$UCSORGFRONT
 10
0.0
 20
0.0
 30
0.0
  9
$UCSORGBACK
 10
0.0
 20
0.0
 30
0.0
  9
$PUCSBASE
  2

  9
$PUCSNAME
  2

  9
$PUCSORG
 10
0.0
 20
0.0
 30
0.0
  9
$PUCSXDIR
 10
1.0
 20
0.0
 30
0.0
  9
$PUCSYDIR
 10
0.0
 20
1.0
 30
0.0
  9
$PUCSORTHOREF
  2

  9
$PUCSORTHOVIEW
 70
     0
  9
$PUCSORGTOP
 10
0.0
 20
0.0
 30
0.0
  9
$PUCSORGBOTTOM
 10
0.0
 20
0.0
 30
0.0
  9
$PUCSORGLEFT
 10
0.0
 20
0.0
 30
0.0
  9
$PUCSORGRIGHT
 10
0.0
 20
0.0
 30
0.0
  9
$PUCSORGFRONT
 10
0.0
 20
0.0
 30
0.0
  9
$PUCSORGBACK
 10
0.0
 20
0.0
 30
0.0
  9
$USERI1
 70
     0
  9
$USERI2
 70
     0
  9
$USERI3
 70
     0
  9
$USERI4
 70
     0
  9
$USERI5
 70
     0
  9
$USERR1
 40
0.0
  9
$USERR2
 40
0.0
  9
$USERR3
 40
0.0
  9
$USERR4
 40
0.0
  9
$USERR5
 40
0.0
  9
$WORLDVIEW
 70
     1
  9
$SHADEDGE
 70
     3
  9
$SHADEDIF
 70
    70
  9
$TILEMODE
 70
     0
  9
$MAXACTVP
 70
    64
  9
$PINSBASE
 10
0.0
 20
0.0
 30
0.0
  9
$PLIMCHECK
 70
     0
  9
$PEXTMIN
 10
-4.400950791736249
 20
-3.461455399935687
 30
-0.0015258207003583
  9
$PEXTMAX
 10
278.8632049462244
 20
202.4035238883311
 30
0.0000000349246037
  9
$PLIMMIN
 10
-3.17498779296875
 20
-3.174999952316284
  9
$PLIMMAX
 10
293.8250122070312
 20
206.8250000476837
  9
$UNITMODE
 70
     0
  9
$VISRETAIN
 70
     1
  9
$PLINEGEN
 70
     0
  9
$PSLTSCALE
 70
     1
  9
$TREEDEPTH
 70
  3020
  9
$CMLSTYLE
  2
Standard
  9
$CMLJUST
 70
     0
  9
$CMLSCALE
 40
20.0
  9
$PROXYGRAPHICS
 70
     1
  9
$MEASUREMENT
 70
     1
  9
$CELWEIGHT
370
    -1
  9
$ENDCAPS
280
     0
  9
$JOINSTYLE
280
     0
  9
$LWDISPLAY
290
     0
  9
$INSUNITS
 70
     4
  9
$HYPERLINKBASE
  1

  9
$STYLESHEET
  1

  9
$XEDIT
290
     1
  9
$CEPSNTYPE
380
     0
  9
$PSTYLEMODE
290
     1
  9
$FINGERPRINTGUID
  2
{FF7F33C3-4233-11D6-AEE0-0000F45FD7F4}
  9
$VERSIONGUID
  2
{8CF08409-38E7-427A-A5DF-C433BAFA256E}
  9
$EXTNAMES
290
     1
  9
$PSVPSCALE
 40
0.0
  9
$OLESTARTUP
290
     0
  0
ENDSEC
  0
SECTION
  2
CLASSES
  0
CLASS
  1
ACDBDICTIONARYWDFLT
  2
AcDbDictionaryWithDefault
  3
AutoCAD 2000
 90
        0
280
     0
281
     0
  0
CLASS
  1
ACDBPLACEHOLDER
  2
AcDbPlaceHolder
  3
AutoCAD 2000
 90
        0
280
     0
281
     0
  0
CLASS
  1
LAYOUT
  2
AcDbLayout
  3
AutoCAD 2000
 90
        0
280
     0
281
     0
  0
CLASS
  1
DICTIONARYVAR
  2
AcDbDictionaryVar
  3
AutoCAD 2000
 90
        0
280
     0
281
     0
  0
CLASS
  1
PLOTSETTINGS
  2
AcDbPlotSettings
  3
AutoCAD 2000
 90
    32768
280
     0
281
     0
  0
ENDSEC
  0
SECTION
  2
TABLES
  0
TABLE
  2
VPORT
  5
8
330
0
100
AcDbSymbolTable
 70
     2
  0
VPORT
  5
57C1
330
8
100
AcDbSymbolTableRecord
100
AcDbViewportTableRecord
  2
*Active
 70
     0
 10
0.0
 20
0.0
 11
1.0
 21
1.0
 12
3371.022779605848
 22
-285.0009610803383
 13
0.0
 23
0.0
 14
5.0
 24
5.0
 15
10.0
 25
10.0
 16
0.0
 26
0.0
 36
1.0
 17
0.0
 27
0.0
 37
0.0
 40
964.0861960424969
 41
1.968879668049792
 42
50.0
 43
0.0
 44
0.0
 50
0.0
 51
0.0
 71
     0
 72
   100
 73
     1
 74
     3
 75
     0
 76
     0
 77
     0
 78
     0
281
     0
 65
     1
110
0.0
120
0.0
130
0.0
111
1.0
121
0.0
131
0.0
112
0.0
122
1.0
132
0.0
 79
     0
146
0.0
  0
ENDTAB
  0
TABLE
  2
LTYPE
  5
5
330
0
100
AcDbSymbolTable
 70
     5
  0
LTYPE
  5
14
330
5
100
AcDbSymbolTableRecord
100
AcDbLinetypeTableRecord
  2
ByBlock
 70
     0
  3

 72
    65
 73
     0
 40
0.0
  0
LTYPE
  5
15
330
5
100
AcDbSymbolTableRecord
100
AcDbLinetypeTableRecord
  2
ByLayer
 70
     0
  3

 72
    65
 73
     0
 40
0.0
  0
LTYPE
  5
16
330
5
100
AcDbSymbolTableRecord
100
AcDbLinetypeTableRecord
  2
Continuous
 70
     0
  3
Solid line
 72
    65
 73
     0
 40
0.0
  0
LTYPE
  5
33
330
5
100
AcDbSymbolTableRecord
100
AcDbLinetypeTableRecord
  2
DASHED2
 70
     0
  3
Dashed (.5x) _ _ _ _ _ _ _ _ _ _ _ _ _ _ _ _ _
 72
    65
 73
     2
 40
9.524999999999998
 49
6.349999999999999
 74
     0
 49
-3.174999999999999
 74
     0
  0
LTYPE
  5
34
330
5
100
AcDbSymbolTableRecord
100
AcDbLinetypeTableRecord
  2
CENTER2
 70
     0
  3
Center (.5x) ___ _ ___ _ ___ _ ___ _ ___ _ ___
 72
    65
 73
     4
 40
28.57499999999999
 49
19.05
 74
     0
 49
-3.174999999999999
 74
     0
 49
3.174999999999999
 74
     0
 49
-3.174999999999999
 74
     0
  0
LTYPE
  5
35
330
5
100
AcDbSymbolTableRecord
100
AcDbLinetypeTableRecord
  2
PHANTOM2
 70
     0
  3
Phantom (.5x) ___ _ _ ___ _ _ ___ _ _ ___ _ _
 72
    65
 73
     6
 40
31.75
 49
15.875
 74
     0
 49
-3.174999999999999
 74
     0
 49
3.174999999999999
 74
     0
 49
-3.174999999999999
 74
     0
 49
3.174999999999999
 74
     0
 49
-3.174999999999999
 74
     0
  0
LTYPE
  5
36
330
5
100
AcDbSymbolTableRecord
100
AcDbLinetypeTableRecord
  2
HIDDEN2
 70
     0
  3
Hidden (.5x) _ _ _ _ _ _ _ _ _ _ _ _ _ _ _ _ _
 72
    65
 73
     2
 40
4.762499999999999
 49
3.174999999999999
 74
     0
 49
-1.587499999999999
 74
     0
  0
ENDTAB
  0
TABLE
  2
LAYER
  5
2
330
0
100
AcDbSymbolTable
 70
    13
  0
LAYER
  5
10
330
2
100
AcDbSymbolTableRecord
100
AcDbLayerTableRecord
  2
0
 70
     0
 62
     7
  6
Continuous
370
    -3
390
F
  0
LAYER
  5
40
330
2
100
AcDbSymbolTableRecord
100
AcDbLayerTableRecord
  2
50-0-CON
 70
     0
 62
     4
  6
Continuous
370
    50
390
F
  0
LAYER
  5
41
330
2
100
AcDbSymbolTableRecord
100
AcDbLayerTableRecord
  2
70-0-CON
 70
     0
 62
   202
  6
Continuous
370
    70
390
F
  0
LAYER
  5
4E
330
2
100
AcDbSymbolTableRecord
100
AcDbLayerTableRecord
  2
極太線
 70
     0
 62
     7
  6
Continuous
370
    70
390
F
  0
LAYER
  5
4F
330
2
100
AcDbSymbolTableRecord
100
AcDbLayerTableRecord
  2
細線
 70
     0
 62
     8
  6
Continuous
370
    18
390
F
  0
LAYER
  5
AB
330
2
100
AcDbSymbolTableRecord
100
AcDbLayerTableRecord
  2
構築線
 70
     0
 62
     2
  6
Continuous
370
    18
390
F
  0
LAYER
  5
B8
330
2
100
AcDbSymbolTableRecord
100
AcDbLayerTableRecord
  2
太線
 70
     0
 62
     7
  6
Continuous
370
    35
390
F
  0
LAYER
  5
B9
330
2
100
AcDbSymbolTableRecord
100
AcDbLayerTableRecord
  2
寸法線
 70
     0
 62
     5
  6
Continuous
370
    18
390
F
  0
LAYER
  5
BA
330
2
100
AcDbSymbolTableRecord
100
AcDbLayerTableRecord
  2
破線
 70
     0
 62
     8
  6
HIDDEN2
370
    18
390
F
  0
LAYER
  5
BB
330
2
100
AcDbSymbolTableRecord
100
AcDbLayerTableRecord
  2
中心線
 70
     0
 62
     1
  6
CENTER2
370
    18
390
F
  0
LAYER
  5
BC
330
2
100
AcDbSymbolTableRecord
100
AcDbLayerTableRecord
  2
想像線
 70
     0
 62
     8
  6
PHANTOM2
370
    18
390
F
  0
LAYER
  5
BD
330
2
100
AcDbSymbolTableRecord
100
AcDbLayerTableRecord
  2
文字
 70
     0
 62
     7
  6
Continuous
370
    18
390
F
  0
LAYER
  5
180
330
2
100
AcDbSymbolTableRecord
100
AcDbLayerTableRecord
  2
Defpoints
 70
     0
 62
     7
  6
Continuous
290
     0
370
    -3
390
F
  0
ENDTAB
  0
TABLE
  2
STYLE
  5
3
330
0
100
AcDbSymbolTable
 70
     3
  0
STYLE
  5
11
330
3
100
AcDbSymbolTableRecord
100
AcDbTextStyleTableRecord
  2
Standard
 70
     0
 40
0.0
 41
1.0
 50
0.0
 71
     0
 42
3.0
  3
txt
  4

  0
STYLE
  5
32
330
3
100
AcDbSymbolTableRecord
100
AcDbTextStyleTableRecord
  2

 70
     1
 40
0.0
 41
1.0
 50
0.0
 71
     0
 42
2.5
  3
ltypeshp.shx
  4

  0
STYLE
  5
50
330
3
100
AcDbSymbolTableRecord
100
AcDbTextStyleTableRecord
  2
OKANO
 70
     0
 40
0.0
 41
1.0
 50
15.0
 71
     0
 42
5.0
  3
isocp.shx
  4
bigfont.shx
  0
ENDTAB
  0
TABLE
  2
VIEW
  5
6
330
0
100
AcDbSymbolTable
 70
     0
  0
ENDTAB
  0
TABLE
  2
UCS
  5
7
330
0
100
AcDbSymbolTable
 70
     0
  0
ENDTAB
  0
TABLE
  2
APPID
  5
9
330
0
100
AcDbSymbolTable
 70
     2
  0
APPID
  5
12
330
9
100
AcDbSymbolTableRecord
100
AcDbRegAppTableRecord
  2
ACAD
 70
     0
  0
APPID
  5
42D3
330
9
100
AcDbSymbolTableRecord
100
AcDbRegAppTableRecord
  2
PE_URL
 70
     0
  0
ENDTAB
  0
TABLE
  2
DIMSTYLE
  5
A
330
0
100
AcDbSymbolTable
 70
     2
100
AcDbDimStyleTable
 71
     2
340
A2
340
27
  0
DIMSTYLE
105
27
330
A
100
AcDbSymbolTableRecord
100
AcDbDimStyleTableRecord
  2
ISO-25
 70
     0
 41
2.5
 42
0.625
 43
3.75
 44
1.25
 73
     0
 74
     0
 77
     1
 78
     8
140
2.5
141
2.5
143
0.03937007874016
147
0.625
171
     3
172
     1
271
     2
272
     2
274
     3
283
     0
284
     8
340
11
  0
DIMSTYLE
105
A2
102
{ACAD_REACTORS
330
4307
330
4502
330
450B
330
46C0
330
46E8
330
4704
330
4770
330
47FA
330
4BE1
330
4BEE
330
4BFB
102
}
330
A
100
AcDbSymbolTableRecord
100
AcDbDimStyleTableRecord
  2
sunpo
 70
     0
 40
0.0
 41
3.0
 42
2.0
 43
8.0
 44
3.0
 73
     0
 74
     0
 77
     1
 78
     8
140
5.0
141
2.5
143
0.03937007874016
147
1.0
171
     3
172
     1
271
     2
272
     2
274
     3
283
     0
284
     8
340
50
341
9B
342
9B
  0
ENDTAB
  0
TABLE
  2
BLOCK_RECORD
  5
1
330
0
100
AcDbSymbolTable
 70
    13
  0
BLOCK_RECORD
  5
1F
330
1
100
AcDbSymbolTableRecord
100
AcDbBlockTableRecord
  2
*Model_Space
340
22
  0
BLOCK_RECORD
  5
1B
330
1
100
AcDbSymbolTableRecord
100
AcDbBlockTableRecord
  2
*Paper_Space
340
1E
  0
BLOCK_RECORD
  5
9B
330
1
100
AcDbSymbolTableRecord
100
AcDbBlockTableRecord
  2
_Closed
340
0
102
{BLKREFS
331
433A
331
433B
331
4740
331
4741
331
4756
331
4757
331
4761
331
4762
331
476A
331
476B
331
479A
331
479B
331
4812
331
4813
331
4820
331
4821
331
4C41
331
4C42
331
4C4A
331
4C4B
331
4C53
331
4C54
102
}
  0
BLOCK_RECORD
  5
1510
330
1
100
AcDbSymbolTableRecord
100
AcDbBlockTableRecord
  2
A$C10A573AC
340
0
  0
BLOCK_RECORD
  5
4308
330
1
100
AcDbSymbolTableRecord
100
AcDbBlockTableRecord
  2
*D2
340
0
  0
BLOCK_RECORD
  5
453A
330
1
100
AcDbSymbolTableRecord
100
AcDbBlockTableRecord
  2
*D3
340
0
  0
BLOCK_RECORD
  5
456C
330
1
100
AcDbSymbolTableRecord
100
AcDbBlockTableRecord
  2
*D4
340
0
  0
BLOCK_RECORD
  5
46C1
330
1
100
AcDbSymbolTableRecord
100
AcDbBlockTableRecord
  2
*D5
340
0
  0
BLOCK_RECORD
  5
46E9
330
1
100
AcDbSymbolTableRecord
100
AcDbBlockTableRecord
  2
*D6
340
0
  0
BLOCK_RECORD
  5
4705
330
1
100
AcDbSymbolTableRecord
100
AcDbBlockTableRecord
  2
*D7
340
0
  0
BLOCK_RECORD
  5
4771
330
1
100
AcDbSymbolTableRecord
100
AcDbBlockTableRecord
  2
*D8
340
0
  0
BLOCK_RECORD
  5
47FB
330
1
100
AcDbSymbolTableRecord
100
AcDbBlockTableRecord
  2
*D9
340
0
  0
BLOCK_RECORD
  5
4BE2
330
1
100
AcDbSymbolTableRecord
100
AcDbBlockTableRecord
  2
*D10
340
0
  0
BLOCK_RECORD
  5
4BEF
330
1
100
AcDbSymbolTableRecord
100
AcDbBlockTableRecord
  2
*D11
340
0
  0
BLOCK_RECORD
  5
4BFC
330
1
100
AcDbSymbolTableRecord
100
AcDbBlockTableRecord
  2
*D12
340
0
  0
ENDTAB
  0
ENDSEC
  0
SECTION
  2
BLOCKS
  0
BLOCK
  5
20
330
1F
100
AcDbEntity
  8
0
100
AcDbBlockBegin
  2
*Model_Space
 70
     0
 10
0.0
 20
0.0
 30
0.0
  3
*Model_Space
  1

  0
ENDBLK
  5
21
330
1F
100
AcDbEntity
  8
0
100
AcDbBlockEnd
  0
BLOCK
  5
1C
330
1B
100
AcDbEntity
 67
     1
  8
0
100
AcDbBlockBegin
  2
*Paper_Space
 70
     0
 10
0.0
 20
0.0
 30
0.0
  3
*Paper_Space
  1

  0
ENDBLK
  5
1D
330
1B
100
AcDbEntity
 67
     1
  8
0
100
AcDbBlockEnd
  0
BLOCK
  5
A0
330
9B
100
AcDbEntity
  8
0
100
AcDbBlockBegin
  2
_Closed
 70
     0
 10
0.0
 20
0.0
 30
0.0
  3
_Closed
  1

  0
LINE
  5
9C
330
9B
100
AcDbEntity
  8
0
 62
     0
370
    -2
100
AcDbLine
 10
-1.0
 20
0.1666666666666666
 30
0.0
 11
0.0
 21
0.0
 31
0.0
  0
LINE
  5
9D
330
9B
100
AcDbEntity
  8
0
 62
     0
370
    -2
100
AcDbLine
 10
0.0
 20
0.0
 30
0.0
 11
-1.0
 21
-0.1666666666666666
 31
0.0
  0
LINE
  5
9E
330
9B
100
AcDbEntity
  8
0
 62
     0
370
    -2
100
AcDbLine
 10
-1.0
 20
0.1666666666666666
 30
0.0
 11
-1.0
 21
-0.1666666666666666
 31
0.0
  0
LINE
  5
9F
330
9B
100
AcDbEntity
  8
0
 62
     0
370
    -2
100
AcDbLine
 10
0.0
 20
0.0
 30
0.0
 11
-1.0
 21
0.0
 31
0.0
  0
ENDBLK
  5
A1
330
9B
100
AcDbEntity
  8
0
100
AcDbBlockEnd
  0
BLOCK
  5
155B
330
1510
100
AcDbEntity
  8
0
100
AcDbBlockBegin
  2
A$C10A573AC
 70
     0
 10
0.0
 20
0.0
 30
0.0
  3
A$C10A573AC
  1

  0
TEXT
  5
1511
330
1510
100
AcDbEntity
  8
文字
100
AcDbText
 10
0.9844302777919438
 20
5.224957122252135
 30
0.0
 40
3.0
  1
Materal : Steel.
 51
15.0
  7
OKANO
100
AcDbText
  0
TEXT
  5
1512
330
1510
100
AcDbEntity
  8
文字
100
AcDbText
 10
-0.1141909619694843
 20
0.7500001922403499
 30
0.0
 40
3.0
  1
Surface treatment : Electro galvanized.
 51
15.0
  7
OKANO
100
AcDbText
  0
TEXT
  5
1513
330
1510
100
AcDbEntity
  8
文字
100
AcDbText
 10
-0.4901926332574931
 20
9.159967445193728
 30
0.0
 40
3.0
  1
5 TORGUE SCREW  M5-6
 51
15.0
  7
OKANO
100
AcDbText
  0
TEXT
  5
1514
330
1510
100
AcDbEntity
  8
文字
100
AcDbText
 10
1.364713526390005
 20
78.88822913323082
 30
0.0
 40
3.0
  1
Special standard,
 51
15.0
  7
OKANO
100
AcDbText
  0
TEXT
  5
1515
330
1510
100
AcDbEntity
  8
文字
100
AcDbText
 10
92.88160823408942
 20
89.92753849837379
 30
0.0
 40
3.0
  1
Screw Type
 51
15.0
  7
OKANO
100
AcDbText
  0
LINE
  5
1516
330
1510
100
AcDbEntity
  8
太線
100
AcDbLine
 10
113.9464587597784
 20
81.93930390144641
 30
0.0
 11
112.4464587597784
 21
81.93930390144641
 31
0.0
  0
LINE
  5
1517
330
1510
100
AcDbEntity
  8
太線
100
AcDbLine
 10
112.4464587597784
 20
76.9393039014464
 30
0.0
 11
121.4644995438761
 21
76.9393039014464
 31
0.0
  0
TEXT
  5
1518
330
1510
100
AcDbEntity
  8
文字
100
AcDbText
 10
93.46068240437217
 20
77.96976862235396
 30
0.0
 40
2.0
  1
17-30
 51
15.0
  7
OKANO
100
AcDbText
  0
LINE
  5
1519
330
1510
100
AcDbEntity
  8
太線
100
AcDbLine
 10
111.9464587597784
 20
81.43930390144641
 30
0.0
 11
111.9464587597784
 21
77.4393039014464
 31
0.0
  0
LINE
  5
151A
330
1510
100
AcDbEntity
  8
太線
100
AcDbLine
 10
91.94645875977846
 20
81.43930390144641
 30
0.0
 11
91.94645875977846
 21
77.43930390144639
 31
0.0
  0
LINE
  5
151B
330
1510
100
AcDbEntity
  8
太線
100
AcDbLine
 10
101.9644995438761
 20
77.4393039014464
 30
0.0
 11
101.9644995438761
 21
81.43930390144641
 31
0.0
  0
LINE
  5
151C
330
1510
100
AcDbEntity
  8
太線
100
AcDbLine
 10
92.44645875977846
 20
76.9393039014464
 30
0.0
 11
101.4644995438761
 21
76.9393039014464
 31
0.0
  0
ARC
  5
151D
330
1510
100
AcDbEntity
  8
太線
100
AcDbCircle
 10
92.44645875977846
 20
77.43930390144639
 30
0.0
 40
0.5
100
AcDbArc
 50
180.0
 51
270.0
  0
ARC
  5
151E
330
1510
100
AcDbEntity
  8
太線
100
AcDbCircle
 10
101.4644995438761
 20
77.4393039014464
 30
0.0
 40
0.5
100
AcDbArc
 50
270.0
 51
0.0
  0
ARC
  5
151F
330
1510
100
AcDbEntity
  8
太線
100
AcDbCircle
 10
112.4464587597784
 20
77.4393039014464
 30
0.0
 40
0.5
100
AcDbArc
 50
180.0
 51
270.0
  0
LINE
  5
1520
330
1510
100
AcDbEntity
  8
想像線
100
AcDbLine
 10
93.94645875977847
 20
81.93930390144641
 30
0.0
 11
99.96449954387617
 21
81.93930390144641
 31
0.0
  0
LINE
  5
1521
330
1510
100
AcDbEntity
  8
極太線
100
AcDbLine
 10
96.38762957111168
 20
85.43930390144641
 30
0.0
 11
97.50528794844525
 21
85.43930390144641
 31
0.0
  0
CIRCLE
  5
1522
330
1510
100
AcDbEntity
  8
太線
100
AcDbCircle
 10
96.94645875977847
 20
85.43930390144641
 30
0.0
 40
0.5588291886667776
  0
LINE
  5
1523
330
1510
100
AcDbEntity
  8
太線
100
AcDbLine
 10
99.46449954387617
 20
86.93930390144641
 30
0.0
 11
94.44645875977846
 21
86.93930390144641
 31
0.0
  0
LINE
  5
1524
330
1510
100
AcDbEntity
  8
太線
100
AcDbLine
 10
93.94645875977847
 20
86.43930390144641
 30
0.0
 11
93.94645875977847
 21
81.93930390144641
 31
0.0
  0
ARC
  5
1525
330
1510
100
AcDbEntity
  8
太線
100
AcDbCircle
 10
92.44645875977846
 20
81.43930390144641
 30
0.0
 40
0.5
100
AcDbArc
 50
90.0
 51
180.0
  0
LINE
  5
1526
330
1510
100
AcDbEntity
  8
太線
100
AcDbLine
 10
93.94645875977847
 20
81.93930390144641
 30
0.0
 11
92.44645875977846
 21
81.93930390144641
 31
0.0
  0
ARC
  5
1527
330
1510
100
AcDbEntity
  8
太線
100
AcDbCircle
 10
94.44645875977846
 20
86.43930390144641
 30
0.0
 40
0.5
100
AcDbArc
 50
90.0
 51
180.0
  0
LINE
  5
1528
330
1510
100
AcDbEntity
  8
太線
100
AcDbLine
 10
99.96449954387617
 20
81.93930390144641
 30
0.0
 11
99.96449954387617
 21
86.43930390144641
 31
0.0
  0
LINE
  5
1529
330
1510
100
AcDbEntity
  8
太線
100
AcDbLine
 10
101.4644995438761
 20
81.93930390144641
 30
0.0
 11
99.96449954387617
 21
81.93930390144641
 31
0.0
  0
ARC
  5
152A
330
1510
100
AcDbEntity
  8
太線
100
AcDbCircle
 10
101.4644995438761
 20
81.43930390144641
 30
0.0
 40
0.5
100
AcDbArc
 50
0.0
 51
90.0
  0
ARC
  5
152B
330
1510
100
AcDbEntity
  8
太線
100
AcDbCircle
 10
99.46449954387617
 20
86.43930390144641
 30
0.0
 40
0.5
100
AcDbArc
 50
0.0
 51
90.0
  0
LINE
  5
152C
330
1510
100
AcDbEntity
  8
極太線
100
AcDbLine
 10
96.94645875977847
 20
85.99813309011318
 30
0.0
 11
96.94645875977847
 21
84.88047471277964
 31
0.0
  0
ARC
  5
152D
330
1510
100
AcDbEntity
  8
太線
100
AcDbCircle
 10
112.4464587597784
 20
81.43930390144641
 30
0.0
 40
0.5
100
AcDbArc
 50
90.0
 51
180.0
  0
TEXT
  5
152E
330
1510
100
AcDbEntity
  8
文字
100
AcDbText
 10
134.3819212586066
 20
78.16263579228063
 30
0.0
 40
2.0
  1
101
 51
15.0
  7
OKANO
100
AcDbText
  0
TEXT
  5
152F
330
1510
100
AcDbEntity
  8
文字
100
AcDbText
 10
113.3422276612066
 20
77.96976862235396
 30
0.0
 40
2.0
  1
38-83
 51
15.0
  7
OKANO
100
AcDbText
  0
LINE
  5
1530
330
1510
100
AcDbEntity
  8
太線
100
AcDbLine
 10
141.9825403279738
 20
77.4393039014464
 30
0.0
 11
141.9825403279738
 21
81.43930390144641
 31
0.0
  0
LINE
  5
1531
330
1510
100
AcDbEntity
  8
太線
100
AcDbLine
 10
131.9644995438761
 20
81.43930390144641
 30
0.0
 11
131.9644995438761
 21
77.4393039014464
 31
0.0
  0
LINE
  5
1532
330
1510
100
AcDbEntity
  8
太線
100
AcDbLine
 10
121.9644995438761
 20
77.4393039014464
 30
0.0
 11
121.9644995438761
 21
81.43930390144641
 31
0.0
  0
ARC
  5
1533
330
1510
100
AcDbEntity
  8
太線
100
AcDbCircle
 10
121.4644995438761
 20
77.4393039014464
 30
0.0
 40
0.5
100
AcDbArc
 50
270.0
 51
0.0
  0
LINE
  5
1534
330
1510
100
AcDbEntity
  8
太線
100
AcDbLine
 10
132.4644995438761
 20
76.9393039014464
 30
0.0
 11
141.4825403279738
 21
76.9393039014464
 31
0.0
  0
ARC
  5
1535
330
1510
100
AcDbEntity
  8
太線
100
AcDbCircle
 10
132.4644995438761
 20
77.4393039014464
 30
0.0
 40
0.5
100
AcDbArc
 50
180.0
 51
270.0
  0
ARC
  5
1536
330
1510
100
AcDbEntity
  8
太線
100
AcDbCircle
 10
141.4825403279738
 20
77.4393039014464
 30
0.0
 40
0.5
100
AcDbArc
 50
270.0
 51
0.0
  0
ARC
  5
1537
330
1510
100
AcDbEntity
  8
太線
100
AcDbCircle
 10
121.4644995438761
 20
81.43930390144641
 30
0.0
 40
0.5
100
AcDbArc
 50
0.0
 51
90.0
  0
LINE
  5
1538
330
1510
100
AcDbEntity
  8
太線
100
AcDbLine
 10
119.9644995438761
 20
81.93930390144641
 30
0.0
 11
119.9644995438761
 21
86.43930390144641
 31
0.0
  0
LINE
  5
1539
330
1510
100
AcDbEntity
  8
太線
100
AcDbLine
 10
113.9464587597784
 20
86.43930390144641
 30
0.0
 11
113.9464587597784
 21
81.93930390144641
 31
0.0
  0
LINE
  5
153A
330
1510
100
AcDbEntity
  8
想像線
100
AcDbLine
 10
113.9464587597784
 20
81.93930390144641
 30
0.0
 11
119.9644995438761
 21
81.93930390144641
 31
0.0
  0
LINE
  5
153B
330
1510
100
AcDbEntity
  8
太線
100
AcDbLine
 10
121.4644995438761
 20
81.93930390144641
 30
0.0
 11
119.9644995438761
 21
81.93930390144641
 31
0.0
  0
LINE
  5
153C
330
1510
100
AcDbEntity
  8
太線
100
AcDbLine
 10
119.4644995438761
 20
86.93930390144641
 30
0.0
 11
114.4464587597784
 21
86.93930390144641
 31
0.0
  0
ARC
  5
153D
330
1510
100
AcDbEntity
  8
太線
100
AcDbCircle
 10
114.4464587597784
 20
86.43930390144641
 30
0.0
 40
0.5
100
AcDbArc
 50
90.0
 51
180.0
  0
CIRCLE
  5
153E
330
1510
100
AcDbEntity
  8
太線
100
AcDbCircle
 10
115.4464587597784
 20
85.43930390144641
 30
0.0
 40
0.5588291886667776
  0
LINE
  5
153F
330
1510
100
AcDbEntity
  8
極太線
100
AcDbLine
 10
115.4464587597784
 20
85.99813309011318
 30
0.0
 11
115.4464587597784
 21
84.88047471277964
 31
0.0
  0
LINE
  5
1540
330
1510
100
AcDbEntity
  8
極太線
100
AcDbLine
 10
114.8876295711116
 20
85.43930390144641
 30
0.0
 11
116.0052879484452
 21
85.43930390144641
 31
0.0
  0
ARC
  5
1541
330
1510
100
AcDbEntity
  8
太線
100
AcDbCircle
 10
119.4644995438761
 20
86.43930390144641
 30
0.0
 40
0.5
100
AcDbArc
 50
0.0
 51
90.0
  0
LINE
  5
1542
330
1510
100
AcDbEntity
  8
極太線
100
AcDbLine
 10
117.9056703552094
 20
85.43930390144641
 30
0.0
 11
119.0233287325429
 21
85.43930390144641
 31
0.0
  0
LINE
  5
1543
330
1510
100
AcDbEntity
  8
極太線
100
AcDbLine
 10
118.4644995438761
 20
85.99813309011318
 30
0.0
 11
118.4644995438761
 21
84.88047471277964
 31
0.0
  0
CIRCLE
  5
1544
330
1510
100
AcDbEntity
  8
太線
100
AcDbCircle
 10
118.4644995438761
 20
85.43930390144641
 30
0.0
 40
0.5588291886667776
  0
LINE
  5
1545
330
1510
100
AcDbEntity
  8
想像線
100
AcDbLine
 10
133.9644995438761
 20
81.93930390144641
 30
0.0
 11
139.9825403279738
 21
81.93930390144641
 31
0.0
  0
LINE
  5
1546
330
1510
100
AcDbEntity
  8
極太線
100
AcDbLine
 10
137.9237111393071
 20
85.43930390144641
 30
0.0
 11
139.0413695166406
 21
85.43930390144641
 31
0.0
  0
CIRCLE
  5
1547
330
1510
100
AcDbEntity
  8
太線
100
AcDbCircle
 10
138.4825403279738
 20
85.43930390144641
 30
0.0
 40
0.5588291886667776
  0
CIRCLE
  5
1548
330
1510
100
AcDbEntity
  8
太線
100
AcDbCircle
 10
138.4825403279738
 20
83.26342923362075
 30
0.0
 40
0.5588291886667776
  0
LINE
  5
1549
330
1510
100
AcDbEntity
  8
極太線
100
AcDbLine
 10
137.9237111393071
 20
83.26342923362075
 30
0.0
 11
139.0413695166406
 21
83.26342923362075
 31
0.0
  0
LINE
  5
154A
330
1510
100
AcDbEntity
  8
太線
100
AcDbLine
 10
139.4825403279738
 20
86.93930390144641
 30
0.0
 11
134.4644995438761
 21
86.93930390144641
 31
0.0
  0
LINE
  5
154B
330
1510
100
AcDbEntity
  8
太線
100
AcDbLine
 10
133.9644995438761
 20
86.43930390144641
 30
0.0
 11
133.9644995438761
 21
81.93930390144641
 31
0.0
  0
ARC
  5
154C
330
1510
100
AcDbEntity
  8
太線
100
AcDbCircle
 10
132.4644995438761
 20
81.43930390144641
 30
0.0
 40
0.5
100
AcDbArc
 50
90.0
 51
180.0
  0
LINE
  5
154D
330
1510
100
AcDbEntity
  8
太線
100
AcDbLine
 10
133.9644995438761
 20
81.93930390144641
 30
0.0
 11
132.4644995438761
 21
81.93930390144641
 31
0.0
  0
LINE
  5
154E
330
1510
100
AcDbEntity
  8
極太線
100
AcDbLine
 10
134.9056703552093
 20
83.26342923362075
 30
0.0
 11
136.0233287325429
 21
83.26342923362075
 31
0.0
  0
LINE
  5
154F
330
1510
100
AcDbEntity
  8
極太線
100
AcDbLine
 10
135.4644995438761
 20
83.82225842228752
 30
0.0
 11
135.4644995438761
 21
82.70460004495395
 31
0.0
  0
CIRCLE
  5
1550
330
1510
100
AcDbEntity
  8
太線
100
AcDbCircle
 10
135.4644995438761
 20
83.26342923362075
 30
0.0
 40
0.5588291886667776
  0
ARC
  5
1551
330
1510
100
AcDbEntity
  8
太線
100
AcDbCircle
 10
134.4644995438761
 20
86.43930390144641
 30
0.0
 40
0.5
100
AcDbArc
 50
90.0
 51
180.0
  0
CIRCLE
  5
1552
330
1510
100
AcDbEntity
  8
太線
100
AcDbCircle
 10
135.4644995438761
 20
85.43930390144641
 30
0.0
 40
0.5588291886667776
  0
LINE
  5
1553
330
1510
100
AcDbEntity
  8
極太線
100
AcDbLine
 10
135.4644995438761
 20
85.99813309011318
 30
0.0
 11
135.4644995438761
 21
84.88047471277964
 31
0.0
  0
LINE
  5
1554
330
1510
100
AcDbEntity
  8
極太線
100
AcDbLine
 10
134.9056703552093
 20
85.43930390144641
 30
0.0
 11
136.0233287325429
 21
85.43930390144641
 31
0.0
  0
LINE
  5
1555
330
1510
100
AcDbEntity
  8
太線
100
AcDbLine
 10
139.9825403279738
 20
81.93930390144641
 30
0.0
 11
139.9825403279738
 21
86.43930390144641
 31
0.0
  0
ARC
  5
1556
330
1510
100
AcDbEntity
  8
太線
100
AcDbCircle
 10
141.4825403279738
 20
81.43930390144641
 30
0.0
 40
0.5
100
AcDbArc
 50
0.0
 51
90.0
  0
LINE
  5
1557
330
1510
100
AcDbEntity
  8
極太線
100
AcDbLine
 10
138.4825403279738
 20
83.82225842228752
 30
0.0
 11
138.4825403279738
 21
82.70460004495395
 31
0.0
  0
LINE
  5
1558
330
1510
100
AcDbEntity
  8
太線
100
AcDbLine
 10
141.4825403279738
 20
81.93930390144641
 30
0.0
 11
139.9825403279738
 21
81.93930390144641
 31
0.0
  0
ARC
  5
1559
330
1510
100
AcDbEntity
  8
太線
100
AcDbCircle
 10
139.4825403279738
 20
86.43930390144641
 30
0.0
 40
0.5
100
AcDbArc
 50
0.0
 51
90.0
  0
LINE
  5
155A
330
1510
100
AcDbEntity
  8
極太線
100
AcDbLine
 10
138.4825403279738
 20
85.99813309011318
 30
0.0
 11
138.4825403279738
 21
84.88047471277964
 31
0.0
  0
ENDBLK
  5
155C
330
1510
100
AcDbEntity
  8
0
100
AcDbBlockEnd
  0
BLOCK
  5
4314
330
4308
100
AcDbEntity
  8
0
100
AcDbBlockBegin
  2
*D2
 70
     1
 10
0.0
 20
0.0
 30
0.0
  3
*D2
  1

  0
LINE
  5
4335
330
4308
100
AcDbEntity
  8
寸法線
 62
     0
370
    -2
100
AcDbLine
 10
1016.78810340167
 20
94.51721972038445
 30
0.0
 11
1023.767165649781
 21
94.51721972038445
 31
0.0
  0
LINE
  5
4336
330
4308
100
AcDbEntity
  8
寸法線
 62
     0
370
    -2
100
AcDbLine
 10
1016.78810340167
 20
100.6568280364197
 30
0.0
 11
1023.767165649781
 21
100.6568280364197
 31
0.0
  0
LINE
  5
4337
330
4308
100
AcDbEntity
  8
寸法線
 62
     0
370
    -2
100
AcDbLine
 10
1020.767165649781
 20
91.51721972038444
 30
0.0
 11
1020.767165649781
 21
88.51721972038445
 31
0.0
  0
LINE
  5
4338
330
4308
100
AcDbEntity
  8
寸法線
 62
     0
370
    -2
100
AcDbLine
 10
1020.767165649781
 20
103.6568280364197
 30
0.0
 11
1020.767165649781
 21
106.6568280364197
 31
0.0
  0
LINE
  5
4339
330
4308
100
AcDbEntity
  8
寸法線
 62
     0
370
    -2
100
AcDbLine
 10
1020.767165649781
 20
94.51721972038445
 30
0.0
 11
1020.767165649781
 21
100.6568280364197
 31
0.0
  0
INSERT
  5
433A
330
4308
100
AcDbEntity
  8
寸法線
 62
     0
370
    -2
100
AcDbBlockReference
  2
_Closed
 10
1020.767165649781
 20
94.51721972038445
 30
0.0
 41
3.0
 42
3.0
 43
3.0
 50
90.0
  0
INSERT
  5
433B
330
4308
100
AcDbEntity
  8
寸法線
 62
     0
370
    -2
100
AcDbBlockReference
  2
_Closed
 10
1020.767165649781
 20
100.6568280364197
 30
0.0
 41
3.0
 42
3.0
 43
3.0
 50
270.0
  0
MTEXT
  5
433C
330
4308
100
AcDbEntity
  8
寸法線
 62
     0
100
AcDbMText
 10
1018.767165649781
 20
97.58702387840225
 30
0.0
 40
2.0
 41
0.0
 71
     5
 72
     1
  1
60
  7
OKANO
 11
0.0000000000000001
 21
1.0
 31
0.0
 73
     1
 44
1.0
  0
POINT
  5
433D
330
4308
100
AcDbEntity
  8
Defpoints
 62
     0
100
AcDbPoint
 10
1014.78810340167
 20
94.51721972038445
 30
0.0
  0
POINT
  5
433E
330
4308
100
AcDbEntity
  8
Defpoints
 62
     0
100
AcDbPoint
 10
1014.78810340167
 20
100.6568280364197
 30
0.0
  0
POINT
  5
433F
330
4308
100
AcDbEntity
  8
Defpoints
 62
     0
100
AcDbPoint
 10
1020.767165649781
 20
100.6568280364197
 30
0.0
  0
ENDBLK
  5
4315
330
4308
100
AcDbEntity
  8
0
100
AcDbBlockEnd
  0
BLOCK
  5
4544
330
453A
100
AcDbEntity
  8
0
100
AcDbBlockBegin
  2
*D3
 70
     1
 10
0.0
 20
0.0
 30
0.0
  3
*D3
  1

  0
LINE
  5
4767
330
453A
100
AcDbEntity
  8
寸法線
 62
     0
370
    -2
100
AcDbLine
 10
1016.469883728088
 20
49.30632302053346
 30
0.0
 11
1031.594362016168
 21
49.30632302053346
 31
0.0
  0
LINE
  5
4768
330
453A
100
AcDbEntity
  8
寸法線
 62
     0
370
    -2
100
AcDbLine
 10
1016.469883728088
 20
79.30632302053346
 30
0.0
 11
1031.594362016168
 21
79.30632302053346
 31
0.0
  0
LINE
  5
4769
330
453A
100
AcDbEntity
  8
寸法線
 62
     0
370
    -2
100
AcDbLine
 10
1028.594362016168
 20
50.30632302053345
 30
0.0
 11
1028.594362016168
 21
78.30632302053345
 31
0.0
  0
INSERT
  5
476A
330
453A
100
AcDbEntity
  8
寸法線
 62
     0
370
    -2
100
AcDbBlockReference
  2
_Closed
 10
1028.594362016168
 20
49.30632302053346
 30
0.0
 50
270.0
  0
INSERT
  5
476B
330
453A
100
AcDbEntity
  8
寸法線
 62
     0
370
    -2
100
AcDbBlockReference
  2
_Closed
 10
1028.594362016168
 20
79.30632302053346
 30
0.0
 50
90.0
  0
MTEXT
  5
476C
330
453A
100
AcDbEntity
  8
寸法線
 62
     0
100
AcDbMText
 10
1026.594362016168
 20
64.30632302053362
 30
0.0
 40
2.0
 41
0.0
 71
     5
 72
     1
  1
300
  7
OKANO
 11
0.0000000000000001
 21
1.0
 31
0.0
 73
     1
 44
1.0
  0
POINT
  5
476D
330
453A
100
AcDbEntity
  8
Defpoints
 62
     0
100
AcDbPoint
 10
1014.469883728088
 20
49.30632302053346
 30
0.0
  0
POINT
  5
476E
330
453A
100
AcDbEntity
  8
Defpoints
 62
     0
100
AcDbPoint
 10
1014.469883728088
 20
79.30632302053346
 30
0.0
  0
POINT
  5
476F
330
453A
100
AcDbEntity
  8
Defpoints
 62
     0
100
AcDbPoint
 10
1028.594362016168
 20
79.30632302053346
 30
0.0
  0
ENDBLK
  5
4545
330
453A
100
AcDbEntity
  8
0
100
AcDbBlockEnd
  0
BLOCK
  5
4576
330
456C
100
AcDbEntity
  8
0
100
AcDbBlockBegin
  2
*D4
 70
     1
 10
0.0
 20
0.0
 30
0.0
  3
*D4
  1

  0
LINE
  5
481D
330
456C
100
AcDbEntity
  8
寸法線
 62
     0
370
    -2
100
AcDbLine
 10
961.348848558088
 20
59.70679447303746
 30
0.0
 11
961.348848558088
 21
38.87721945641215
 31
0.0
  0
LINE
  5
481E
330
456C
100
AcDbEntity
  8
寸法線
 62
     0
370
    -2
100
AcDbLine
 10
1014.469883728088
 20
47.30632302053345
 30
0.0
 11
1014.469883728088
 21
38.87721945641215
 31
0.0
  0
LINE
  5
481F
330
456C
100
AcDbEntity
  8
寸法線
 62
     0
370
    -2
100
AcDbLine
 10
962.348848558088
 20
41.87721945641214
 30
0.0
 11
1013.469883728088
 21
41.87721945641214
 31
0.0
  0
INSERT
  5
4820
330
456C
100
AcDbEntity
  8
寸法線
 62
     0
370
    -2
100
AcDbBlockReference
  2
_Closed
 10
961.348848558088
 20
41.87721945641214
 30
0.0
 50
180.0
  0
INSERT
  5
4821
330
456C
100
AcDbEntity
  8
寸法線
 62
     0
370
    -2
100
AcDbBlockReference
  2
_Closed
 10
1014.469883728088
 20
41.87721945641214
 30
0.0
  0
MTEXT
  5
4822
330
456C
100
AcDbEntity
  8
寸法線
 62
     0
100
AcDbMText
 10
987.909366143088
 20
43.87721945641215
 30
0.0
 40
2.0
 41
0.0
 71
     5
 72
     1
  1
500
  7
OKANO
 73
     1
 44
1.0
  0
POINT
  5
4823
330
456C
100
AcDbEntity
  8
Defpoints
 62
     0
100
AcDbPoint
 10
961.348848558088
 20
61.70679447303746
 30
0.0
  0
POINT
  5
4824
330
456C
100
AcDbEntity
  8
Defpoints
 62
     0
100
AcDbPoint
 10
1014.469883728088
 20
49.30632302053346
 30
0.0
  0
POINT
  5
4825
330
456C
100
AcDbEntity
  8
Defpoints
 62
     0
100
AcDbPoint
 10
1014.469883728088
 20
41.87721945641214
 30
0.0
  0
ENDBLK
  5
4577
330
456C
100
AcDbEntity
  8
0
100
AcDbBlockEnd
  0
BLOCK
  5
46CB
330
46C1
100
AcDbEntity
  8
0
100
AcDbBlockBegin
  2
*D5
 70
     1
 10
0.0
 20
0.0
 30
0.0
  3
*D5
  1

  0
LINE
  5
473D
330
46C1
100
AcDbEntity
  8
寸法線
 62
     0
370
    -2
100
AcDbLine
 10
960.8488485580879
 20
69.30632302053346
 30
0.0
 11
960.8488485580879
 21
77.7063230205336
 31
0.0
  0
LINE
  5
473E
330
46C1
100
AcDbEntity
  8
寸法線
 62
     0
370
    -2
100
AcDbLine
 10
984.6488485580879
 20
71.7063230205336
 30
0.0
 11
984.6488485580879
 21
77.7063230205336
 31
0.0
  0
LINE
  5
473F
330
46C1
100
AcDbEntity
  8
寸法線
 62
     0
370
    -2
100
AcDbLine
 10
963.8488485580879
 20
74.7063230205336
 30
0.0
 11
981.648848558088
 21
74.7063230205336
 31
0.0
  0
INSERT
  5
4740
330
46C1
100
AcDbEntity
  8
寸法線
 62
     0
370
    -2
100
AcDbBlockReference
  2
_Closed
 10
960.8488485580879
 20
74.7063230205336
 30
0.0
 41
3.0
 42
3.0
 43
3.0
 50
180.0
  0
INSERT
  5
4741
330
46C1
100
AcDbEntity
  8
寸法線
 62
     0
370
    -2
100
AcDbBlockReference
  2
_Closed
 10
984.6488485580879
 20
74.7063230205336
 30
0.0
 41
3.0
 42
3.0
 43
3.0
  0
MTEXT
  5
4742
330
46C1
100
AcDbEntity
  8
寸法線
 62
     0
100
AcDbMText
 10
972.7488485580879
 20
76.70651987092731
 30
0.0
 40
2.0
 41
0.0
 71
     5
 72
     1
  1
236
  7
OKANO
 73
     1
 44
1.0
  0
POINT
  5
4743
330
46C1
100
AcDbEntity
  8
Defpoints
 62
     0
100
AcDbPoint
 10
960.8488485580879
 20
67.30632302053345
 30
0.0
  0
POINT
  5
4744
330
46C1
100
AcDbEntity
  8
Defpoints
 62
     0
100
AcDbPoint
 10
984.6488485580879
 20
69.7063230205336
 30
0.0
  0
POINT
  5
4745
330
46C1
100
AcDbEntity
  8
Defpoints
 62
     0
100
AcDbPoint
 10
984.6488485580879
 20
74.7063230205336
 30
0.0
  0
ENDBLK
  5
46CC
330
46C1
100
AcDbEntity
  8
0
100
AcDbBlockEnd
  0
BLOCK
  5
46F5
330
46E9
100
AcDbEntity
  8
0
100
AcDbBlockBegin
  2
*D6
 70
     1
 10
0.0
 20
0.0
 30
0.0
  3
*D6
  1

  0
LINE
  5
475C
330
46E9
100
AcDbEntity
  8
寸法線
 62
     0
370
    -2
100
AcDbLine
 10
1014.469883728088
 20
81.30632302053346
 30
0.0
 11
1014.469883728088
 21
85.00060196544973
 31
0.0
  0
LINE
  5
475D
330
46E9
100
AcDbEntity
  8
寸法線
 62
     0
370
    -2
100
AcDbLine
 10
1006.669883728088
 20
60.90632302053342
 30
0.0
 11
1006.669883728088
 21
85.00060196544973
 31
0.0
  0
LINE
  5
475E
330
46E9
100
AcDbEntity
  8
寸法線
 62
     0
370
    -2
100
AcDbLine
 10
1017.469883728088
 20
82.00060196544972
 30
0.0
 11
1020.469883728088
 21
82.00060196544972
 31
0.0
  0
LINE
  5
475F
330
46E9
100
AcDbEntity
  8
寸法線
 62
     0
370
    -2
100
AcDbLine
 10
1003.669883728088
 20
82.00060196544972
 30
0.0
 11
1000.669883728088
 21
82.00060196544972
 31
0.0
  0
LINE
  5
4760
330
46E9
100
AcDbEntity
  8
寸法線
 62
     0
370
    -2
100
AcDbLine
 10
1014.469883728088
 20
82.00060196544972
 30
0.0
 11
1006.669883728088
 21
82.00060196544972
 31
0.0
  0
INSERT
  5
4761
330
46E9
100
AcDbEntity
  8
寸法線
 62
     0
370
    -2
100
AcDbBlockReference
  2
_Closed
 10
1014.469883728088
 20
82.00060196544972
 30
0.0
 41
3.0
 42
3.0
 43
3.0
 50
180.0
  0
INSERT
  5
4762
330
46E9
100
AcDbEntity
  8
寸法線
 62
     0
370
    -2
100
AcDbBlockReference
  2
_Closed
 10
1006.669883728088
 20
82.00060196544972
 30
0.0
 41
3.0
 42
3.0
 43
3.0
  0
MTEXT
  5
4763
330
46E9
100
AcDbEntity
  8
寸法線
 62
     0
100
AcDbMText
 10
1010.569883728088
 20
84.00060196544973
 30
0.0
 40
2.0
 41
0.0
 71
     5
 72
     1
  1
78
  7
OKANO
 73
     1
 44
1.0
  0
POINT
  5
4764
330
46E9
100
AcDbEntity
  8
Defpoints
 62
     0
100
AcDbPoint
 10
1014.469883728088
 20
79.30632302053346
 30
0.0
  0
POINT
  5
4765
330
46E9
100
AcDbEntity
  8
Defpoints
 62
     0
100
AcDbPoint
 10
1006.669883728088
 20
58.90632302053342
 30
0.0
  0
POINT
  5
4766
330
46E9
100
AcDbEntity
  8
Defpoints
 62
     0
100
AcDbPoint
 10
1006.669883728088
 20
82.00060196544972
 30
0.0
  0
ENDBLK
  5
46F6
330
46E9
100
AcDbEntity
  8
0
100
AcDbBlockEnd
  0
BLOCK
  5
4711
330
4705
100
AcDbEntity
  8
0
100
AcDbBlockBegin
  2
*D7
 70
     1
 10
0.0
 20
0.0
 30
0.0
  3
*D7
  1

  0
LINE
  5
4751
330
4705
100
AcDbEntity
  8
寸法線
 62
     0
370
    -2
100
AcDbLine
 10
1004.669883728088
 20
58.90632302053342
 30
0.0
 11
997.6927122572218
 21
58.90632302053342
 31
0.0
  0
LINE
  5
4752
330
4705
100
AcDbEntity
  8
寸法線
 62
     0
370
    -2
100
AcDbLine
 10
1004.669883728088
 20
64.25748206539089
 30
0.0
 11
997.6927122572218
 21
64.25748206539089
 31
0.0
  0
LINE
  5
4753
330
4705
100
AcDbEntity
  8
寸法線
 62
     0
370
    -2
100
AcDbLine
 10
1000.692712257222
 20
55.90632302053342
 30
0.0
 11
1000.692712257222
 21
52.90632302053342
 31
0.0
  0
LINE
  5
4754
330
4705
100
AcDbEntity
  8
寸法線
 62
     0
370
    -2
100
AcDbLine
 10
1000.692712257222
 20
67.25748206539089
 30
0.0
 11
1000.692712257222
 21
70.25748206539089
 31
0.0
  0
LINE
  5
4755
330
4705
100
AcDbEntity
  8
寸法線
 62
     0
370
    -2
100
AcDbLine
 10
1000.692712257222
 20
58.90632302053342
 30
0.0
 11
1000.692712257222
 21
64.25748206539089
 31
0.0
  0
INSERT
  5
4756
330
4705
100
AcDbEntity
  8
寸法線
 62
     0
370
    -2
100
AcDbBlockReference
  2
_Closed
 10
1000.692712257222
 20
58.90632302053342
 30
0.0
 41
3.0
 42
3.0
 43
3.0
 50
90.0
  0
INSERT
  5
4757
330
4705
100
AcDbEntity
  8
寸法線
 62
     0
370
    -2
100
AcDbBlockReference
  2
_Closed
 10
1000.692712257222
 20
64.25748206539089
 30
0.0
 41
3.0
 42
3.0
 43
3.0
 50
270.0
  0
MTEXT
  5
4758
330
4705
100
AcDbEntity
  8
寸法線
 62
     0
100
AcDbMText
 10
998.692712257222
 20
61.58190254296232
 30
0.0
 40
2.0
 41
0.0
 71
     5
 72
     1
  1
54
  7
OKANO
 11
0.0000000000000001
 21
1.0
 31
0.0
 73
     1
 44
1.0
  0
POINT
  5
4759
330
4705
100
AcDbEntity
  8
Defpoints
 62
     0
100
AcDbPoint
 10
1006.669883728088
 20
58.90632302053342
 30
0.0
  0
POINT
  5
475A
330
4705
100
AcDbEntity
  8
Defpoints
 62
     0
100
AcDbPoint
 10
1006.669883728088
 20
64.25748206539089
 30
0.0
  0
POINT
  5
475B
330
4705
100
AcDbEntity
  8
Defpoints
 62
     0
100
AcDbPoint
 10
1000.692712257222
 20
64.25748206539089
 30
0.0
  0
ENDBLK
  5
4712
330
4705
100
AcDbEntity
  8
0
100
AcDbBlockEnd
  0
BLOCK
  5
477D
330
4771
100
AcDbEntity
  8
0
100
AcDbBlockBegin
  2
*D8
 70
     1
 10
0.0
 20
0.0
 30
0.0
  3
*D8
  1

  0
LINE
  5
4795
330
4771
100
AcDbEntity
  8
寸法線
 62
     0
370
    -2
100
AcDbLine
 10
986.6488485580878
 20
69.7063230205336
 30
0.0
 11
992.2940902665144
 21
69.70632302053359
 31
0.0
  0
LINE
  5
4796
330
4771
100
AcDbEntity
  8
寸法線
 62
     0
370
    -2
100
AcDbLine
 10
987.8488485580879
 20
64.25748206539089
 30
0.0
 11
992.2940902665144
 21
64.25748206539087
 31
0.0
  0
LINE
  5
4797
330
4771
100
AcDbEntity
  8
寸法線
 62
     0
370
    -2
100
AcDbLine
 10
989.2940902665145
 20
72.7063230205336
 30
0.0
 11
989.2940902665145
 21
75.7063230205336
 31
0.0
  0
LINE
  5
4798
330
4771
100
AcDbEntity
  8
寸法線
 62
     0
370
    -2
100
AcDbLine
 10
989.2940902665145
 20
61.25748206539088
 30
0.0
 11
989.2940902665145
 21
58.25748206539088
 31
0.0
  0
LINE
  5
4799
330
4771
100
AcDbEntity
  8
寸法線
 62
     0
370
    -2
100
AcDbLine
 10
989.2940902665145
 20
69.7063230205336
 30
0.0
 11
989.2940902665145
 21
64.25748206539089
 31
0.0
  0
INSERT
  5
479A
330
4771
100
AcDbEntity
  8
寸法線
 62
     0
370
    -2
100
AcDbBlockReference
  2
_Closed
 10
989.2940902665145
 20
69.7063230205336
 30
0.0
 41
3.0
 42
3.0
 43
3.0
 50
270.0
  0
INSERT
  5
479B
330
4771
100
AcDbEntity
  8
寸法線
 62
     0
370
    -2
100
AcDbBlockReference
  2
_Closed
 10
989.2940902665145
 20
64.25748206539089
 30
0.0
 41
3.0
 42
3.0
 43
3.0
 50
90.0
  0
MTEXT
  5
479C
330
4771
100
AcDbEntity
  8
寸法線
 62
     0
100
AcDbMText
 10
987.2940902665146
 20
66.9819025429624
 30
0.0
 40
2.0
 41
0.0
 71
     5
 72
     1
  1
54
  7
OKANO
 11
0.0000000000000001
 21
1.0
 31
0.0
 73
     1
 44
1.0
  0
POINT
  5
479D
330
4771
100
AcDbEntity
  8
Defpoints
 62
     0
100
AcDbPoint
 10
984.6488485580879
 20
69.7063230205336
 30
0.0
  0
POINT
  5
479E
330
4771
100
AcDbEntity
  8
Defpoints
 62
     0
100
AcDbPoint
 10
985.8488485580879
 20
64.25748206539089
 30
0.0
  0
POINT
  5
479F
330
4771
100
AcDbEntity
  8
Defpoints
 62
     0
100
AcDbPoint
 10
989.2940902665145
 20
64.25748206539089
 30
0.0
  0
ENDBLK
  5
477E
330
4771
100
AcDbEntity
  8
0
100
AcDbBlockEnd
  0
BLOCK
  5
4804
330
47FB
100
AcDbEntity
  8
0
100
AcDbBlockBegin
  2
*D9
 70
     1
 10
0.0
 20
0.0
 30
0.0
  3
*D9
  1

  0
LINE
  5
480E
330
47FB
100
AcDbEntity
  8
寸法線
 62
     0
370
    -2
100
AcDbLine
 10
1019.552412375727
 20
49.94123172056657
 30
0.0
 11
1009.337502121054
 21
57.0498984706225
 31
0.0
  0
LINE
  5
480F
330
47FB
100
AcDbEntity
  8
寸法線
 62
     0
370
    -2
100
AcDbLine
 10
1004.002265335123
 20
60.76274757044444
 30
0.0
 11
1001.539848357001
 21
62.47637023190072
 31
0.0
  0
MTEXT
  5
4810
330
47FB
100
AcDbEntity
  8
寸法線
 62
     0
100
AcDbMText
 10
1016.818693287521
 20
54.28052665953169
 30
0.0
 40
2.0
 41
0.0
 71
     5
 72
     1
  1
Φ5×2
  7
OKANO
 11
0.8208056593740087
 21
-0.5712075538187492
 31
0.0
 73
     1
 44
1.0
  0
LINE
  5
4811
330
47FB
100
AcDbEntity
  8
寸法線
 62
     0
370
    -2
100
AcDbLine
 10
1006.464682313245
 20
59.04912490898823
 30
0.0
 11
1006.875085142932
 21
58.76352113207878
 31
0.0
  0
INSERT
  5
4812
330
47FB
100
AcDbEntity
  8
寸法線
 62
     0
370
    -2
100
AcDbBlockReference
  2
_Closed
 10
1006.464682313245
 20
59.04912490898823
 30
0.0
 41
3.0
 42
3.0
 43
3.0
 50
325.1655248505019
  0
INSERT
  5
4813
330
47FB
100
AcDbEntity
  8
寸法線
 62
     0
370
    -2
100
AcDbBlockReference
  2
_Closed
 10
1006.875085142932
 20
58.76352113207878
 30
0.0
 41
3.0
 42
3.0
 43
3.0
 50
145.1655248505019
  0
POINT
  5
4814
330
47FB
100
AcDbEntity
  8
Defpoints
 62
     0
100
AcDbPoint
 10
1006.875085142932
 20
58.76352113207878
 30
0.0
  0
POINT
  5
4815
330
47FB
100
AcDbEntity
  8
Defpoints
 62
     0
100
AcDbPoint
 10
1006.464682313245
 20
59.04912490898823
 30
0.0
  0
ENDBLK
  5
4805
330
47FB
100
AcDbEntity
  8
0
100
AcDbBlockEnd
  0
BLOCK
  5
4BEC
330
4BE2
100
AcDbEntity
  8
0
100
AcDbBlockBegin
  2
*D10
 70
     1
 10
0.0
 20
0.0
 30
0.0
  3
*D10
  1

  0
LINE
  5
4C3E
330
4BE2
100
AcDbEntity
  8
太線
 62
     0
370
    -2
100
AcDbLine
 10
2632.315200488132
 20
-293.6446202361495
 30
0.0
 11
2632.315200488132
 21
-252.2047622509997
 31
0.0
  0
LINE
  5
4C3F
330
4BE2
100
AcDbEntity
  8
太線
 62
     0
370
    -2
100
AcDbLine
 10
3133.900894193907
 20
-293.6446202361494
 30
0.0
 11
3133.900894193907
 21
-252.2047622509997
 31
0.0
  0
LINE
  5
4C40
330
4BE2
100
AcDbEntity
  8
太線
 62
     0
370
    -2
100
AcDbLine
 10
2635.315200488132
 20
-255.2047622509998
 30
0.0
 11
3130.900894193908
 21
-255.2047622509998
 31
0.0
  0
INSERT
  5
4C41
330
4BE2
100
AcDbEntity
  8
太線
 62
     0
370
    -2
100
AcDbBlockReference
  2
_Closed
 10
2632.315200488132
 20
-255.2047622509998
 30
0.0
 41
3.0
 42
3.0
 43
3.0
 50
180.0
  0
INSERT
  5
4C42
330
4BE2
100
AcDbEntity
  8
太線
 62
     0
370
    -2
100
AcDbBlockReference
  2
_Closed
 10
3133.900894193907
 20
-255.2047622509998
 30
0.0
 41
3.0
 42
3.0
 43
3.0
  0
MTEXT
  5
4C43
330
4BE2
100
AcDbEntity
  8
太線
 62
     0
100
AcDbMText
 10
2883.10804734102
 20
-239.2047622509998
 30
0.0
 40
30.0
 41
0.0
 71
     5
 72
     1
  1
500
  7
OKANO
 73
     1
 44
1.0
  0
POINT
  5
4C44
330
4BE2
100
AcDbEntity
  8
Defpoints
 62
     0
100
AcDbPoint
 10
2632.315200488132
 20
-295.6446202361495
 30
0.0
  0
POINT
  5
4C45
330
4BE2
100
AcDbEntity
  8
Defpoints
 62
     0
100
AcDbPoint
 10
3133.900894193907
 20
-295.6446202361494
 30
0.0
  0
POINT
  5
4C46
330
4BE2
100
AcDbEntity
  8
Defpoints
 62
     0
100
AcDbPoint
 10
3133.900894193907
 20
-255.2047622509998
 30
0.0
  0
ENDBLK
  5
4BED
330
4BE2
100
AcDbEntity
  8
0
100
AcDbBlockEnd
  0
BLOCK
  5
4BF9
330
4BEF
100
AcDbEntity
  8
0
100
AcDbBlockBegin
  2
*D11
 70
     1
 10
0.0
 20
0.0
 30
0.0
  3
*D11
  1

  0
LINE
  5
4C50
330
4BEF
100
AcDbEntity
  8
太線
 62
     0
370
    -2
100
AcDbLine
 10
3315.09432152141
 20
-491.1872451697429
 30
0.0
 11
3380.196575013429
 21
-491.1872451697429
 31
0.0
  0
LINE
  5
4C51
330
4BEF
100
AcDbEntity
  8
太線
 62
     0
370
    -2
100
AcDbLine
 10
3312.29432152141
 20
-791.1872451697429
 30
0.0
 11
3380.196575013429
 21
-791.187245169743
 31
0.0
  0
LINE
  5
4C52
330
4BEF
100
AcDbEntity
  8
太線
 62
     0
370
    -2
100
AcDbLine
 10
3377.19657501343
 20
-494.1872451697429
 30
0.0
 11
3377.19657501343
 21
-788.1872451697431
 31
0.0
  0
INSERT
  5
4C53
330
4BEF
100
AcDbEntity
  8
太線
 62
     0
370
    -2
100
AcDbBlockReference
  2
_Closed
 10
3377.19657501343
 20
-491.1872451697429
 30
0.0
 41
3.0
 42
3.0
 43
3.0
 50
90.0
  0
INSERT
  5
4C54
330
4BEF
100
AcDbEntity
  8
太線
 62
     0
370
    -2
100
AcDbBlockReference
  2
_Closed
 10
3377.19657501343
 20
-791.187245169743
 30
0.0
 41
3.0
 42
3.0
 43
3.0
 50
270.0
  0
MTEXT
  5
4C55
330
4BEF
100
AcDbEntity
  8
太線
 62
     0
100
AcDbMText
 10
3361.196575013429
 20
-641.1872451697425
 30
0.0
 40
30.0
 41
0.0
 71
     5
 72
     1
  1
300
  7
OKANO
 11
0.0000000000000001
 21
1.0
 31
0.0
 73
     1
 44
1.0
  0
POINT
  5
4C56
330
4BEF
100
AcDbEntity
  8
Defpoints
 62
     0
100
AcDbPoint
 10
3313.094321521409
 20
-491.1872451697429
 30
0.0
  0
POINT
  5
4C57
330
4BEF
100
AcDbEntity
  8
Defpoints
 62
     0
100
AcDbPoint
 10
3310.294321521409
 20
-791.1872451697429
 30
0.0
  0
POINT
  5
4C58
330
4BEF
100
AcDbEntity
  8
Defpoints
 62
     0
100
AcDbPoint
 10
3377.19657501343
 20
-791.187245169743
 30
0.0
  0
ENDBLK
  5
4BFA
330
4BEF
100
AcDbEntity
  8
0
100
AcDbBlockEnd
  0
BLOCK
  5
4C06
330
4BFC
100
AcDbEntity
  8
0
100
AcDbBlockBegin
  2
*D12
 70
     1
 10
0.0
 20
0.0
 30
0.0
  3
*D12
  1

  0
LINE
  5
4C47
330
4BFC
100
AcDbEntity
  8
太線
 62
     0
370
    -2
100
AcDbLine
 10
2627.115200488132
 20
-358.9446202361494
 30
0.0
 11
2603.391224486446
 21
-358.9446202361494
 31
0.0
  0
LINE
  5
4C48
330
4BFC
100
AcDbEntity
  8
太線
 62
     0
370
    -2
100
AcDbLine
 10
2627.115200488132
 20
-295.6446202361494
 30
0.0
 11
2603.391224486446
 21
-295.6446202361494
 31
0.0
  0
LINE
  5
4C49
330
4BFC
100
AcDbEntity
  8
太線
 62
     0
370
    -2
100
AcDbLine
 10
2606.391224486446
 20
-355.9446202361495
 30
0.0
 11
2606.391224486446
 21
-298.6446202361495
 31
0.0
  0
INSERT
  5
4C4A
330
4BFC
100
AcDbEntity
  8
太線
 62
     0
370
    -2
100
AcDbBlockReference
  2
_Closed
 10
2606.391224486446
 20
-358.9446202361494
 30
0.0
 41
3.0
 42
3.0
 43
3.0
 50
270.0
  0
INSERT
  5
4C4B
330
4BFC
100
AcDbEntity
  8
太線
 62
     0
370
    -2
100
AcDbBlockReference
  2
_Closed
 10
2606.391224486446
 20
-295.6446202361494
 30
0.0
 41
3.0
 42
3.0
 43
3.0
 50
90.0
  0
MTEXT
  5
4C4C
330
4BFC
100
AcDbEntity
  8
太線
 62
     0
100
AcDbMText
 10
2590.391224486446
 20
-327.2946202361491
 30
0.0
 40
30.0
 41
0.0
 71
     5
 72
     1
  1
63
  7
OKANO
 11
0.0000000000000001
 21
1.0
 31
0.0
 73
     1
 44
1.0
  0
POINT
  5
4C4D
330
4BFC
100
AcDbEntity
  8
Defpoints
 62
     0
100
AcDbPoint
 10
2629.115200488132
 20
-358.9446202361494
 30
0.0
  0
POINT
  5
4C4E
330
4BFC
100
AcDbEntity
  8
Defpoints
 62
     0
100
AcDbPoint
 10
2629.115200488132
 20
-295.6446202361494
 30
0.0
  0
POINT
  5
4C4F
330
4BFC
100
AcDbEntity
  8
Defpoints
 62
     0
100
AcDbPoint
 10
2606.391224486446
 20
-295.6446202361494
 30
0.0
  0
ENDBLK
  5
4C07
330
4BFC
100
AcDbEntity
  8
0
100
AcDbBlockEnd
  0
ENDSEC
  0
SECTION
  2
ENTITIES
  0
LINE
  5
3F74
330
1F
100
AcDbEntity
  8
太線
100
AcDbLine
 10
961.1512074129473
 20
94.66411194674789
 30
0.0
 11
1014.796794710046
 21
94.66411194674789
 31
0.0
  0
LINE
  5
3F75
330
1F
100
AcDbEntity
  8
太線
100
AcDbLine
 10
1014.796794710046
 20
100.6641119467478
 30
0.0
 11
961.1512074129473
 21
100.6641119467478
 31
0.0
  0
LINE
  5
3F76
330
1F
100
AcDbEntity
  8
太線
100
AcDbLine
 10
961.2105015668344
 20
97.66411194674198
 30
0.0
 11
1014.831536736835
 21
97.66411194674788
 31
0.0
  0
LINE
  5
3F77
330
1F
100
AcDbEntity
  8
破線
100
AcDbLine
 10
961.2006192078533
 20
97.16411194675357
 30
0.0
 11
1014.796794710046
 21
97.16411194675742
 31
0.0
  0
LINE
  5
3FA0
330
1F
100
AcDbEntity
  8
太線
100
AcDbLine
 10
1014.796794710046
 20
94.66411194674789
 30
0.0
 11
1014.796794710046
 21
100.6641119467478
 31
0.0
  0
LINE
  5
3FA2
330
1F
100
AcDbEntity
  8
太線
100
AcDbLine
 10
1014.331536736835
 20
100.6641119467478
 30
0.0
 11
1014.331536736835
 21
97.66411194675743
 31
0.0
  0
LINE
  5
3FA4
330
1F
100
AcDbEntity
  8
太線
100
AcDbLine
 10
960.8488485580879
 20
61.30632302053346
 30
0.0
 11
960.8488485580879
 21
67.30632302053345
 31
0.0
  0
LINE
  5
3FAA
330
1F
100
AcDbEntity
  8
破線
100
AcDbLine
 10
960.8488485580878
 20
65.41892769031483
 30
0.0
 11
960.8488485580878
 21
63.19371835075196
 31
0.0
  0
LINE
  5
3FAF
330
1F
100
AcDbEntity
  8
太線
100
AcDbLine
 10
961.1512074129473
 20
100.6641119467478
 30
0.0
 11
961.1512074129473
 21
94.66411194674789
 31
0.0
  0
LINE
  5
3FB3
330
1F
100
AcDbEntity
  8
太線
100
AcDbLine
 10
961.7105015668343
 20
100.6641119467478
 30
0.0
 11
961.7105015668343
 21
97.66411194675356
 31
0.0
  0
DIMENSION
  5
4307
330
1F
100
AcDbEntity
  8
寸法線
100
AcDbDimension
  2
*D2
 10
1020.767165649781
 20
100.6568280364197
 30
0.0
 11
1018.767165649781
 21
97.58702387840225
 31
0.0
 70
    32
  1
60
 71
     5
 42
6.139608316035264
  3
sunpo
100
AcDbAlignedDimension
 13
1014.78810340167
 23
94.51721972038445
 33
0.0
 14
1014.78810340167
 24
100.6568280364197
 34
0.0
 50
90.0
100
AcDbRotatedDimension
1001
ACAD
1000
DSTYLE
1002
{
1070
   140
1040
2.0
1070
    40
1040
1.0
1002
}
  0
TEXT
  5
438C
330
1F
100
AcDbEntity
  8
太線
100
AcDbText
 10
962.9548928772543
 20
108.2177385701798
 30
0.0
 40
2.0
  1
縞鋼板　板厚2.3.ｍｍ　ベンダー曲げ加工
 51
15.0
  7
OKANO
100
AcDbText
  0
TEXT
  5
43A6
330
1F
100
AcDbEntity
  8
文字
100
AcDbText
 10
1031.274402300755
 20
39.23757908737819
 30
0.0
 40
0.702
  1
FILM NAME
 51
15.0
  7
OKANO
100
AcDbText
  0
LWPOLYLINE
  5
43A7
330
1F
100
AcDbEntity
  8
太線
100
AcDbPolyline
 90
        4
 70
     1
 43
0.0
 10
1030.666941806552
 20
41.16772335508933
 10
1062.256941806552
 20
41.16772335508933
 10
1062.256941806552
 20
33.79672335508932
 10
1030.666941806552
 20
33.79672335508932
  0
LINE
  5
43A8
330
1F
100
AcDbEntity
  8
太線
100
AcDbLine
 10
1030.666941806552
 20
38.71072335508944
 30
0.0
 11
1062.256941806552
 21
38.71072335508944
 31
0.0
  0
TEXT
  5
43A9
330
1F
100
AcDbEntity
  8
文字
100
AcDbText
 10
1031.649553697375
 20
37.36356752075256
 30
0.0
 40
0.702
  1
DRAWN
 51
15.0
  7
OKANO
100
AcDbText
  0
TEXT
  5
43AA
330
1F
100
AcDbEntity
  8
文字
100
AcDbText
 10
1031.874644471247
 20
35.26467461446833
 30
0.0
 40
0.702
  1
APPR
 51
15.0
  7
OKANO
100
AcDbText
  0
TEXT
  5
43AB
330
1F
100
AcDbEntity
  8
文字
100
AcDbText
 10
1031.799613999623
 20
34.29018857910738
 30
0.0
 40
0.702
  1
ISSUED
 51
15.0
  7
OKANO
100
AcDbText
  0
TEXT
  5
43AC
330
1F
100
AcDbEntity
  8
文字
100
AcDbText
 10
1031.799613999623
 20
36.31412115392548
 30
0.0
 40
0.702
  1
CHECK
 51
15.0
  7
OKANO
100
AcDbText
  0
TEXT
  5
43AD
330
1F
100
AcDbEntity
  8
文字
100
AcDbText
 10
1040.554407919258
 20
36.6830720930408
 30
0.0
 40
1.403999999999999
  1
R-CPL　螺旋階段プレート
 51
15.0
  7
OKANO
100
AcDbText
  0
TEXT
  5
43AE
330
1F
100
AcDbEntity
  8
文字
100
AcDbText
 10
1038.687943549674
 20
38.98005959284022
 30
0.0
 40
1.403999999999999
  1
F-999-20090728 Auto CAD
 51
15.0
  7
OKANO
100
AcDbText
  0
TEXT
  5
43AF
330
1F
100
AcDbEntity
  8
文字
100
AcDbText
 10
1040.878275105624
 20
34.6649909269586
 30
0.0
 40
1.403999999999999
  1
joint kogyo T.okano
 51
15.0
  7
OKANO
100
AcDbText
  0
LINE
  5
43B0
330
1F
100
AcDbEntity
  8
太線
100
AcDbLine
 10
1037.686941806552
 20
41.16772335508926
 30
0.0
 11
1037.686941806552
 21
33.79672335508937
 31
0.0
  0
CIRCLE
  5
43C1
330
1F
100
AcDbEntity
  8
破線
100
AcDbCircle
 10
956.548848558088
 20
69.70632302053346
 30
0.0
 40
2.7
  0
CIRCLE
  5
43C2
330
1F
100
AcDbEntity
  8
破線
100
AcDbCircle
 10
956.548848558088
 20
69.70632302053346
 30
0.0
 40
2.399999999999999
  0
LINE
  5
43C5
330
1F
100
AcDbEntity
  8
破線
100
AcDbLine
 10
960.8488485580879
 20
67.00632302053346
 30
0.0
 11
952.2488485580879
 21
67.00632302053346
 31
0.0
  0
LINE
  5
43C6
330
1F
100
AcDbEntity
  8
破線
100
AcDbLine
 10
952.2488485580879
 20
67.00632302053346
 30
0.0
 11
952.2488485580879
 21
61.68566652929758
 31
0.0
  0
LINE
  5
43C7
330
1F
100
AcDbEntity
  8
破線
100
AcDbLine
 10
952.2488485580879
 20
61.68566652929758
 30
0.0
 11
960.8488485580879
 21
61.68566652929758
 31
0.0
  0
LINE
  5
43D5
330
1F
100
AcDbEntity
  8
破線
100
AcDbLine
 10
952.2488485580879
 20
67.00632302053346
 30
0.0
 11
950.1488485580878
 21
67.00632302053346
 31
0.0
  0
LINE
  5
43D6
330
1F
100
AcDbEntity
  8
破線
100
AcDbLine
 10
952.2488485580879
 20
61.68566652929758
 30
0.0
 11
950.1488485580878
 21
61.68566652929758
 31
0.0
  0
ARC
  5
43D7
330
1F
100
AcDbEntity
  8
破線
100
AcDbCircle
 10
953.1867348212562
 20
64.34599477491549
 30
0.0
 40
4.038081143610159
100
AcDbArc
 50
138.7908202033979
 51
221.2091797966017
  0
LINE
  5
44FA
330
1F
100
AcDbEntity
  8
破線
100
AcDbLine
 10
961.348848558088
 20
66.80632302053346
 30
0.0
 11
979.8488485580879
 21
66.80632302053346
 31
0.0
  0
LINE
  5
44FC
330
1F
100
AcDbEntity
  8
太線
100
AcDbLine
 10
1014.469883728088
 20
79.30632302053346
 30
0.0
 11
960.8488485580879
 21
67.30632302053345
 31
0.0
  0
LINE
  5
44FD
330
1F
100
AcDbEntity
  8
太線
100
AcDbLine
 10
1013.969883728088
 20
78.68205879786092
 30
0.0
 11
961.348848558088
 21
66.90585156802945
 31
0.0
  0
LINE
  5
44FE
330
1F
100
AcDbEntity
  8
破線
100
AcDbLine
 10
961.348848558088
 20
61.80632302053346
 30
0.0
 11
979.8488485580879
 21
61.80632302053346
 31
0.0
  0
LINE
  5
44FF
330
1F
100
AcDbEntity
  8
太線
100
AcDbLine
 10
960.8488485580879
 20
61.30632302053346
 30
0.0
 11
1014.469883728088
 21
49.30632302053346
 31
0.0
  0
LINE
  5
4500
330
1F
100
AcDbEntity
  8
破線
100
AcDbLine
 10
961.348848558088
 20
61.70679447303746
 30
0.0
 11
1013.969883728088
 21
49.93058724320599
 31
0.0
  0
DIMENSION
  5
4502
330
1F
100
AcDbEntity
  8
寸法線
100
AcDbDimension
  2
*D4
 10
1014.469883728088
 20
41.87721945641214
 30
0.0
 11
987.909366143088
 21
41.87721945641214
 31
0.0
 70
   160
  1
500
 71
     5
 42
53.1210351700006
  3
sunpo
100
AcDbAlignedDimension
 13
961.348848558088
 23
61.70679447303746
 33
0.0
 14
1014.469883728088
 24
49.30632302053346
 34
0.0
 50
180.0
100
AcDbRotatedDimension
1001
ACAD
1000
DSTYLE
1002
{
1070
    41
1040
1.0
1070
   140
1040
2.0
1070
    40
1040
1.0
1002
}
  0
LINE
  5
4504
330
1F
100
AcDbEntity
  8
太線
100
AcDbLine
 10
1014.469883728088
 20
49.30632302053346
 30
0.0
 11
1014.469883728088
 21
79.30632302053346
 31
0.0
  0
LINE
  5
4505
330
1F
100
AcDbEntity
  8
太線
100
AcDbLine
 10
1013.969883728088
 20
49.93058724320599
 30
0.0
 11
1013.969883728088
 21
78.68205879786092
 31
0.0
  0
LINE
  5
4508
330
1F
100
AcDbEntity
  8
太線
100
AcDbLine
 10
1039.848848558087
 20
79.30632302053346
 30
0.0
 11
1039.848848558087
 21
49.80632302053345
 31
0.0
  0
LINE
  5
4509
330
1F
100
AcDbEntity
  8
破線
100
AcDbLine
 10
1039.348848558087
 20
78.80632302053346
 30
0.0
 11
1039.348848558087
 21
49.80632302053345
 31
0.0
  0
LINE
  5
450A
330
1F
100
AcDbEntity
  8
太線
100
AcDbLine
 10
1036.848848558088
 20
79.30632302053346
 30
0.0
 11
1036.848848558088
 21
51.66734551851368
 31
0.0
  0
DIMENSION
  5
450B
330
1F
100
AcDbEntity
  8
寸法線
100
AcDbDimension
  2
*D3
 10
1028.594362016168
 20
79.30632302053346
 30
0.0
 11
1026.594362016168
 21
64.30632302053362
 31
0.0
 70
    32
  1
300
 71
     5
 42
30.0
  3
sunpo
100
AcDbAlignedDimension
 13
1014.469883728088
 23
49.30632302053346
 33
0.0
 14
1014.469883728088
 24
79.30632302053346
 34
0.0
 50
90.0
100
AcDbRotatedDimension
1001
ACAD
1000
DSTYLE
1002
{
1070
    41
1040
1.0
1070
   140
1040
2.0
1070
    40
1040
1.0
1002
}
  0
CIRCLE
  5
450C
330
1F
100
AcDbEntity
  8
想像線
100
AcDbCircle
 10
1018.969883728088
 20
64.25748206539089
 30
0.0
 40
2.515910220636669
  0
LINE
  5
450D
330
1F
100
AcDbEntity
  8
太線
100
AcDbLine
 10
1039.348848558087
 20
49.30632302053346
 30
0.0
 11
1042.848848558087
 21
49.30632302053346
 31
0.0
  0
LINE
  5
450E
330
1F
100
AcDbEntity
  8
太線
100
AcDbLine
 10
1042.848848558087
 20
49.80632302053345
 30
0.0
 11
1039.848848558087
 21
49.80632302053345
 31
0.0
  0
LINE
  5
450F
330
1F
100
AcDbEntity
  8
太線
100
AcDbLine
 10
1042.848848558087
 20
49.30632302053346
 30
0.0
 11
1042.848848558087
 21
49.80632302053345
 31
0.0
  0
CIRCLE
  5
4510
330
1F
100
AcDbEntity
  8
太線
100
AcDbCircle
 10
1042.848848558087
 20
64.30632302053351
 30
0.0
 40
2.5
  0
LINE
  5
4511
330
1F
100
AcDbEntity
  8
太線
100
AcDbLine
 10
1039.348848558087
 20
49.80632302053345
 30
0.0
 11
1039.348848558087
 21
49.30632302053346
 31
0.0
  0
ARC
  5
4512
330
1F
100
AcDbEntity
  8
太線
100
AcDbCircle
 10
1039.189141823057
 20
52.26457727591384
 30
0.0
 40
2.415296739141376
100
AcDbArc
 50
194.3160560838469
 51
271.0484370355239
  0
LINE
  5
4513
330
1F
100
AcDbEntity
  8
破線
100
AcDbLine
 10
1036.848848558088
 20
66.80632302053346
 30
0.0
 11
1039.348848558087
 21
66.80632302053346
 31
0.0
  0
LINE
  5
4514
330
1F
100
AcDbEntity
  8
太線
100
AcDbLine
 10
1039.260460015058
 20
49.80632302053345
 30
0.0
 11
1039.348848558087
 21
49.80632302053345
 31
0.0
  0
ARC
  5
4515
330
1F
100
AcDbEntity
  8
破線
100
AcDbCircle
 10
1039.304654286575
 20
64.22121540001382
 30
0.0
 40
2.415296739141291
100
AcDbArc
 50
182.77109039055
 51
271.0484370355254
  0
LINE
  5
4516
330
1F
100
AcDbEntity
  8
破線
100
AcDbLine
 10
985.8488485580879
 20
66.80632302053346
 30
0.0
 11
1005.469883728088
 21
66.80632302053346
 31
0.0
  0
LINE
  5
4517
330
1F
100
AcDbEntity
  8
破線
100
AcDbLine
 10
985.8488485580879
 20
61.80632302053346
 30
0.0
 11
1005.469883728088
 21
61.80632302053346
 31
0.0
  0
LINE
  5
451A
330
1F
100
AcDbEntity
  8
太線
100
AcDbLine
 10
1013.969883728088
 20
49.93058724320599
 30
0.0
 11
1014.469883728088
 21
49.30632302053346
 31
0.0
  0
LINE
  5
451B
330
1F
100
AcDbEntity
  8
破線
100
AcDbLine
 10
1011.469883728088
 20
66.80632302053346
 30
0.0
 11
1013.969883728088
 21
66.80632302053346
 31
0.0
  0
LINE
  5
451C
330
1F
100
AcDbEntity
  8
想像線
100
AcDbLine
 10
1013.969883728088
 20
66.7733922860275
 30
0.0
 11
1018.969883728088
 21
66.7733922860275
 31
0.0
  0
LINE
  5
451D
330
1F
100
AcDbEntity
  8
破線
100
AcDbLine
 10
1011.469883728088
 20
67.30632302053345
 30
0.0
 11
1005.469883728088
 21
67.30632302053345
 31
0.0
  0
LINE
  5
451E
330
1F
100
AcDbEntity
  8
破線
100
AcDbLine
 10
1011.469883728088
 20
61.80632302053346
 30
0.0
 11
1013.969883728088
 21
61.80632302053346
 31
0.0
  0
LINE
  5
451F
330
1F
100
AcDbEntity
  8
想像線
100
AcDbLine
 10
1013.969883728088
 20
61.80632302053346
 30
0.0
 11
1018.402765067561
 21
61.80632302053346
 31
0.0
  0
CIRCLE
  5
4520
330
1F
100
AcDbEntity
  8
太線
100
AcDbCircle
 10
1006.669883728088
 20
58.90632302053342
 30
0.0
 40
0.25
  0
LINE
  5
4522
330
1F
100
AcDbEntity
  8
破線
100
AcDbLine
 10
1005.469883728088
 20
58.30632302053345
 30
0.0
 11
1011.469883728088
 21
58.30632302053345
 31
0.0
  0
LINE
  5
4523
330
1F
100
AcDbEntity
  8
破線
100
AcDbLine
 10
1005.469883728088
 20
67.30632302053345
 30
0.0
 11
1005.469883728088
 21
58.30632302053345
 31
0.0
  0
LINE
  5
4524
330
1F
100
AcDbEntity
  8
破線
100
AcDbLine
 10
1011.469883728088
 20
58.30632302053345
 30
0.0
 11
1011.469883728088
 21
67.30632302053345
 31
0.0
  0
CIRCLE
  5
4526
330
1F
100
AcDbEntity
  8
太線
100
AcDbCircle
 10
984.6488485580879
 20
69.7063230205336
 30
0.0
 40
0.25
  0
LINE
  5
4527
330
1F
100
AcDbEntity
  8
破線
100
AcDbLine
 10
979.8488485580879
 20
70.30632302053345
 30
0.0
 11
985.8488485580879
 21
70.30632302053345
 31
0.0
  0
LINE
  5
4528
330
1F
100
AcDbEntity
  8
破線
100
AcDbLine
 10
985.8488485580879
 20
61.30632302053346
 30
0.0
 11
979.8488485580879
 21
61.30632302053346
 31
0.0
  0
LINE
  5
4529
330
1F
100
AcDbEntity
  8
破線
100
AcDbLine
 10
979.8488485580879
 20
61.30632302053346
 30
0.0
 11
979.8488485580879
 21
70.30632302053345
 31
0.0
  0
LINE
  5
452A
330
1F
100
AcDbEntity
  8
破線
100
AcDbLine
 10
985.8488485580879
 20
70.30632302053345
 30
0.0
 11
985.8488485580879
 21
61.30632302053346
 31
0.0
  0
LINE
  5
452B
330
1F
100
AcDbEntity
  8
太線
100
AcDbLine
 10
1036.848848558088
 20
79.30632302053346
 30
0.0
 11
1039.848848558087
 21
79.30632302053346
 31
0.0
  0
LINE
  5
452C
330
1F
100
AcDbEntity
  8
破線
100
AcDbLine
 10
1036.848848558088
 20
78.80632302053346
 30
0.0
 11
1039.348848558087
 21
78.80632302053346
 31
0.0
  0
LINE
  5
4533
330
1F
100
AcDbEntity
  8
破線
100
AcDbLine
 10
960.8488485580878
 20
65.41892769031483
 30
0.0
 11
960.8488485580878
 21
63.19371835075208
 31
0.0
  0
LINE
  5
4534
330
1F
100
AcDbEntity
  8
太線
100
AcDbLine
 10
961.348848558088
 20
61.80632302053346
 30
0.0
 11
960.8488485580879
 21
61.30632302053346
 31
0.0
  0
LINE
  5
4535
330
1F
100
AcDbEntity
  8
太線
100
AcDbLine
 10
960.8488485580879
 20
61.30632302053346
 30
0.0
 11
960.8488485580879
 21
67.30632302053345
 31
0.0
  0
LINE
  5
4536
330
1F
100
AcDbEntity
  8
太線
100
AcDbLine
 10
961.348848558088
 20
66.90585156802945
 30
0.0
 11
961.348848558088
 21
61.70679447303746
 31
0.0
  0
DIMENSION
  5
46C0
330
1F
100
AcDbEntity
  8
寸法線
100
AcDbDimension
  2
*D5
 10
984.6488485580879
 20
74.7063230205336
 30
0.0
 11
972.7488485580879
 21
76.70651987092731
 31
0.0
 70
    32
  1
236
 71
     5
 42
23.79999999999995
  3
sunpo
100
AcDbAlignedDimension
 13
960.8488485580879
 23
67.30632302053345
 33
0.0
 14
984.6488485580879
 24
69.7063230205336
 34
0.0
100
AcDbRotatedDimension
1001
ACAD
1000
DSTYLE
1002
{
1070
   140
1040
2.0
1070
    40
1040
1.0
1002
}
  0
DIMENSION
  5
46E8
330
1F
100
AcDbEntity
  8
寸法線
100
AcDbDimension
  2
*D6
 10
1006.669883728088
 20
82.00060196544972
 30
0.0
 11
1010.569883728088
 21
84.00060196544973
 31
0.0
 70
    32
  1
78
 71
     5
 42
7.799999999999954
  3
sunpo
100
AcDbAlignedDimension
 13
1014.469883728088
 23
79.30632302053346
 33
0.0
 14
1006.669883728088
 24
58.90632302053342
 34
0.0
100
AcDbRotatedDimension
1001
ACAD
1000
DSTYLE
1002
{
1070
   140
1040
2.0
1070
    40
1040
1.0
1002
}
  0
LINE
  5
4702
330
1F
100
AcDbEntity
  8
中心線
100
AcDbLine
 10
1018.969883728088
 20
64.25748206539089
 30
0.0
 11
945.8823289102534
 21
64.25748206539089
 31
0.0
  0
DIMENSION
  5
4704
330
1F
100
AcDbEntity
  8
寸法線
100
AcDbDimension
  2
*D7
 10
1000.692712257222
 20
64.25748206539089
 30
0.0
 11
998.692712257222
 21
61.58190254296232
 31
0.0
 70
    32
  1
54
 71
     5
 42
5.351159044857475
  3
sunpo
100
AcDbAlignedDimension
 13
1006.669883728088
 23
58.90632302053342
 33
0.0
 14
1006.669883728088
 24
64.25748206539089
 34
0.0
 50
90.0
100
AcDbRotatedDimension
1001
ACAD
1000
DSTYLE
1002
{
1070
   140
1040
2.0
1070
    40
1040
1.0
1002
}
  0
DIMENSION
  5
4770
330
1F
100
AcDbEntity
  8
寸法線
100
AcDbDimension
  2
*D8
 10
989.2940902665145
 20
64.25748206539089
 30
0.0
 11
987.2940902665146
 21
66.9819025429624
 31
0.0
 70
    32
  1
54
 71
     5
 42
5.448840955142713
  3
sunpo
100
AcDbAlignedDimension
 13
984.6488485580879
 23
69.7063230205336
 33
0.0
 14
985.8488485580879
 24
64.25748206539089
 34
0.0
 50
90.0
100
AcDbRotatedDimension
1001
ACAD
1000
DSTYLE
1002
{
1070
   140
1040
2.0
1070
    40
1040
1.0
1002
}
  0
DIMENSION
  5
47FA
330
1F
100
AcDbEntity
  8
寸法線
100
AcDbDimension
  2
*D9
 10
1006.464682313245
 20
59.04912490898823
 30
0.0
 11
1016.818693287521
 21
54.28052665953169
 31
0.0
 70
    35
  1
Φ5×2
 71
     5
 42
0.5000000000002274
  3
sunpo
100
AcDbDiametricDimension
 15
1006.875085142932
 25
58.76352113207878
 35
0.0
 40
0.0
1001
ACAD
1000
DSTYLE
1002
{
1070
   140
1040
2.0
1070
    40
1040
1.0
1070
   288
1070
     1
1002
}
  0
LINE
  5
48F4
330
1F
100
AcDbEntity
  8
太線
100
AcDbLine
 10
2629.115200488131
 20
1486.867833559423
 30
0.0
 11
2599.115200488132
 21
1486.867833559423
 31
0.0
  0
LINE
  5
48F5
330
1F
100
AcDbEntity
  8
太線
100
AcDbLine
 10
2599.115200488132
 20
1486.867833559423
 30
0.0
 11
2599.115200488132
 21
1426.867833559423
 31
0.0
  0
LINE
  5
48F6
330
1F
100
AcDbEntity
  8
太線
100
AcDbLine
 10
2599.115200488132
 20
1426.867833559423
 30
0.0
 11
2629.115200488131
 21
1426.867833559423
 31
0.0
  0
LINE
  5
48FD
330
1F
100
AcDbEntity
  8
構築線
100
AcDbLine
 10
3159.115200488132
 20
1186.867833559423
 30
0.0
 11
3129.115200488131
 21
1186.867833559423
 31
0.0
  0
LINE
  5
4901
330
1F
100
AcDbEntity
  8
太線
100
AcDbLine
 10
3159.115200488132
 20
1486.867833559423
 30
0.0
 11
3159.115200488132
 21
1355.377753823788
 31
0.0
  0
LINE
  5
4903
330
1F
100
AcDbEntity
  8
太線
100
AcDbLine
 10
3129.115200488131
 20
1486.867833559423
 30
0.0
 11
3129.115200488131
 21
1186.867833559423
 31
0.0
  0
LINE
  5
4907
330
1F
100
AcDbEntity
  8
構築線
100
AcDbLine
 10
2629.115200488131
 20
1426.867833559423
 30
0.0
 11
2629.115200488131
 21
1393.590814462154
 31
0.0
  0
LINE
  5
4909
330
1F
100
AcDbEntity
  8
構築線
100
AcDbLine
 10
3129.115200488131
 20
1153.590814462154
 30
0.0
 11
3129.115200488131
 21
1186.867833559423
 31
0.0
  0
LINE
  5
490A
330
1F
100
AcDbEntity
  8
構築線
100
AcDbLine
 10
3129.115200488131
 20
1186.867833559423
 30
0.0
 11
3159.115200488132
 21
1186.867833559423
 31
0.0
  0
LINE
  5
490B
330
1F
100
AcDbEntity
  8
太線
100
AcDbLine
 10
2629.115200488131
 20
1426.867833559423
 30
0.0
 11
2629.115200488131
 21
1393.590814462154
 31
0.0
  0
LINE
  5
490C
330
1F
100
AcDbEntity
  8
太線
100
AcDbLine
 10
2629.115200488131
 20
1393.590814462154
 30
0.0
 11
3129.115200488131
 21
1153.590814462154
 31
0.0
  0
LINE
  5
490D
330
1F
100
AcDbEntity
  8
太線
100
AcDbLine
 10
3129.115200488131
 20
1153.590814462154
 30
0.0
 11
3129.115200488131
 21
1186.867833559423
 31
0.0
  0
LINE
  5
490E
330
1F
100
AcDbEntity
  8
太線
100
AcDbLine
 10
3129.115200488131
 20
1186.867833559423
 30
0.0
 11
3159.115200488132
 21
1186.867833559423
 31
0.0
  0
LINE
  5
490F
330
1F
100
AcDbEntity
  8
太線
100
AcDbLine
 10
3159.115200488132
 20
1186.867833559423
 30
0.0
 11
3159.115200488132
 21
1355.377753823788
 31
0.0
  0
LINE
  5
4910
330
1F
100
AcDbEntity
  8
太線
100
AcDbLine
 10
3129.115200488131
 20
1186.867833559423
 30
0.0
 11
2629.115200488131
 21
1426.867833559423
 31
0.0
  0
LINE
  5
4911
330
1F
100
AcDbEntity
  8
太線
100
AcDbLine
 10
2629.115200488131
 20
1486.867833559423
 30
0.0
 11
2629.115200488131
 21
1431.157913295058
 31
0.0
  0
LINE
  5
4912
330
1F
100
AcDbEntity
  8
太線
100
AcDbLine
 10
2629.115200488131
 20
1486.867833559423
 30
0.0
 11
3159.115200488132
 21
1486.867833559423
 31
0.0
  0
LINE
  5
4913
330
1F
100
AcDbEntity
  8
太線
100
AcDbLine
 10
2629.115200488131
 20
1486.867833559423
 30
0.0
 11
2629.115200488131
 21
1516.867833559423
 31
0.0
  0
LINE
  5
4914
330
1F
100
AcDbEntity
  8
太線
100
AcDbLine
 10
2629.115200488131
 20
1516.867833559423
 30
0.0
 11
3129.115200488131
 21
1516.867833559423
 31
0.0
  0
LINE
  5
4915
330
1F
100
AcDbEntity
  8
太線
100
AcDbLine
 10
3129.115200488131
 20
1516.867833559423
 30
0.0
 11
3129.115200488131
 21
1486.867833559423
 31
0.0
  0
LINE
  5
4936
330
1F
100
AcDbEntity
  8
太線
100
AcDbLine
 10
2629.115200488131
 20
1426.867833559423
 30
0.0
 11
2629.115200488131
 21
1431.157913295058
 31
0.0
  0
LINE
  5
4954
330
1F
100
AcDbEntity
  8
想像線
100
AcDbLine
 10
2811.451158384222
 20
1479.952996351709
 30
0.0
 11
2791.204805675163
 21
1392.25640805017
 31
0.0
  0
LINE
  5
4955
330
1F
100
AcDbEntity
  8
想像線
100
AcDbLine
 10
2791.204805675163
 20
1392.25640805017
 30
0.0
 11
2849.550227654868
 21
1378.253506775041
 31
0.0
  0
LINE
  5
4956
330
1F
100
AcDbEntity
  8
想像線
100
AcDbLine
 10
2849.550227654868
 20
1378.253506775041
 30
0.0
 11
2869.796580363927
 21
1465.95009507658
 31
0.0
  0
LINE
  5
4957
330
1F
100
AcDbEntity
  8
想像線
100
AcDbLine
 10
2869.796580363927
 20
1465.95009507658
 30
0.0
 11
2811.451158384222
 21
1479.952996351709
 31
0.0
  0
LINE
  5
4958
330
1F
100
AcDbEntity
  8
想像線
100
AcDbLine
 10
3092.228571097364
 20
1278.874831925858
 30
0.0
 11
3112.474923806423
 21
1366.571420227397
 31
0.0
  0
LINE
  5
4959
330
1F
100
AcDbEntity
  8
想像線
100
AcDbLine
 10
3054.129501826719
 20
1380.574321502526
 30
0.0
 11
3033.883149117659
 21
1292.877733200987
 31
0.0
  0
LINE
  5
495A
330
1F
100
AcDbEntity
  8
想像線
100
AcDbLine
 10
3033.883149117659
 20
1292.877733200987
 30
0.0
 11
3092.228571097364
 21
1278.874831925858
 31
0.0
  0
LINE
  5
495B
330
1F
100
AcDbEntity
  8
想像線
100
AcDbLine
 10
3112.474923806423
 20
1366.571420227397
 30
0.0
 11
3054.129501826719
 21
1380.574321502526
 31
0.0
  0
LINE
  5
495C
330
1F
100
AcDbEntity
  8
想像線
100
AcDbLine
 10
2617.536649182883
 20
1432.425538185942
 30
0.0
 11
2629.115200488131
 21
1482.577753823787
 31
0.0
  0
LINE
  5
495D
330
1F
100
AcDbEntity
  8
想像線
100
AcDbLine
 10
2629.115200488131
 20
1482.577753823787
 30
0.0
 11
2541.597067518575
 21
1503.582105736481
 31
0.0
  0
LINE
  5
495E
330
1F
100
AcDbEntity
  8
想像線
100
AcDbLine
 10
2541.597067518575
 20
1503.582105736481
 30
0.0
 11
2530.34909379132
 21
1454.861778902293
 31
0.0
  0
LINE
  5
495F
330
1F
100
AcDbEntity
  8
想像線
100
AcDbLine
 10
2530.34909379132
 20
1454.861778902293
 30
0.0
 11
2617.536649182883
 21
1432.425538185942
 31
0.0
  0
CIRCLE
  5
4960
330
1F
100
AcDbEntity
  8
想像線
100
AcDbCircle
 10
2568.48417341247
 20
1419.999439528852
 30
0.0
 40
24.69183980177391
  0
LINE
  5
4961
330
1F
100
AcDbEntity
  8
想像線
100
AcDbLine
 10
3140.363174215387
 20
1359.878240129246
 30
0.0
 11
3129.115200488131
 21
1311.157913295057
 31
0.0
  0
LINE
  5
4962
330
1F
100
AcDbEntity
  8
想像線
100
AcDbLine
 10
3129.115200488131
 20
1311.157913295057
 30
0.0
 11
3216.633333457689
 21
1290.153561382364
 31
0.0
  0
LINE
  5
4963
330
1F
100
AcDbEntity
  8
想像線
100
AcDbLine
 10
3216.633333457689
 20
1290.153561382364
 30
0.0
 11
3227.881307184944
 21
1338.873888216552
 31
0.0
  0
LINE
  5
4964
330
1F
100
AcDbEntity
  8
想像線
100
AcDbLine
 10
3227.881307184944
 20
1338.873888216552
 30
0.0
 11
3140.363174215387
 21
1359.878240129246
 31
0.0
  0
CIRCLE
  5
4965
330
1F
100
AcDbEntity
  8
想像線
100
AcDbCircle
 10
3197.946727829773
 20
1320.348266997429
 30
0.0
 40
25.00093578148196
  0
LINE
  5
4966
330
1F
100
AcDbEntity
  8
想像線
100
AcDbLine
 10
2629.115200488131
 20
1482.577753823787
 30
0.0
 11
3054.129501826719
 21
1380.574321502526
 31
0.0
  0
LINE
  5
4967
330
1F
100
AcDbEntity
  8
想像線
100
AcDbLine
 10
3140.363174215387
 20
1359.878240129246
 30
0.0
 11
3112.474923806423
 21
1366.571420227397
 31
0.0
  0
LINE
  5
4968
330
1F
100
AcDbEntity
  8
想像線
100
AcDbLine
 10
2617.536649182883
 20
1432.425538185942
 30
0.0
 11
3129.115200488131
 21
1311.157913295057
 31
0.0
  0
CIRCLE
  5
4969
330
1F
100
AcDbEntity
  8
想像線
100
AcDbCircle
 10
2568.48417341247
 20
1419.999439528852
 30
0.0
 40
20.88241257545026
  0
CIRCLE
  5
496A
330
1F
100
AcDbEntity
  8
想像線
100
AcDbCircle
 10
3197.946727829773
 20
1320.348266997429
 30
0.0
 40
21.56763681941683
  0
CIRCLE
  5
496B
330
1F
100
AcDbEntity
  8
太線
100
AcDbCircle
 10
2568.48417341247
 20
1419.999439528852
 30
0.0
 40
637.3017053173819
  0
LINE
  5
496C
330
1F
100
AcDbEntity
  8
太線
100
AcDbLine
 10
2541.597067518575
 20
1503.582105736481
 30
0.0
 11
2526.975091742141
 21
1505.546140408329
 31
0.0
  0
LINE
  5
496D
330
1F
100
AcDbEntity
  8
太線
100
AcDbLine
 10
2530.290056955351
 20
1454.762404755456
 30
0.0
 11
2514.820195095466
 21
1458.074388001009
 31
0.0
  0
ARC
  5
496E
330
1F
100
AcDbEntity
  8
太線
100
AcDbCircle
 10
2545.87474482399
 20
1475.415006588968
 30
0.0
 40
35.5679928004725
100
AcDbArc
 50
122.0978554693054
 51
209.1786506058745
  0
LINE
  5
4970
330
1F
100
AcDbEntity
  8
想像線
100
AcDbLine
 10
2619.122342888659
 20
633.6051613022968
 30
0.0
 11
3130.700894193907
 21
512.3375364114126
 31
0.0
  0
LINE
  5
4971
330
1F
100
AcDbEntity
  8
想像線
100
AcDbLine
 10
2630.700894193907
 20
683.7573769401424
 30
0.0
 11
2543.18276122435
 21
704.7617288528361
 31
0.0
  0
LINE
  5
4972
330
1F
100
AcDbEntity
  8
想像線
100
AcDbLine
 10
2619.122342888658
 20
633.6051613022968
 30
0.0
 11
2630.700894193907
 21
683.7573769401424
 31
0.0
  0
LINE
  5
4973
330
1F
100
AcDbEntity
  8
太線
100
AcDbLine
 10
2630.700894193907
 20
688.0474566757782
 30
0.0
 11
2600.700894193908
 21
688.0474566757782
 31
0.0
  0
LINE
  5
4974
330
1F
100
AcDbEntity
  8
太線
100
AcDbLine
 10
2600.700894193908
 20
628.0474566757781
 30
0.0
 11
2630.700894193907
 21
628.0474566757781
 31
0.0
  0
CIRCLE
  5
4975
330
1F
100
AcDbEntity
  8
想像線
100
AcDbCircle
 10
2570.069867118245
 20
621.1790626452065
 30
0.0
 40
20.88241257545026
  0
CIRCLE
  5
4976
330
1F
100
AcDbEntity
  8
想像線
100
AcDbCircle
 10
2570.069867118245
 20
621.1790626452065
 30
0.0
 40
24.69183980177391
  0
LINE
  5
4977
330
1F
100
AcDbEntity
  8
太線
100
AcDbLine
 10
2600.700894193908
 20
688.0474566757782
 30
0.0
 11
2600.700894193908
 21
628.0474566757781
 31
0.0
  0
LINE
  5
4978
330
1F
100
AcDbEntity
  8
想像線
100
AcDbLine
 10
2531.934787497095
 20
656.0414020186477
 30
0.0
 11
2619.122342888658
 21
633.6051613022968
 31
0.0
  0
ARC
  5
4979
330
1F
100
AcDbEntity
  8
太線
100
AcDbCircle
 10
2547.460438529766
 20
676.5946297053235
 30
0.0
 40
35.5679928004725
100
AcDbArc
 50
122.0978554693054
 51
209.1786506058745
  0
LINE
  5
497A
330
1F
100
AcDbEntity
  8
想像線
100
AcDbLine
 10
2543.18276122435
 20
704.7617288528361
 30
0.0
 11
2531.934787497095
 21
656.0414020186477
 31
0.0
  0
LINE
  5
497B
330
1F
100
AcDbEntity
  8
太線
100
AcDbLine
 10
2531.875750661127
 20
655.9420278718111
 30
0.0
 11
2516.405888801242
 21
659.2540111173644
 31
0.0
  0
LINE
  5
497C
330
1F
100
AcDbEntity
  8
太線
100
AcDbLine
 10
2543.18276122435
 20
704.7617288528361
 30
0.0
 11
2528.560785447916
 21
706.7257635246837
 31
0.0
  0
LINE
  5
497D
330
1F
100
AcDbEntity
  8
想像線
100
AcDbLine
 10
3141.948867921163
 20
561.057863245601
 30
0.0
 11
3114.060617512199
 21
567.7510433437523
 31
0.0
  0
LINE
  5
497E
330
1F
100
AcDbEntity
  8
太線
100
AcDbLine
 10
2630.700894193907
 20
718.0474566757782
 30
0.0
 11
3130.700894193907
 21
718.0474566757782
 31
0.0
  0
LINE
  5
497F
330
1F
100
AcDbEntity
  8
太線
100
AcDbLine
 10
2630.700894193907
 20
688.0474566757782
 30
0.0
 11
3160.700894193907
 21
688.0474566757782
 31
0.0
  0
LINE
  5
4980
330
1F
100
AcDbEntity
  8
太線
100
AcDbLine
 10
3130.700894193907
 20
388.0474566757782
 30
0.0
 11
2630.700894193907
 21
628.0474566757781
 31
0.0
  0
LINE
  5
4981
330
1F
100
AcDbEntity
  8
太線
100
AcDbLine
 10
2630.700894193907
 20
594.770437578509
 30
0.0
 11
3130.700894193907
 21
354.7704375785092
 31
0.0
  0
LINE
  5
4982
330
1F
100
AcDbEntity
  8
想像線
100
AcDbLine
 10
3055.715195532494
 20
581.7539446188813
 30
0.0
 11
3035.468842823435
 21
494.0573563173423
 31
0.0
  0
LINE
  5
4983
330
1F
100
AcDbEntity
  8
想像線
100
AcDbLine
 10
3093.814264803139
 20
480.054455042213
 30
0.0
 11
3114.060617512199
 21
567.7510433437523
 31
0.0
  0
LINE
  5
4984
330
1F
100
AcDbEntity
  8
想像線
100
AcDbLine
 10
3035.468842823435
 20
494.0573563173423
 30
0.0
 11
3093.814264803139
 21
480.054455042213
 31
0.0
  0
LINE
  5
4985
330
1F
100
AcDbEntity
  8
想像線
100
AcDbLine
 10
2630.700894193907
 20
683.7573769401424
 30
0.0
 11
3055.715195532494
 21
581.7539446188813
 31
0.0
  0
LINE
  5
4986
330
1F
100
AcDbEntity
  8
太線
100
AcDbLine
 10
2630.700894193907
 20
688.0474566757782
 30
0.0
 11
2630.700894193907
 21
718.0474566757782
 31
0.0
  0
LINE
  5
4987
330
1F
100
AcDbEntity
  8
太線
100
AcDbLine
 10
2630.700894193907
 20
628.0474566757781
 30
0.0
 11
2630.700894193907
 21
632.3375364114133
 31
0.0
  0
LINE
  5
4988
330
1F
100
AcDbEntity
  8
太線
100
AcDbLine
 10
2630.700894193907
 20
628.0474566757781
 30
0.0
 11
2630.700894193907
 21
594.770437578509
 31
0.0
  0
LINE
  5
4989
330
1F
100
AcDbEntity
  8
構築線
100
AcDbLine
 10
2630.700894193907
 20
-95.35475680184777
 30
0.0
 11
2630.700894193907
 21
-128.6317758991169
 31
0.0
  0
LINE
  5
498A
330
1F
100
AcDbEntity
  8
太線
100
AcDbLine
 10
2630.700894193907
 20
688.0474566757782
 30
0.0
 11
2630.700894193907
 21
632.3375364114133
 31
0.0
  0
LINE
  5
498B
330
1F
100
AcDbEntity
  8
想像線
100
AcDbLine
 10
2851.135921360643
 20
579.4331298913959
 30
0.0
 11
2871.382274069702
 21
667.1297181929353
 31
0.0
  0
LINE
  5
498C
330
1F
100
AcDbEntity
  8
想像線
100
AcDbLine
 10
2813.036852089998
 20
681.1326194680644
 30
0.0
 11
2792.790499380938
 21
593.4360311665252
 31
0.0
  0
LINE
  5
498D
330
1F
100
AcDbEntity
  8
想像線
100
AcDbLine
 10
2792.790499380938
 20
593.4360311665252
 30
0.0
 11
2851.135921360643
 21
579.4331298913959
 31
0.0
  0
LINE
  5
498E
330
1F
100
AcDbEntity
  8
想像線
100
AcDbLine
 10
2871.382274069702
 20
667.1297181929353
 30
0.0
 11
2813.036852089998
 21
681.1326194680644
 31
0.0
  0
LINE
  5
498F
330
1F
100
AcDbEntity
  8
想像線
100
AcDbLine
 10
3114.060617512199
 20
567.7510433437523
 30
0.0
 11
3055.715195532494
 21
581.7539446188813
 31
0.0
  0
LINE
  5
4990
330
1F
100
AcDbEntity
  8
想像線
100
AcDbLine
 10
3229.46700089072
 20
540.0535113329074
 30
0.0
 11
3141.948867921163
 21
561.057863245601
 31
0.0
  0
LINE
  5
4991
330
1F
100
AcDbEntity
  8
想像線
100
AcDbLine
 10
3141.948867921163
 20
561.057863245601
 30
0.0
 11
3130.700894193907
 21
512.3375364114126
 31
0.0
  0
LINE
  5
4992
330
1F
100
AcDbEntity
  8
太線
100
AcDbLine
 10
3130.700894193907
 20
688.0474566757782
 30
0.0
 11
3130.700894193907
 21
388.0474566757782
 31
0.0
  0
LINE
  5
4993
330
1F
100
AcDbEntity
  8
太線
100
AcDbLine
 10
3160.700894193907
 20
388.0474566757782
 30
0.0
 11
3160.700894193907
 21
556.5573769401431
 31
0.0
  0
LINE
  5
4994
330
1F
100
AcDbEntity
  8
太線
100
AcDbLine
 10
3130.700894193907
 20
388.0474566757782
 30
0.0
 11
3160.700894193907
 21
388.0474566757782
 31
0.0
  0
LINE
  5
4997
330
1F
100
AcDbEntity
  8
太線
100
AcDbLine
 10
3130.700894193907
 20
354.7704375785092
 30
0.0
 11
3130.700894193907
 21
388.0474566757782
 31
0.0
  0
CIRCLE
  5
4999
330
1F
100
AcDbEntity
  8
想像線
100
AcDbCircle
 10
3199.532421535548
 20
521.5278901137837
 30
0.0
 40
21.56763681941683
  0
CIRCLE
  5
499A
330
1F
100
AcDbEntity
  8
想像線
100
AcDbCircle
 10
3199.532421535548
 20
521.5278901137837
 30
0.0
 40
25.00093578148196
  0
LINE
  5
499B
330
1F
100
AcDbEntity
  8
想像線
100
AcDbLine
 10
3130.700894193907
 20
512.3375364114126
 30
0.0
 11
3218.219027163464
 21
491.3331844987189
 31
0.0
  0
LINE
  5
499C
330
1F
100
AcDbEntity
  8
想像線
100
AcDbLine
 10
3218.219027163464
 20
491.3331844987189
 30
0.0
 11
3229.46700089072
 21
540.0535113329074
 31
0.0
  0
LINE
  5
499D
330
1F
100
AcDbEntity
  8
太線
100
AcDbLine
 10
3130.700894193907
 20
718.0474566757782
 30
0.0
 11
3130.700894193907
 21
688.0474566757782
 31
0.0
  0
LINE
  5
499E
330
1F
100
AcDbEntity
  8
太線
100
AcDbLine
 10
3160.700894193907
 20
688.0474566757782
 30
0.0
 11
3160.700894193907
 21
556.5573769401431
 31
0.0
  0
CIRCLE
  5
49A9
330
1F
100
AcDbEntity
  8
太線
100
AcDbCircle
 10
2858.138473351946
 20
663.1094526911747
 30
0.0
 40
2.5
  0
CIRCLE
  5
49AA
330
1F
100
AcDbEntity
  8
太線
100
AcDbCircle
 10
3048.712643541191
 20
498.0776218191029
 30
0.0
 40
2.5
  0
LINE
  5
49AC
330
1F
100
AcDbEntity
  8
太線
100
AcDbLine
 10
3130.700894193907
 20
-491.1872451697429
 30
0.0
 11
3130.700894193907
 21
-791.1872451697429
 31
0.0
  0
LINE
  5
49AE
330
1F
100
AcDbEntity
  8
太線
100
AcDbLine
 10
3130.700894193907
 20
-791.1872451697429
 30
0.0
 11
2630.700894193907
 21
-551.1872451697429
 31
0.0
  0
LINE
  5
49C7
330
1F
100
AcDbEntity
  8
太線
100
AcDbLine
 10
2630.700894193907
 20
-491.1872451697429
 30
0.0
 11
2630.700894193907
 21
-546.8971654341078
 31
0.0
  0
CIRCLE
  5
49CA
330
1F
100
AcDbEntity
  8
太線
100
AcDbCircle
 10
2858.138473351946
 20
-516.1252491543463
 30
0.0
 40
2.5
  0
CIRCLE
  5
49CE
330
1F
100
AcDbEntity
  8
太線
100
AcDbCircle
 10
3048.712643541191
 20
-681.1570800264182
 30
0.0
 40
2.5
  0
LINE
  5
4B62
330
1F
100
AcDbEntity
  8
太線
100
AcDbLine
 10
2630.700894193907
 20
-489.1872451697429
 30
0.0
 11
3130.700894193907
 21
-491.1872451697429
 31
0.0
  0
LINE
  5
4B9F
330
1F
100
AcDbEntity
  8
太線
100
AcDbLine
 10
2630.700894193907
 20
-546.8971654341078
 30
0.0
 11
2630.700894193907
 21
-551.1872451697429
 31
0.0
  0
LINE
  5
4BA0
330
1F
100
AcDbEntity
  8
太線
100
AcDbLine
 10
2630.700894193907
 20
-491.1872451697429
 30
0.0
 11
2630.700894193907
 21
-489.1872451697429
 31
0.0
  0
LINE
  5
4BB0
330
1F
100
AcDbEntity
  8
太線
100
AcDbLine
 10
2629.115200488132
 20
-358.9446202361494
 30
0.0
 11
3120.700894193909
 21
-358.9446202361494
 31
0.0
  0
LINE
  5
4BB1
330
1F
100
AcDbEntity
  8
太線
100
AcDbLine
 10
3133.900894193907
 20
-348.9446202361504
 30
0.0
 11
3133.900894193907
 21
-295.6446202361494
 31
0.0
  0
LINE
  5
4BB2
330
1F
100
AcDbEntity
  8
太線
100
AcDbLine
 10
3133.900894193907
 20
-295.6446202361494
 30
0.0
 11
2632.315200488132
 21
-295.6446202361495
 31
0.0
  0
LINE
  5
4BB3
330
1F
100
AcDbEntity
  8
太線
100
AcDbLine
 10
2632.315200488132
 20
-295.6446202361495
 30
0.0
 11
2629.115200488132
 21
-295.6446202361494
 31
0.0
  0
LINE
  5
4BB4
330
1F
100
AcDbEntity
  8
太線
100
AcDbLine
 10
2629.115200488132
 20
-295.6446202361494
 30
0.0
 11
2629.115200488132
 21
-358.9446202361494
 31
0.0
  0
LINE
  5
4BB5
330
1F
100
AcDbEntity
  8
太線
100
AcDbLine
 10
2629.115200488132
 20
-325.6446202361495
 30
0.0
 11
3133.900894193907
 21
-325.6446202361495
 31
0.0
  0
LINE
  5
4BB6
330
1F
100
AcDbEntity
  8
太線
100
AcDbLine
 10
3130.700894193908
 20
-295.6446202361494
 30
0.0
 11
3130.700894193908
 21
-325.6446202361495
 31
0.0
  0
LINE
  5
4BB7
330
1F
100
AcDbEntity
  8
太線
100
AcDbLine
 10
2632.315200488132
 20
-295.6446202361495
 30
0.0
 11
2632.315200488132
 21
-325.6446202361495
 31
0.0
  0
LINE
  5
4BB8
330
1F
100
AcDbEntity
  8
想像線
100
AcDbLine
 10
2629.115200488132
 20
-328.9446202361494
 30
0.0
 11
3133.900894193907
 21
-328.9446202361494
 31
0.0
  0
LINE
  5
4BBD
330
1F
100
AcDbEntity
  8
太線
100
AcDbLine
 10
3279.794321521409
 20
-491.1872451697429
 30
0.0
 11
3313.094321521409
 21
-491.1872451697429
 31
0.0
  0
LINE
  5
4BBE
330
1F
100
AcDbEntity
  8
太線
100
AcDbLine
 10
3313.094321521409
 20
-491.1872451697429
 30
0.0
 11
3313.094321521409
 21
-787.9872451697429
 31
0.0
  0
LINE
  5
4BC2
330
1F
100
AcDbEntity
  8
太線
100
AcDbLine
 10
3279.794321521409
 20
-777.9872451697416
 30
0.0
 11
3279.794321521409
 21
-491.1872451697429
 31
0.0
  0
LINE
  5
4BC3
330
1F
100
AcDbEntity
  8
太線
100
AcDbLine
 10
3313.094321521409
 20
-787.9872451697429
 30
0.0
 11
3343.09432152141
 21
-787.9872451697429
 31
0.0
  0
LINE
  5
4BC4
330
1F
100
AcDbEntity
  8
太線
100
AcDbLine
 10
3343.09432152141
 20
-787.9872451697429
 30
0.0
 11
3343.09432152141
 21
-791.1872451697429
 31
0.0
  0
LINE
  5
4BC5
330
1F
100
AcDbEntity
  8
太線
100
AcDbLine
 10
3343.09432152141
 20
-791.1872451697429
 30
0.0
 11
3310.294321521409
 21
-791.1872451697429
 31
0.0
  0
LINE
  5
4BC6
330
1F
100
AcDbEntity
  8
太線
100
AcDbLine
 10
3309.79432152141
 20
-790.6872451697429
 30
0.0
 11
3309.794321521409
 21
-787.9872451697429
 31
0.0
  0
LINE
  5
4BC7
330
1F
100
AcDbEntity
  8
太線
100
AcDbLine
 10
3309.794321521409
 20
-787.9872451697429
 30
0.0
 11
3289.79432152141
 21
-787.9872451697429
 31
0.0
  0
LINE
  5
4BC8
330
1F
100
AcDbEntity
  8
想像線
100
AcDbLine
 10
3279.794321521409
 20
-494.3872451697429
 30
0.0
 11
3309.794321521409
 21
-494.3872451697429
 31
0.0
  0
LINE
  5
4BC9
330
1F
100
AcDbEntity
  8
想像線
100
AcDbLine
 10
3309.794321521409
 20
-494.3872451697429
 30
0.0
 11
3309.794321521409
 21
-787.9872451697429
 31
0.0
  0
ARC
  5
4BCF
330
1F
100
AcDbEntity
  8
太線
100
AcDbCircle
 10
3310.294321521409
 20
-790.6872451697429
 30
0.0
 40
0.5
100
AcDbArc
 50
180.0
 51
270.0
  0
ARC
  5
4BD4
330
1F
100
AcDbEntity
  8
太線
100
AcDbCircle
 10
3117.603003306915
 20
-341.1434042653201
 30
0.0
 40
18.06876359875871
100
AcDbArc
 50
279.872140226539
 51
334.4212331695065
  0
ARC
  5
4BD5
330
1F
100
AcDbEntity
  8
太線
100
AcDbCircle
 10
3290.627816116035
 20
-777.1537505751165
 30
0.0
 40
10.86551049749019
100
AcDbArc
 50
184.3994879902728
 51
265.6005120097278
  0
DIMENSION
  5
4BE1
330
1F
100
AcDbEntity
  8
太線
100
AcDbDimension
  2
*D10
 10
3133.900894193907
 20
-255.2047622509998
 30
0.0
 11
2883.10804734102
 21
-239.2047622509998
 31
0.0
 70
    32
  1
500
 71
     5
 42
501.5856937057756
  3
sunpo
100
AcDbAlignedDimension
 13
2632.315200488132
 23
-295.6446202361495
 33
0.0
 14
3133.900894193907
 24
-295.6446202361494
 34
0.0
100
AcDbRotatedDimension
1001
ACAD
1000
DSTYLE
1002
{
1070
   140
1040
30.0
1070
    40
1040
1.0
1002
}
  0
DIMENSION
  5
4BEE
330
1F
100
AcDbEntity
  8
太線
100
AcDbDimension
  2
*D11
 10
3377.19657501343
 20
-791.187245169743
 30
0.0
 11
3361.196575013429
 21
-641.1872451697425
 31
0.0
 70
    32
 71
     5
 42
300.0
  3
sunpo
100
AcDbAlignedDimension
 13
3313.094321521409
 23
-491.1872451697429
 33
0.0
 14
3310.294321521409
 24
-791.1872451697429
 34
0.0
 50
90.0
100
AcDbRotatedDimension
1001
ACAD
1000
DSTYLE
1002
{
1070
   140
1040
30.0
1070
    40
1040
1.0
1002
}
  0
DIMENSION
  5
4BFB
330
1F
100
AcDbEntity
  8
太線
100
AcDbDimension
  2
*D12
 10
2606.391224486446
 20
-295.6446202361494
 30
0.0
 11
2590.391224486446
 21
-327.2946202361491
 31
0.0
 70
    32
  1
63
 71
     5
 42
63.30000000000001
  3
sunpo
100
AcDbAlignedDimension
 13
2629.115200488132
 23
-358.9446202361494
 33
0.0
 14
2629.115200488132
 24
-295.6446202361494
 34
0.0
 50
90.0
100
AcDbRotatedDimension
1001
ACAD
1000
DSTYLE
1002
{
1070
   140
1040
30.0
1070
    40
1040
1.0
1002
}
  0
LINE
  5
4C80
330
1F
100
AcDbEntity
  8
太線
100
AcDbLine
 10
2619.122342888659
 20
-545.6295405432242
 30
0.0
 11
2630.700894193907
 21
-548.3741892640948
 31
0.0
  0
LINE
  5
4C82
330
1F
100
AcDbEntity
  8
太線
100
AcDbLine
 10
2543.18276122435
 20
-474.472972992685
 30
0.0
 11
2531.934787497095
 21
-523.1932998268734
 31
0.0
  0
LINE
  5
4C83
330
1F
100
AcDbEntity
  8
太線
100
AcDbLine
 10
2630.700894193907
 20
-495.4773249053787
 30
0.0
 11
2543.18276122435
 21
-474.472972992685
 31
0.0
  0
ARC
  5
4C84
330
1F
100
AcDbEntity
  8
太線
100
AcDbCircle
 10
2547.460438529766
 20
-502.6400721401976
 30
0.0
 40
35.5679928004725
100
AcDbArc
 50
122.0978554693054
 51
209.1786506058745
  0
LINE
  5
4C85
330
1F
100
AcDbEntity
  8
太線
100
AcDbLine
 10
2531.875750661127
 20
-523.2926739737099
 30
0.0
 11
2516.405888801242
 21
-519.9806907281567
 31
0.0
  0
LINE
  5
4C86
330
1F
100
AcDbEntity
  8
太線
100
AcDbLine
 10
2531.934787497095
 20
-523.1932998268734
 30
0.0
 11
2619.122342888658
 21
-545.6295405432242
 31
0.0
  0
CIRCLE
  5
4C87
330
1F
100
AcDbEntity
  8
太線
100
AcDbCircle
 10
2570.069867118245
 20
-558.0556392003145
 30
0.0
 40
20.88241257545026
  0
CIRCLE
  5
4C88
330
1F
100
AcDbEntity
  8
太線
100
AcDbCircle
 10
2570.069867118245
 20
-558.0556392003145
 30
0.0
 40
24.69183980177391
  0
LINE
  5
4C89
330
1F
100
AcDbEntity
  8
太線
100
AcDbLine
 10
2619.122342888658
 20
-545.6295405432242
 30
0.0
 11
2622.244811981181
 21
-532.1046410007657
 31
0.0
  0
LINE
  5
4C8A
330
1F
100
AcDbEntity
  8
太線
100
AcDbLine
 10
2543.18276122435
 20
-474.472972992685
 30
0.0
 11
2528.560785447916
 21
-472.5089383208374
 31
0.0
  0
LINE
  5
4C8B
330
1F
100
AcDbEntity
  8
太線
100
AcDbLine
 10
3205.577082295692
 20
-633.4476100498072
 30
0.0
 11
3141.948867921163
 21
-618.17683859992
 31
0.0
  0
LINE
  5
4C8C
330
1F
100
AcDbEntity
  8
太線
100
AcDbLine
 10
3130.700894193907
 20
-666.8971654341085
 30
0.0
 11
3193.90843467189
 21
-682.0669751488244
 31
0.0
  0
CIRCLE
  5
4C91
330
1F
100
AcDbEntity
  8
太線
100
AcDbCircle
 10
2858.138473351946
 20
-516.1252491543463
 30
0.0
 40
2.5
  0
CIRCLE
  5
4C96
330
1F
100
AcDbEntity
  8
太線
100
AcDbCircle
 10
3048.712643541191
 20
-681.1570800264182
 30
0.0
 40
2.5
  0
LINE
  5
4C97
330
1F
100
AcDbEntity
  8
太線
100
AcDbLine
 10
3141.948867921163
 20
-618.17683859992
 30
0.0
 11
3130.700894193907
 21
-666.8971654341085
 31
0.0
  0
LINE
  5
4C98
330
1F
100
AcDbEntity
  8
太線
100
AcDbLine
 10
3141.948867921163
 20
-618.17683859992
 30
0.0
 11
3130.700894193907
 21
-615.4773249053788
 31
0.0
  0
CIRCLE
  5
4C99
330
1F
100
AcDbEntity
  8
太線
100
AcDbCircle
 10
3199.532421535548
 20
-657.7068117317374
 30
0.0
 40
25.00093578148196
  0
LINE
  5
4C9A
330
1F
100
AcDbEntity
  8
想像線
100
AcDbLine
 10
3223.843014027073
 20
-663.5413539297851
 30
0.0
 11
3223.940332283287
 21
-663.1198222508672
 31
0.0
  0
CIRCLE
  5
4C9B
330
1F
100
AcDbEntity
  8
太線
100
AcDbCircle
 10
3199.532421535548
 20
-657.7068117317374
 30
0.0
 40
21.56763681941683
  0
LINE
  5
4CCC
330
1F
100
AcDbEntity
  8
太線
100
AcDbLine
 10
10842.03515331824
 20
-7057.485737281101
 30
0.0
 11
10885.789189335
 21
-7089.858918002525
 31
0.0
  0
LINE
  5
4CCD
330
1F
100
AcDbEntity
  8
太線
100
AcDbLine
 10
10879.82500230963
 20
-7097.885678597901
 30
0.0
 11
10835.78106704389
 21
-7065.298004274675
 31
0.0
  0
LINE
  5
4CCE
330
1F
100
AcDbEntity
  8
太線
100
AcDbLine
 10
10873.86081528427
 20
-7105.912439193275
 30
0.0
 11
10829.52698076954
 21
-7073.11027126825
 31
0.0
  0
LINE
  5
4CCF
330
1F
100
AcDbEntity
  8
太線
100
AcDbLine
 10
10823.27289449519
 20
-7080.922538261823
 30
0.0
 11
10867.89662825891
 21
-7113.93919978865
 31
0.0
  0
LINE
  5
4CD0
330
1F
100
AcDbEntity
  8
太線
100
AcDbLine
 10
10761.17106492786
 20
-7056.705547641262
 30
0.0
 11
10804.63520169563
 21
-7088.864234760887
 31
0.0
  0
LINE
  5
4CD1
330
1F
100
AcDbEntity
  8
太線
100
AcDbLine
 10
10786.74264061954
 20
-7112.944516547011
 30
0.0
 11
10742.40880610481
 21
-7080.142348621986
 31
0.0
  0
LINE
  5
4CD2
330
1F
100
AcDbEntity
  8
太線
100
AcDbLine
 10
10792.7068276449
 20
-7104.917755951638
 30
0.0
 11
10748.66289237916
 21
-7072.330081628412
 31
0.0
  0
LINE
  5
4CD3
330
1F
100
AcDbEntity
  8
太線
100
AcDbLine
 10
10754.91697865351
 20
-7064.517814634837
 30
0.0
 11
10798.67101467027
 21
-7096.890995356261
 31
0.0
  0
LINE
  5
4CD4
330
1F
100
AcDbEntity
  8
太線
100
AcDbLine
 10
10810.59938872099
 20
-7080.837474165512
 30
0.0
 11
10767.42515120221
 21
-7048.893280647688
 31
0.0
  0
LINE
  5
4CD5
330
1F
100
AcDbEntity
  8
太線
100
AcDbLine
 10
10736.15471983046
 20
-7087.95461561556
 30
0.0
 11
10780.77845359418
 21
-7120.971277142388
 31
0.0
  0
LINE
  5
4CD6
330
1F
100
AcDbEntity
  8
太線
100
AcDbLine
 10
10897.71756338572
 20
-7073.805396811775
 30
0.0
 11
10854.54332586694
 21
-7041.861203293951
 31
0.0
  0
LINE
  5
4CD7
330
1F
100
AcDbEntity
  8
太線
100
AcDbLine
 10
10848.28923959259
 20
-7049.673470287526
 30
0.0
 11
10891.75337636036
 21
-7081.83215740715
 31
0.0
  0
LINE
  5
50AA
330
1F
100
AcDbEntity
  8
太線
100
AcDbLine
 10
3278.158125609334
 20
-1774.997692183396
 30
0.0
 11
3316.95293277981
 21
-1743.081821235217
 31
0.0
  0
LINE
  5
50AB
330
1F
100
AcDbEntity
  8
太線
100
AcDbLine
 10
3270.399164175239
 20
-1781.380866373032
 30
0.0
 11
3234.87691845671
 21
-1745.858620654503
 31
0.0
  0
LINE
  5
50AC
330
1F
100
AcDbEntity
  8
太線
100
AcDbLine
 10
3206.907439523233
 20
-1717.387717110835
 30
0.0
 11
3168.112632352757
 21
-1749.303588059014
 31
0.0
  0
LINE
  5
50AD
330
1F
100
AcDbEntity
  8
太線
100
AcDbLine
 10
3152.80090413361
 20
-1748.635420073788
 30
0.0
 11
3188.32314985214
 21
-1784.157665792318
 31
0.0
  0
LINE
  5
50AE
330
1F
100
AcDbEntity
  8
太線
100
AcDbLine
 10
3189.425979783875
 20
-1770.616935490132
 30
0.0
 11
3228.22078695435
 21
-1738.701064541953
 31
0.0
  0
LINE
  5
50AF
330
1F
100
AcDbEntity
  8
太線
100
AcDbLine
 10
3221.116337810644
 20
-1731.596615398247
 30
0.0
 11
3182.321530640169
 21
-1763.512486346426
 31
0.0
  0
LINE
  5
50B0
330
1F
100
AcDbEntity
  8
太線
100
AcDbLine
 10
3214.011888666938
 20
-1724.492166254541
 30
0.0
 11
3175.217081496464
 21
-1756.40803720272
 31
0.0
  0
LINE
  5
50B1
330
1F
100
AcDbEntity
  8
太線
100
AcDbLine
 10
3092.692749532017
 20
-1759.237943590849
 30
0.0
 11
3131.487556702492
 21
-1727.32207264267
 31
0.0
  0
LINE
  5
50B2
330
1F
100
AcDbEntity
  8
太線
100
AcDbLine
 10
3085.588300388311
 20
-1752.133494447143
 30
0.0
 11
3124.383107558786
 21
-1720.217623498964
 31
0.0
  0
LINE
  5
50B3
330
1F
100
AcDbEntity
  8
太線
100
AcDbLine
 10
3099.797198675723
 20
-1766.342392734555
 30
0.0
 11
3138.592005846198
 21
-1734.426521786376
 31
0.0
  0
LINE
  5
50B4
330
1F
100
AcDbEntity
  8
太線
100
AcDbLine
 10
3018.16950199397
 20
-1769.066085184997
 30
0.0
 11
3056.964309164444
 21
-1737.150214236818
 31
0.0
  0
LINE
  5
50B5
330
1F
100
AcDbEntity
  8
太線
100
AcDbLine
 10
3099.142686385334
 20
-1779.830016067897
 30
0.0
 11
3063.620440666804
 21
-1744.307770349367
 31
0.0
  0
LINE
  5
50B6
330
1F
100
AcDbEntity
  8
太線
100
AcDbLine
 10
3106.901647819428
 20
-1773.446841878262
 30
0.0
 11
3145.696454989904
 21
-1741.530970930082
 31
0.0
  0
LINE
  5
50B7
330
1F
100
AcDbEntity
  8
太線
100
AcDbLine
 10
2921.490641141268
 20
-1781.380866373032
 30
0.0
 11
2885.968395422739
 21
-1745.858620654503
 31
0.0
  0
LINE
  5
50B8
330
1F
100
AcDbEntity
  8
太線
100
AcDbLine
 10
2929.249602575363
 20
-1774.997692183396
 30
0.0
 11
2968.044409745839
 21
-1743.081821235217
 31
0.0
  0
LINE
  5
50B9
330
1F
100
AcDbEntity
  8
太線
100
AcDbLine
 10
2907.936255144245
 20
-1753.684344752279
 30
0.0
 11
2946.731062314721
 21
-1721.768473804099
 31
0.0
  0
LINE
  5
50BA
330
1F
100
AcDbEntity
  8
太線
100
AcDbLine
 10
2915.040704287951
 20
-1760.788793895985
 30
0.0
 11
2953.835511458427
 21
-1728.872922947805
 31
0.0
  0
LINE
  5
50BB
330
1F
100
AcDbEntity
  8
太線
100
AcDbLine
 10
2922.145153431657
 20
-1767.89324303969
 30
0.0
 11
2960.939960602133
 21
-1735.977372091511
 31
0.0
  0
LINE
  5
50BC
330
1F
100
AcDbEntity
  8
太線
100
AcDbLine
 10
2857.998916489261
 20
-1717.387717110835
 30
0.0
 11
2819.204109318786
 21
-1749.303588059014
 31
0.0
  0
LINE
  5
50BD
330
1F
100
AcDbEntity
  8
太線
100
AcDbLine
 10
2840.517456749904
 20
-1770.616935490132
 30
0.0
 11
2879.312263920379
 21
-1738.701064541953
 31
0.0
  0
LINE
  5
50BE
330
1F
100
AcDbEntity
  8
太線
100
AcDbLine
 10
2872.207814776673
 20
-1731.596615398247
 30
0.0
 11
2833.413007606198
 21
-1763.512486346426
 31
0.0
  0
LINE
  5
50BF
330
1F
100
AcDbEntity
  8
太線
100
AcDbLine
 10
2865.103365632967
 20
-1724.492166254541
 30
0.0
 11
2826.308558462493
 21
-1756.40803720272
 31
0.0
  0
LINE
  5
50C0
330
1F
100
AcDbEntity
  8
太線
100
AcDbLine
 10
2757.993124785457
 20
-1773.446841878262
 30
0.0
 11
2796.787931955933
 21
-1741.530970930082
 31
0.0
  0
LINE
  5
50C1
330
1F
100
AcDbEntity
  8
太線
100
AcDbLine
 10
2750.888675641752
 20
-1766.342392734555
 30
0.0
 11
2789.683482812227
 21
-1734.426521786376
 31
0.0
  0
LINE
  5
50C2
330
1F
100
AcDbEntity
  8
太線
100
AcDbLine
 10
2803.892381099639
 20
-1748.635420073788
 30
0.0
 11
2839.414626818168
 21
-1784.157665792318
 31
0.0
  0
LINE
  5
50C3
330
1F
100
AcDbEntity
  8
太線
100
AcDbLine
 10
3042.755410877032
 20
-1722.941315949406
 30
0.0
 11
3003.960603706558
 21
-1754.857186897585
 31
0.0
  0
LINE
  5
50C4
330
1F
100
AcDbEntity
  8
太線
100
AcDbLine
 10
3049.859860020738
 20
-1730.045765093112
 30
0.0
 11
3011.065052850264
 21
-1761.961636041291
 31
0.0
  0
LINE
  5
50C5
330
1F
100
AcDbEntity
  8
太線
100
AcDbLine
 10
3263.949227321922
 20
-1760.788793895985
 30
0.0
 11
3302.744034492398
 21
-1728.872922947805
 31
0.0
  0
LINE
  5
50C6
330
1F
100
AcDbEntity
  8
太線
100
AcDbLine
 10
3271.053676465628
 20
-1767.89324303969
 30
0.0
 11
3309.848483636104
 21
-1735.977372091511
 31
0.0
  0
LINE
  5
50C7
330
1F
100
AcDbEntity
  8
太線
100
AcDbLine
 10
3256.844778178217
 20
-1753.684344752279
 30
0.0
 11
3295.639585348691
 21
-1721.768473804099
 31
0.0
  0
LINE
  5
50C8
330
1F
100
AcDbEntity
  8
太線
100
AcDbLine
 10
2693.846887843061
 20
-1722.941315949406
 30
0.0
 11
2655.052080672587
 21
-1754.857186897585
 31
0.0
  0
LINE
  5
50C9
330
1F
100
AcDbEntity
  8
太線
100
AcDbLine
 10
2700.951336986767
 20
-1730.045765093112
 30
0.0
 11
2662.156529816293
 21
-1761.961636041291
 31
0.0
  0
LINE
  5
50CA
330
1F
100
AcDbEntity
  8
太線
100
AcDbLine
 10
2669.260978959998
 20
-1769.066085184997
 30
0.0
 11
2708.055786130473
 21
-1737.150214236818
 31
0.0
  0
LINE
  5
50CB
330
1F
100
AcDbEntity
  8
太線
100
AcDbLine
 10
2569.335410762089
 20
-1753.684344752279
 30
0.0
 11
2608.130217932565
 21
-1721.768473804099
 31
0.0
  0
LINE
  5
50CC
330
1F
100
AcDbEntity
  8
太線
100
AcDbLine
 10
2576.439859905795
 20
-1760.788793895985
 30
0.0
 11
2615.234667076271
 21
-1728.872922947805
 31
0.0
  0
LINE
  5
50CD
330
1F
100
AcDbEntity
  8
太線
100
AcDbLine
 10
2526.502521250811
 20
-1724.492166254541
 30
0.0
 11
2487.707714080336
 21
-1756.40803720272
 31
0.0
  0
LINE
  5
50CE
330
1F
100
AcDbEntity
  8
太線
100
AcDbLine
 10
2533.606970394517
 20
-1731.596615398247
 30
0.0
 11
2494.812163224042
 21
-1763.512486346426
 31
0.0
  0
LINE
  5
50CF
330
1F
100
AcDbEntity
  8
太線
100
AcDbLine
 10
2501.916612367748
 20
-1770.616935490132
 30
0.0
 11
2540.711419538223
 21
-1738.701064541953
 31
0.0
  0
LINE
  5
50D0
330
1F
100
AcDbEntity
  8
太線
100
AcDbLine
 10
2582.889796759112
 20
-1781.380866373032
 30
0.0
 11
2547.367551040583
 21
-1745.858620654503
 31
0.0
  0
LINE
  5
50D1
330
1F
100
AcDbEntity
  8
太線
100
AcDbLine
 10
2590.648758193207
 20
-1774.997692183396
 30
0.0
 11
2629.443565363683
 21
-1743.081821235217
 31
0.0
  0
LINE
  5
50D2
330
1F
100
AcDbEntity
  8
太線
100
AcDbLine
 10
2583.544309049501
 20
-1767.89324303969
 30
0.0
 11
2622.339116219976
 21
-1735.977372091511
 31
0.0
  0
LINE
  5
50D3
330
1F
100
AcDbEntity
  8
太線
100
AcDbLine
 10
2419.392280403302
 20
-1773.446841878262
 30
0.0
 11
2458.187087573777
 21
-1741.530970930082
 31
0.0
  0
LINE
  5
50D4
330
1F
100
AcDbEntity
  8
太線
100
AcDbLine
 10
2411.633318969206
 20
-1779.830016067897
 30
0.0
 11
2376.111073250677
 21
-1744.307770349367
 31
0.0
  0
LINE
  5
50D5
330
1F
100
AcDbEntity
  8
太線
100
AcDbLine
 10
2398.078932972183
 20
-1752.133494447143
 30
0.0
 11
2436.873740142659
 21
-1720.217623498964
 31
0.0
  0
LINE
  5
50D6
330
1F
100
AcDbEntity
  8
太線
100
AcDbLine
 10
2405.18338211589
 20
-1759.237943590849
 30
0.0
 11
2443.978189286365
 21
-1727.32207264267
 31
0.0
  0
LINE
  5
50D7
330
1F
100
AcDbEntity
  8
太線
100
AcDbLine
 10
2412.287831259595
 20
-1766.342392734555
 30
0.0
 11
2451.082638430071
 21
-1734.426521786376
 31
0.0
  0
LINE
  5
50D8
330
1F
100
AcDbEntity
  8
太線
100
AcDbLine
 10
2330.660134577843
 20
-1769.066085184997
 30
0.0
 11
2369.454941748317
 21
-1737.150214236818
 31
0.0
  0
LINE
  5
50D9
330
1F
100
AcDbEntity
  8
太線
100
AcDbLine
 10
2362.350492604611
 20
-1730.045765093112
 30
0.0
 11
2323.555685434136
 21
-1761.961636041291
 31
0.0
  0
LINE
  5
50DA
330
1F
100
AcDbEntity
  8
太線
100
AcDbLine
 10
2355.246043460905
 20
-1722.941315949406
 30
0.0
 11
2316.451236290431
 21
-1754.857186897585
 31
0.0
  0
LINE
  5
50DB
330
1F
100
AcDbEntity
  8
太線
100
AcDbLine
 10
2519.398072107105
 20
-1717.387717110835
 30
0.0
 11
2480.603264936631
 21
-1749.303588059014
 31
0.0
  0
LINE
  5
50DC
330
1F
100
AcDbEntity
  8
太線
100
AcDbLine
 10
2465.291536717483
 20
-1748.635420073788
 30
0.0
 11
2500.813782436013
 21
-1784.157665792318
 31
0.0
  0
LINE
  5
50DD
330
1F
100
AcDbEntity
  8
太線
100
AcDbLine
 10
2743.784226498046
 20
-1759.237943590849
 30
0.0
 11
2782.579033668521
 21
-1727.32207264267
 31
0.0
  0
LINE
  5
50DE
330
1F
100
AcDbEntity
  8
太線
100
AcDbLine
 10
2736.67977735434
 20
-1752.133494447143
 30
0.0
 11
2775.474584524815
 21
-1720.217623498964
 31
0.0
  0
LINE
  5
50DF
330
1F
100
AcDbEntity
  8
太線
100
AcDbLine
 10
2750.234163351363
 20
-1779.830016067897
 30
0.0
 11
2714.711917632833
 21
-1744.307770349367
 31
0.0
  0
LINE
  5
50E0
330
1F
100
AcDbEntity
  8
太線
100
AcDbLine
 10
2719.64518320276
 20
-1835.178872700132
 30
0.0
 11
2755.16742892129
 21
-1870.701118418662
 31
0.0
  0
LINE
  5
50E1
330
1F
100
AcDbEntity
  8
太線
100
AcDbLine
 10
2772.105384968727
 20
-1972.993312818675
 30
0.0
 11
2733.310577798253
 21
-2004.909183766853
 31
0.0
  0
LINE
  5
50E2
330
1F
100
AcDbEntity
  8
太線
100
AcDbLine
 10
2786.314283256139
 20
-1987.202211106087
 30
0.0
 11
2747.519476085664
 21
-2019.118082054265
 31
0.0
  0
LINE
  5
50E3
330
1F
100
AcDbEntity
  8
太線
100
AcDbLine
 10
2779.209834112433
 20
-1980.09776196238
 30
0.0
 11
2740.415026941958
 21
-2012.01363291056
 31
0.0
  0
LINE
  5
50E4
330
1F
100
AcDbEntity
  8
太線
100
AcDbLine
 10
2765.000935825021
 20
-1965.888863674969
 30
0.0
 11
2726.206128654546
 21
-1997.804734623147
 31
0.0
  0
LINE
  5
50E5
330
1F
100
AcDbEntity
  8
太線
100
AcDbLine
 10
2757.896486681315
 20
-1958.784414531263
 30
0.0
 11
2719.10167951084
 21
-1990.700285479442
 31
0.0
  0
LINE
  5
50E6
330
1F
100
AcDbEntity
  8
太線
100
AcDbLine
 10
2730.13320239688
 20
-1916.878994623097
 30
0.0
 11
2768.928009567355
 21
-1884.963123674918
 31
0.0
  0
LINE
  5
50E7
330
1F
100
AcDbEntity
  8
太線
100
AcDbLine
 10
2744.342100684292
 20
-1931.087892910509
 30
0.0
 11
2783.136907854768
 21
-1899.172021962329
 31
0.0
  0
LINE
  5
50E8
330
1F
100
AcDbEntity
  8
太線
100
AcDbLine
 10
2737.237651540586
 20
-1923.983443766803
 30
0.0
 11
2776.032458711061
 21
-1892.067572818623
 31
0.0
  0
LINE
  5
50E9
330
1F
100
AcDbEntity
  8
太線
100
AcDbLine
 10
2761.82356042365
 20
-1877.858674531212
 30
0.0
 11
2723.028753253174
 21
-1909.774545479391
 31
0.0
  0
LINE
  5
50EA
330
1F
100
AcDbEntity
  8
太線
100
AcDbLine
 10
2750.792037537609
 20
-1951.679965387556
 30
0.0
 11
2715.269791819079
 21
-1916.157719669027
 31
0.0
  0
LINE
  5
50EB
330
1F
100
AcDbEntity
  8
太線
100
AcDbLine
 10
2771.547510782481
 20
-1801.143363499015
 30
0.0
 11
2732.752703612006
 21
-1833.059234447194
 31
0.0
  0
LINE
  5
50EC
330
1F
100
AcDbEntity
  8
太線
100
AcDbLine
 10
2785.756409069893
 20
-1815.352261786427
 30
0.0
 11
2746.961601899418
 21
-1847.268132734606
 31
0.0
  0
LINE
  5
50ED
330
1F
100
AcDbEntity
  8
太線
100
AcDbLine
 10
2778.651959926186
 20
-1808.247812642721
 30
0.0
 11
2739.857152755712
 21
-1840.1636835909
 31
0.0
  0
LINE
  5
50EE
330
1F
100
AcDbEntity
  8
太線
100
AcDbLine
 10
2764.443061638775
 20
-1794.038914355309
 30
0.0
 11
2725.6482544683
 21
-1825.954785303488
 31
0.0
  0
LINE
  5
50EF
330
1F
100
AcDbEntity
  8
太線
100
AcDbLine
 10
2757.338612495069
 20
-1786.934465211603
 30
0.0
 11
2718.543805324594
 21
-1818.850336159782
 31
0.0
  0
LINE
  5
50F0
330
1F
100
AcDbEntity
  8
太線
100
AcDbLine
 10
2455.361391709609
 20
-1838.785247470482
 30
0.0
 11
2490.883637428138
 21
-1874.307493189012
 31
0.0
  0
LINE
  5
50F1
330
1F
100
AcDbEntity
  8
太線
100
AcDbLine
 10
2505.74704800594
 20
-1875.028768143083
 30
0.0
 11
2466.952240835465
 21
-1906.944639091262
 31
0.0
  0
LINE
  5
50F2
330
1F
100
AcDbEntity
  8
太線
100
AcDbLine
 10
2512.851497149645
 20
-1882.133217286789
 30
0.0
 11
2474.056689979171
 21
-1914.049088234968
 31
0.0
  0
LINE
  5
50F3
330
1F
100
AcDbEntity
  8
太線
100
AcDbLine
 10
2519.955946293352
 20
-1889.237666430494
 30
0.0
 11
2481.161139122877
 21
-1921.153537378674
 31
0.0
  0
LINE
  5
50F4
330
1F
100
AcDbEntity
  8
太線
100
AcDbLine
 10
2509.674121748274
 20
-1794.103028143031
 30
0.0
 11
2470.879314577798
 21
-1826.018899091211
 31
0.0
  0
LINE
  5
50F5
330
1F
100
AcDbEntity
  8
太線
100
AcDbLine
 10
2477.983763721504
 20
-1833.123348234917
 30
0.0
 11
2516.77857089198
 21
-1801.207477286737
 31
0.0
  0
LINE
  5
50F6
330
1F
100
AcDbEntity
  8
太線
100
AcDbLine
 10
2498.642598862233
 20
-1867.924318999377
 30
0.0
 11
2463.120353143704
 21
-1832.402073280847
 31
0.0
  0
LINE
  5
50F7
330
1F
100
AcDbEntity
  8
太線
100
AcDbLine
 10
2465.849410903729
 20
-1920.485369393447
 30
0.0
 11
2501.371656622259
 21
-1956.007615111977
 31
0.0
  0
LINE
  5
50F8
330
1F
100
AcDbEntity
  8
太線
100
AcDbLine
 10
2458.090449469635
 20
-1926.868543583083
 30
0.0
 11
2493.612695188164
 21
-1962.390789301613
 31
0.0
  0
LINE
  5
50F9
330
1F
100
AcDbEntity
  8
太線
100
AcDbLine
 10
2474.917314923638
 20
-2002.089451955487
 30
0.0
 11
2513.712122094113
 21
-1970.173581007308
 31
0.0
  0
LINE
  5
50FA
330
1F
100
AcDbEntity
  8
太線
100
AcDbLine
 10
2506.607672950407
 20
-1963.069131863602
 30
0.0
 11
2467.812865779932
 21
-1994.985002811782
 31
0.0
  0
LINE
  5
50FB
330
1F
100
AcDbEntity
  8
太線
100
AcDbLine
 10
2482.021764067344
 20
-2009.193901099194
 30
0.0
 11
2520.816571237819
 21
-1977.278030151014
 31
0.0
  0
LINE
  5
50FC
330
1F
100
AcDbEntity
  8
太線
100
AcDbLine
 10
2485.08821286521
 20
-1840.227797378623
 30
0.0
 11
2523.883020035686
 21
-1808.311926430444
 31
0.0
  0
LINE
  5
50FD
330
1F
100
AcDbEntity
  8
太線
100
AcDbLine
 10
2457.532575283388
 20
-1755.018594263423
 30
0.0
 11
2493.054821001917
 21
-1790.540839981953
 31
0.0
  0
LINE
  5
50FE
330
1F
100
AcDbEntity
  8
太線
100
AcDbLine
 10
2442.572526601444
 20
-1939.634891962355
 30
0.0
 11
2478.094772319973
 21
-1975.157137680885
 31
0.0
  0
LINE
  5
50FF
330
1F
100
AcDbEntity
  8
太線
100
AcDbLine
 10
2470.335810885879
 20
-1981.540311870521
 30
0.0
 11
2434.813565167349
 21
-1946.018066151991
 31
0.0
  0
LINE
  5
5100
330
1F
100
AcDbEntity
  8
太線
100
AcDbLine
 10
2427.054603733254
 20
-1952.401240341627
 30
0.0
 11
2462.576849451783
 21
-1987.923486060156
 31
0.0
  0
LINE
  5
5101
330
1F
100
AcDbEntity
  8
太線
100
AcDbLine
 10
2419.295642299159
 20
-1958.784414531263
 30
0.0
 11
2380.500835128684
 21
-1990.700285479442
 31
0.0
  0
LINE
  5
5102
330
1F
100
AcDbEntity
  8
太線
100
AcDbLine
 10
2426.400091442865
 20
-1965.888863674969
 30
0.0
 11
2387.60528427239
 21
-1997.804734623147
 31
0.0
  0
LINE
  5
5103
330
1F
100
AcDbEntity
  8
太線
100
AcDbLine
 10
2335.351195160501
 20
-1961.518281558467
 30
0.0
 11
2296.556387990026
 21
-1993.434152506646
 31
0.0
  0
LINE
  5
5104
330
1F
100
AcDbEntity
  8
太線
100
AcDbLine
 10
2303.660837133732
 20
-2000.538601650352
 30
0.0
 11
2342.455644304207
 21
-1968.622730702173
 31
0.0
  0
LINE
  5
5105
330
1F
100
AcDbEntity
  8
太線
100
AcDbLine
 10
2337.874140266448
 20
-1948.073590617206
 30
0.0
 11
2373.396385984978
 21
-1983.595836335735
 31
0.0
  0
LINE
  5
5106
330
1F
100
AcDbEntity
  8
太線
100
AcDbLine
 10
2345.633101700543
 20
-1941.69041642757
 30
0.0
 11
2381.155347419074
 21
-1977.2126621461
 31
0.0
  0
LINE
  5
5107
330
1F
100
AcDbEntity
  8
太線
100
AcDbLine
 10
2317.869735421144
 20
-2014.747499937764
 30
0.0
 11
2356.664542591619
 21
-1982.831628989585
 31
0.0
  0
LINE
  5
5108
330
1F
100
AcDbEntity
  8
太線
100
AcDbLine
 10
2324.97418456485
 20
-2021.85194908147
 30
0.0
 11
2363.768991735326
 21
-1989.936078133291
 31
0.0
  0
LINE
  5
5109
330
1F
100
AcDbEntity
  8
太線
100
AcDbLine
 10
2332.078633708556
 20
-2028.956398225176
 30
0.0
 11
2370.873440879031
 21
-1997.040527276997
 31
0.0
  0
LINE
  5
510A
330
1F
100
AcDbEntity
  8
太線
100
AcDbLine
 10
2310.765286277438
 20
-2007.643050794058
 30
0.0
 11
2349.560093447914
 21
-1975.727179845879
 31
0.0
  0
LINE
  5
510B
330
1F
100
AcDbEntity
  8
太線
100
AcDbLine
 10
2440.608989730277
 20
-1980.09776196238
 30
0.0
 11
2401.814182559803
 21
-2012.01363291056
 31
0.0
  0
LINE
  5
510C
330
1F
100
AcDbEntity
  8
太線
100
AcDbLine
 10
2447.713438873983
 20
-1987.202211106087
 30
0.0
 11
2408.918631703508
 21
-2019.118082054265
 31
0.0
  0
LINE
  5
510D
330
1F
100
AcDbEntity
  8
太線
100
AcDbLine
 10
2416.023080847214
 20
-2026.222531197971
 30
0.0
 11
2454.817888017689
 21
-1994.306660249792
 31
0.0
  0
LINE
  5
510E
330
1F
100
AcDbEntity
  8
太線
100
AcDbLine
 10
2433.504540586571
 20
-1972.993312818675
 30
0.0
 11
2394.709733416096
 21
-2004.909183766853
 31
0.0
  0
LINE
  5
510F
330
1F
100
AcDbEntity
  8
太線
100
AcDbLine
 10
2335.145082506423
 20
-1859.990294504606
 30
0.0
 11
2373.939889676898
 21
-1828.074423556426
 31
0.0
  0
LINE
  5
5110
330
1F
100
AcDbEntity
  8
太線
100
AcDbLine
 10
2328.040633362717
 20
-1852.8858453609
 30
0.0
 11
2366.835440533192
 21
-1820.96997441272
 31
0.0
  0
LINE
  5
5111
330
1F
100
AcDbEntity
  8
太線
100
AcDbLine
 10
2320.93618421901
 20
-1845.781396217194
 30
0.0
 11
2359.730991389486
 21
-1813.865525269014
 31
0.0
  0
LINE
  5
5112
330
1F
100
AcDbEntity
  8
太線
100
AcDbLine
 10
2353.392063134638
 20
-1935.307242237934
 30
0.0
 11
2388.914308853168
 21
-1970.829487956464
 31
0.0
  0
LINE
  5
5113
330
1F
100
AcDbEntity
  8
太線
100
AcDbLine
 10
2331.218008764089
 20
-1940.916034504656
 30
0.0
 11
2370.012815934564
 21
-1909.000163556477
 31
0.0
  0
LINE
  5
5114
330
1F
100
AcDbEntity
  8
太線
100
AcDbLine
 10
2362.908366790858
 20
-1901.895714412771
 30
0.0
 11
2324.113559620383
 21
-1933.81158536095
 31
0.0
  0
LINE
  5
5115
330
1F
100
AcDbEntity
  8
太線
100
AcDbLine
 10
2355.803917647152
 20
-1894.791265269065
 30
0.0
 11
2317.009110476677
 21
-1926.707136217244
 31
0.0
  0
LINE
  5
5116
330
1F
100
AcDbEntity
  8
太線
100
AcDbLine
 10
2342.249531650129
 20
-1867.094743648312
 30
0.0
 11
2377.771777368658
 21
-1902.616989366841
 31
0.0
  0
LINE
  5
5117
330
1F
100
AcDbEntity
  8
太線
100
AcDbLine
 10
2385.530738802753
 20
-1896.233815177206
 30
0.0
 11
2350.008493084224
 21
-1860.711569458675
 31
0.0
  0
LINE
  5
5118
330
1F
100
AcDbEntity
  8
太線
100
AcDbLine
 10
2352.834188948392
 20
-1763.457292918275
 30
0.0
 11
2388.356434666922
 21
-1798.979538636804
 31
0.0
  0
LINE
  5
5119
330
1F
100
AcDbEntity
  8
太線
100
AcDbLine
 10
2337.316266080202
 20
-1776.223641297546
 30
0.0
 11
2372.838511798732
 21
-1811.745887016076
 31
0.0
  0
LINE
  5
511A
330
1F
100
AcDbEntity
  8
太線
100
AcDbLine
 10
2345.075227514297
 20
-1769.84046710791
 30
0.0
 11
2380.597473232827
 21
-1805.36271282644
 31
0.0
  0
LINE
  5
511B
330
1F
100
AcDbEntity
  8
太線
100
AcDbLine
 10
2327.386121072327
 20
-1866.373468694241
 30
0.0
 11
2291.863875353798
 21
-1830.851222975712
 31
0.0
  0
LINE
  5
511C
330
1F
100
AcDbEntity
  8
太線
100
AcDbLine
 10
2284.104913919703
 20
-1837.234397165348
 30
0.0
 11
2319.627159638233
 21
-1872.756642883877
 31
0.0
  0
LINE
  5
511D
330
1F
100
AcDbEntity
  8
太線
100
AcDbLine
 10
2276.345952485608
 20
-1843.617571354983
 30
0.0
 11
2311.868198204138
 21
-1879.139817073513
 31
0.0
  0
LINE
  5
511E
330
1F
100
AcDbEntity
  8
太線
100
AcDbLine
 10
2268.586991051513
 20
-1850.000745544619
 30
0.0
 11
2304.109236770043
 21
-1885.522991263149
 31
0.0
  0
LINE
  5
511F
330
1F
100
AcDbEntity
  8
太線
100
AcDbLine
 10
2260.828029617418
 20
-1856.383919734255
 30
0.0
 11
2296.350275335948
 21
-1891.906165452785
 31
0.0
  0
LINE
  5
5120
330
1F
100
AcDbEntity
  8
太線
100
AcDbLine
 10
2253.069068183323
 20
-1862.767093923891
 30
0.0
 11
2288.591313901853
 21
-1898.28933964242
 31
0.0
  0
LINE
  5
5121
330
1F
100
AcDbEntity
  8
太線
100
AcDbLine
 10
2348.699468503446
 20
-1887.686816125359
 30
0.0
 11
2309.904661332971
 21
-1919.602687073538
 31
0.0
  0
LINE
  5
5122
330
1F
100
AcDbEntity
  8
太線
100
AcDbLine
 10
2341.595019359739
 20
-1880.582366981653
 30
0.0
 11
2302.800212189265
 21
-1912.498237929832
 31
0.0
  0
LINE
  5
5123
330
1F
100
AcDbEntity
  8
太線
100
AcDbLine
 10
2334.490570216034
 20
-1873.477917837947
 30
0.0
 11
2295.695763045559
 21
-1905.393788786126
 31
0.0
  0
LINE
  5
5124
330
1F
100
AcDbEntity
  8
太線
100
AcDbLine
 10
2306.727285931599
 20
-1831.572497929782
 30
0.0
 11
2345.522093102074
 21
-1799.656626981602
 31
0.0
  0
LINE
  5
5125
330
1F
100
AcDbEntity
  8
太線
100
AcDbLine
 10
2338.417643958368
 20
-1792.552177837896
 30
0.0
 11
2299.622836787893
 21
-1824.468048786076
 31
0.0
  0
LINE
  5
5126
330
1F
100
AcDbEntity
  8
太線
100
AcDbLine
 10
2313.831735075305
 20
-1838.676947073487
 30
0.0
 11
2352.62654224578
 21
-1806.761076125308
 31
0.0
  0
LINE
  5
5127
330
1F
100
AcDbEntity
  8
太線
100
AcDbLine
 10
2357.767454518318
 20
-1854.32839526904
 30
0.0
 11
2393.289700236848
 21
-1889.85064098757
 31
0.0
  0
LINE
  5
5128
330
1F
100
AcDbEntity
  8
太線
100
AcDbLine
 10
2365.526415952413
 20
-1847.945221079404
 30
0.0
 11
2401.048661670943
 21
-1883.467466797934
 31
0.0
  0
LINE
  5
5129
330
1F
100
AcDbEntity
  8
太線
100
AcDbLine
 10
2373.285377386509
 20
-1841.562046889768
 30
0.0
 11
2408.807623105039
 21
-1877.084292608297
 31
0.0
  0
LINE
  5
512A
330
1F
100
AcDbEntity
  8
太線
100
AcDbLine
 10
2381.044338820604
 20
-1835.178872700132
 30
0.0
 11
2416.566584539134
 21
-1870.701118418662
 31
0.0
  0
LINE
  5
512B
330
1F
100
AcDbEntity
  8
太線
100
AcDbLine
 10
2432.084507407324
 20
-1857.93477003939
 30
0.0
 11
2467.606753125854
 21
-1893.45701575792
 31
0.0
  0
LINE
  5
512C
330
1F
100
AcDbEntity
  8
太線
100
AcDbLine
 10
2439.843468841419
 20
-1851.551595849754
 30
0.0
 11
2475.365714559949
 21
-1887.073841568284
 31
0.0
  0
LINE
  5
512D
330
1F
100
AcDbEntity
  8
太線
100
AcDbLine
 10
2447.602430275514
 20
-1845.168421660119
 30
0.0
 11
2483.124675994044
 21
-1880.690667378648
 31
0.0
  0
LINE
  5
512E
330
1F
100
AcDbEntity
  8
太線
100
AcDbLine
 10
2419.950154589548
 20
-1945.296791197921
 30
0.0
 11
2458.744961760023
 21
-1913.380920249741
 31
0.0
  0
LINE
  5
512F
330
1F
100
AcDbEntity
  8
太線
100
AcDbLine
 10
2398.63680715843
 20
-1923.983443766803
 30
0.0
 11
2437.431614328906
 21
-1892.067572818623
 31
0.0
  0
LINE
  5
5130
330
1F
100
AcDbEntity
  8
太線
100
AcDbLine
 10
2405.741256302136
 20
-1931.087892910509
 30
0.0
 11
2444.536063472611
 21
-1899.172021962329
 31
0.0
  0
LINE
  5
5131
330
1F
100
AcDbEntity
  8
太線
100
AcDbLine
 10
2412.845705445842
 20
-1938.192342054215
 30
0.0
 11
2451.640512616318
 21
-1906.276471106036
 31
0.0
  0
LINE
  5
5132
330
1F
100
AcDbEntity
  8
太線
100
AcDbLine
 10
2423.222716041493
 20
-1877.858674531212
 30
0.0
 11
2384.427908871018
 21
-1909.774545479391
 31
0.0
  0
LINE
  5
5133
330
1F
100
AcDbEntity
  8
太線
100
AcDbLine
 10
2391.532358014724
 20
-1916.878994623097
 30
0.0
 11
2430.327165185199
 21
-1884.963123674918
 31
0.0
  0
LINE
  5
5134
330
1F
100
AcDbEntity
  8
太線
100
AcDbLine
 10
2361.151024568733
 20
-1928.924068048298
 30
0.0
 11
2396.673270287263
 21
-1964.446313766828
 31
0.0
  0
LINE
  5
5135
330
1F
100
AcDbEntity
  8
太線
100
AcDbLine
 10
2368.909986002828
 20
-1922.540893858663
 30
0.0
 11
2404.432231721358
 21
-1958.063139577192
 31
0.0
  0
LINE
  5
5136
330
1F
100
AcDbEntity
  8
太線
100
AcDbLine
 10
2412.191193155453
 20
-1951.679965387556
 30
0.0
 11
2376.668947436923
 21
-1916.157719669027
 31
0.0
  0
LINE
  5
5137
330
1F
100
AcDbEntity
  8
太線
100
AcDbLine
 10
2450.331488035539
 20
-1933.251717772719
 30
0.0
 11
2485.853733754069
 21
-1968.773963491249
 31
0.0
  0
LINE
  5
5138
330
1F
100
AcDbEntity
  8
太線
100
AcDbLine
 10
2424.325545973229
 20
-1864.317944229026
 30
0.0
 11
2459.847791691759
 21
-1899.840189947556
 31
0.0
  0
LINE
  5
5139
330
1F
100
AcDbEntity
  8
太線
100
AcDbLine
 10
2440.051115544031
 20
-1808.247812642721
 30
0.0
 11
2401.256308373556
 21
-1840.1636835909
 31
0.0
  0
LINE
  5
513A
330
1F
100
AcDbEntity
  8
太線
100
AcDbLine
 10
2447.155564687736
 20
-1815.352261786427
 30
0.0
 11
2408.360757517261
 21
-1847.268132734606
 31
0.0
  0
LINE
  5
513B
330
1F
100
AcDbEntity
  8
太線
100
AcDbLine
 10
2415.465206660968
 20
-1854.372581878312
 30
0.0
 11
2454.260013831443
 21
-1822.456710930133
 31
0.0
  0
LINE
  5
513C
330
1F
100
AcDbEntity
  8
太線
100
AcDbLine
 10
2425.842217256619
 20
-1794.038914355309
 30
0.0
 11
2387.047410086144
 21
-1825.954785303488
 31
0.0
  0
LINE
  5
513D
330
1F
100
AcDbEntity
  8
太線
100
AcDbLine
 10
2432.946666400324
 20
-1801.143363499015
 30
0.0
 11
2394.15185922985
 21
-1833.059234447194
 31
0.0
  0
LINE
  5
513E
330
1F
100
AcDbEntity
  8
太線
100
AcDbLine
 10
2418.737768112912
 20
-1786.934465211603
 30
0.0
 11
2379.942960942438
 21
-1818.850336159782
 31
0.0
  0
LINE
  5
513F
330
1F
100
AcDbEntity
  8
太線
100
AcDbLine
 10
2360.593150382487
 20
-1757.074118728639
 30
0.0
 11
2396.115396101017
 21
-1792.596364447168
 31
0.0
  0
LINE
  5
5140
330
1F
100
AcDbEntity
  8
太線
100
AcDbLine
 10
2368.352111816582
 20
-1750.690944539003
 30
0.0
 11
2403.874357535112
 21
-1786.213190257533
 31
0.0
  0
LINE
  5
5141
330
1F
100
AcDbEntity
  8
太線
100
AcDbLine
 10
2469.777936699632
 20
-1809.690362550861
 30
0.0
 11
2434.255690981103
 21
-1774.168116832331
 31
0.0
  0
LINE
  5
5142
330
1F
100
AcDbEntity
  8
太線
100
AcDbLine
 10
2426.496729547007
 20
-1780.551291021967
 30
0.0
 11
2462.018975265537
 21
-1816.073536740497
 31
0.0
  0
LINE
  5
5143
330
1F
100
AcDbEntity
  8
太線
100
AcDbLine
 10
2442.014652415197
 20
-1767.784942642696
 30
0.0
 11
2477.536898133727
 21
-1803.307188361225
 31
0.0
  0
LINE
  5
5144
330
1F
100
AcDbEntity
  8
太線
100
AcDbLine
 10
2449.773613849292
 20
-1761.40176845306
 30
0.0
 11
2485.295859567822
 21
-1796.92401417159
 31
0.0
  0
LINE
  5
5145
330
1F
100
AcDbEntity
  8
太線
100
AcDbLine
 10
2684.2339460827
 20
-1941.69041642757
 30
0.0
 11
2719.756191801229
 21
-1977.2126621461
 31
0.0
  0
LINE
  5
5146
330
1F
100
AcDbEntity
  8
太線
100
AcDbLine
 10
2676.474984648605
 20
-1948.073590617206
 30
0.0
 11
2711.997230367134
 21
-1983.595836335735
 31
0.0
  0
LINE
  5
5147
330
1F
100
AcDbEntity
  8
太線
100
AcDbLine
 10
2642.261681515888
 20
-2000.538601650352
 30
0.0
 11
2681.056488686364
 21
-1968.622730702173
 31
0.0
  0
LINE
  5
5148
330
1F
100
AcDbEntity
  8
太線
100
AcDbLine
 10
2673.952039542658
 20
-1961.518281558467
 30
0.0
 11
2635.157232372182
 21
-1993.434152506646
 31
0.0
  0
LINE
  5
5149
330
1F
100
AcDbEntity
  8
太線
100
AcDbLine
 10
2524.648540924544
 20
-1936.85809254307
 30
0.0
 11
2560.170786643074
 21
-1972.380338261599
 31
0.0
  0
LINE
  5
514A
330
1F
100
AcDbEntity
  8
太線
100
AcDbLine
 10
2597.656569232771
 20
-1967.439713980104
 30
0.0
 11
2558.861762062296
 21
-1999.355584928283
 31
0.0
  0
LINE
  5
514B
330
1F
100
AcDbEntity
  8
太線
100
AcDbLine
 10
2590.552120089065
 20
-1960.335264836398
 30
0.0
 11
2551.75731291859
 21
-1992.251135784577
 31
0.0
  0
LINE
  5
514C
330
1F
100
AcDbEntity
  8
太線
100
AcDbLine
 10
2516.889579490449
 20
-1943.241266732705
 30
0.0
 11
2552.411825208979
 21
-1978.763512451235
 31
0.0
  0
LINE
  5
514D
330
1F
100
AcDbEntity
  8
太線
100
AcDbLine
 10
2509.130618056354
 20
-1949.624440922341
 30
0.0
 11
2544.652863774884
 21
-1985.146686640871
 31
0.0
  0
LINE
  5
514E
330
1F
100
AcDbEntity
  8
太線
100
AcDbLine
 10
2641.592288675784
 20
-1983.091162175656
 30
0.0
 11
2606.070042957254
 21
-1947.568916457126
 31
0.0
  0
LINE
  5
514F
330
1F
100
AcDbEntity
  8
太線
100
AcDbLine
 10
2613.82900439135
 20
-1941.18574226749
 30
0.0
 11
2649.351250109879
 21
-1976.707987986021
 31
0.0
  0
LINE
  5
5150
330
1F
100
AcDbEntity
  8
太線
100
AcDbLine
 10
2598.31108152316
 20
-1953.952090646762
 30
0.0
 11
2633.833327241689
 21
-1989.474336365292
 31
0.0
  0
LINE
  5
5151
330
1F
100
AcDbEntity
  8
太線
100
AcDbLine
 10
2587.27955863712
 20
-2027.773381503107
 30
0.0
 11
2626.074365807594
 21
-1995.857510554928
 31
0.0
  0
LINE
  5
5152
330
1F
100
AcDbEntity
  8
太線
100
AcDbLine
 10
2618.969916663889
 20
-1988.753061411221
 30
0.0
 11
2580.175109493413
 21
-2020.6689323594
 31
0.0
  0
LINE
  5
5153
330
1F
100
AcDbEntity
  8
太線
100
AcDbLine
 10
2503.335111498462
 20
-2030.507248530311
 30
0.0
 11
2542.129918668937
 21
-1998.591377582132
 31
0.0
  0
LINE
  5
5154
330
1F
100
AcDbEntity
  8
太線
100
AcDbLine
 10
2496.230662354756
 20
-2023.402799386606
 30
0.0
 11
2535.025469525232
 21
-1991.486928438426
 31
0.0
  0
LINE
  5
5155
330
1F
100
AcDbEntity
  8
太線
100
AcDbLine
 10
2489.12621321105
 20
-2016.298350242899
 30
0.0
 11
2527.921020381525
 21
-1984.38247929472
 31
0.0
  0
LINE
  5
5156
330
1F
100
AcDbEntity
  8
太線
100
AcDbLine
 10
2611.865467520182
 20
-1981.648612267516
 30
0.0
 11
2573.070660349708
 21
-2013.564483215695
 31
0.0
  0
LINE
  5
5157
330
1F
100
AcDbEntity
  8
太線
100
AcDbLine
 10
2604.761018376477
 20
-1974.54416312381
 30
0.0
 11
2565.966211206002
 21
-2006.460034071989
 31
0.0
  0
LINE
  5
5158
330
1F
100
AcDbEntity
  8
太線
100
AcDbLine
 10
2670.679478090713
 20
-2028.956398225176
 30
0.0
 11
2709.474285261188
 21
-1997.040527276997
 31
0.0
  0
LINE
  5
5159
330
1F
100
AcDbEntity
  8
太線
100
AcDbLine
 10
2663.575028947006
 20
-2021.85194908147
 30
0.0
 11
2702.369836117481
 21
-1989.936078133291
 31
0.0
  0
LINE
  5
515A
330
1F
100
AcDbEntity
  8
太線
100
AcDbLine
 10
2656.470579803301
 20
-2014.747499937764
 30
0.0
 11
2695.265386973776
 21
-1982.831628989585
 31
0.0
  0
LINE
  5
515B
330
1F
100
AcDbEntity
  8
太線
100
AcDbLine
 10
2649.366130659594
 20
-2007.643050794058
 30
0.0
 11
2688.16093783007
 21
-1975.727179845879
 31
0.0
  0
LINE
  5
515C
330
1F
100
AcDbEntity
  8
太線
100
AcDbLine
 10
2591.206632379453
 20
-1946.847641503056
 30
0.0
 11
2630.001439549929
 21
-1914.931770554877
 31
0.0
  0
LINE
  5
515D
330
1F
100
AcDbEntity
  8
太線
100
AcDbLine
 10
2584.102183235748
 20
-1939.74319235935
 30
0.0
 11
2622.896990406223
 21
-1907.827321411171
 31
0.0
  0
LINE
  5
515E
330
1F
100
AcDbEntity
  8
太線
100
AcDbLine
 10
2591.669912565479
 20
-1862.767093923891
 30
0.0
 11
2627.192158284009
 21
-1898.28933964242
 31
0.0
  0
LINE
  5
515F
330
1F
100
AcDbEntity
  8
太線
100
AcDbLine
 10
2599.428873999574
 20
-1856.383919734255
 30
0.0
 11
2634.951119718104
 21
-1891.906165452785
 31
0.0
  0
LINE
  5
5160
330
1F
100
AcDbEntity
  8
太線
100
AcDbLine
 10
2607.187835433669
 20
-1850.000745544619
 30
0.0
 11
2642.710081152199
 21
-1885.522991263149
 31
0.0
  0
LINE
  5
5161
330
1F
100
AcDbEntity
  8
太線
100
AcDbLine
 10
2614.946796867764
 20
-1843.617571354983
 30
0.0
 11
2650.469042586294
 21
-1879.139817073513
 31
0.0
  0
LINE
  5
5162
330
1F
100
AcDbEntity
  8
太線
100
AcDbLine
 10
2641.034414489538
 20
-1811.241212855996
 30
0.0
 11
2605.512168771008
 21
-1775.718967137467
 31
0.0
  0
LINE
  5
5163
330
1F
100
AcDbEntity
  8
太線
100
AcDbLine
 10
2613.271130205103
 20
-1769.335792947831
 30
0.0
 11
2648.793375923633
 21
-1804.858038666361
 31
0.0
  0
LINE
  5
5164
330
1F
100
AcDbEntity
  8
太線
100
AcDbLine
 10
2586.721684450873
 20
-1855.923432183447
 30
0.0
 11
2625.516491621348
 21
-1824.007561235268
 31
0.0
  0
LINE
  5
5165
330
1F
100
AcDbEntity
  8
太線
100
AcDbLine
 10
2618.412042477642
 20
-1816.903112091562
 30
0.0
 11
2579.617235307167
 21
-1848.818983039741
 31
0.0
  0
LINE
  5
5166
330
1F
100
AcDbEntity
  8
太線
100
AcDbLine
 10
2597.753207336913
 20
-1782.102141327102
 30
0.0
 11
2633.275453055443
 21
-1817.624387045632
 31
0.0
  0
LINE
  5
5167
330
1F
100
AcDbEntity
  8
太線
100
AcDbLine
 10
2506.401560296328
 20
-1861.541144809741
 30
0.0
 11
2545.196367466804
 21
-1829.625273861561
 31
0.0
  0
LINE
  5
5168
330
1F
100
AcDbEntity
  8
太線
100
AcDbLine
 10
2552.300816610509
 20
-1836.729723005267
 30
0.0
 11
2587.823062329039
 21
-1872.251968723797
 31
0.0
  0
LINE
  5
5169
330
1F
100
AcDbEntity
  8
太線
100
AcDbLine
 10
2544.541855176415
 20
-1843.112897194903
 30
0.0
 11
2580.064100894944
 21
-1878.635142913433
 31
0.0
  0
LINE
  5
516A
330
1F
100
AcDbEntity
  8
太線
100
AcDbLine
 10
2536.782893742319
 20
-1849.496071384539
 30
0.0
 11
2572.305139460849
 21
-1885.018317103069
 31
0.0
  0
LINE
  5
516B
330
1F
100
AcDbEntity
  8
太線
100
AcDbLine
 10
2529.023932308224
 20
-1855.879245574175
 30
0.0
 11
2564.546178026754
 21
-1891.401491292705
 31
0.0
  0
LINE
  5
516C
330
1F
100
AcDbEntity
  8
太線
100
AcDbLine
 10
2583.447670945359
 20
-1953.230815692692
 30
0.0
 11
2547.925425226829
 21
-1917.708569974162
 31
0.0
  0
LINE
  5
516D
330
1F
100
AcDbEntity
  8
太線
100
AcDbLine
 10
2540.166463792734
 20
-1924.091744163798
 30
0.0
 11
2575.688709511263
 21
-1959.613989882328
 31
0.0
  0
LINE
  5
516E
330
1F
100
AcDbEntity
  8
太線
100
AcDbLine
 10
2532.407502358639
 20
-1930.474918353434
 30
0.0
 11
2567.929748077169
 21
-1965.997164071963
 31
0.0
  0
LINE
  5
516F
330
1F
100
AcDbEntity
  8
太線
100
AcDbLine
 10
2556.787216592659
 20
-1897.784665482341
 30
0.0
 11
2521.264970874129
 21
-1862.262419763811
 31
0.0
  0
LINE
  5
5170
330
1F
100
AcDbEntity
  8
太線
100
AcDbLine
 10
2527.060395437057
 20
-1896.3421155742
 30
0.0
 11
2488.265588266583
 21
-1928.257986522379
 31
0.0
  0
LINE
  5
5171
330
1F
100
AcDbEntity
  8
太線
100
AcDbLine
 10
2534.164844580763
 20
-1903.446564717906
 30
0.0
 11
2495.370037410288
 21
-1935.362435666085
 31
0.0
  0
LINE
  5
5172
330
1F
100
AcDbEntity
  8
太線
100
AcDbLine
 10
2502.474486553994
 20
-1942.466884809792
 30
0.0
 11
2541.269293724469
 21
-1910.551013861613
 31
0.0
  0
LINE
  5
5173
330
1F
100
AcDbEntity
  8
太線
100
AcDbLine
 10
2513.506009440034
 20
-1868.645593953447
 30
0.0
 11
2549.028255158564
 21
-1904.167839671977
 31
0.0
  0
LINE
  5
5174
330
1F
100
AcDbEntity
  8
太線
100
AcDbLine
 10
2562.78883580463
 20
-1918.429844928232
 30
0.0
 11
2601.583642975105
 21
-1886.513973980053
 31
0.0
  0
LINE
  5
5175
330
1F
100
AcDbEntity
  8
太線
100
AcDbLine
 10
2569.893284948336
 20
-1925.534294071938
 30
0.0
 11
2608.688092118811
 21
-1893.618423123759
 31
0.0
  0
LINE
  5
5176
330
1F
100
AcDbEntity
  8
太線
100
AcDbLine
 10
2576.997734092042
 20
-1932.638743215644
 30
0.0
 11
2615.792541262517
 21
-1900.722872267465
 31
0.0
  0
LINE
  5
5177
330
1F
100
AcDbEntity
  8
太線
100
AcDbLine
 10
2594.479193831399
 20
-1879.409524836347
 30
0.0
 11
2555.684386660924
 21
-1911.325395784527
 31
0.0
  0
LINE
  5
5178
330
1F
100
AcDbEntity
  8
太線
100
AcDbLine
 10
2539.608589606487
 20
-1752.241794844138
 30
0.0
 11
2575.130835325017
 21
-1787.764040562668
 31
0.0
  0
LINE
  5
5179
330
1F
100
AcDbEntity
  8
太線
100
AcDbLine
 10
2531.849628172393
 20
-1758.624969033774
 30
0.0
 11
2567.371873890923
 21
-1794.147214752304
 31
0.0
  0
LINE
  5
517A
330
1F
100
AcDbEntity
  8
太線
100
AcDbLine
 10
2524.090666738298
 20
-1765.00814322341
 30
0.0
 11
2559.612912456827
 21
-1800.53038894194
 31
0.0
  0
LINE
  5
517B
330
1F
100
AcDbEntity
  8
太線
100
AcDbLine
 10
2589.994245902818
 20
-1788.485315516738
 30
0.0
 11
2551.199438732344
 21
-1820.401186464917
 31
0.0
  0
LINE
  5
517C
330
1F
100
AcDbEntity
  8
太線
100
AcDbLine
 10
2516.331705304203
 20
-1771.391317413046
 30
0.0
 11
2551.853951022732
 21
-1806.913563131575
 31
0.0
  0
LINE
  5
517D
330
1F
100
AcDbEntity
  8
太線
100
AcDbLine
 10
2508.572743870107
 20
-1777.774491602682
 30
0.0
 11
2544.094989588638
 21
-1813.296737321211
 31
0.0
  0
LINE
  5
517E
330
1F
100
AcDbEntity
  8
太線
100
AcDbLine
 10
2492.192662008916
 20
-1847.332246522329
 30
0.0
 11
2530.987469179392
 21
-1815.416375574149
 31
0.0
  0
LINE
  5
517F
330
1F
100
AcDbEntity
  8
太線
100
AcDbLine
 10
2499.297111152622
 20
-1854.436695666035
 30
0.0
 11
2538.091918323098
 21
-1822.520824717855
 31
0.0
  0
LINE
  5
5180
330
1F
100
AcDbEntity
  8
太線
100
AcDbLine
 10
2604.20314419023
 20
-1802.69421380415
 30
0.0
 11
2565.408337019755
 21
-1834.610084752329
 31
0.0
  0
LINE
  5
5181
330
1F
100
AcDbEntity
  8
太線
100
AcDbLine
 10
2597.098695046524
 20
-1795.589764660444
 30
0.0
 11
2558.30388787605
 21
-1827.505635608623
 31
0.0
  0
LINE
  5
5182
330
1F
100
AcDbEntity
  8
太線
100
AcDbLine
 10
2611.307593333936
 20
-1809.798662947856
 30
0.0
 11
2572.512786163462
 21
-1841.714533896035
 31
0.0
  0
LINE
  5
5183
330
1F
100
AcDbEntity
  8
太線
100
AcDbLine
 10
2696.368298900475
 20
-1854.32839526904
 30
0.0
 11
2731.890544619004
 21
-1889.85064098757
 31
0.0
  0
LINE
  5
5184
330
1F
100
AcDbEntity
  8
太線
100
AcDbLine
 10
2665.986965454484
 20
-1866.373468694241
 30
0.0
 11
2630.464719735954
 21
-1830.851222975712
 31
0.0
  0
LINE
  5
5185
330
1F
100
AcDbEntity
  8
太線
100
AcDbLine
 10
2622.705758301859
 20
-1837.234397165348
 30
0.0
 11
2658.228004020389
 21
-1872.756642883877
 31
0.0
  0
LINE
  5
5186
330
1F
100
AcDbEntity
  8
太線
100
AcDbLine
 10
2711.886221768665
 20
-1841.562046889768
 30
0.0
 11
2747.408467487195
 21
-1877.084292608297
 31
0.0
  0
LINE
  5
5187
330
1F
100
AcDbEntity
  8
太線
100
AcDbLine
 10
2704.127260334569
 20
-1847.945221079404
 30
0.0
 11
2739.649506053099
 21
-1883.467466797934
 31
0.0
  0
LINE
  5
5188
330
1F
100
AcDbEntity
  8
太線
100
AcDbLine
 10
2680.850376032285
 20
-1867.094743648312
 30
0.0
 11
2716.372621750815
 21
-1902.616989366841
 31
0.0
  0
LINE
  5
5189
330
1F
100
AcDbEntity
  8
太線
100
AcDbLine
 10
2694.404762029308
 20
-1894.791265269065
 30
0.0
 11
2655.609954858833
 21
-1926.707136217244
 31
0.0
  0
LINE
  5
518A
330
1F
100
AcDbEntity
  8
太線
100
AcDbLine
 10
2701.509211173014
 20
-1901.895714412771
 30
0.0
 11
2662.714404002539
 21
-1933.81158536095
 31
0.0
  0
LINE
  5
518B
330
1F
100
AcDbEntity
  8
太線
100
AcDbLine
 10
2669.818853146245
 20
-1940.916034504656
 30
0.0
 11
2708.61366031672
 21
-1909.000163556477
 31
0.0
  0
LINE
  5
518C
330
1F
100
AcDbEntity
  8
太線
100
AcDbLine
 10
2687.300312885602
 20
-1887.686816125359
 30
0.0
 11
2648.505505715127
 21
-1919.602687073538
 31
0.0
  0
LINE
  5
518D
330
1F
100
AcDbEntity
  8
太線
100
AcDbLine
 10
2621.587965825444
 20
-1934.802568077855
 30
0.0
 11
2657.110211543974
 21
-1970.324813796384
 31
0.0
  0
LINE
  5
518E
330
1F
100
AcDbEntity
  8
太線
100
AcDbLine
 10
2629.34692725954
 20
-1928.419393888218
 30
0.0
 11
2664.86917297807
 21
-1963.941639606748
 31
0.0
  0
LINE
  5
518F
330
1F
100
AcDbEntity
  8
太線
100
AcDbLine
 10
2637.105888693635
 20
-1922.036219698583
 30
0.0
 11
2672.628134412164
 21
-1957.558465417112
 31
0.0
  0
LINE
  5
5190
330
1F
100
AcDbEntity
  8
太線
100
AcDbLine
 10
2673.09141459819
 20
-1873.477917837947
 30
0.0
 11
2634.296607427716
 21
-1905.393788786126
 31
0.0
  0
LINE
  5
5191
330
1F
100
AcDbEntity
  8
太線
100
AcDbLine
 10
2680.195863741896
 20
-1880.582366981653
 30
0.0
 11
2641.401056571421
 21
-1912.498237929832
 31
0.0
  0
LINE
  5
5192
330
1F
100
AcDbEntity
  8
太線
100
AcDbLine
 10
2699.751868950889
 20
-1928.924068048298
 30
0.0
 11
2735.27411466942
 21
-1964.446313766828
 31
0.0
  0
LINE
  5
5193
330
1F
100
AcDbEntity
  8
太線
100
AcDbLine
 10
2691.992907516794
 20
-1935.307242237934
 30
0.0
 11
2727.515153235325
 21
-1970.829487956464
 31
0.0
  0
LINE
  5
5194
330
1F
100
AcDbEntity
  8
太線
100
AcDbLine
 10
2707.510830384984
 20
-1922.540893858663
 30
0.0
 11
2743.033076103514
 21
-1958.063139577192
 31
0.0
  0
LINE
  5
5195
330
1F
100
AcDbEntity
  8
太線
100
AcDbLine
 10
2724.131583184909
 20
-1896.233815177206
 30
0.0
 11
2688.60933746638
 21
-1860.711569458675
 31
0.0
  0
LINE
  5
5196
330
1F
100
AcDbEntity
  8
太線
100
AcDbLine
 10
2652.432579457461
 20
-1838.676947073487
 30
0.0
 11
2691.227386627936
 21
-1806.761076125308
 31
0.0
  0
LINE
  5
5197
330
1F
100
AcDbEntity
  8
太線
100
AcDbLine
 10
2659.537028601167
 20
-1845.781396217194
 30
0.0
 11
2698.331835771643
 21
-1813.865525269014
 31
0.0
  0
LINE
  5
5198
330
1F
100
AcDbEntity
  8
太線
100
AcDbLine
 10
2666.641477744873
 20
-1852.8858453609
 30
0.0
 11
2705.436284915348
 21
-1820.96997441272
 31
0.0
  0
LINE
  5
5199
330
1F
100
AcDbEntity
  8
太線
100
AcDbLine
 10
2673.745926888579
 20
-1859.990294504606
 30
0.0
 11
2712.540734059054
 21
-1828.074423556426
 31
0.0
  0
LINE
  5
519A
330
1F
100
AcDbEntity
  8
太線
100
AcDbLine
 10
2683.676071896453
 20
-1769.84046710791
 30
0.0
 11
2719.198317614983
 21
-1805.36271282644
 31
0.0
  0
LINE
  5
519B
330
1F
100
AcDbEntity
  8
太線
100
AcDbLine
 10
2675.917110462358
 20
-1776.223641297546
 30
0.0
 11
2711.439356180888
 21
-1811.745887016076
 31
0.0
  0
LINE
  5
519C
330
1F
100
AcDbEntity
  8
太線
100
AcDbLine
 10
2677.018488340524
 20
-1792.552177837896
 30
0.0
 11
2638.223681170049
 21
-1824.468048786076
 31
0.0
  0
LINE
  5
519D
330
1F
100
AcDbEntity
  8
太線
100
AcDbLine
 10
2645.328130313755
 20
-1831.572497929782
 30
0.0
 11
2684.122937484231
 21
-1799.656626981602
 31
0.0
  0
LINE
  5
519E
330
1F
100
AcDbEntity
  8
太線
100
AcDbLine
 10
2621.030091639198
 20
-1762.952618758195
 30
0.0
 11
2656.552337357728
 21
-1798.474864476725
 31
0.0
  0
LINE
  5
519F
330
1F
100
AcDbEntity
  8
太線
100
AcDbLine
 10
2628.789053073294
 20
-1756.569444568559
 30
0.0
 11
2664.311298791823
 21
-1792.091690287088
 31
0.0
  0
LINE
  5
51A0
330
1F
100
AcDbEntity
  8
太線
100
AcDbLine
 10
2636.548014507388
 20
-1750.186270378923
 30
0.0
 11
2672.070260225918
 21
-1785.708516097453
 31
0.0
  0
LINE
  5
51A1
330
1F
100
AcDbEntity
  8
太線
100
AcDbLine
 10
2699.193994764643
 20
-1757.074118728639
 30
0.0
 11
2734.716240483173
 21
-1792.596364447168
 31
0.0
  0
LINE
  5
51A2
330
1F
100
AcDbEntity
  8
太線
100
AcDbLine
 10
2691.435033330548
 20
-1763.457292918275
 30
0.0
 11
2726.957279049078
 21
-1798.979538636804
 31
0.0
  0
LINE
  5
51A3
330
1F
100
AcDbEntity
  8
太線
100
AcDbLine
 10
2706.952956198738
 20
-1750.690944539003
 30
0.0
 11
2742.475201917268
 21
-1786.213190257533
 31
0.0
  0
LINE
  5
51A4
330
1F
100
AcDbEntity
  8
太線
100
AcDbLine
 10
3299.37483493631
 20
-1981.648612267516
 30
0.0
 11
3260.580027765835
 21
-2013.564483215695
 31
0.0
  0
LINE
  5
51A5
330
1F
100
AcDbEntity
  8
太線
100
AcDbLine
 10
3306.479284080015
 20
-1988.753061411221
 30
0.0
 11
3267.684476909541
 21
-2020.6689323594
 31
0.0
  0
LINE
  5
51A6
330
1F
100
AcDbEntity
  8
太線
100
AcDbLine
 10
3274.788926053247
 20
-2027.773381503107
 30
0.0
 11
3313.583733223722
 21
-1995.857510554928
 31
0.0
  0
LINE
  5
51A7
330
1F
100
AcDbEntity
  8
太線
100
AcDbLine
 10
3285.165936648898
 20
-1967.439713980104
 30
0.0
 11
3246.371129478423
 21
-1999.355584928283
 31
0.0
  0
LINE
  5
51A8
330
1F
100
AcDbEntity
  8
太線
100
AcDbLine
 10
3292.270385792603
 20
-1974.54416312381
 30
0.0
 11
3253.475578622129
 21
-2006.460034071989
 31
0.0
  0
LINE
  5
51A9
330
1F
100
AcDbEntity
  8
太線
100
AcDbLine
 10
3264.507101508169
 20
-1932.638743215644
 30
0.0
 11
3303.301908678644
 21
-1900.722872267465
 31
0.0
  0
LINE
  5
51AA
330
1F
100
AcDbEntity
  8
太線
100
AcDbLine
 10
3271.611550651874
 20
-1939.74319235935
 30
0.0
 11
3310.40635782235
 21
-1907.827321411171
 31
0.0
  0
LINE
  5
51AB
330
1F
100
AcDbEntity
  8
太線
100
AcDbLine
 10
3257.402652364463
 20
-1925.534294071938
 30
0.0
 11
3296.197459534938
 21
-1893.618423123759
 31
0.0
  0
LINE
  5
51AC
330
1F
100
AcDbEntity
  8
太線
100
AcDbLine
 10
3281.988561247526
 20
-1879.409524836347
 30
0.0
 11
3243.193754077051
 21
-1911.325395784527
 31
0.0
  0
LINE
  5
51AD
330
1F
100
AcDbEntity
  8
太線
100
AcDbLine
 10
3250.298203220757
 20
-1918.429844928232
 30
0.0
 11
3289.093010391232
 21
-1886.513973980053
 31
0.0
  0
LINE
  5
51AE
330
1F
100
AcDbEntity
  8
太線
100
AcDbLine
 10
3298.816960750063
 20
-1809.798662947856
 30
0.0
 11
3260.022153579589
 21
-1841.714533896035
 31
0.0
  0
LINE
  5
51AF
330
1F
100
AcDbEntity
  8
太線
100
AcDbLine
 10
3305.921409893769
 20
-1816.903112091562
 30
0.0
 11
3267.126602723294
 21
-1848.818983039741
 31
0.0
  0
LINE
  5
51B0
330
1F
100
AcDbEntity
  8
太線
100
AcDbLine
 10
3274.231051867001
 20
-1855.923432183447
 30
0.0
 11
3313.025859037475
 21
-1824.007561235268
 31
0.0
  0
LINE
  5
51B1
330
1F
100
AcDbEntity
  8
太線
100
AcDbLine
 10
3284.608062462651
 20
-1795.589764660444
 30
0.0
 11
3245.813255292176
 21
-1827.505635608623
 31
0.0
  0
LINE
  5
51B2
330
1F
100
AcDbEntity
  8
太線
100
AcDbLine
 10
3291.712511606357
 20
-1802.69421380415
 30
0.0
 11
3252.917704435883
 21
-1834.610084752329
 31
0.0
  0
LINE
  5
51B3
330
1F
100
AcDbEntity
  8
太線
100
AcDbLine
 10
3012.483551980977
 20
-2021.85194908147
 30
0.0
 11
3051.278359151453
 21
-1989.936078133291
 31
0.0
  0
LINE
  5
51B4
330
1F
100
AcDbEntity
  8
太線
100
AcDbLine
 10
3043.313285063279
 20
-1894.791265269065
 30
0.0
 11
3004.518477892804
 21
-1926.707136217244
 31
0.0
  0
LINE
  5
51B5
330
1F
100
AcDbEntity
  8
太線
100
AcDbLine
 10
3050.417734206985
 20
-1901.895714412771
 30
0.0
 11
3011.62292703651
 21
-1933.81158536095
 31
0.0
  0
LINE
  5
51B6
330
1F
100
AcDbEntity
  8
太線
100
AcDbLine
 10
3021.999937632161
 20
-1873.477917837947
 30
0.0
 11
2983.205130461687
 21
-1905.393788786126
 31
0.0
  0
LINE
  5
51B7
330
1F
100
AcDbEntity
  8
太線
100
AcDbLine
 10
3029.104386775867
 20
-1880.582366981653
 30
0.0
 11
2990.309579605392
 21
-1912.498237929832
 31
0.0
  0
LINE
  5
51B8
330
1F
100
AcDbEntity
  8
太線
100
AcDbLine
 10
3036.208835919573
 20
-1887.686816125359
 30
0.0
 11
2997.414028749098
 21
-1919.602687073538
 31
0.0
  0
LINE
  5
51B9
330
1F
100
AcDbEntity
  8
太線
100
AcDbLine
 10
3001.341102491432
 20
-1838.676947073487
 30
0.0
 11
3040.135909661907
 21
-1806.761076125308
 31
0.0
  0
LINE
  5
51BA
330
1F
100
AcDbEntity
  8
太線
100
AcDbLine
 10
3008.445551635138
 20
-1845.781396217194
 30
0.0
 11
3047.240358805613
 21
-1813.865525269014
 31
0.0
  0
LINE
  5
51BB
330
1F
100
AcDbEntity
  8
太線
100
AcDbLine
 10
3025.927011374495
 20
-1792.552177837896
 30
0.0
 11
2987.13220420402
 21
-1824.468048786076
 31
0.0
  0
LINE
  5
51BC
330
1F
100
AcDbEntity
  8
太線
100
AcDbLine
 10
2994.236653347726
 20
-1831.572497929782
 30
0.0
 11
3033.031460518202
 21
-1799.656626981602
 31
0.0
  0
LINE
  5
51BD
330
1F
100
AcDbEntity
  8
太線
100
AcDbLine
 10
3014.895488488455
 20
-1866.373468694241
 30
0.0
 11
2979.373242769925
 21
-1830.851222975712
 31
0.0
  0
LINE
  5
51BE
330
1F
100
AcDbEntity
  8
太線
100
AcDbLine
 10
2991.17020454986
 20
-2000.538601650352
 30
0.0
 11
3029.965011720335
 21
-1968.622730702173
 31
0.0
  0
LINE
  5
51BF
330
1F
100
AcDbEntity
  8
太線
100
AcDbLine
 10
3022.860562576629
 20
-1961.518281558467
 30
0.0
 11
2984.065755406153
 21
-1993.434152506646
 31
0.0
  0
LINE
  5
51C0
330
1F
100
AcDbEntity
  8
太線
100
AcDbLine
 10
3005.379102837272
 20
-2014.747499937764
 30
0.0
 11
3044.173910007747
 21
-1982.831628989585
 31
0.0
  0
LINE
  5
51C1
330
1F
100
AcDbEntity
  8
太線
100
AcDbLine
 10
2998.274653693565
 20
-2007.643050794058
 30
0.0
 11
3037.06946086404
 21
-1975.727179845879
 31
0.0
  0
LINE
  5
51C2
330
1F
100
AcDbEntity
  8
太線
100
AcDbLine
 10
2952.429848773506
 20
-1941.18574226749
 30
0.0
 11
2987.952094492035
 21
-1976.707987986021
 31
0.0
  0
LINE
  5
51C3
330
1F
100
AcDbEntity
  8
太線
100
AcDbLine
 10
2980.193133057941
 20
-1983.091162175656
 30
0.0
 11
2944.670887339411
 21
-1947.568916457126
 31
0.0
  0
LINE
  5
51C4
330
1F
100
AcDbEntity
  8
太線
100
AcDbLine
 10
2936.911925905316
 20
-1953.952090646762
 30
0.0
 11
2972.434171623845
 21
-1989.474336365292
 31
0.0
  0
LINE
  5
51C5
330
1F
100
AcDbEntity
  8
太線
100
AcDbLine
 10
2929.152964471221
 20
-1960.335264836398
 30
0.0
 11
2890.358157300746
 21
-1992.251135784577
 31
0.0
  0
LINE
  5
51C6
330
1F
100
AcDbEntity
  8
太線
100
AcDbLine
 10
2936.257413614927
 20
-1967.439713980104
 30
0.0
 11
2897.462606444452
 21
-1999.355584928283
 31
0.0
  0
LINE
  5
51C7
330
1F
100
AcDbEntity
  8
太線
100
AcDbLine
 10
2781.1733709836
 20
-1939.634891962355
 30
0.0
 11
2816.69561670213
 21
-1975.157137680885
 31
0.0
  0
LINE
  5
51C8
330
1F
100
AcDbEntity
  8
太線
100
AcDbLine
 10
2765.65544811541
 20
-1952.401240341627
 30
0.0
 11
2801.17769383394
 21
-1987.923486060156
 31
0.0
  0
LINE
  5
51C9
330
1F
100
AcDbEntity
  8
太線
100
AcDbLine
 10
2808.936655268034
 20
-1981.540311870521
 30
0.0
 11
2773.414409549505
 21
-1946.018066151991
 31
0.0
  0
LINE
  5
51CA
330
1F
100
AcDbEntity
  8
太線
100
AcDbLine
 10
2845.208517332563
 20
-1963.069131863602
 30
0.0
 11
2806.413710162088
 21
-1994.985002811782
 31
0.0
  0
LINE
  5
51CB
330
1F
100
AcDbEntity
  8
太線
100
AcDbLine
 10
2813.518159305794
 20
-2002.089451955487
 30
0.0
 11
2852.312966476269
 21
-1970.173581007308
 31
0.0
  0
LINE
  5
51CC
330
1F
100
AcDbEntity
  8
太線
100
AcDbLine
 10
2847.73146243851
 20
-1949.624440922341
 30
0.0
 11
2883.25370815704
 21
-1985.146686640871
 31
0.0
  0
LINE
  5
51CD
330
1F
100
AcDbEntity
  8
太線
100
AcDbLine
 10
2855.490423872605
 20
-1943.241266732705
 30
0.0
 11
2891.012669591135
 21
-1978.763512451235
 31
0.0
  0
LINE
  5
51CE
330
1F
100
AcDbEntity
  8
太線
100
AcDbLine
 10
2863.2493853067
 20
-1936.85809254307
 30
0.0
 11
2898.77163102523
 21
-1972.380338261599
 31
0.0
  0
LINE
  5
51CF
330
1F
100
AcDbEntity
  8
太線
100
AcDbLine
 10
2754.62392522937
 20
-2026.222531197971
 30
0.0
 11
2793.418732399845
 21
-1994.306660249792
 31
0.0
  0
LINE
  5
51D0
330
1F
100
AcDbEntity
  8
太線
100
AcDbLine
 10
2841.935955880618
 20
-2030.507248530311
 30
0.0
 11
2880.730763051094
 21
-1998.591377582132
 31
0.0
  0
LINE
  5
51D1
330
1F
100
AcDbEntity
  8
太線
100
AcDbLine
 10
2827.727057593206
 20
-2016.298350242899
 30
0.0
 11
2866.521864763681
 21
-1984.38247929472
 31
0.0
  0
LINE
  5
51D2
330
1F
100
AcDbEntity
  8
太線
100
AcDbLine
 10
2834.831506736912
 20
-2023.402799386606
 30
0.0
 11
2873.626313907387
 21
-1991.486928438426
 31
0.0
  0
LINE
  5
51D3
330
1F
100
AcDbEntity
  8
太線
100
AcDbLine
 10
2820.6226084495
 20
-2009.193901099194
 30
0.0
 11
2859.417415619975
 21
-1977.278030151014
 31
0.0
  0
LINE
  5
51D4
330
1F
100
AcDbEntity
  8
太線
100
AcDbLine
 10
2950.466311902339
 20
-1981.648612267516
 30
0.0
 11
2911.671504731864
 21
-2013.564483215695
 31
0.0
  0
LINE
  5
51D5
330
1F
100
AcDbEntity
  8
太線
100
AcDbLine
 10
2957.570761046045
 20
-1988.753061411221
 30
0.0
 11
2918.77595387557
 21
-2020.6689323594
 31
0.0
  0
LINE
  5
51D6
330
1F
100
AcDbEntity
  8
太線
100
AcDbLine
 10
2925.880403019275
 20
-2027.773381503107
 30
0.0
 11
2964.675210189751
 21
-1995.857510554928
 31
0.0
  0
LINE
  5
51D7
330
1F
100
AcDbEntity
  8
太線
100
AcDbLine
 10
2943.361862758633
 20
-1974.54416312381
 30
0.0
 11
2904.567055588158
 21
-2006.460034071989
 31
0.0
  0
LINE
  5
51D8
330
1F
100
AcDbEntity
  8
太線
100
AcDbLine
 10
2845.002404678485
 20
-1861.541144809741
 30
0.0
 11
2883.79721184896
 21
-1829.625273861561
 31
0.0
  0
LINE
  5
51D9
330
1F
100
AcDbEntity
  8
太線
100
AcDbLine
 10
2852.10685382219
 20
-1868.645593953447
 30
0.0
 11
2887.62909954072
 21
-1904.167839671977
 31
0.0
  0
LINE
  5
51DA
330
1F
100
AcDbEntity
  8
太線
100
AcDbLine
 10
2871.008346740795
 20
-1930.474918353434
 30
0.0
 11
2906.530592459325
 21
-1965.997164071963
 31
0.0
  0
LINE
  5
51DB
330
1F
100
AcDbEntity
  8
太線
100
AcDbLine
 10
2878.76730817489
 20
-1924.091744163798
 30
0.0
 11
2914.28955389342
 21
-1959.613989882328
 31
0.0
  0
LINE
  5
51DC
330
1F
100
AcDbEntity
  8
太線
100
AcDbLine
 10
2895.388060974815
 20
-1897.784665482341
 30
0.0
 11
2859.865815256286
 21
-1862.262419763811
 31
0.0
  0
LINE
  5
51DD
330
1F
100
AcDbEntity
  8
太線
100
AcDbLine
 10
2867.62477669038
 20
-1855.879245574175
 30
0.0
 11
2903.14702240891
 21
-1891.401491292705
 31
0.0
  0
LINE
  5
51DE
330
1F
100
AcDbEntity
  8
太線
100
AcDbLine
 10
2875.383738124475
 20
-1849.496071384539
 30
0.0
 11
2910.905983843005
 21
-1885.018317103069
 31
0.0
  0
LINE
  5
51DF
330
1F
100
AcDbEntity
  8
太線
100
AcDbLine
 10
2847.173588252264
 20
-1777.774491602682
 30
0.0
 11
2882.695833970794
 21
-1813.296737321211
 31
0.0
  0
LINE
  5
51E0
330
1F
100
AcDbEntity
  8
太線
100
AcDbLine
 10
2854.932549686358
 20
-1771.391317413046
 30
0.0
 11
2890.454795404889
 21
-1806.913563131575
 31
0.0
  0
LINE
  5
51E1
330
1F
100
AcDbEntity
  8
太線
100
AcDbLine
 10
2862.691511120454
 20
-1765.00814322341
 30
0.0
 11
2898.213756838984
 21
-1800.53038894194
 31
0.0
  0
LINE
  5
51E2
330
1F
100
AcDbEntity
  8
太線
100
AcDbLine
 10
2870.450472554549
 20
-1758.624969033774
 30
0.0
 11
2905.972718273078
 21
-1794.147214752304
 31
0.0
  0
LINE
  5
51E3
330
1F
100
AcDbEntity
  8
太線
100
AcDbLine
 10
2878.209433988644
 20
-1752.241794844138
 30
0.0
 11
2913.731679707174
 21
-1787.764040562668
 31
0.0
  0
LINE
  5
51E4
330
1F
100
AcDbEntity
  8
太線
100
AcDbLine
 10
2837.243443244389
 20
-1867.924318999377
 30
0.0
 11
2801.72119752586
 21
-1832.402073280847
 31
0.0
  0
LINE
  5
51E5
330
1F
100
AcDbEntity
  8
太線
100
AcDbLine
 10
2793.962236091765
 20
-1838.785247470482
 30
0.0
 11
2829.484481810295
 21
-1874.307493189012
 31
0.0
  0
LINE
  5
51E6
330
1F
100
AcDbEntity
  8
太線
100
AcDbLine
 10
2786.20327465767
 20
-1845.168421660119
 30
0.0
 11
2821.7255203762
 21
-1880.690667378648
 31
0.0
  0
LINE
  5
51E7
330
1F
100
AcDbEntity
  8
太線
100
AcDbLine
 10
2778.444313223575
 20
-1851.551595849754
 30
0.0
 11
2813.966558942105
 21
-1887.073841568284
 31
0.0
  0
LINE
  5
51E8
330
1F
100
AcDbEntity
  8
太線
100
AcDbLine
 10
2770.68535178948
 20
-1857.93477003939
 30
0.0
 11
2806.20759750801
 21
-1893.45701575792
 31
0.0
  0
LINE
  5
51E9
330
1F
100
AcDbEntity
  8
太線
100
AcDbLine
 10
2851.452341531802
 20
-1882.133217286789
 30
0.0
 11
2812.657534361327
 21
-1914.049088234968
 31
0.0
  0
LINE
  5
51EA
330
1F
100
AcDbEntity
  8
太線
100
AcDbLine
 10
2844.347892388095
 20
-1875.028768143083
 30
0.0
 11
2805.553085217621
 21
-1906.944639091262
 31
0.0
  0
LINE
  5
51EB
330
1F
100
AcDbEntity
  8
太線
100
AcDbLine
 10
2804.450255285885
 20
-1920.485369393447
 30
0.0
 11
2839.972501004415
 21
-1956.007615111977
 31
0.0
  0
LINE
  5
51EC
330
1F
100
AcDbEntity
  8
太線
100
AcDbLine
 10
2788.932332417695
 20
-1933.251717772719
 30
0.0
 11
2824.454578136224
 21
-1968.773963491249
 31
0.0
  0
LINE
  5
51ED
330
1F
100
AcDbEntity
  8
太線
100
AcDbLine
 10
2796.69129385179
 20
-1926.868543583083
 30
0.0
 11
2832.21353957032
 21
-1962.390789301613
 31
0.0
  0
LINE
  5
51EE
330
1F
100
AcDbEntity
  8
太線
100
AcDbLine
 10
2758.550998971704
 20
-1945.296791197921
 30
0.0
 11
2797.34580614218
 21
-1913.380920249741
 31
0.0
  0
LINE
  5
51EF
330
1F
100
AcDbEntity
  8
太線
100
AcDbLine
 10
2751.446549827998
 20
-1938.192342054215
 30
0.0
 11
2790.241356998473
 21
-1906.276471106036
 31
0.0
  0
LINE
  5
51F0
330
1F
100
AcDbEntity
  8
太線
100
AcDbLine
 10
2762.926390355385
 20
-1864.317944229026
 30
0.0
 11
2798.448636073915
 21
-1899.840189947556
 31
0.0
  0
LINE
  5
51F1
330
1F
100
AcDbEntity
  8
太線
100
AcDbLine
 10
2858.556790675507
 20
-1889.237666430494
 30
0.0
 11
2819.761983505033
 21
-1921.153537378674
 31
0.0
  0
LINE
  5
51F2
330
1F
100
AcDbEntity
  8
太線
100
AcDbLine
 10
2841.075330936151
 20
-1942.466884809792
 30
0.0
 11
2879.870138106626
 21
-1910.551013861613
 31
0.0
  0
LINE
  5
51F3
330
1F
100
AcDbEntity
  8
太線
100
AcDbLine
 10
2872.765688962919
 20
-1903.446564717906
 30
0.0
 11
2833.970881792444
 21
-1935.362435666085
 31
0.0
  0
LINE
  5
51F4
330
1F
100
AcDbEntity
  8
太線
100
AcDbLine
 10
2865.661239819214
 20
-1896.3421155742
 30
0.0
 11
2826.866432648739
 21
-1928.257986522379
 31
0.0
  0
LINE
  5
51F5
330
1F
100
AcDbEntity
  8
太線
100
AcDbLine
 10
2848.27496613043
 20
-1794.103028143031
 30
0.0
 11
2809.480158959955
 21
-1826.018899091211
 31
0.0
  0
LINE
  5
51F6
330
1F
100
AcDbEntity
  8
太線
100
AcDbLine
 10
2788.374458231448
 20
-1761.40176845306
 30
0.0
 11
2823.896703949978
 21
-1796.92401417159
 31
0.0
  0
LINE
  5
51F7
330
1F
100
AcDbEntity
  8
太線
100
AcDbLine
 10
2796.133419665544
 20
-1755.018594263423
 30
0.0
 11
2831.655665384074
 21
-1790.540839981953
 31
0.0
  0
LINE
  5
51F8
330
1F
100
AcDbEntity
  8
太線
100
AcDbLine
 10
2765.097573929164
 20
-1780.551291021967
 30
0.0
 11
2800.619819647693
 21
-1816.073536740497
 31
0.0
  0
LINE
  5
51F9
330
1F
100
AcDbEntity
  8
太線
100
AcDbLine
 10
2808.378781081788
 20
-1809.690362550861
 30
0.0
 11
2772.856535363259
 21
-1774.168116832331
 31
0.0
  0
LINE
  5
51FA
330
1F
100
AcDbEntity
  8
太線
100
AcDbLine
 10
2754.066051043124
 20
-1854.372581878312
 30
0.0
 11
2792.860858213598
 21
-1822.456710930133
 31
0.0
  0
LINE
  5
51FB
330
1F
100
AcDbEntity
  8
太線
100
AcDbLine
 10
2780.615496797354
 20
-1767.784942642696
 30
0.0
 11
2816.137742515883
 21
-1803.307188361225
 31
0.0
  0
LINE
  5
51FC
330
1F
100
AcDbEntity
  8
太線
100
AcDbLine
 10
2816.58460810366
 20
-1833.123348234917
 30
0.0
 11
2855.379415274136
 21
-1801.207477286737
 31
0.0
  0
LINE
  5
51FD
330
1F
100
AcDbEntity
  8
太線
100
AcDbLine
 10
2837.897955534778
 20
-1854.436695666035
 30
0.0
 11
2876.692762705254
 21
-1822.520824717855
 31
0.0
  0
LINE
  5
51FE
330
1F
100
AcDbEntity
  8
太線
100
AcDbLine
 10
2830.793506391072
 20
-1847.332246522329
 30
0.0
 11
2869.588313561548
 21
-1815.416375574149
 31
0.0
  0
LINE
  5
51FF
330
1F
100
AcDbEntity
  8
太線
100
AcDbLine
 10
2823.689057247367
 20
-1840.227797378623
 30
0.0
 11
2862.483864417842
 21
-1808.311926430444
 31
0.0
  0
LINE
  5
5200
330
1F
100
AcDbEntity
  8
太線
100
AcDbLine
 10
2883.142699558571
 20
-1843.112897194903
 30
0.0
 11
2918.6649452771
 21
-1878.635142913433
 31
0.0
  0
LINE
  5
5201
330
1F
100
AcDbEntity
  8
太線
100
AcDbLine
 10
2890.901660992665
 20
-1836.729723005267
 30
0.0
 11
2926.423906711196
 21
-1872.251968723797
 31
0.0
  0
LINE
  5
5202
330
1F
100
AcDbEntity
  8
太線
100
AcDbLine
 10
2948.337397033546
 20
-1856.383919734255
 30
0.0
 11
2983.859642752075
 21
-1891.906165452785
 31
0.0
  0
LINE
  5
5203
330
1F
100
AcDbEntity
  8
太線
100
AcDbLine
 10
2956.09635846764
 20
-1850.000745544619
 30
0.0
 11
2991.61860418617
 21
-1885.522991263149
 31
0.0
  0
LINE
  5
5204
330
1F
100
AcDbEntity
  8
太線
100
AcDbLine
 10
2963.855319901735
 20
-1843.617571354983
 30
0.0
 11
2999.377565620266
 21
-1879.139817073513
 31
0.0
  0
LINE
  5
5205
330
1F
100
AcDbEntity
  8
太線
100
AcDbLine
 10
2971.61428133583
 20
-1837.234397165348
 30
0.0
 11
3007.13652705436
 21
-1872.756642883877
 31
0.0
  0
LINE
  5
5206
330
1F
100
AcDbEntity
  8
太線
100
AcDbLine
 10
2929.80747676161
 20
-1946.847641503056
 30
0.0
 11
2968.602283932085
 21
-1914.931770554877
 31
0.0
  0
LINE
  5
5207
330
1F
100
AcDbEntity
  8
太線
100
AcDbLine
 10
2915.598578474197
 20
-1932.638743215644
 30
0.0
 11
2954.393385644673
 21
-1900.722872267465
 31
0.0
  0
LINE
  5
5208
330
1F
100
AcDbEntity
  8
太線
100
AcDbLine
 10
2922.703027617904
 20
-1939.74319235935
 30
0.0
 11
2961.497834788379
 21
-1907.827321411171
 31
0.0
  0
LINE
  5
5209
330
1F
100
AcDbEntity
  8
太線
100
AcDbLine
 10
2940.57843559945
 20
-1862.767093923891
 30
0.0
 11
2976.10068131798
 21
-1898.28933964242
 31
0.0
  0
LINE
  5
520A
330
1F
100
AcDbEntity
  8
太線
100
AcDbLine
 10
2901.389680186786
 20
-1918.429844928232
 30
0.0
 11
2940.184487357261
 21
-1886.513973980053
 31
0.0
  0
LINE
  5
520B
330
1F
100
AcDbEntity
  8
太線
100
AcDbLine
 10
2908.494129330492
 20
-1925.534294071938
 30
0.0
 11
2947.288936500967
 21
-1893.618423123759
 31
0.0
  0
LINE
  5
520C
330
1F
100
AcDbEntity
  8
太線
100
AcDbLine
 10
2922.048515327515
 20
-1953.230815692692
 30
0.0
 11
2886.526269608985
 21
-1917.708569974162
 31
0.0
  0
LINE
  5
520D
330
1F
100
AcDbEntity
  8
太線
100
AcDbLine
 10
2933.080038213555
 20
-1879.409524836347
 30
0.0
 11
2894.285231043079
 21
-1911.325395784527
 31
0.0
  0
LINE
  5
520E
330
1F
100
AcDbEntity
  8
太線
100
AcDbLine
 10
2967.947771641696
 20
-1928.419393888218
 30
0.0
 11
3003.470017360226
 21
-1963.941639606748
 31
0.0
  0
LINE
  5
520F
330
1F
100
AcDbEntity
  8
太線
100
AcDbLine
 10
2960.1888102076
 20
-1934.802568077855
 30
0.0
 11
2995.71105592613
 21
-1970.324813796384
 31
0.0
  0
LINE
  5
5210
330
1F
100
AcDbEntity
  8
太線
100
AcDbLine
 10
2975.70673307579
 20
-1922.036219698583
 30
0.0
 11
3011.228978794321
 21
-1957.558465417112
 31
0.0
  0
LINE
  5
5211
330
1F
100
AcDbEntity
  8
太線
100
AcDbLine
 10
2949.908437716092
 20
-1809.798662947856
 30
0.0
 11
2911.113630545618
 21
-1841.714533896035
 31
0.0
  0
LINE
  5
5212
330
1F
100
AcDbEntity
  8
太線
100
AcDbLine
 10
2957.012886859798
 20
-1816.903112091562
 30
0.0
 11
2918.218079689323
 21
-1848.818983039741
 31
0.0
  0
LINE
  5
5213
330
1F
100
AcDbEntity
  8
太線
100
AcDbLine
 10
2925.322528833029
 20
-1855.923432183447
 30
0.0
 11
2964.117336003504
 21
-1824.007561235268
 31
0.0
  0
LINE
  5
5214
330
1F
100
AcDbEntity
  8
太線
100
AcDbLine
 10
2979.635258871694
 20
-1811.241212855996
 30
0.0
 11
2944.113013153165
 21
-1775.718967137467
 31
0.0
  0
LINE
  5
5215
330
1F
100
AcDbEntity
  8
太線
100
AcDbLine
 10
2936.354051719069
 20
-1782.102141327102
 30
0.0
 11
2971.876297437599
 21
-1817.624387045632
 31
0.0
  0
LINE
  5
5216
330
1F
100
AcDbEntity
  8
太線
100
AcDbLine
 10
2928.595090284974
 20
-1788.485315516738
 30
0.0
 11
2889.800283114499
 21
-1820.401186464917
 31
0.0
  0
LINE
  5
5217
330
1F
100
AcDbEntity
  8
太線
100
AcDbLine
 10
2935.69953942868
 20
-1795.589764660444
 30
0.0
 11
2896.904732258206
 21
-1827.505635608623
 31
0.0
  0
LINE
  5
5218
330
1F
100
AcDbEntity
  8
太線
100
AcDbLine
 10
2942.803988572386
 20
-1802.69421380415
 30
0.0
 11
2904.009181401912
 21
-1834.610084752329
 31
0.0
  0
LINE
  5
5219
330
1F
100
AcDbEntity
  8
太線
100
AcDbLine
 10
2951.871974587259
 20
-1769.335792947831
 30
0.0
 11
2987.394220305789
 21
-1804.858038666361
 31
0.0
  0
LINE
  5
521A
330
1F
100
AcDbEntity
  8
太線
100
AcDbLine
 10
2967.38989745545
 20
-1756.569444568559
 30
0.0
 11
3002.912143173979
 21
-1792.091690287088
 31
0.0
  0
LINE
  5
521B
330
1F
100
AcDbEntity
  8
太線
100
AcDbLine
 10
2959.630936021354
 20
-1762.952618758195
 30
0.0
 11
2995.153181739884
 21
-1798.474864476725
 31
0.0
  0
LINE
  5
521C
330
1F
100
AcDbEntity
  8
太線
100
AcDbLine
 10
2975.148858889544
 20
-1750.186270378923
 30
0.0
 11
3010.671104608074
 21
-1785.708516097453
 31
0.0
  0
LINE
  5
521D
330
1F
100
AcDbEntity
  8
太線
100
AcDbLine
 10
3212.157908340671
 20
-1936.85809254307
 30
0.0
 11
3247.680154059201
 21
-1972.380338261599
 31
0.0
  0
LINE
  5
521E
330
1F
100
AcDbEntity
  8
太線
100
AcDbLine
 10
3196.639985472481
 20
-1949.624440922341
 30
0.0
 11
3232.162231191011
 21
-1985.146686640871
 31
0.0
  0
LINE
  5
521F
330
1F
100
AcDbEntity
  8
太線
100
AcDbLine
 10
3204.398946906576
 20
-1943.241266732705
 30
0.0
 11
3239.921192625106
 21
-1978.763512451235
 31
0.0
  0
LINE
  5
5220
330
1F
100
AcDbEntity
  8
太線
100
AcDbLine
 10
3194.117040366534
 20
-1963.069131863602
 30
0.0
 11
3155.322233196059
 21
-1994.985002811782
 31
0.0
  0
LINE
  5
5221
330
1F
100
AcDbEntity
  8
太線
100
AcDbLine
 10
3162.426682339765
 20
-2002.089451955487
 30
0.0
 11
3201.221489510241
 21
-1970.173581007308
 31
0.0
  0
LINE
  5
5222
330
1F
100
AcDbEntity
  8
太線
100
AcDbLine
 10
3033.142469116671
 20
-1941.69041642757
 30
0.0
 11
3068.6647148352
 21
-1977.2126621461
 31
0.0
  0
LINE
  5
5223
330
1F
100
AcDbEntity
  8
太線
100
AcDbLine
 10
3113.909458858992
 20
-1965.888863674969
 30
0.0
 11
3075.114651688517
 21
-1997.804734623147
 31
0.0
  0
LINE
  5
5224
330
1F
100
AcDbEntity
  8
太線
100
AcDbLine
 10
3106.805009715286
 20
-1958.784414531263
 30
0.0
 11
3068.010202544812
 21
-1990.700285479442
 31
0.0
  0
LINE
  5
5225
330
1F
100
AcDbEntity
  8
太線
100
AcDbLine
 10
3025.383507682576
 20
-1948.073590617206
 30
0.0
 11
3060.905753401105
 21
-1983.595836335735
 31
0.0
  0
LINE
  5
5226
330
1F
100
AcDbEntity
  8
太線
100
AcDbLine
 10
3114.563971149381
 20
-1952.401240341627
 30
0.0
 11
3150.086216867911
 21
-1987.923486060156
 31
0.0
  0
LINE
  5
5227
330
1F
100
AcDbEntity
  8
太線
100
AcDbLine
 10
3157.845178302006
 20
-1981.540311870521
 30
0.0
 11
3122.322932583476
 21
-1946.018066151991
 31
0.0
  0
LINE
  5
5228
330
1F
100
AcDbEntity
  8
太線
100
AcDbLine
 10
3130.081894017571
 20
-1939.634891962355
 30
0.0
 11
3165.604139736101
 21
-1975.157137680885
 31
0.0
  0
LINE
  5
5229
330
1F
100
AcDbEntity
  8
太線
100
AcDbLine
 10
3278.061487505191
 20
-1960.335264836398
 30
0.0
 11
3239.266680334717
 21
-1992.251135784577
 31
0.0
  0
LINE
  5
522A
330
1F
100
AcDbEntity
  8
太線
100
AcDbLine
 10
3019.588001124683
 20
-2028.956398225176
 30
0.0
 11
3058.382808295159
 21
-1997.040527276997
 31
0.0
  0
LINE
  5
522B
330
1F
100
AcDbEntity
  8
太線
100
AcDbLine
 10
3135.22280629011
 20
-1987.202211106087
 30
0.0
 11
3096.427999119635
 21
-2019.118082054265
 31
0.0
  0
LINE
  5
522C
330
1F
100
AcDbEntity
  8
太線
100
AcDbLine
 10
3128.118357146404
 20
-1980.09776196238
 30
0.0
 11
3089.323549975929
 21
-2012.01363291056
 31
0.0
  0
LINE
  5
522D
330
1F
100
AcDbEntity
  8
太線
100
AcDbLine
 10
3103.532448263341
 20
-2026.222531197971
 30
0.0
 11
3142.327255433816
 21
-1994.306660249792
 31
0.0
  0
LINE
  5
522E
330
1F
100
AcDbEntity
  8
太線
100
AcDbLine
 10
3121.013908002698
 20
-1972.993312818675
 30
0.0
 11
3082.219100832224
 21
-2004.909183766853
 31
0.0
  0
LINE
  5
522F
330
1F
100
AcDbEntity
  8
太線
100
AcDbLine
 10
3176.635580627177
 20
-2016.298350242899
 30
0.0
 11
3215.430387797652
 21
-1984.38247929472
 31
0.0
  0
LINE
  5
5230
330
1F
100
AcDbEntity
  8
太線
100
AcDbLine
 10
3183.740029770883
 20
-2023.402799386606
 30
0.0
 11
3222.534836941358
 21
-1991.486928438426
 31
0.0
  0
LINE
  5
5231
330
1F
100
AcDbEntity
  8
太線
100
AcDbLine
 10
3190.844478914589
 20
-2030.507248530311
 30
0.0
 11
3229.639286085064
 21
-1998.591377582132
 31
0.0
  0
LINE
  5
5232
330
1F
100
AcDbEntity
  8
太線
100
AcDbLine
 10
3169.531131483471
 20
-2009.193901099194
 30
0.0
 11
3208.325938653946
 21
-1977.278030151014
 31
0.0
  0
LINE
  5
5233
330
1F
100
AcDbEntity
  8
太線
100
AcDbLine
 10
3145.599816885761
 20
-1926.868543583083
 30
0.0
 11
3181.122062604291
 21
-1962.390789301613
 31
0.0
  0
LINE
  5
5234
330
1F
100
AcDbEntity
  8
太線
100
AcDbLine
 10
3137.840855451666
 20
-1933.251717772719
 30
0.0
 11
3173.363101170195
 21
-1968.773963491249
 31
0.0
  0
LINE
  5
5235
330
1F
100
AcDbEntity
  8
太線
100
AcDbLine
 10
3142.870759125736
 20
-1838.785247470482
 30
0.0
 11
3178.393004844266
 21
-1874.307493189012
 31
0.0
  0
LINE
  5
5236
330
1F
100
AcDbEntity
  8
太線
100
AcDbLine
 10
3135.111797691641
 20
-1845.168421660119
 30
0.0
 11
3170.634043410171
 21
-1880.690667378648
 31
0.0
  0
LINE
  5
5237
330
1F
100
AcDbEntity
  8
太線
100
AcDbLine
 10
3127.352836257546
 20
-1851.551595849754
 30
0.0
 11
3162.875081976076
 21
-1887.073841568284
 31
0.0
  0
LINE
  5
5238
330
1F
100
AcDbEntity
  8
太線
100
AcDbLine
 10
3119.593874823451
 20
-1857.93477003939
 30
0.0
 11
3155.116120541981
 21
-1893.45701575792
 31
0.0
  0
LINE
  5
5239
330
1F
100
AcDbEntity
  8
太線
100
AcDbLine
 10
3111.834913389356
 20
-1864.317944229026
 30
0.0
 11
3147.357159107886
 21
-1899.840189947556
 31
0.0
  0
LINE
  5
523A
330
1F
100
AcDbEntity
  8
太線
100
AcDbLine
 10
3145.041942699515
 20
-1755.018594263423
 30
0.0
 11
3180.564188418045
 21
-1790.540839981953
 31
0.0
  0
LINE
  5
523B
330
1F
100
AcDbEntity
  8
太線
100
AcDbLine
 10
3114.006096963135
 20
-1780.551291021967
 30
0.0
 11
3149.528342681664
 21
-1816.073536740497
 31
0.0
  0
LINE
  5
523C
330
1F
100
AcDbEntity
  8
太線
100
AcDbLine
 10
3157.287304115759
 20
-1809.690362550861
 30
0.0
 11
3121.76505839723
 21
-1774.168116832331
 31
0.0
  0
LINE
  5
523D
330
1F
100
AcDbEntity
  8
太線
100
AcDbLine
 10
3129.524019831325
 20
-1767.784942642696
 30
0.0
 11
3165.046265549854
 21
-1803.307188361225
 31
0.0
  0
LINE
  5
523E
330
1F
100
AcDbEntity
  8
太線
100
AcDbLine
 10
3137.282981265419
 20
-1761.40176845306
 30
0.0
 11
3172.805226983949
 21
-1796.92401417159
 31
0.0
  0
LINE
  5
523F
330
1F
100
AcDbEntity
  8
太線
100
AcDbLine
 10
3068.553706236731
 20
-1835.178872700132
 30
0.0
 11
3104.075951955261
 21
-1870.701118418662
 31
0.0
  0
LINE
  5
5240
330
1F
100
AcDbEntity
  8
太線
100
AcDbLine
 10
3060.794744802636
 20
-1841.562046889768
 30
0.0
 11
3096.316990521166
 21
-1877.084292608297
 31
0.0
  0
LINE
  5
5241
330
1F
100
AcDbEntity
  8
太線
100
AcDbLine
 10
3053.035783368541
 20
-1847.945221079404
 30
0.0
 11
3088.558029087071
 21
-1883.467466797934
 31
0.0
  0
LINE
  5
5242
330
1F
100
AcDbEntity
  8
太線
100
AcDbLine
 10
3045.276821934446
 20
-1854.32839526904
 30
0.0
 11
3080.799067652975
 21
-1889.85064098757
 31
0.0
  0
LINE
  5
5243
330
1F
100
AcDbEntity
  8
太線
100
AcDbLine
 10
3079.041725430851
 20
-1916.878994623097
 30
0.0
 11
3117.836532601327
 21
-1884.963123674918
 31
0.0
  0
LINE
  5
5244
330
1F
100
AcDbEntity
  8
太線
100
AcDbLine
 10
3099.70056057158
 20
-1951.679965387556
 30
0.0
 11
3064.17831485305
 21
-1916.157719669027
 31
0.0
  0
LINE
  5
5245
330
1F
100
AcDbEntity
  8
太線
100
AcDbLine
 10
3110.73208345762
 20
-1877.858674531212
 30
0.0
 11
3071.937276287145
 21
-1909.774545479391
 31
0.0
  0
LINE
  5
5246
330
1F
100
AcDbEntity
  8
太線
100
AcDbLine
 10
3056.419353418956
 20
-1922.540893858663
 30
0.0
 11
3091.941599137485
 21
-1958.063139577192
 31
0.0
  0
LINE
  5
5247
330
1F
100
AcDbEntity
  8
太線
100
AcDbLine
 10
3048.66039198486
 20
-1928.924068048298
 30
0.0
 11
3084.18263770339
 21
-1964.446313766828
 31
0.0
  0
LINE
  5
5248
330
1F
100
AcDbEntity
  8
太線
100
AcDbLine
 10
3018.727376180216
 20
-1940.916034504656
 30
0.0
 11
3057.522183350691
 21
-1909.000163556477
 31
0.0
  0
LINE
  5
5249
330
1F
100
AcDbEntity
  8
太線
100
AcDbLine
 10
3040.901430550766
 20
-1935.307242237934
 30
0.0
 11
3076.423676269296
 21
-1970.829487956464
 31
0.0
  0
LINE
  5
524A
330
1F
100
AcDbEntity
  8
太線
100
AcDbLine
 10
3073.040106218881
 20
-1896.233815177206
 30
0.0
 11
3037.517860500351
 21
-1860.711569458675
 31
0.0
  0
LINE
  5
524B
330
1F
100
AcDbEntity
  8
太線
100
AcDbLine
 10
3029.758899066256
 20
-1867.094743648312
 30
0.0
 11
3065.281144784785
 21
-1902.616989366841
 31
0.0
  0
LINE
  5
524C
330
1F
100
AcDbEntity
  8
太線
100
AcDbLine
 10
3093.250623718263
 20
-1931.087892910509
 30
0.0
 11
3132.045430888739
 21
-1899.172021962329
 31
0.0
  0
LINE
  5
524D
330
1F
100
AcDbEntity
  8
太線
100
AcDbLine
 10
3086.146174574557
 20
-1923.983443766803
 30
0.0
 11
3124.940981745032
 21
-1892.067572818623
 31
0.0
  0
LINE
  5
524E
330
1F
100
AcDbEntity
  8
太線
100
AcDbLine
 10
3100.355072861969
 20
-1938.192342054215
 30
0.0
 11
3139.149880032444
 21
-1906.276471106036
 31
0.0
  0
LINE
  5
524F
330
1F
100
AcDbEntity
  8
太線
100
AcDbLine
 10
3107.459522005675
 20
-1945.296791197921
 30
0.0
 11
3146.254329176151
 21
-1913.380920249741
 31
0.0
  0
LINE
  5
5250
330
1F
100
AcDbEntity
  8
太線
100
AcDbLine
 10
3055.861479232709
 20
-1750.690944539003
 30
0.0
 11
3091.383724951239
 21
-1786.213190257533
 31
0.0
  0
LINE
  5
5251
330
1F
100
AcDbEntity
  8
太線
100
AcDbLine
 10
3048.102517798614
 20
-1757.074118728639
 30
0.0
 11
3083.624763517144
 21
-1792.596364447168
 31
0.0
  0
LINE
  5
5252
330
1F
100
AcDbEntity
  8
太線
100
AcDbLine
 10
3113.351584672745
 20
-1794.038914355309
 30
0.0
 11
3074.556777502271
 21
-1825.954785303488
 31
0.0
  0
LINE
  5
5253
330
1F
100
AcDbEntity
  8
太線
100
AcDbLine
 10
3106.24713552904
 20
-1786.934465211603
 30
0.0
 11
3067.452328358565
 21
-1818.850336159782
 31
0.0
  0
LINE
  5
5254
330
1F
100
AcDbEntity
  8
太線
100
AcDbLine
 10
3032.584594930424
 20
-1769.84046710791
 30
0.0
 11
3068.106840648954
 21
-1805.36271282644
 31
0.0
  0
LINE
  5
5255
330
1F
100
AcDbEntity
  8
太線
100
AcDbLine
 10
3024.825633496329
 20
-1776.223641297546
 30
0.0
 11
3060.347879214859
 21
-1811.745887016076
 31
0.0
  0
LINE
  5
5256
330
1F
100
AcDbEntity
  8
太線
100
AcDbLine
 10
3015.550000778844
 20
-1852.8858453609
 30
0.0
 11
3054.344807949319
 21
-1820.96997441272
 31
0.0
  0
LINE
  5
5257
330
1F
100
AcDbEntity
  8
太線
100
AcDbLine
 10
3022.65444992255
 20
-1859.990294504606
 30
0.0
 11
3061.449257093025
 21
-1828.074423556426
 31
0.0
  0
LINE
  5
5258
330
1F
100
AcDbEntity
  8
太線
100
AcDbLine
 10
3040.343556364519
 20
-1763.457292918275
 30
0.0
 11
3075.865802083049
 21
-1798.979538636804
 31
0.0
  0
LINE
  5
5259
330
1F
100
AcDbEntity
  8
太線
100
AcDbLine
 10
3120.456033816452
 20
-1801.143363499015
 30
0.0
 11
3081.661226645977
 21
-1833.059234447194
 31
0.0
  0
LINE
  5
525A
330
1F
100
AcDbEntity
  8
太線
100
AcDbLine
 10
3134.664932103864
 20
-1815.352261786427
 30
0.0
 11
3095.870124933389
 21
-1847.268132734606
 31
0.0
  0
LINE
  5
525B
330
1F
100
AcDbEntity
  8
太線
100
AcDbLine
 10
3127.560482960157
 20
-1808.247812642721
 30
0.0
 11
3088.765675789683
 21
-1840.1636835909
 31
0.0
  0
LINE
  5
525C
330
1F
100
AcDbEntity
  8
太線
100
AcDbLine
 10
3102.974574077095
 20
-1854.372581878312
 30
0.0
 11
3141.76938124757
 21
-1822.456710930133
 31
0.0
  0
LINE
  5
525D
330
1F
100
AcDbEntity
  8
太線
100
AcDbLine
 10
3193.910927712455
 20
-1861.541144809741
 30
0.0
 11
3232.705734882931
 21
-1829.625273861561
 31
0.0
  0
LINE
  5
525E
330
1F
100
AcDbEntity
  8
太線
100
AcDbLine
 10
3186.151966278361
 20
-1867.924318999377
 30
0.0
 11
3150.629720559831
 21
-1832.402073280847
 31
0.0
  0
LINE
  5
525F
330
1F
100
AcDbEntity
  8
太線
100
AcDbLine
 10
3216.533299724352
 20
-1855.879245574175
 30
0.0
 11
3252.055545442881
 21
-1891.401491292705
 31
0.0
  0
LINE
  5
5260
330
1F
100
AcDbEntity
  8
太線
100
AcDbLine
 10
3224.292261158446
 20
-1849.496071384539
 30
0.0
 11
3259.814506876976
 21
-1885.018317103069
 31
0.0
  0
LINE
  5
5261
330
1F
100
AcDbEntity
  8
太線
100
AcDbLine
 10
3232.051222592541
 20
-1843.112897194903
 30
0.0
 11
3267.573468311072
 21
-1878.635142913433
 31
0.0
  0
LINE
  5
5262
330
1F
100
AcDbEntity
  8
太線
100
AcDbLine
 10
3239.810184026637
 20
-1836.729723005267
 30
0.0
 11
3275.332429745167
 21
-1872.251968723797
 31
0.0
  0
LINE
  5
5263
330
1F
100
AcDbEntity
  8
太線
100
AcDbLine
 10
3189.983853970121
 20
-1942.466884809792
 30
0.0
 11
3228.778661140597
 21
-1910.551013861613
 31
0.0
  0
LINE
  5
5264
330
1F
100
AcDbEntity
  8
太線
100
AcDbLine
 10
3221.67421199689
 20
-1903.446564717906
 30
0.0
 11
3182.879404826415
 21
-1935.362435666085
 31
0.0
  0
LINE
  5
5265
330
1F
100
AcDbEntity
  8
太線
100
AcDbLine
 10
3214.569762853185
 20
-1896.3421155742
 30
0.0
 11
3175.77495568271
 21
-1928.257986522379
 31
0.0
  0
LINE
  5
5266
330
1F
100
AcDbEntity
  8
太線
100
AcDbLine
 10
3201.015376856161
 20
-1868.645593953447
 30
0.0
 11
3236.537622574691
 21
-1904.167839671977
 31
0.0
  0
LINE
  5
5267
330
1F
100
AcDbEntity
  8
太線
100
AcDbLine
 10
3244.296584008786
 20
-1897.784665482341
 30
0.0
 11
3208.774338290256
 21
-1862.262419763811
 31
0.0
  0
LINE
  5
5268
330
1F
100
AcDbEntity
  8
太線
100
AcDbLine
 10
3207.465313709478
 20
-1889.237666430494
 30
0.0
 11
3168.670506539004
 21
-1921.153537378674
 31
0.0
  0
LINE
  5
5269
330
1F
100
AcDbEntity
  8
太線
100
AcDbLine
 10
3153.358778319856
 20
-1920.485369393447
 30
0.0
 11
3188.881024038386
 21
-1956.007615111977
 31
0.0
  0
LINE
  5
526A
330
1F
100
AcDbEntity
  8
太線
100
AcDbLine
 10
3200.360864565773
 20
-1882.133217286789
 30
0.0
 11
3161.566057395298
 21
-1914.049088234968
 31
0.0
  0
LINE
  5
526B
330
1F
100
AcDbEntity
  8
太線
100
AcDbLine
 10
3193.256415422066
 20
-1875.028768143083
 30
0.0
 11
3154.461608251592
 21
-1906.944639091262
 31
0.0
  0
LINE
  5
526C
330
1F
100
AcDbEntity
  8
太線
100
AcDbLine
 10
3219.916869774766
 20
-1930.474918353434
 30
0.0
 11
3255.439115493296
 21
-1965.997164071963
 31
0.0
  0
LINE
  5
526D
330
1F
100
AcDbEntity
  8
太線
100
AcDbLine
 10
3227.675831208861
 20
-1924.091744163798
 30
0.0
 11
3263.198076927391
 21
-1959.613989882328
 31
0.0
  0
LINE
  5
526E
330
1F
100
AcDbEntity
  8
太線
100
AcDbLine
 10
3270.957038361486
 20
-1953.230815692692
 30
0.0
 11
3235.434792642956
 21
-1917.708569974162
 31
0.0
  0
LINE
  5
526F
330
1F
100
AcDbEntity
  8
太線
100
AcDbLine
 10
3186.806478568749
 20
-1854.436695666035
 30
0.0
 11
3225.601285739225
 21
-1822.520824717855
 31
0.0
  0
LINE
  5
5270
330
1F
100
AcDbEntity
  8
太線
100
AcDbLine
 10
3179.702029425043
 20
-1847.332246522329
 30
0.0
 11
3218.496836595519
 21
-1815.416375574149
 31
0.0
  0
LINE
  5
5271
330
1F
100
AcDbEntity
  8
太線
100
AcDbLine
 10
3211.600034154425
 20
-1765.00814322341
 30
0.0
 11
3247.122279872955
 21
-1800.53038894194
 31
0.0
  0
LINE
  5
5272
330
1F
100
AcDbEntity
  8
太線
100
AcDbLine
 10
3196.082111286235
 20
-1777.774491602682
 30
0.0
 11
3231.604357004765
 21
-1813.296737321211
 31
0.0
  0
LINE
  5
5273
330
1F
100
AcDbEntity
  8
太線
100
AcDbLine
 10
3203.841072720329
 20
-1771.391317413046
 30
0.0
 11
3239.36331843886
 21
-1806.913563131575
 31
0.0
  0
LINE
  5
5274
330
1F
100
AcDbEntity
  8
太線
100
AcDbLine
 10
3165.493131137631
 20
-1833.123348234917
 30
0.0
 11
3204.287938308107
 21
-1801.207477286737
 31
0.0
  0
LINE
  5
5275
330
1F
100
AcDbEntity
  8
太線
100
AcDbLine
 10
3197.183489164401
 20
-1794.103028143031
 30
0.0
 11
3158.388681993926
 21
-1826.018899091211
 31
0.0
  0
LINE
  5
5276
330
1F
100
AcDbEntity
  8
太線
100
AcDbLine
 10
3172.597580281337
 20
-1840.227797378623
 30
0.0
 11
3211.392387451813
 21
-1808.311926430444
 31
0.0
  0
LINE
  5
5277
330
1F
100
AcDbEntity
  8
太線
100
AcDbLine
 10
3277.503613318946
 20
-1788.485315516738
 30
0.0
 11
3238.708806148471
 21
-1820.401186464917
 31
0.0
  0
LINE
  5
5278
330
1F
100
AcDbEntity
  8
太線
100
AcDbLine
 10
3219.35899558852
 20
-1758.624969033774
 30
0.0
 11
3254.88124130705
 21
-1794.147214752304
 31
0.0
  0
LINE
  5
5279
330
1F
100
AcDbEntity
  8
太線
100
AcDbLine
 10
3227.117957022615
 20
-1752.241794844138
 30
0.0
 11
3262.640202741144
 21
-1787.764040562668
 31
0.0
  0
LINE
  5
527A
330
1F
100
AcDbEntity
  8
太線
100
AcDbLine
 10
3301.338371807477
 20
-1941.18574226749
 30
0.0
 11
3336.860617526006
 21
-1976.707987986021
 31
0.0
  0
LINE
  5
527B
330
1F
100
AcDbEntity
  8
太線
100
AcDbLine
 10
3329.101656091911
 20
-1983.091162175656
 30
0.0
 11
3293.579410373382
 21
-1947.568916457126
 31
0.0
  0
LINE
  5
527C
330
1F
100
AcDbEntity
  8
太線
100
AcDbLine
 10
3285.820448939286
 20
-1953.952090646762
 30
0.0
 11
3321.342694657817
 21
-1989.474336365292
 31
0.0
  0
LINE
  5
527D
330
1F
100
AcDbEntity
  8
太線
100
AcDbLine
 10
3324.615256109761
 20
-1922.036219698583
 30
0.0
 11
3360.137501828292
 21
-1957.558465417112
 31
0.0
  0
LINE
  5
527E
330
1F
100
AcDbEntity
  8
太線
100
AcDbLine
 10
3316.856294675667
 20
-1928.419393888218
 30
0.0
 11
3352.378540394197
 21
-1963.941639606748
 31
0.0
  0
LINE
  5
527F
330
1F
100
AcDbEntity
  8
太線
100
AcDbLine
 10
3309.097333241571
 20
-1934.802568077855
 30
0.0
 11
3344.619578960101
 21
-1970.324813796384
 31
0.0
  0
LINE
  5
5280
330
1F
100
AcDbEntity
  8
太線
100
AcDbLine
 10
3278.715999795581
 20
-1946.847641503056
 30
0.0
 11
3317.510806966057
 21
-1914.931770554877
 31
0.0
  0
LINE
  5
5281
330
1F
100
AcDbEntity
  8
太線
100
AcDbLine
 10
3324.057381923516
 20
-1750.186270378923
 30
0.0
 11
3359.579627642045
 21
-1785.708516097453
 31
0.0
  0
LINE
  5
5282
330
1F
100
AcDbEntity
  8
太線
100
AcDbLine
 10
3316.29842048942
 20
-1756.569444568559
 30
0.0
 11
3351.820666207951
 21
-1792.091690287088
 31
0.0
  0
LINE
  5
5283
330
1F
100
AcDbEntity
  8
太線
100
AcDbLine
 10
3300.78049762123
 20
-1769.335792947831
 30
0.0
 11
3336.30274333976
 21
-1804.858038666361
 31
0.0
  0
LINE
  5
5284
330
1F
100
AcDbEntity
  8
太線
100
AcDbLine
 10
3328.543781905665
 20
-1811.241212855996
 30
0.0
 11
3293.021536187135
 21
-1775.718967137467
 31
0.0
  0
LINE
  5
5285
330
1F
100
AcDbEntity
  8
太線
100
AcDbLine
 10
3285.26257475304
 20
-1782.102141327102
 30
0.0
 11
3320.78482047157
 21
-1817.624387045632
 31
0.0
  0
LINE
  5
5286
330
1F
100
AcDbEntity
  8
太線
100
AcDbLine
 10
3308.539459055324
 20
-1762.952618758195
 30
0.0
 11
3344.061704773855
 21
-1798.474864476725
 31
0.0
  0
LINE
  5
5287
330
1F
100
AcDbEntity
  8
太線
100
AcDbLine
 10
2719.087309016513
 20
-1663.328923380472
 30
0.0
 11
2754.609554735043
 21
-1698.851169099002
 31
0.0
  0
LINE
  5
5288
330
1F
100
AcDbEntity
  8
太線
100
AcDbLine
 10
2729.575328210634
 20
-1745.029045303437
 30
0.0
 11
2768.370135381109
 21
-1713.113174355258
 31
0.0
  0
LINE
  5
5289
330
1F
100
AcDbEntity
  8
太線
100
AcDbLine
 10
2761.265686237403
 20
-1706.008725211552
 30
0.0
 11
2722.470879066928
 21
-1737.924596159731
 31
0.0
  0
LINE
  5
528A
330
1F
100
AcDbEntity
  8
太線
100
AcDbLine
 10
2753.300612149229
 20
-1610.863912347326
 30
0.0
 11
2717.7783664307
 21
-1575.341666628797
 31
0.0
  0
LINE
  5
528B
330
1F
100
AcDbEntity
  8
太線
100
AcDbLine
 10
2764.33213503527
 20
-1537.042621490981
 30
0.0
 11
2725.537327864794
 21
-1568.958492439161
 31
0.0
  0
LINE
  5
528C
330
1F
100
AcDbEntity
  8
太線
100
AcDbLine
 10
2739.746226152206
 20
-1583.167390726573
 30
0.0
 11
2778.541033322682
 21
-1551.251519778393
 31
0.0
  0
LINE
  5
528D
330
1F
100
AcDbEntity
  8
太線
100
AcDbLine
 10
2746.850675295912
 20
-1590.271839870279
 30
0.0
 11
2785.645482466387
 21
-1558.355968922099
 31
0.0
  0
LINE
  5
528E
330
1F
100
AcDbEntity
  8
太線
100
AcDbLine
 10
2732.6417770085
 20
-1576.062941582867
 30
0.0
 11
2771.436584178976
 21
-1544.147070634687
 31
0.0
  0
LINE
  5
528F
330
1F
100
AcDbEntity
  8
太線
100
AcDbLine
 10
2760.405061292935
 20
-1617.968361491032
 30
0.0
 11
2721.610254122461
 21
-1649.884232439212
 31
0.0
  0
LINE
  5
5290
330
1F
100
AcDbEntity
  8
太線
100
AcDbLine
 10
2767.509510436641
 20
-1625.072810634739
 30
0.0
 11
2728.714703266167
 21
-1656.988681582918
 31
0.0
  0
LINE
  5
5291
330
1F
100
AcDbEntity
  8
太線
100
AcDbLine
 10
2781.718408724053
 20
-1639.28170892215
 30
0.0
 11
2742.923601553579
 21
-1671.197579870329
 31
0.0
  0
LINE
  5
5292
330
1F
100
AcDbEntity
  8
太線
100
AcDbLine
 10
2788.822857867759
 20
-1646.386158065856
 30
0.0
 11
2750.028050697284
 21
-1678.302029014035
 31
0.0
  0
LINE
  5
5293
330
1F
100
AcDbEntity
  8
太線
100
AcDbLine
 10
2774.613959580347
 20
-1632.177259778444
 30
0.0
 11
2735.819152409872
 21
-1664.093130726623
 31
0.0
  0
LINE
  5
5294
330
1F
100
AcDbEntity
  8
太線
100
AcDbLine
 10
2722.15375781438
 20
-1494.362819659902
 30
0.0
 11
2757.67600353291
 21
-1529.885065378432
 31
0.0
  0
LINE
  5
5295
330
1F
100
AcDbEntity
  8
太線
100
AcDbLine
 10
2484.530338678964
 20
-1668.377848058963
 30
0.0
 11
2523.325145849439
 21
-1636.461977110784
 31
0.0
  0
LINE
  5
5296
330
1F
100
AcDbEntity
  8
太線
100
AcDbLine
 10
2454.803517523362
 20
-1666.935298150823
 30
0.0
 11
2490.325763241892
 21
-1702.457543869353
 31
0.0
  0
LINE
  5
5297
330
1F
100
AcDbEntity
  8
太線
100
AcDbLine
 10
2505.189173819693
 20
-1703.178818823423
 30
0.0
 11
2466.394366649218
 21
-1735.094689771602
 31
0.0
  0
LINE
  5
5298
330
1F
100
AcDbEntity
  8
太線
100
AcDbLine
 10
2512.293622963399
 20
-1710.283267967129
 30
0.0
 11
2473.498815792924
 21
-1742.199138915308
 31
0.0
  0
LINE
  5
5299
330
1F
100
AcDbEntity
  8
太線
100
AcDbLine
 10
2509.116247562027
 20
-1622.253078823372
 30
0.0
 11
2470.321440391552
 21
-1654.168949771552
 31
0.0
  0
LINE
  5
529A
330
1F
100
AcDbEntity
  8
太線
100
AcDbLine
 10
2477.425889535258
 20
-1661.273398915257
 30
0.0
 11
2516.220696705733
 21
-1629.357527967078
 31
0.0
  0
LINE
  5
529B
330
1F
100
AcDbEntity
  8
太線
100
AcDbLine
 10
2498.084724675987
 20
-1696.074369679717
 30
0.0
 11
2462.562478957457
 21
-1660.552123961187
 31
0.0
  0
LINE
  5
529C
330
1F
100
AcDbEntity
  8
太線
100
AcDbLine
 10
2452.840062647159
 20
-1592.435664732489
 30
0.0
 11
2488.362308365688
 21
-1627.957910451019
 31
0.0
  0
LINE
  5
529D
330
1F
100
AcDbEntity
  8
太線
100
AcDbLine
 10
2460.599024081254
 20
-1586.052490542853
 30
0.0
 11
2496.121269799784
 21
-1621.574736261383
 31
0.0
  0
LINE
  5
529E
330
1F
100
AcDbEntity
  8
太線
100
AcDbLine
 10
2468.357985515349
 20
-1579.669316353217
 30
0.0
 11
2503.880231233879
 21
-1615.191562071747
 31
0.0
  0
LINE
  5
529F
330
1F
100
AcDbEntity
  8
太線
100
AcDbLine
 10
2501.151173473854
 20
-1527.108265959147
 30
0.0
 11
2465.628927755324
 21
-1491.586020240617
 31
0.0
  0
LINE
  5
52A0
330
1F
100
AcDbEntity
  8
太線
100
AcDbLine
 10
2480.492338333124
 20
-1492.307295194687
 30
0.0
 11
2519.2871455036
 21
-1460.391424246507
 31
0.0
  0
LINE
  5
52A1
330
1F
100
AcDbEntity
  8
太線
100
AcDbLine
 10
2512.182696359894
 20
-1453.286975102801
 30
0.0
 11
2473.387889189419
 21
-1485.202846050981
 31
0.0
  0
LINE
  5
52A2
330
1F
100
AcDbEntity
  8
太線
100
AcDbLine
 10
2522.464520904971
 20
-1548.421613390264
 30
0.0
 11
2483.669713734497
 21
-1580.337484338443
 31
0.0
  0
LINE
  5
52A3
330
1F
100
AcDbEntity
  8
太線
100
AcDbLine
 10
2515.360071761266
 20
-1541.317164246558
 30
0.0
 11
2476.565264590791
 21
-1573.233035194737
 31
0.0
  0
LINE
  5
52A4
330
1F
100
AcDbEntity
  8
太線
100
AcDbLine
 10
2508.255622617559
 20
-1534.212715102852
 30
0.0
 11
2469.460815447085
 21
-1566.128586051032
 31
0.0
  0
LINE
  5
52A5
330
1F
100
AcDbEntity
  8
太線
100
AcDbLine
 10
2457.869966321229
 20
-1497.969194430252
 30
0.0
 11
2493.392212039759
 21
-1533.491440148782
 31
0.0
  0
LINE
  5
52A6
330
1F
100
AcDbEntity
  8
太線
100
AcDbLine
 10
2450.111004887134
 20
-1504.352368619888
 30
0.0
 11
2485.633250605664
 21
-1539.874614338418
 31
0.0
  0
LINE
  5
52A7
330
1F
100
AcDbEntity
  8
太線
100
AcDbLine
 10
2442.352043453039
 20
-1510.735542809524
 30
0.0
 11
2477.874289171569
 21
-1546.257788528054
 31
0.0
  0
LINE
  5
52A8
330
1F
100
AcDbEntity
  8
太線
100
AcDbLine
 10
2434.593082018944
 20
-1517.11871699916
 30
0.0
 11
2470.115327737474
 21
-1552.640962717689
 31
0.0
  0
LINE
  5
52A9
330
1F
100
AcDbEntity
  8
太線
100
AcDbLine
 10
2426.834120584849
 20
-1523.501891188796
 30
0.0
 11
2462.356366303379
 21
-1559.024136907326
 31
0.0
  0
LINE
  5
52AA
330
1F
100
AcDbEntity
  8
太線
100
AcDbLine
 10
2255.577642794943
 20
-1521.95104088366
 30
0.0
 11
2291.099888513473
 21
-1557.47328660219
 31
0.0
  0
LINE
  5
52AB
330
1F
100
AcDbEntity
  8
太線
100
AcDbLine
 10
2263.336604229038
 20
-1515.567866694024
 30
0.0
 11
2298.858849947568
 21
-1551.090112412555
 31
0.0
  0
LINE
  5
52AC
330
1F
100
AcDbEntity
  8
太線
100
AcDbLine
 10
2271.095565663133
 20
-1509.184692504389
 30
0.0
 11
2306.617811381663
 21
-1544.706938222919
 31
0.0
  0
LINE
  5
52AD
330
1F
100
AcDbEntity
  8
太線
100
AcDbLine
 10
2278.854527097228
 20
-1502.801518314753
 30
0.0
 11
2314.376772815758
 21
-1538.323764033283
 31
0.0
  0
LINE
  5
52AE
330
1F
100
AcDbEntity
  8
太線
100
AcDbLine
 10
2286.613488531323
 20
-1496.418344125117
 30
0.0
 11
2322.135734249853
 21
-1531.940589843647
 31
0.0
  0
LINE
  5
52AF
330
1F
100
AcDbEntity
  8
太線
100
AcDbLine
 10
2383.552913432224
 20
-1494.362819659902
 30
0.0
 11
2419.075159150754
 21
-1529.885065378432
 31
0.0
  0
LINE
  5
52B0
330
1F
100
AcDbEntity
  8
太線
100
AcDbLine
 10
2375.793951998129
 20
-1500.745993849538
 30
0.0
 11
2411.316197716659
 21
-1536.268239568067
 31
0.0
  0
LINE
  5
52B1
330
1F
100
AcDbEntity
  8
太線
100
AcDbLine
 10
2368.034990564033
 20
-1507.129168039174
 30
0.0
 11
2403.557236282563
 21
-1542.651413757704
 31
0.0
  0
LINE
  5
52B2
330
1F
100
AcDbEntity
  8
太線
100
AcDbLine
 10
2360.276029129939
 20
-1513.51234222881
 30
0.0
 11
2395.798274848468
 21
-1549.034587947339
 31
0.0
  0
LINE
  5
52B3
330
1F
100
AcDbEntity
  8
太線
100
AcDbLine
 10
2388.039313414374
 20
-1555.417762136976
 30
0.0
 11
2352.517067695844
 21
-1519.895516418445
 31
0.0
  0
LINE
  5
52B4
330
1F
100
AcDbEntity
  8
太線
100
AcDbLine
 10
2344.758106261749
 20
-1526.278690608082
 30
0.0
 11
2380.280351980278
 21
-1561.800936326611
 31
0.0
  0
LINE
  5
52B5
330
1F
100
AcDbEntity
  8
太線
100
AcDbLine
 10
2334.587208320176
 20
-1688.140345184946
 30
0.0
 11
2373.382015490652
 21
-1656.224474236766
 31
0.0
  0
LINE
  5
52B6
330
1F
100
AcDbEntity
  8
太線
100
AcDbLine
 10
2327.48275917647
 20
-1681.03589604124
 30
0.0
 11
2366.277566346945
 21
-1649.120025093061
 31
0.0
  0
LINE
  5
52B7
330
1F
100
AcDbEntity
  8
太線
100
AcDbLine
 10
2320.378310032765
 20
-1673.931446897534
 30
0.0
 11
2359.17311720324
 21
-1642.015575949355
 31
0.0
  0
LINE
  5
52B8
330
1F
100
AcDbEntity
  8
太線
100
AcDbLine
 10
2341.691657463882
 20
-1695.244794328652
 30
0.0
 11
2377.213903182412
 21
-1730.767040047182
 31
0.0
  0
LINE
  5
52B9
330
1F
100
AcDbEntity
  8
太線
100
AcDbLine
 10
2384.972864616507
 20
-1724.383865857546
 30
0.0
 11
2349.450618897977
 21
-1688.861620139016
 31
0.0
  0
LINE
  5
52BA
330
1F
100
AcDbEntity
  8
太線
100
AcDbLine
 10
2348.141676312164
 20
-1600.87436338734
 30
0.0
 11
2383.663922030693
 21
-1636.39660910587
 31
0.0
  0
LINE
  5
52BB
330
1F
100
AcDbEntity
  8
太線
100
AcDbLine
 10
2340.382714878069
 20
-1607.257537576976
 30
0.0
 11
2375.904960596598
 21
-1642.779783295505
 31
0.0
  0
LINE
  5
52BC
330
1F
100
AcDbEntity
  8
太線
100
AcDbLine
 10
2358.312492258772
 20
-1553.975212228835
 30
0.0
 11
2319.517685088297
 21
-1585.891083177014
 31
0.0
  0
LINE
  5
52BD
330
1F
100
AcDbEntity
  8
太線
100
AcDbLine
 10
2365.416941402478
 20
-1561.079661372541
 30
0.0
 11
2326.622134232003
 21
-1592.99553232072
 31
0.0
  0
LINE
  5
52BE
330
1F
100
AcDbEntity
  8
太線
100
AcDbLine
 10
2333.726583375709
 20
-1600.099981464426
 30
0.0
 11
2372.521390546184
 21
-1568.184110516247
 31
0.0
  0
LINE
  5
52BF
330
1F
100
AcDbEntity
  8
太線
100
AcDbLine
 10
2306.169411745352
 20
-1659.722548610122
 30
0.0
 11
2344.964218915828
 21
-1627.806677661943
 31
0.0
  0
LINE
  5
52C0
330
1F
100
AcDbEntity
  8
太線
100
AcDbLine
 10
2337.859769772122
 20
-1620.702228518236
 30
0.0
 11
2299.064962601646
 21
-1652.618099466416
 31
0.0
  0
LINE
  5
52C1
330
1F
100
AcDbEntity
  8
太線
100
AcDbLine
 10
2313.273860889058
 20
-1666.826997753828
 30
0.0
 11
2352.068668059533
 21
-1634.911126805649
 31
0.0
  0
LINE
  5
52C2
330
1F
100
AcDbEntity
  8
太線
100
AcDbLine
 10
2283.547039733457
 20
-1665.384447845688
 30
0.0
 11
2319.069285451986
 21
-1700.906693564217
 31
0.0
  0
LINE
  5
52C3
330
1F
100
AcDbEntity
  8
太線
100
AcDbLine
 10
2275.788078299362
 20
-1671.767622035324
 30
0.0
 11
2311.310324017892
 21
-1707.289867753853
 31
0.0
  0
LINE
  5
52C4
330
1F
100
AcDbEntity
  8
太線
100
AcDbLine
 10
2268.029116865267
 20
-1678.15079622496
 30
0.0
 11
2303.551362583797
 21
-1713.673041943489
 31
0.0
  0
LINE
  5
52C5
330
1F
100
AcDbEntity
  8
太線
100
AcDbLine
 10
2260.270155431172
 20
-1684.533970414595
 30
0.0
 11
2295.792401149701
 21
-1720.056216133125
 31
0.0
  0
LINE
  5
52C6
330
1F
100
AcDbEntity
  8
太線
100
AcDbLine
 10
2252.511193997077
 20
-1690.917144604231
 30
0.0
 11
2288.033439715607
 21
-1726.439390322761
 31
0.0
  0
LINE
  5
52C7
330
1F
100
AcDbEntity
  8
太線
100
AcDbLine
 10
2326.828246886081
 20
-1694.523519374581
 30
0.0
 11
2291.306001167552
 21
-1659.001273656052
 31
0.0
  0
LINE
  5
52C8
330
1F
100
AcDbEntity
  8
太線
100
AcDbLine
 10
2348.141594317199
 20
-1715.8368668057
 30
0.0
 11
2309.346787146725
 21
-1747.752737753879
 31
0.0
  0
LINE
  5
52C9
330
1F
100
AcDbEntity
  8
太線
100
AcDbLine
 10
2341.037145173493
 20
-1708.732417661994
 30
0.0
 11
2302.242338003019
 21
-1740.648288610173
 31
0.0
  0
LINE
  5
52CA
330
1F
100
AcDbEntity
  8
太線
100
AcDbLine
 10
2333.932696029787
 20
-1701.627968518288
 30
0.0
 11
2295.137888859313
 21
-1733.543839466467
 31
0.0
  0
LINE
  5
52CB
330
1F
100
AcDbEntity
  8
太線
100
AcDbLine
 10
2336.999144827654
 20
-1532.661864797717
 30
0.0
 11
2298.204337657179
 21
-1564.577735745896
 31
0.0
  0
LINE
  5
52CC
330
1F
100
AcDbEntity
  8
太線
100
AcDbLine
 10
2344.10359397136
 20
-1539.766313941423
 30
0.0
 11
2305.308786800885
 21
-1571.682184889602
 31
0.0
  0
LINE
  5
52CD
330
1F
100
AcDbEntity
  8
太線
100
AcDbLine
 10
2351.208043115066
 20
-1546.870763085129
 30
0.0
 11
2312.413235944591
 21
-1578.786634033308
 31
0.0
  0
LINE
  5
52CE
330
1F
100
AcDbEntity
  8
太線
100
AcDbLine
 10
2436.013115198191
 20
-1632.177259778444
 30
0.0
 11
2397.218308027717
 21
-1664.093130726623
 31
0.0
  0
LINE
  5
52CF
330
1F
100
AcDbEntity
  8
太線
100
AcDbLine
 10
2428.908666054485
 20
-1625.072810634739
 30
0.0
 11
2390.11385888401
 21
-1656.988681582918
 31
0.0
  0
LINE
  5
52D0
330
1F
100
AcDbEntity
  8
太線
100
AcDbLine
 10
2421.804216910779
 20
-1617.968361491032
 30
0.0
 11
2383.009409740304
 21
-1649.884232439212
 31
0.0
  0
LINE
  5
52D1
330
1F
100
AcDbEntity
  8
太線
100
AcDbLine
 10
2429.563178344874
 20
-1611.585187301397
 30
0.0
 11
2465.085424063404
 21
-1647.107433019926
 31
0.0
  0
LINE
  5
52D2
330
1F
100
AcDbEntity
  8
太線
100
AcDbLine
 10
2472.844385497499
 20
-1640.724258830291
 30
0.0
 11
2437.322139778969
 21
-1605.202013111761
 31
0.0
  0
LINE
  5
52D3
330
1F
100
AcDbEntity
  8
太線
100
AcDbLine
 10
2422.664841855247
 20
-1706.008725211552
 30
0.0
 11
2383.870034684771
 21
-1737.924596159731
 31
0.0
  0
LINE
  5
52D4
330
1F
100
AcDbEntity
  8
太線
100
AcDbLine
 10
2390.974483828478
 20
-1745.029045303437
 30
0.0
 11
2429.769290998953
 21
-1713.113174355258
 31
0.0
  0
LINE
  5
52D5
330
1F
100
AcDbEntity
  8
太線
100
AcDbLine
 10
2418.531655458834
 20
-1685.406478157741
 30
0.0
 11
2457.326462629309
 21
-1653.490607209562
 31
0.0
  0
LINE
  5
52D6
330
1F
100
AcDbEntity
  8
太線
100
AcDbLine
 10
2450.222013485603
 20
-1646.386158065856
 30
0.0
 11
2411.427206315128
 21
-1678.302029014035
 31
0.0
  0
LINE
  5
52D7
330
1F
100
AcDbEntity
  8
太線
100
AcDbLine
 10
2443.117564341897
 20
-1639.28170892215
 30
0.0
 11
2404.322757171422
 21
-1671.197579870329
 31
0.0
  0
LINE
  5
52D8
330
1F
100
AcDbEntity
  8
太線
100
AcDbLine
 10
2357.209580332072
 20
-1682.478445949381
 30
0.0
 11
2392.731826050602
 21
-1718.00069166791
 31
0.0
  0
LINE
  5
52D9
330
1F
100
AcDbEntity
  8
太線
100
AcDbLine
 10
2364.968541766167
 20
-1676.095271759745
 30
0.0
 11
2400.490787484697
 21
-1711.617517478274
 31
0.0
  0
LINE
  5
52DA
330
1F
100
AcDbEntity
  8
太線
100
AcDbLine
 10
2372.727503200263
 20
-1669.712097570108
 30
0.0
 11
2408.249748918792
 21
-1705.234343288638
 31
0.0
  0
LINE
  5
52DB
330
1F
100
AcDbEntity
  8
太線
100
AcDbLine
 10
2380.486464634357
 20
-1663.328923380472
 30
0.0
 11
2416.008710352887
 21
-1698.851169099002
 31
0.0
  0
LINE
  5
52DC
330
1F
100
AcDbEntity
  8
太線
100
AcDbLine
 10
2423.767671786983
 20
-1692.467994909366
 30
0.0
 11
2459.289917505512
 21
-1727.990240627896
 31
0.0
  0
LINE
  5
52DD
330
1F
100
AcDbEntity
  8
太線
100
AcDbLine
 10
2431.526633221077
 20
-1686.084820719731
 30
0.0
 11
2467.048878939607
 21
-1721.60706643826
 31
0.0
  0
LINE
  5
52DE
330
1F
100
AcDbEntity
  8
太線
100
AcDbLine
 10
2439.285594655173
 20
-1679.701646530094
 30
0.0
 11
2474.807840373702
 21
-1715.223892248624
 31
0.0
  0
LINE
  5
52DF
330
1F
100
AcDbEntity
  8
太線
100
AcDbLine
 10
2447.044556089267
 20
-1673.318472340459
 30
0.0
 11
2482.566801807797
 21
-1708.840718058989
 31
0.0
  0
LINE
  5
52E0
330
1F
100
AcDbEntity
  8
太線
100
AcDbLine
 10
2394.040932626344
 20
-1576.062941582867
 30
0.0
 11
2432.83573979682
 21
-1544.147070634687
 31
0.0
  0
LINE
  5
52E1
330
1F
100
AcDbEntity
  8
太線
100
AcDbLine
 10
2425.731290653113
 20
-1537.042621490981
 30
0.0
 11
2386.936483482638
 21
-1568.958492439161
 31
0.0
  0
LINE
  5
52E2
330
1F
100
AcDbEntity
  8
太線
100
AcDbLine
 10
2415.354280057462
 20
-1597.376289013985
 30
0.0
 11
2454.149087227937
 21
-1565.460418065805
 31
0.0
  0
LINE
  5
52E3
330
1F
100
AcDbEntity
  8
太線
100
AcDbLine
 10
2408.249830913756
 20
-1590.271839870279
 30
0.0
 11
2447.044638084232
 21
-1558.355968922099
 31
0.0
  0
LINE
  5
52E4
330
1F
100
AcDbEntity
  8
太線
100
AcDbLine
 10
2401.14538177005
 20
-1583.167390726573
 30
0.0
 11
2439.940188940525
 21
-1551.251519778393
 31
0.0
  0
LINE
  5
52E5
330
1F
100
AcDbEntity
  8
太線
100
AcDbLine
 10
2414.699767767073
 20
-1610.863912347326
 30
0.0
 11
2379.177522048543
 21
-1575.341666628797
 31
0.0
  0
LINE
  5
52E6
330
1F
100
AcDbEntity
  8
太線
100
AcDbLine
 10
2371.418560614448
 20
-1581.724840818433
 30
0.0
 11
2406.940806332978
 21
-1617.247086536962
 31
0.0
  0
LINE
  5
52E7
330
1F
100
AcDbEntity
  8
太線
100
AcDbLine
 10
2363.659599180353
 20
-1588.108015008068
 30
0.0
 11
2399.181844898883
 21
-1623.630260726598
 31
0.0
  0
LINE
  5
52E8
330
1F
100
AcDbEntity
  8
太線
100
AcDbLine
 10
2355.900637746259
 20
-1594.491189197704
 30
0.0
 11
2391.422883464789
 21
-1630.013434916234
 31
0.0
  0
LINE
  5
52E9
330
1F
100
AcDbEntity
  8
太線
100
AcDbLine
 10
2422.458729201168
 20
-1604.480738157691
 30
0.0
 11
2461.253536371644
 21
-1572.564867209511
 31
0.0
  0
LINE
  5
52EA
330
1F
100
AcDbEntity
  8
太線
100
AcDbLine
 10
2445.081101213064
 20
-1598.818838922125
 30
0.0
 11
2480.603346931594
 21
-1634.341084640654
 31
0.0
  0
LINE
  5
52EB
330
1F
100
AcDbEntity
  8
太線
100
AcDbLine
 10
2316.340309686925
 20
-1497.860894033258
 30
0.0
 11
2355.1351168574
 21
-1465.945023085078
 31
0.0
  0
LINE
  5
52EC
330
1F
100
AcDbEntity
  8
太線
100
AcDbLine
 10
2323.444758830631
 20
-1504.965343176964
 30
0.0
 11
2362.239566001106
 21
-1473.049472228784
 31
0.0
  0
LINE
  5
52ED
330
1F
100
AcDbEntity
  8
太線
100
AcDbLine
 10
2330.549207974337
 20
-1512.069792320669
 30
0.0
 11
2369.344015144812
 21
-1480.15392137249
 31
0.0
  0
LINE
  5
52EE
330
1F
100
AcDbEntity
  8
太線
100
AcDbLine
 10
2337.653657118043
 20
-1519.174241464376
 30
0.0
 11
2376.448464288518
 21
-1487.258370516196
 31
0.0
  0
LINE
  5
52EF
330
1F
100
AcDbEntity
  8
太線
100
AcDbLine
 10
2340.926218569988
 20
-1451.736124797666
 30
0.0
 11
2302.131411399513
 21
-1483.651995745845
 31
0.0
  0
LINE
  5
52F0
330
1F
100
AcDbEntity
  8
太線
100
AcDbLine
 10
2309.235860543219
 20
-1490.756444889552
 30
0.0
 11
2348.030667713695
 21
-1458.840573941372
 31
0.0
  0
LINE
  5
52F1
330
1F
100
AcDbEntity
  8
太線
100
AcDbLine
 10
2329.894695683948
 20
-1525.557415654011
 30
0.0
 11
2294.372449965418
 21
-1490.035169935481
 31
0.0
  0
LINE
  5
52F2
330
1F
100
AcDbEntity
  8
太線
100
AcDbLine
 10
2683.358950643905
 20
-1526.278690608082
 30
0.0
 11
2718.881196362435
 21
-1561.800936326611
 31
0.0
  0
LINE
  5
52F3
330
1F
100
AcDbEntity
  8
太線
100
AcDbLine
 10
2726.640157796529
 20
-1555.417762136976
 30
0.0
 11
2691.117912078
 21
-1519.895516418445
 31
0.0
  0
LINE
  5
52F4
330
1F
100
AcDbEntity
  8
太線
100
AcDbLine
 10
2698.876873512095
 20
-1513.51234222881
 30
0.0
 11
2734.399119230625
 21
-1549.034587947339
 31
0.0
  0
LINE
  5
52F5
330
1F
100
AcDbEntity
  8
太線
100
AcDbLine
 10
2706.635834946189
 20
-1507.129168039174
 30
0.0
 11
2742.15808066472
 21
-1542.651413757704
 31
0.0
  0
LINE
  5
52F6
330
1F
100
AcDbEntity
  8
太線
100
AcDbLine
 10
2714.394796380286
 20
-1500.745993849538
 30
0.0
 11
2749.917042098815
 21
-1536.268239568067
 31
0.0
  0
LINE
  5
52F7
330
1F
100
AcDbEntity
  8
太線
100
AcDbLine
 10
2625.214332913479
 20
-1496.418344125117
 30
0.0
 11
2660.736578632009
 21
-1531.940589843647
 31
0.0
  0
LINE
  5
52F8
330
1F
100
AcDbEntity
  8
太線
100
AcDbLine
 10
2617.455371479385
 20
-1502.801518314753
 30
0.0
 11
2652.977617197914
 21
-1538.323764033283
 31
0.0
  0
LINE
  5
52F9
330
1F
100
AcDbEntity
  8
太線
100
AcDbLine
 10
2609.696410045289
 20
-1509.184692504389
 30
0.0
 11
2645.218655763819
 21
-1544.706938222919
 31
0.0
  0
LINE
  5
52FA
330
1F
100
AcDbEntity
  8
太線
100
AcDbLine
 10
2601.937448611194
 20
-1515.567866694024
 30
0.0
 11
2637.459694329725
 21
-1551.090112412555
 31
0.0
  0
LINE
  5
52FB
330
1F
100
AcDbEntity
  8
太線
100
AcDbLine
 10
2594.178487177099
 20
-1521.95104088366
 30
0.0
 11
2629.70073289563
 21
-1557.47328660219
 31
0.0
  0
LINE
  5
52FC
330
1F
100
AcDbEntity
  8
太線
100
AcDbLine
 10
2559.295791204279
 20
-1556.968612442111
 30
0.0
 11
2523.77354548575
 21
-1521.446366723581
 31
0.0
  0
LINE
  5
52FD
330
1F
100
AcDbEntity
  8
太線
100
AcDbLine
 10
2531.532506919845
 20
-1515.063192533945
 30
0.0
 11
2567.054752638374
 21
-1550.585438252475
 31
0.0
  0
LINE
  5
52FE
330
1F
100
AcDbEntity
  8
太線
100
AcDbLine
 10
2539.291468353939
 20
-1508.680018344309
 30
0.0
 11
2574.813714072469
 21
-1544.202264062839
 31
0.0
  0
LINE
  5
52FF
330
1F
100
AcDbEntity
  8
太線
100
AcDbLine
 10
2547.050429788035
 20
-1502.296844154673
 30
0.0
 11
2582.572675506565
 21
-1537.819089873203
 31
0.0
  0
LINE
  5
5300
330
1F
100
AcDbEntity
  8
太線
100
AcDbLine
 10
2554.809391222129
 20
-1495.913669965037
 30
0.0
 11
2590.33163694066
 21
-1531.435915683567
 31
0.0
  0
LINE
  5
5301
330
1F
100
AcDbEntity
  8
太線
100
AcDbLine
 10
2591.112038379233
 20
-1690.917144604231
 30
0.0
 11
2626.634284097763
 21
-1726.439390322761
 31
0.0
  0
LINE
  5
5302
330
1F
100
AcDbEntity
  8
太線
100
AcDbLine
 10
2598.870999813328
 20
-1684.533970414595
 30
0.0
 11
2634.393245531858
 21
-1720.056216133125
 31
0.0
  0
LINE
  5
5303
330
1F
100
AcDbEntity
  8
太線
100
AcDbLine
 10
2606.629961247423
 20
-1678.15079622496
 30
0.0
 11
2642.152206965953
 21
-1713.673041943489
 31
0.0
  0
LINE
  5
5304
330
1F
100
AcDbEntity
  8
太線
100
AcDbLine
 10
2614.388922681518
 20
-1671.767622035324
 30
0.0
 11
2649.911168400048
 21
-1707.289867753853
 31
0.0
  0
LINE
  5
5305
330
1F
100
AcDbEntity
  8
太線
100
AcDbLine
 10
2586.610757847368
 20
-1598.92713931912
 30
0.0
 11
2625.405565017843
 21
-1567.01126837094
 31
0.0
  0
LINE
  5
5306
330
1F
100
AcDbEntity
  8
太線
100
AcDbLine
 10
2593.715206991074
 20
-1606.031588462826
 30
0.0
 11
2632.510014161549
 21
-1574.115717514646
 31
0.0
  0
LINE
  5
5307
330
1F
100
AcDbEntity
  8
太線
100
AcDbLine
 10
2600.81965613478
 20
-1613.136037606532
 30
0.0
 11
2636.34190185331
 21
-1648.658283325062
 31
0.0
  0
LINE
  5
5308
330
1F
100
AcDbEntity
  8
太線
100
AcDbLine
 10
2621.478491275508
 20
-1647.937008370992
 30
0.0
 11
2582.683684105034
 21
-1679.85287931917
 31
0.0
  0
LINE
  5
5309
330
1F
100
AcDbEntity
  8
太線
100
AcDbLine
 10
2589.78813324874
 20
-1686.957328462876
 30
0.0
 11
2628.582940419215
 21
-1655.041457514698
 31
0.0
  0
LINE
  5
530A
330
1F
100
AcDbEntity
  8
太線
100
AcDbLine
 10
2616.33757900297
 20
-1600.36968922726
 30
0.0
 11
2651.859824721499
 21
-1635.89193494579
 31
0.0
  0
LINE
  5
530B
330
1F
100
AcDbEntity
  8
太線
100
AcDbLine
 10
2644.100863287404
 20
-1642.275109135426
 30
0.0
 11
2608.578617568875
 21
-1606.752863416896
 31
0.0
  0
LINE
  5
530C
330
1F
100
AcDbEntity
  8
太線
100
AcDbLine
 10
2511.639192667974
 20
-1608.808387882111
 30
0.0
 11
2547.161438386504
 21
-1644.330633600641
 31
0.0
  0
LINE
  5
530D
330
1F
100
AcDbEntity
  8
太線
100
AcDbLine
 10
2519.398154102069
 20
-1602.425213692475
 30
0.0
 11
2554.920399820599
 21
-1637.947459411005
 31
0.0
  0
LINE
  5
530E
330
1F
100
AcDbEntity
  8
太線
100
AcDbLine
 10
2593.060694700685
 20
-1619.519211796168
 30
0.0
 11
2554.26588753021
 21
-1651.435082744347
 31
0.0
  0
LINE
  5
530F
330
1F
100
AcDbEntity
  8
太線
100
AcDbLine
 10
2600.165143844391
 20
-1626.623660939874
 30
0.0
 11
2561.370336673916
 21
-1658.539531888052
 31
0.0
  0
LINE
  5
5310
330
1F
100
AcDbEntity
  8
太線
100
AcDbLine
 10
2607.269592988097
 20
-1633.72811008358
 30
0.0
 11
2568.474785817622
 21
-1665.643981031759
 31
0.0
  0
LINE
  5
5311
330
1F
100
AcDbEntity
  8
太線
100
AcDbLine
 10
2551.742942424263
 20
-1664.879773685608
 30
0.0
 11
2587.265188142793
 21
-1700.402019404138
 31
0.0
  0
LINE
  5
5312
330
1F
100
AcDbEntity
  8
太線
100
AcDbLine
 10
2543.983980990168
 20
-1671.262947875244
 30
0.0
 11
2579.506226708698
 21
-1706.785193593773
 31
0.0
  0
LINE
  5
5313
330
1F
100
AcDbEntity
  8
太線
100
AcDbLine
 10
2536.225019556073
 20
-1677.64612206488
 30
0.0
 11
2571.747265274602
 21
-1713.16836778341
 31
0.0
  0
LINE
  5
5314
330
1F
100
AcDbEntity
  8
太線
100
AcDbLine
 10
2528.466058121978
 20
-1684.029296254515
 30
0.0
 11
2563.988303840508
 21
-1719.551541973046
 31
0.0
  0
LINE
  5
5315
330
1F
100
AcDbEntity
  8
太線
100
AcDbLine
 10
2556.229342406413
 20
-1725.934716162681
 30
0.0
 11
2520.707096687883
 21
-1690.412470444152
 31
0.0
  0
LINE
  5
5316
330
1F
100
AcDbEntity
  8
太線
100
AcDbLine
 10
2512.948135253788
 20
-1696.795644633787
 30
0.0
 11
2548.470380972318
 21
-1732.317890352317
 31
0.0
  0
LINE
  5
5317
330
1F
100
AcDbEntity
  8
太線
100
AcDbLine
 10
2491.63478782267
 20
-1675.482297202669
 30
0.0
 11
2530.429594993146
 21
-1643.56642625449
 31
0.0
  0
LINE
  5
5318
330
1F
100
AcDbEntity
  8
太線
100
AcDbLine
 10
2498.739236966376
 20
-1682.586746346375
 30
0.0
 11
2537.534044136851
 21
-1650.670875398196
 31
0.0
  0
LINE
  5
5319
330
1F
100
AcDbEntity
  8
太線
100
AcDbLine
 10
2505.843686110082
 20
-1689.691195490081
 30
0.0
 11
2544.638493280558
 21
-1657.775324541902
 31
0.0
  0
LINE
  5
531A
330
1F
100
AcDbEntity
  8
太線
100
AcDbLine
 10
2562.230961618383
 20
-1746.579895608573
 30
0.0
 11
2601.025768788859
 21
-1714.664024660393
 31
0.0
  0
LINE
  5
531B
330
1F
100
AcDbEntity
  8
太線
100
AcDbLine
 10
2593.921319645152
 20
-1707.559575516687
 30
0.0
 11
2555.126512474677
 21
-1739.475446464867
 31
0.0
  0
LINE
  5
531C
330
1F
100
AcDbEntity
  8
太線
100
AcDbLine
 10
2614.374042131803
 20
-1640.832559227286
 30
0.0
 11
2575.579234961328
 21
-1672.748430175465
 31
0.0
  0
LINE
  5
531D
330
1F
100
AcDbEntity
  8
太線
100
AcDbLine
 10
2527.157115536164
 20
-1596.042039502839
 30
0.0
 11
2562.679361254694
 21
-1631.564285221369
 31
0.0
  0
LINE
  5
531E
330
1F
100
AcDbEntity
  8
太線
100
AcDbLine
 10
2534.916076970259
 20
-1589.658865313204
 30
0.0
 11
2570.438322688789
 21
-1625.181111031733
 31
0.0
  0
LINE
  5
531F
330
1F
100
AcDbEntity
  8
太線
100
AcDbLine
 10
2542.675038404354
 20
-1583.275691123568
 30
0.0
 11
2578.197284122884
 21
-1618.797936842097
 31
0.0
  0
LINE
  5
5320
330
1F
100
AcDbEntity
  8
太線
100
AcDbLine
 10
2585.956245556979
 20
-1612.414762652462
 30
0.0
 11
2550.433999838449
 21
-1576.892516933932
 31
0.0
  0
LINE
  5
5321
330
1F
100
AcDbEntity
  8
太線
100
AcDbLine
 10
2504.983061165614
 20
-1601.650831769561
 30
0.0
 11
2543.77786833609
 21
-1569.734960821382
 31
0.0
  0
LINE
  5
5322
330
1F
100
AcDbEntity
  8
太線
100
AcDbLine
 10
2536.673419192384
 20
-1562.630511677676
 30
0.0
 11
2497.878612021908
 21
-1594.546382625855
 31
0.0
  0
LINE
  5
5323
330
1F
100
AcDbEntity
  8
太線
100
AcDbLine
 10
2529.568970048678
 20
-1555.52606253397
 30
0.0
 11
2490.774162878203
 21
-1587.441933482149
 31
0.0
  0
LINE
  5
5324
330
1F
100
AcDbEntity
  8
太線
100
AcDbLine
 10
2516.014584051655
 20
-1527.829540913216
 30
0.0
 11
2551.536829770184
 21
-1563.351786631747
 31
0.0
  0
LINE
  5
5325
330
1F
100
AcDbEntity
  8
太線
100
AcDbLine
 10
2579.506308703662
 20
-1591.822690175414
 30
0.0
 11
2618.301115874137
 21
-1559.906819227234
 31
0.0
  0
LINE
  5
5326
330
1F
100
AcDbEntity
  8
太線
100
AcDbLine
 10
2572.401859559956
 20
-1584.718241031708
 30
0.0
 11
2611.196666730431
 21
-1552.802370083529
 31
0.0
  0
LINE
  5
5327
330
1F
100
AcDbEntity
  8
太線
100
AcDbLine
 10
2596.987768443019
 20
-1538.593471796117
 30
0.0
 11
2558.192961272544
 21
-1570.509342744296
 31
0.0
  0
LINE
  5
5328
330
1F
100
AcDbEntity
  8
太線
100
AcDbLine
 10
2565.29741041625
 20
-1577.613791888002
 30
0.0
 11
2604.092217586725
 21
-1545.697920939823
 31
0.0
  0
LINE
  5
5329
330
1F
100
AcDbEntity
  8
太線
100
AcDbLine
 10
2676.460614154278
 20
-1620.702228518236
 30
0.0
 11
2637.665806983802
 21
-1652.618099466416
 31
0.0
  0
LINE
  5
532A
330
1F
100
AcDbEntity
  8
太線
100
AcDbLine
 10
2651.874705271215
 20
-1666.826997753828
 30
0.0
 11
2690.66951244169
 21
-1634.911126805649
 31
0.0
  0
LINE
  5
532B
330
1F
100
AcDbEntity
  8
太線
100
AcDbLine
 10
2644.770256127508
 20
-1659.722548610122
 30
0.0
 11
2683.565063297984
 21
-1627.806677661943
 31
0.0
  0
LINE
  5
532C
330
1F
100
AcDbEntity
  8
太線
100
AcDbLine
 10
2678.983559260224
 20
-1607.257537576976
 30
0.0
 11
2714.505804978755
 21
-1642.779783295505
 31
0.0
  0
LINE
  5
532D
330
1F
100
AcDbEntity
  8
太線
100
AcDbLine
 10
2658.97915441492
 20
-1673.931446897534
 30
0.0
 11
2697.773961585396
 21
-1642.015575949355
 31
0.0
  0
LINE
  5
532E
330
1F
100
AcDbEntity
  8
太線
100
AcDbLine
 10
2666.083603558627
 20
-1681.03589604124
 30
0.0
 11
2704.878410729102
 21
-1649.120025093061
 31
0.0
  0
LINE
  5
532F
330
1F
100
AcDbEntity
  8
太線
100
AcDbLine
 10
2673.188052702332
 20
-1688.140345184946
 30
0.0
 11
2711.982859872808
 21
-1656.224474236766
 31
0.0
  0
LINE
  5
5330
330
1F
100
AcDbEntity
  8
太線
100
AcDbLine
 10
2686.742438699356
 20
-1715.8368668057
 30
0.0
 11
2647.947631528881
 21
-1747.752737753879
 31
0.0
  0
LINE
  5
5331
330
1F
100
AcDbEntity
  8
太線
100
AcDbLine
 10
2680.292501846039
 20
-1695.244794328652
 30
0.0
 11
2715.814747564568
 21
-1730.767040047182
 31
0.0
  0
LINE
  5
5332
330
1F
100
AcDbEntity
  8
太線
100
AcDbLine
 10
2665.429091268237
 20
-1694.523519374581
 30
0.0
 11
2629.906845549708
 21
-1659.001273656052
 31
0.0
  0
LINE
  5
5333
330
1F
100
AcDbEntity
  8
太線
100
AcDbLine
 10
2622.147884115613
 20
-1665.384447845688
 30
0.0
 11
2657.670129834142
 21
-1700.906693564217
 31
0.0
  0
LINE
  5
5334
330
1F
100
AcDbEntity
  8
太線
100
AcDbLine
 10
2672.533540411944
 20
-1701.627968518288
 30
0.0
 11
2633.738733241469
 21
-1733.543839466467
 31
0.0
  0
LINE
  5
5335
330
1F
100
AcDbEntity
  8
太線
100
AcDbLine
 10
2679.637989555649
 20
-1708.732417661994
 30
0.0
 11
2640.843182385175
 21
-1740.648288610173
 31
0.0
  0
LINE
  5
5336
330
1F
100
AcDbEntity
  8
太線
100
AcDbLine
 10
2711.328347582419
 20
-1669.712097570108
 30
0.0
 11
2746.850593300949
 21
-1705.234343288638
 31
0.0
  0
LINE
  5
5337
330
1F
100
AcDbEntity
  8
太線
100
AcDbLine
 10
2703.569386148323
 20
-1676.095271759745
 30
0.0
 11
2739.091631866853
 21
-1711.617517478274
 31
0.0
  0
LINE
  5
5338
330
1F
100
AcDbEntity
  8
太線
100
AcDbLine
 10
2695.810424714228
 20
-1682.478445949381
 30
0.0
 11
2731.332670432758
 21
-1718.00069166791
 31
0.0
  0
LINE
  5
5339
330
1F
100
AcDbEntity
  8
太線
100
AcDbLine
 10
2723.573708998663
 20
-1724.383865857546
 30
0.0
 11
2688.051463280134
 21
-1688.861620139016
 31
0.0
  0
LINE
  5
533A
330
1F
100
AcDbEntity
  8
太線
100
AcDbLine
 10
2689.808887497222
 20
-1546.870763085129
 30
0.0
 11
2651.014080326747
 21
-1578.786634033308
 31
0.0
  0
LINE
  5
533B
330
1F
100
AcDbEntity
  8
太線
100
AcDbLine
 10
2672.327427757865
 20
-1600.099981464426
 30
0.0
 11
2711.12223492834
 21
-1568.184110516247
 31
0.0
  0
LINE
  5
533C
330
1F
100
AcDbEntity
  8
太線
100
AcDbLine
 10
2704.017785784634
 20
-1561.079661372541
 30
0.0
 11
2665.222978614159
 21
-1592.99553232072
 31
0.0
  0
LINE
  5
533D
330
1F
100
AcDbEntity
  8
太線
100
AcDbLine
 10
2696.913336640928
 20
-1553.975212228835
 30
0.0
 11
2658.118529470454
 21
-1585.891083177014
 31
0.0
  0
LINE
  5
533E
330
1F
100
AcDbEntity
  8
太線
100
AcDbLine
 10
2639.614463305255
 20
-1581.220166658352
 30
0.0
 11
2675.136709023785
 21
-1616.742412376882
 31
0.0
  0
LINE
  5
533F
330
1F
100
AcDbEntity
  8
太線
100
AcDbLine
 10
2631.85550187116
 20
-1587.603340847988
 30
0.0
 11
2667.37774758969
 21
-1623.125586566518
 31
0.0
  0
LINE
  5
5340
330
1F
100
AcDbEntity
  8
太線
100
AcDbLine
 10
2624.096540437064
 20
-1593.986515037625
 30
0.0
 11
2659.618786155594
 21
-1629.508760756154
 31
0.0
  0
LINE
  5
5341
330
1F
100
AcDbEntity
  8
太線
100
AcDbLine
 10
2682.704438353516
 20
-1539.766313941423
 30
0.0
 11
2643.909631183042
 21
-1571.682184889602
 31
0.0
  0
LINE
  5
5342
330
1F
100
AcDbEntity
  8
太線
100
AcDbLine
 10
2675.59998920981
 20
-1532.661864797717
 30
0.0
 11
2636.805182039335
 21
-1564.577735745896
 31
0.0
  0
LINE
  5
5343
330
1F
100
AcDbEntity
  8
太線
100
AcDbLine
 10
2710.019404996605
 20
-1581.724840818433
 30
0.0
 11
2745.541650715134
 21
-1617.247086536962
 31
0.0
  0
LINE
  5
5344
330
1F
100
AcDbEntity
  8
太線
100
AcDbLine
 10
2686.74252069432
 20
-1600.87436338734
 30
0.0
 11
2722.26476641285
 21
-1636.39660910587
 31
0.0
  0
LINE
  5
5345
330
1F
100
AcDbEntity
  8
太線
100
AcDbLine
 10
2694.501482128415
 20
-1594.491189197704
 30
0.0
 11
2730.023727846945
 21
-1630.013434916234
 31
0.0
  0
LINE
  5
5346
330
1F
100
AcDbEntity
  8
太線
100
AcDbLine
 10
2702.26044356251
 20
-1588.108015008068
 30
0.0
 11
2737.78268928104
 21
-1623.630260726598
 31
0.0
  0
LINE
  5
5347
330
1F
100
AcDbEntity
  8
太線
100
AcDbLine
 10
2487.59678747683
 20
-1499.411744338393
 30
0.0
 11
2526.391594647306
 21
-1467.495873390213
 31
0.0
  0
LINE
  5
5348
330
1F
100
AcDbEntity
  8
太線
100
AcDbLine
 10
2508.910134907949
 20
-1520.72509176951
 30
0.0
 11
2547.704942078424
 21
-1488.809220821331
 31
0.0
  0
LINE
  5
5349
330
1F
100
AcDbEntity
  8
太線
100
AcDbLine
 10
2501.805685764242
 20
-1513.620642625805
 30
0.0
 11
2540.600492934718
 21
-1481.704771677625
 31
0.0
  0
LINE
  5
534A
330
1F
100
AcDbEntity
  8
太線
100
AcDbLine
 10
2494.701236620536
 20
-1506.516193482099
 30
0.0
 11
2533.496043791012
 21
-1474.600322533919
 31
0.0
  0
LINE
  5
534B
330
1F
100
AcDbEntity
  8
太線
100
AcDbLine
 10
2647.836704925375
 20
-1490.756444889552
 30
0.0
 11
2686.63151209585
 21
-1458.840573941372
 31
0.0
  0
LINE
  5
534C
330
1F
100
AcDbEntity
  8
太線
100
AcDbLine
 10
2676.254501500199
 20
-1519.174241464376
 30
0.0
 11
2715.049308670674
 21
-1487.258370516196
 31
0.0
  0
LINE
  5
534D
330
1F
100
AcDbEntity
  8
太線
100
AcDbLine
 10
2669.150052356493
 20
-1512.069792320669
 30
0.0
 11
2707.944859526969
 21
-1480.15392137249
 31
0.0
  0
LINE
  5
534E
330
1F
100
AcDbEntity
  8
太線
100
AcDbLine
 10
2662.045603212787
 20
-1504.965343176964
 30
0.0
 11
2700.840410383262
 21
-1473.049472228784
 31
0.0
  0
LINE
  5
534F
330
1F
100
AcDbEntity
  8
太線
100
AcDbLine
 10
2654.941154069081
 20
-1497.860894033258
 30
0.0
 11
2693.735961239557
 21
-1465.945023085078
 31
0.0
  0
LINE
  5
5350
330
1F
100
AcDbEntity
  8
太線
100
AcDbLine
 10
2679.527062952145
 20
-1451.736124797666
 30
0.0
 11
2640.732255781669
 21
-1483.651995745845
 31
0.0
  0
LINE
  5
5351
330
1F
100
AcDbEntity
  8
太線
100
AcDbLine
 10
2668.495540066104
 20
-1525.557415654011
 30
0.0
 11
2632.973294347574
 21
-1490.035169935481
 31
0.0
  0
LINE
  5
5352
330
1F
100
AcDbEntity
  8
太線
100
AcDbLine
 10
3281.43068706128
 20
-1707.559575516687
 30
0.0
 11
3242.635879890805
 21
-1739.475446464867
 31
0.0
  0
LINE
  5
5353
330
1F
100
AcDbEntity
  8
太線
100
AcDbLine
 10
3249.74032903451
 20
-1746.579895608573
 30
0.0
 11
3288.535136204986
 21
-1714.664024660393
 31
0.0
  0
LINE
  5
5354
330
1F
100
AcDbEntity
  8
太線
100
AcDbLine
 10
3252.806777832377
 20
-1577.613791888002
 30
0.0
 11
3291.601585002853
 21
-1545.697920939823
 31
0.0
  0
LINE
  5
5355
330
1F
100
AcDbEntity
  8
太線
100
AcDbLine
 10
3284.497135859146
 20
-1538.593471796117
 30
0.0
 11
3245.702328688671
 21
-1570.509342744296
 31
0.0
  0
LINE
  5
5356
330
1F
100
AcDbEntity
  8
太線
100
AcDbLine
 10
3259.911226976083
 20
-1584.718241031708
 30
0.0
 11
3298.706034146558
 21
-1552.802370083529
 31
0.0
  0
LINE
  5
5357
330
1F
100
AcDbEntity
  8
太線
100
AcDbLine
 10
3274.120125263495
 20
-1598.92713931912
 30
0.0
 11
3312.914932433971
 21
-1567.01126837094
 31
0.0
  0
LINE
  5
5358
330
1F
100
AcDbEntity
  8
太線
100
AcDbLine
 10
3267.015676119789
 20
-1591.822690175414
 30
0.0
 11
3305.810483290264
 21
-1559.906819227234
 31
0.0
  0
LINE
  5
5359
330
1F
100
AcDbEntity
  8
太線
100
AcDbLine
 10
3294.778960404224
 20
-1633.72811008358
 30
0.0
 11
3255.984153233749
 21
-1665.643981031759
 31
0.0
  0
LINE
  5
535A
330
1F
100
AcDbEntity
  8
太線
100
AcDbLine
 10
3287.674511260517
 20
-1626.623660939874
 30
0.0
 11
3248.879704090043
 21
-1658.539531888052
 31
0.0
  0
LINE
  5
535B
330
1F
100
AcDbEntity
  8
太線
100
AcDbLine
 10
3280.570062116812
 20
-1619.519211796168
 30
0.0
 11
3241.775254946337
 21
-1651.435082744347
 31
0.0
  0
LINE
  5
535C
330
1F
100
AcDbEntity
  8
太線
100
AcDbLine
 10
3277.297500664867
 20
-1686.957328462876
 30
0.0
 11
3316.092307835342
 21
-1655.041457514698
 31
0.0
  0
LINE
  5
535D
330
1F
100
AcDbEntity
  8
太線
100
AcDbLine
 10
3308.987858691636
 20
-1647.937008370992
 30
0.0
 11
3270.193051521161
 21
-1679.85287931917
 31
0.0
  0
LINE
  5
535E
330
1F
100
AcDbEntity
  8
太線
100
AcDbLine
 10
3301.883409547929
 20
-1640.832559227286
 30
0.0
 11
3263.088602377456
 21
-1672.748430175465
 31
0.0
  0
LINE
  5
535F
330
1F
100
AcDbEntity
  8
太線
100
AcDbLine
 10
3021.442063445915
 20
-1701.627968518288
 30
0.0
 11
2982.64725627544
 21
-1733.543839466467
 31
0.0
  0
LINE
  5
5360
330
1F
100
AcDbEntity
  8
太線
100
AcDbLine
 10
3028.54651258962
 20
-1708.732417661994
 30
0.0
 11
2989.751705419146
 21
-1740.648288610173
 31
0.0
  0
LINE
  5
5361
330
1F
100
AcDbEntity
  8
太線
100
AcDbLine
 10
3035.650961733327
 20
-1715.8368668057
 30
0.0
 11
2996.856154562852
 21
-1747.752737753879
 31
0.0
  0
LINE
  5
5362
330
1F
100
AcDbEntity
  8
太線
100
AcDbLine
 10
3000.783228305186
 20
-1666.826997753828
 30
0.0
 11
3039.578035475661
 21
-1634.911126805649
 31
0.0
  0
LINE
  5
5363
330
1F
100
AcDbEntity
  8
太線
100
AcDbLine
 10
3007.887677448891
 20
-1673.931446897534
 30
0.0
 11
3046.682484619367
 21
-1642.015575949355
 31
0.0
  0
LINE
  5
5364
330
1F
100
AcDbEntity
  8
太線
100
AcDbLine
 10
3025.369137188249
 20
-1620.702228518236
 30
0.0
 11
2986.574330017774
 21
-1652.618099466416
 31
0.0
  0
LINE
  5
5365
330
1F
100
AcDbEntity
  8
太線
100
AcDbLine
 10
2993.678779161479
 20
-1659.722548610122
 30
0.0
 11
3032.473586331955
 21
-1627.806677661943
 31
0.0
  0
LINE
  5
5366
330
1F
100
AcDbEntity
  8
太線
100
AcDbLine
 10
3017.404063100075
 20
-1525.557415654011
 30
0.0
 11
2981.881817381546
 21
-1490.035169935481
 31
0.0
  0
LINE
  5
5367
330
1F
100
AcDbEntity
  8
太線
100
AcDbLine
 10
2996.745227959346
 20
-1490.756444889552
 30
0.0
 11
3035.540035129821
 21
-1458.840573941372
 31
0.0
  0
LINE
  5
5368
330
1F
100
AcDbEntity
  8
太線
100
AcDbLine
 10
3028.435585986116
 20
-1451.736124797666
 30
0.0
 11
2989.64077881564
 21
-1483.651995745845
 31
0.0
  0
LINE
  5
5369
330
1F
100
AcDbEntity
  8
太線
100
AcDbLine
 10
3010.954126246758
 20
-1504.965343176964
 30
0.0
 11
3049.748933417234
 21
-1473.049472228784
 31
0.0
  0
LINE
  5
536A
330
1F
100
AcDbEntity
  8
太線
100
AcDbLine
 10
3003.849677103052
 20
-1497.860894033258
 30
0.0
 11
3042.644484273528
 21
-1465.945023085078
 31
0.0
  0
LINE
  5
536B
330
1F
100
AcDbEntity
  8
太線
100
AcDbLine
 10
3038.717410531193
 20
-1546.870763085129
 30
0.0
 11
2999.922603360719
 21
-1578.786634033308
 31
0.0
  0
LINE
  5
536C
330
1F
100
AcDbEntity
  8
太線
100
AcDbLine
 10
3031.612961387487
 20
-1539.766313941423
 30
0.0
 11
2992.818154217013
 21
-1571.682184889602
 31
0.0
  0
LINE
  5
536D
330
1F
100
AcDbEntity
  8
太線
100
AcDbLine
 10
3024.508512243781
 20
-1532.661864797717
 30
0.0
 11
2985.713705073306
 21
-1564.577735745896
 31
0.0
  0
LINE
  5
536E
330
1F
100
AcDbEntity
  8
太線
100
AcDbLine
 10
3052.926308818605
 20
-1561.079661372541
 30
0.0
 11
3014.13150164813
 21
-1592.99553232072
 31
0.0
  0
LINE
  5
536F
330
1F
100
AcDbEntity
  8
太線
100
AcDbLine
 10
3045.821859674899
 20
-1553.975212228835
 30
0.0
 11
3007.027052504424
 21
-1585.891083177014
 31
0.0
  0
LINE
  5
5370
330
1F
100
AcDbEntity
  8
太線
100
AcDbLine
 10
2974.122855947451
 20
-1496.418344125117
 30
0.0
 11
3009.64510166598
 21
-1531.940589843647
 31
0.0
  0
LINE
  5
5371
330
1F
100
AcDbEntity
  8
太線
100
AcDbLine
 10
2966.363894513355
 20
-1502.801518314753
 30
0.0
 11
3001.886140231885
 21
-1538.323764033283
 31
0.0
  0
LINE
  5
5372
330
1F
100
AcDbEntity
  8
太線
100
AcDbLine
 10
2958.604933079261
 20
-1509.184692504389
 30
0.0
 11
2994.127178797791
 21
-1544.706938222919
 31
0.0
  0
LINE
  5
5373
330
1F
100
AcDbEntity
  8
太線
100
AcDbLine
 10
2950.845971645165
 20
-1515.567866694024
 30
0.0
 11
2986.368217363695
 21
-1551.090112412555
 31
0.0
  0
LINE
  5
5374
330
1F
100
AcDbEntity
  8
太線
100
AcDbLine
 10
2943.08701021107
 20
-1521.95104088366
 30
0.0
 11
2978.609255929601
 21
-1557.47328660219
 31
0.0
  0
LINE
  5
5375
330
1F
100
AcDbEntity
  8
太線
100
AcDbLine
 10
2893.410235604286
 20
-1495.913669965037
 30
0.0
 11
2928.932481322815
 21
-1531.435915683567
 31
0.0
  0
LINE
  5
5376
330
1F
100
AcDbEntity
  8
太線
100
AcDbLine
 10
2885.651274170191
 20
-1502.296844154673
 30
0.0
 11
2921.17351988872
 21
-1537.819089873203
 31
0.0
  0
LINE
  5
5377
330
1F
100
AcDbEntity
  8
太線
100
AcDbLine
 10
2877.892312736095
 20
-1508.680018344309
 30
0.0
 11
2913.414558454625
 21
-1544.202264062839
 31
0.0
  0
LINE
  5
5378
330
1F
100
AcDbEntity
  8
太線
100
AcDbLine
 10
2870.133351302001
 20
-1515.063192533945
 30
0.0
 11
2905.65559702053
 21
-1550.585438252475
 31
0.0
  0
LINE
  5
5379
330
1F
100
AcDbEntity
  8
太線
100
AcDbLine
 10
2897.896635586435
 20
-1556.968612442111
 30
0.0
 11
2862.374389867905
 21
-1521.446366723581
 31
0.0
  0
LINE
  5
537A
330
1F
100
AcDbEntity
  8
太線
100
AcDbLine
 10
2765.434964967005
 20
-1523.501891188796
 30
0.0
 11
2800.957210685535
 21
-1559.024136907326
 31
0.0
  0
LINE
  5
537B
330
1F
100
AcDbEntity
  8
太線
100
AcDbLine
 10
2773.1939264011
 20
-1517.11871699916
 30
0.0
 11
2808.71617211963
 21
-1552.640962717689
 31
0.0
  0
LINE
  5
537C
330
1F
100
AcDbEntity
  8
太線
100
AcDbLine
 10
2780.952887835195
 20
-1510.735542809524
 30
0.0
 11
2816.475133553725
 21
-1546.257788528054
 31
0.0
  0
LINE
  5
537D
330
1F
100
AcDbEntity
  8
太線
100
AcDbLine
 10
2788.71184926929
 20
-1504.352368619888
 30
0.0
 11
2824.23409498782
 21
-1539.874614338418
 31
0.0
  0
LINE
  5
537E
330
1F
100
AcDbEntity
  8
太線
100
AcDbLine
 10
2796.470810703385
 20
-1497.969194430252
 30
0.0
 11
2831.993056421914
 21
-1533.491440148782
 31
0.0
  0
LINE
  5
537F
330
1F
100
AcDbEntity
  8
太線
100
AcDbLine
 10
2839.75201785601
 20
-1527.108265959147
 30
0.0
 11
2804.22977213748
 21
-1491.586020240617
 31
0.0
  0
LINE
  5
5380
330
1F
100
AcDbEntity
  8
太線
100
AcDbLine
 10
2844.444530492238
 20
-1689.691195490081
 30
0.0
 11
2883.239337662713
 21
-1657.775324541902
 31
0.0
  0
LINE
  5
5381
330
1F
100
AcDbEntity
  8
太線
100
AcDbLine
 10
2851.548979635944
 20
-1696.795644633787
 30
0.0
 11
2887.071225354473
 21
-1732.317890352317
 31
0.0
  0
LINE
  5
5382
330
1F
100
AcDbEntity
  8
太線
100
AcDbLine
 10
2894.830186788569
 20
-1725.934716162681
 30
0.0
 11
2859.307941070039
 21
-1690.412470444152
 31
0.0
  0
LINE
  5
5383
330
1F
100
AcDbEntity
  8
太線
100
AcDbLine
 10
2867.066902504134
 20
-1684.029296254515
 30
0.0
 11
2902.589148222664
 21
-1719.551541973046
 31
0.0
  0
LINE
  5
5384
330
1F
100
AcDbEntity
  8
太線
100
AcDbLine
 10
2874.825863938228
 20
-1677.64612206488
 30
0.0
 11
2910.348109656759
 21
-1713.16836778341
 31
0.0
  0
LINE
  5
5385
330
1F
100
AcDbEntity
  8
太線
100
AcDbLine
 10
2881.275882786511
 20
-1583.275691123568
 30
0.0
 11
2916.79812850504
 21
-1618.797936842097
 31
0.0
  0
LINE
  5
5386
330
1F
100
AcDbEntity
  8
太線
100
AcDbLine
 10
2873.516921352415
 20
-1589.658865313204
 30
0.0
 11
2909.039167070945
 21
-1625.181111031733
 31
0.0
  0
LINE
  5
5387
330
1F
100
AcDbEntity
  8
太線
100
AcDbLine
 10
2865.75795991832
 20
-1596.042039502839
 30
0.0
 11
2901.280205636851
 21
-1631.564285221369
 31
0.0
  0
LINE
  5
5388
330
1F
100
AcDbEntity
  8
太線
100
AcDbLine
 10
2857.998998484225
 20
-1602.425213692475
 30
0.0
 11
2893.521244202755
 21
-1637.947459411005
 31
0.0
  0
LINE
  5
5389
330
1F
100
AcDbEntity
  8
太線
100
AcDbLine
 10
2850.24003705013
 20
-1608.808387882111
 30
0.0
 11
2885.76228276866
 21
-1644.330633600641
 31
0.0
  0
LINE
  5
538A
330
1F
100
AcDbEntity
  8
太線
100
AcDbLine
 10
2854.61542843381
 20
-1527.829540913216
 30
0.0
 11
2890.13767415234
 21
-1563.351786631747
 31
0.0
  0
LINE
  5
538B
330
1F
100
AcDbEntity
  8
太線
100
AcDbLine
 10
2816.026733917414
 20
-1661.273398915257
 30
0.0
 11
2854.821541087889
 21
-1629.357527967078
 31
0.0
  0
LINE
  5
538C
330
1F
100
AcDbEntity
  8
太線
100
AcDbLine
 10
2823.13118306112
 20
-1668.377848058963
 30
0.0
 11
2861.925990231595
 21
-1636.461977110784
 31
0.0
  0
LINE
  5
538D
330
1F
100
AcDbEntity
  8
太線
100
AcDbLine
 10
2847.717091944184
 20
-1622.253078823372
 30
0.0
 11
2808.922284773708
 21
-1654.168949771552
 31
0.0
  0
LINE
  5
538E
330
1F
100
AcDbEntity
  8
太線
100
AcDbLine
 10
2811.445229879655
 20
-1640.724258830291
 30
0.0
 11
2775.922984161125
 21
-1605.202013111761
 31
0.0
  0
LINE
  5
538F
330
1F
100
AcDbEntity
  8
太線
100
AcDbLine
 10
2768.16402272703
 20
-1611.585187301397
 30
0.0
 11
2803.686268445559
 21
-1647.107433019926
 31
0.0
  0
LINE
  5
5390
330
1F
100
AcDbEntity
  8
太線
100
AcDbLine
 10
2850.894467345555
 20
-1710.283267967129
 30
0.0
 11
2812.09966017508
 21
-1742.199138915308
 31
0.0
  0
LINE
  5
5391
330
1F
100
AcDbEntity
  8
太線
100
AcDbLine
 10
2843.790018201849
 20
-1703.178818823423
 30
0.0
 11
2804.995211031375
 21
-1735.094689771602
 31
0.0
  0
LINE
  5
5392
330
1F
100
AcDbEntity
  8
太線
100
AcDbLine
 10
2836.685569058143
 20
-1696.074369679717
 30
0.0
 11
2801.163323339613
 21
-1660.552123961187
 31
0.0
  0
LINE
  5
5393
330
1F
100
AcDbEntity
  8
太線
100
AcDbLine
 10
2793.404361905519
 20
-1666.935298150823
 30
0.0
 11
2828.926607624048
 21
-1702.457543869353
 31
0.0
  0
LINE
  5
5394
330
1F
100
AcDbEntity
  8
太線
100
AcDbLine
 10
2785.645400471423
 20
-1673.318472340459
 30
0.0
 11
2821.167646189953
 21
-1708.840718058989
 31
0.0
  0
LINE
  5
5395
330
1F
100
AcDbEntity
  8
太線
100
AcDbLine
 10
2777.886439037328
 20
-1679.701646530094
 30
0.0
 11
2813.408684755859
 21
-1715.223892248624
 31
0.0
  0
LINE
  5
5396
330
1F
100
AcDbEntity
  8
太線
100
AcDbLine
 10
2770.127477603233
 20
-1686.084820719731
 30
0.0
 11
2805.649723321764
 21
-1721.60706643826
 31
0.0
  0
LINE
  5
5397
330
1F
100
AcDbEntity
  8
太線
100
AcDbLine
 10
2762.368516169138
 20
-1692.467994909366
 30
0.0
 11
2797.890761887669
 21
-1727.990240627896
 31
0.0
  0
LINE
  5
5398
330
1F
100
AcDbEntity
  8
太線
100
AcDbLine
 10
2757.13249984099
 20
-1685.406478157741
 30
0.0
 11
2795.927307011465
 21
-1653.490607209562
 31
0.0
  0
LINE
  5
5399
330
1F
100
AcDbEntity
  8
太線
100
AcDbLine
 10
2837.340081348532
 20
-1682.586746346375
 30
0.0
 11
2876.134888519008
 21
-1650.670875398196
 31
0.0
  0
LINE
  5
539A
330
1F
100
AcDbEntity
  8
太線
100
AcDbLine
 10
2830.235632204826
 20
-1675.482297202669
 30
0.0
 11
2869.030439375301
 21
-1643.56642625449
 31
0.0
  0
LINE
  5
539B
330
1F
100
AcDbEntity
  8
太線
100
AcDbLine
 10
2799.199868463411
 20
-1586.052490542853
 30
0.0
 11
2834.72211418194
 21
-1621.574736261383
 31
0.0
  0
LINE
  5
539C
330
1F
100
AcDbEntity
  8
太線
100
AcDbLine
 10
2791.440907029315
 20
-1592.435664732489
 30
0.0
 11
2826.963152747845
 21
-1627.957910451019
 31
0.0
  0
LINE
  5
539D
330
1F
100
AcDbEntity
  8
太線
100
AcDbLine
 10
2783.68194559522
 20
-1598.818838922125
 30
0.0
 11
2819.20419131375
 21
-1634.341084640654
 31
0.0
  0
LINE
  5
539E
330
1F
100
AcDbEntity
  8
太線
100
AcDbLine
 10
2806.958829897505
 20
-1579.669316353217
 30
0.0
 11
2842.481075616035
 21
-1615.191562071747
 31
0.0
  0
LINE
  5
539F
330
1F
100
AcDbEntity
  8
太線
100
AcDbLine
 10
2846.856466999716
 20
-1534.212715102852
 30
0.0
 11
2808.061659829241
 21
-1566.128586051032
 31
0.0
  0
LINE
  5
53A0
330
1F
100
AcDbEntity
  8
太線
100
AcDbLine
 10
2853.960916143421
 20
-1541.317164246558
 30
0.0
 11
2815.166108972947
 21
-1573.233035194737
 31
0.0
  0
LINE
  5
53A1
330
1F
100
AcDbEntity
  8
太線
100
AcDbLine
 10
2753.955124439618
 20
-1597.376289013985
 30
0.0
 11
2792.749931610094
 21
-1565.460418065805
 31
0.0
  0
LINE
  5
53A2
330
1F
100
AcDbEntity
  8
太線
100
AcDbLine
 10
2761.059573583324
 20
-1604.480738157691
 30
0.0
 11
2799.854380753799
 21
-1572.564867209511
 31
0.0
  0
LINE
  5
53A3
330
1F
100
AcDbEntity
  8
太線
100
AcDbLine
 10
2868.169814430833
 20
-1555.52606253397
 30
0.0
 11
2829.375007260359
 21
-1587.441933482149
 31
0.0
  0
LINE
  5
53A4
330
1F
100
AcDbEntity
  8
太線
100
AcDbLine
 10
2875.27426357454
 20
-1562.630511677676
 30
0.0
 11
2836.479456404065
 21
-1594.546382625855
 31
0.0
  0
LINE
  5
53A5
330
1F
100
AcDbEntity
  8
太線
100
AcDbLine
 10
2843.583905547771
 20
-1601.650831769561
 30
0.0
 11
2882.378712718246
 21
-1569.734960821382
 31
0.0
  0
LINE
  5
53A6
330
1F
100
AcDbEntity
  8
太線
100
AcDbLine
 10
2861.065365287128
 20
-1548.421613390264
 30
0.0
 11
2822.270558116653
 21
-1580.337484338443
 31
0.0
  0
LINE
  5
53A7
330
1F
100
AcDbEntity
  8
太線
100
AcDbLine
 10
2945.870437370253
 20
-1633.72811008358
 30
0.0
 11
2907.075630199778
 21
-1665.643981031759
 31
0.0
  0
LINE
  5
53A8
330
1F
100
AcDbEntity
  8
太線
100
AcDbLine
 10
2938.765988226547
 20
-1626.623660939874
 30
0.0
 11
2899.971181056072
 21
-1658.539531888052
 31
0.0
  0
LINE
  5
53A9
330
1F
100
AcDbEntity
  8
太線
100
AcDbLine
 10
2931.661539082841
 20
-1619.519211796168
 30
0.0
 11
2892.866731912366
 21
-1651.435082744347
 31
0.0
  0
LINE
  5
53AA
330
1F
100
AcDbEntity
  8
太線
100
AcDbLine
 10
2939.420500516936
 20
-1613.136037606532
 30
0.0
 11
2974.942746235465
 21
-1648.658283325062
 31
0.0
  0
LINE
  5
53AB
330
1F
100
AcDbEntity
  8
太線
100
AcDbLine
 10
2982.70170766956
 20
-1642.275109135426
 30
0.0
 11
2947.179461951031
 21
-1606.752863416896
 31
0.0
  0
LINE
  5
53AC
330
1F
100
AcDbEntity
  8
太線
100
AcDbLine
 10
2940.020561413204
 20
-1690.917144604231
 30
0.0
 11
2975.542807131734
 21
-1726.439390322761
 31
0.0
  0
LINE
  5
53AD
330
1F
100
AcDbEntity
  8
太線
100
AcDbLine
 10
2947.779522847299
 20
-1684.533970414595
 30
0.0
 11
2983.301768565829
 21
-1720.056216133125
 31
0.0
  0
LINE
  5
53AE
330
1F
100
AcDbEntity
  8
太線
100
AcDbLine
 10
2928.388977630896
 20
-1686.957328462876
 30
0.0
 11
2967.183784801371
 21
-1655.041457514698
 31
0.0
  0
LINE
  5
53AF
330
1F
100
AcDbEntity
  8
太線
100
AcDbLine
 10
2960.079335657665
 20
-1647.937008370992
 30
0.0
 11
2921.28452848719
 21
-1679.85287931917
 31
0.0
  0
LINE
  5
53B0
330
1F
100
AcDbEntity
  8
太線
100
AcDbLine
 10
2952.974886513959
 20
-1640.832559227286
 30
0.0
 11
2914.180079343484
 21
-1672.748430175465
 31
0.0
  0
LINE
  5
53B1
330
1F
100
AcDbEntity
  8
太線
100
AcDbLine
 10
2882.584825372324
 20
-1671.262947875244
 30
0.0
 11
2918.107071090854
 21
-1706.785193593773
 31
0.0
  0
LINE
  5
53B2
330
1F
100
AcDbEntity
  8
太線
100
AcDbLine
 10
2890.343786806419
 20
-1664.879773685608
 30
0.0
 11
2925.866032524949
 21
-1700.402019404138
 31
0.0
  0
LINE
  5
53B3
330
1F
100
AcDbEntity
  8
太線
100
AcDbLine
 10
2932.522164027309
 20
-1707.559575516687
 30
0.0
 11
2893.727356856834
 21
-1739.475446464867
 31
0.0
  0
LINE
  5
53B4
330
1F
100
AcDbEntity
  8
太線
100
AcDbLine
 10
2900.831806000539
 20
-1746.579895608573
 30
0.0
 11
2939.626613171014
 21
-1714.664024660393
 31
0.0
  0
LINE
  5
53B5
330
1F
100
AcDbEntity
  8
太線
100
AcDbLine
 10
2955.538484281394
 20
-1678.15079622496
 30
0.0
 11
2991.060729999924
 21
-1713.673041943489
 31
0.0
  0
LINE
  5
53B6
330
1F
100
AcDbEntity
  8
太線
100
AcDbLine
 10
2963.297445715489
 20
-1671.767622035324
 30
0.0
 11
2998.819691434019
 21
-1707.289867753853
 31
0.0
  0
LINE
  5
53B7
330
1F
100
AcDbEntity
  8
太線
100
AcDbLine
 10
2971.056407149584
 20
-1665.384447845688
 30
0.0
 11
3006.578652868113
 21
-1700.906693564217
 31
0.0
  0
LINE
  5
53B8
330
1F
100
AcDbEntity
  8
太線
100
AcDbLine
 10
3014.337614302208
 20
-1694.523519374581
 30
0.0
 11
2978.815368583679
 21
-1659.001273656052
 31
0.0
  0
LINE
  5
53B9
330
1F
100
AcDbEntity
  8
太線
100
AcDbLine
 10
2925.211602229524
 20
-1598.92713931912
 30
0.0
 11
2964.006409399999
 21
-1567.01126837094
 31
0.0
  0
LINE
  5
53BA
330
1F
100
AcDbEntity
  8
太線
100
AcDbLine
 10
2918.107153085818
 20
-1591.822690175414
 30
0.0
 11
2956.901960256293
 21
-1559.906819227234
 31
0.0
  0
LINE
  5
53BB
330
1F
100
AcDbEntity
  8
太線
100
AcDbLine
 10
2911.002703942111
 20
-1584.718241031708
 30
0.0
 11
2949.797511112587
 21
-1552.802370083529
 31
0.0
  0
LINE
  5
53BC
330
1F
100
AcDbEntity
  8
太線
100
AcDbLine
 10
2932.31605137323
 20
-1606.031588462826
 30
0.0
 11
2971.110858543705
 21
-1574.115717514646
 31
0.0
  0
LINE
  5
53BD
330
1F
100
AcDbEntity
  8
太線
100
AcDbLine
 10
2924.557089939135
 20
-1612.414762652462
 30
0.0
 11
2889.034844220605
 21
-1576.892516933932
 31
0.0
  0
LINE
  5
53BE
330
1F
100
AcDbEntity
  8
太線
100
AcDbLine
 10
2903.898254798406
 20
-1577.613791888002
 30
0.0
 11
2942.693061968881
 21
-1545.697920939823
 31
0.0
  0
LINE
  5
53BF
330
1F
100
AcDbEntity
  8
太線
100
AcDbLine
 10
2935.588612825175
 20
-1538.593471796117
 30
0.0
 11
2896.7938056547
 21
-1570.509342744296
 31
0.0
  0
LINE
  5
53C0
330
1F
100
AcDbEntity
  8
太線
100
AcDbLine
 10
2978.215307687411
 20
-1581.220166658352
 30
0.0
 11
3013.737553405941
 21
-1616.742412376882
 31
0.0
  0
LINE
  5
53C1
330
1F
100
AcDbEntity
  8
太線
100
AcDbLine
 10
2954.938423385126
 20
-1600.36968922726
 30
0.0
 11
2990.460669103655
 21
-1635.89193494579
 31
0.0
  0
LINE
  5
53C2
330
1F
100
AcDbEntity
  8
太線
100
AcDbLine
 10
2962.69738481922
 20
-1593.986515037625
 30
0.0
 11
2998.21963053775
 21
-1629.508760756154
 31
0.0
  0
LINE
  5
53C3
330
1F
100
AcDbEntity
  8
太線
100
AcDbLine
 10
2970.456346253316
 20
-1587.603340847988
 30
0.0
 11
3005.978591971846
 21
-1623.125586566518
 31
0.0
  0
LINE
  5
53C4
330
1F
100
AcDbEntity
  8
太線
100
AcDbLine
 10
2847.510979290104
 20
-1520.72509176951
 30
0.0
 11
2886.30578646058
 21
-1488.809220821331
 31
0.0
  0
LINE
  5
53C5
330
1F
100
AcDbEntity
  8
太線
100
AcDbLine
 10
2850.78354074205
 20
-1453.286975102801
 30
0.0
 11
2811.988733571574
 21
-1485.202846050981
 31
0.0
  0
LINE
  5
53C6
330
1F
100
AcDbEntity
  8
太線
100
AcDbLine
 10
2826.197631858986
 20
-1499.411744338393
 30
0.0
 11
2864.992439029462
 21
-1467.495873390213
 31
0.0
  0
LINE
  5
53C7
330
1F
100
AcDbEntity
  8
太線
100
AcDbLine
 10
2819.093182715281
 20
-1492.307295194687
 30
0.0
 11
2857.887989885756
 21
-1460.391424246507
 31
0.0
  0
LINE
  5
53C8
330
1F
100
AcDbEntity
  8
太線
100
AcDbLine
 10
2833.302081002693
 20
-1506.516193482099
 30
0.0
 11
2872.096888173168
 21
-1474.600322533919
 31
0.0
  0
LINE
  5
53C9
330
1F
100
AcDbEntity
  8
太線
100
AcDbLine
 10
2840.406530146399
 20
-1513.620642625805
 30
0.0
 11
2879.201337316874
 21
-1481.704771677625
 31
0.0
  0
LINE
  5
53CA
330
1F
100
AcDbEntity
  8
太線
100
AcDbLine
 10
3242.318758638257
 20
-1495.913669965037
 30
0.0
 11
3277.841004356786
 21
-1531.435915683567
 31
0.0
  0
LINE
  5
53CB
330
1F
100
AcDbEntity
  8
太線
100
AcDbLine
 10
3234.559797204162
 20
-1502.296844154673
 30
0.0
 11
3270.082042922692
 21
-1537.819089873203
 31
0.0
  0
LINE
  5
53CC
330
1F
100
AcDbEntity
  8
太線
100
AcDbLine
 10
3226.800835770066
 20
-1508.680018344309
 30
0.0
 11
3262.323081488596
 21
-1544.202264062839
 31
0.0
  0
LINE
  5
53CD
330
1F
100
AcDbEntity
  8
太線
100
AcDbLine
 10
3219.041874335972
 20
-1515.063192533945
 30
0.0
 11
3254.564120054501
 21
-1550.585438252475
 31
0.0
  0
LINE
  5
53CE
330
1F
100
AcDbEntity
  8
太線
100
AcDbLine
 10
3246.805158620406
 20
-1556.968612442111
 30
0.0
 11
3211.282912901877
 21
-1521.446366723581
 31
0.0
  0
LINE
  5
53CF
330
1F
100
AcDbEntity
  8
太線
100
AcDbLine
 10
3032.267473677876
 20
-1526.278690608082
 30
0.0
 11
3067.789719396406
 21
-1561.800936326611
 31
0.0
  0
LINE
  5
53D0
330
1F
100
AcDbEntity
  8
太線
100
AcDbLine
 10
3075.5486808305
 20
-1555.417762136976
 30
0.0
 11
3040.026435111971
 21
-1519.895516418445
 31
0.0
  0
LINE
  5
53D1
330
1F
100
AcDbEntity
  8
太線
100
AcDbLine
 10
3047.785396546066
 20
-1513.51234222881
 30
0.0
 11
3083.307642264596
 21
-1549.034587947339
 31
0.0
  0
LINE
  5
53D2
330
1F
100
AcDbEntity
  8
太線
100
AcDbLine
 10
3055.54435798016
 20
-1507.129168039174
 30
0.0
 11
3091.066603698691
 21
-1542.651413757704
 31
0.0
  0
LINE
  5
53D3
330
1F
100
AcDbEntity
  8
太線
100
AcDbLine
 10
3063.303319414257
 20
-1500.745993849538
 30
0.0
 11
3098.825565132786
 21
-1536.268239568067
 31
0.0
  0
LINE
  5
53D4
330
1F
100
AcDbEntity
  8
太線
100
AcDbLine
 10
3071.062280848351
 20
-1494.362819659902
 30
0.0
 11
3106.584526566881
 21
-1529.885065378432
 31
0.0
  0
LINE
  5
53D5
330
1F
100
AcDbEntity
  8
太線
100
AcDbLine
 10
3114.343488000976
 20
-1523.501891188796
 30
0.0
 11
3149.865733719506
 21
-1559.024136907326
 31
0.0
  0
LINE
  5
53D6
330
1F
100
AcDbEntity
  8
太線
100
AcDbLine
 10
3122.102449435071
 20
-1517.11871699916
 30
0.0
 11
3157.624695153601
 21
-1552.640962717689
 31
0.0
  0
LINE
  5
53D7
330
1F
100
AcDbEntity
  8
太線
100
AcDbLine
 10
3129.861410869166
 20
-1510.735542809524
 30
0.0
 11
3165.383656587696
 21
-1546.257788528054
 31
0.0
  0
LINE
  5
53D8
330
1F
100
AcDbEntity
  8
太線
100
AcDbLine
 10
3137.620372303261
 20
-1504.352368619888
 30
0.0
 11
3173.142618021791
 21
-1539.874614338418
 31
0.0
  0
LINE
  5
53D9
330
1F
100
AcDbEntity
  8
太線
100
AcDbLine
 10
3145.379333737356
 20
-1497.969194430252
 30
0.0
 11
3180.901579455886
 21
-1533.491440148782
 31
0.0
  0
LINE
  5
53DA
330
1F
100
AcDbEntity
  8
太線
100
AcDbLine
 10
3188.660540889981
 20
-1527.108265959147
 30
0.0
 11
3153.138295171451
 21
-1491.586020240617
 31
0.0
  0
LINE
  5
53DB
330
1F
100
AcDbEntity
  8
太線
100
AcDbLine
 10
3142.31288493949
 20
-1666.935298150823
 30
0.0
 11
3177.835130658019
 21
-1702.457543869353
 31
0.0
  0
LINE
  5
53DC
330
1F
100
AcDbEntity
  8
太線
100
AcDbLine
 10
3134.553923505395
 20
-1673.318472340459
 30
0.0
 11
3170.076169223924
 21
-1708.840718058989
 31
0.0
  0
LINE
  5
53DD
330
1F
100
AcDbEntity
  8
太線
100
AcDbLine
 10
3126.794962071299
 20
-1679.701646530094
 30
0.0
 11
3162.31720778983
 21
-1715.223892248624
 31
0.0
  0
LINE
  5
53DE
330
1F
100
AcDbEntity
  8
太線
100
AcDbLine
 10
3119.036000637205
 20
-1686.084820719731
 30
0.0
 11
3154.558246355735
 21
-1721.60706643826
 31
0.0
  0
LINE
  5
53DF
330
1F
100
AcDbEntity
  8
太線
100
AcDbLine
 10
3111.277039203109
 20
-1692.467994909366
 30
0.0
 11
3146.799284921639
 21
-1727.990240627896
 31
0.0
  0
LINE
  5
53E0
330
1F
100
AcDbEntity
  8
太線
100
AcDbLine
 10
3109.968096617295
 20
-1604.480738157691
 30
0.0
 11
3148.762903787771
 21
-1572.564867209511
 31
0.0
  0
LINE
  5
53E1
330
1F
100
AcDbEntity
  8
太線
100
AcDbLine
 10
3140.349430063286
 20
-1592.435664732489
 30
0.0
 11
3175.871675781816
 21
-1627.957910451019
 31
0.0
  0
LINE
  5
53E2
330
1F
100
AcDbEntity
  8
太線
100
AcDbLine
 10
3132.590468629191
 20
-1598.818838922125
 30
0.0
 11
3168.112714347721
 21
-1634.341084640654
 31
0.0
  0
LINE
  5
53E3
330
1F
100
AcDbEntity
  8
太線
100
AcDbLine
 10
3160.353752913626
 20
-1640.724258830291
 30
0.0
 11
3124.831507195096
 21
-1605.202013111761
 31
0.0
  0
LINE
  5
53E4
330
1F
100
AcDbEntity
  8
太線
100
AcDbLine
 10
3117.072545761001
 20
-1611.585187301397
 30
0.0
 11
3152.594791479531
 21
-1647.107433019926
 31
0.0
  0
LINE
  5
53E5
330
1F
100
AcDbEntity
  8
太線
100
AcDbLine
 10
3027.892082294195
 20
-1607.257537576976
 30
0.0
 11
3063.414328012726
 21
-1642.779783295505
 31
0.0
  0
LINE
  5
53E6
330
1F
100
AcDbEntity
  8
太線
100
AcDbLine
 10
3109.313584326907
 20
-1617.968361491032
 30
0.0
 11
3070.518777156431
 21
-1649.884232439212
 31
0.0
  0
LINE
  5
53E7
330
1F
100
AcDbEntity
  8
太線
100
AcDbLine
 10
3116.418033470612
 20
-1625.072810634739
 30
0.0
 11
3077.623226300138
 21
-1656.988681582918
 31
0.0
  0
LINE
  5
53E8
330
1F
100
AcDbEntity
  8
太線
100
AcDbLine
 10
3123.522482614318
 20
-1632.177259778444
 30
0.0
 11
3084.727675443843
 21
-1664.093130726623
 31
0.0
  0
LINE
  5
53E9
330
1F
100
AcDbEntity
  8
太線
100
AcDbLine
 10
3078.483851244605
 20
-1745.029045303437
 30
0.0
 11
3117.27865841508
 21
-1713.113174355258
 31
0.0
  0
LINE
  5
53EA
330
1F
100
AcDbEntity
  8
太線
100
AcDbLine
 10
3110.174209271374
 20
-1706.008725211552
 30
0.0
 11
3071.379402100899
 21
-1737.924596159731
 31
0.0
  0
LINE
  5
53EB
330
1F
100
AcDbEntity
  8
太線
100
AcDbLine
 10
3067.995832050485
 20
-1663.328923380472
 30
0.0
 11
3103.518077769015
 21
-1698.851169099002
 31
0.0
  0
LINE
  5
53EC
330
1F
100
AcDbEntity
  8
太線
100
AcDbLine
 10
3060.23687061639
 20
-1669.712097570108
 30
0.0
 11
3095.75911633492
 21
-1705.234343288638
 31
0.0
  0
LINE
  5
53ED
330
1F
100
AcDbEntity
  8
太線
100
AcDbLine
 10
3052.477909182294
 20
-1676.095271759745
 30
0.0
 11
3088.000154900824
 21
-1711.617517478274
 31
0.0
  0
LINE
  5
53EE
330
1F
100
AcDbEntity
  8
太線
100
AcDbLine
 10
3044.718947748199
 20
-1682.478445949381
 30
0.0
 11
3080.241193466729
 21
-1718.00069166791
 31
0.0
  0
LINE
  5
53EF
330
1F
100
AcDbEntity
  8
太線
100
AcDbLine
 10
3072.482232032634
 20
-1724.383865857546
 30
0.0
 11
3036.959986314105
 21
-1688.861620139016
 31
0.0
  0
LINE
  5
53F0
330
1F
100
AcDbEntity
  8
太線
100
AcDbLine
 10
3029.201024880009
 20
-1695.244794328652
 30
0.0
 11
3064.723270598539
 21
-1730.767040047182
 31
0.0
  0
LINE
  5
53F1
330
1F
100
AcDbEntity
  8
太線
100
AcDbLine
 10
3014.992126592598
 20
-1681.03589604124
 30
0.0
 11
3053.786933763073
 21
-1649.120025093061
 31
0.0
  0
LINE
  5
53F2
330
1F
100
AcDbEntity
  8
太線
100
AcDbLine
 10
3022.096575736304
 20
-1688.140345184946
 30
0.0
 11
3060.891382906779
 21
-1656.224474236766
 31
0.0
  0
LINE
  5
53F3
330
1F
100
AcDbEntity
  8
太線
100
AcDbLine
 10
3106.041022874961
 20
-1685.406478157741
 30
0.0
 11
3144.835830045436
 21
-1653.490607209562
 31
0.0
  0
LINE
  5
53F4
330
1F
100
AcDbEntity
  8
太線
100
AcDbLine
 10
3130.626931758024
 20
-1639.28170892215
 30
0.0
 11
3091.83212458755
 21
-1671.197579870329
 31
0.0
  0
LINE
  5
53F5
330
1F
100
AcDbEntity
  8
太線
100
AcDbLine
 10
3137.73138090173
 20
-1646.386158065856
 30
0.0
 11
3098.936573731255
 21
-1678.302029014035
 31
0.0
  0
LINE
  5
53F6
330
1F
100
AcDbEntity
  8
太線
100
AcDbLine
 10
3051.168966596481
 20
-1588.108015008068
 30
0.0
 11
3086.691212315011
 21
-1623.630260726598
 31
0.0
  0
LINE
  5
53F7
330
1F
100
AcDbEntity
  8
太線
100
AcDbLine
 10
3058.927928030576
 20
-1581.724840818433
 30
0.0
 11
3094.450173749105
 21
-1617.247086536962
 31
0.0
  0
LINE
  5
53F8
330
1F
100
AcDbEntity
  8
太線
100
AcDbLine
 10
3113.240658069241
 20
-1537.042621490981
 30
0.0
 11
3074.445850898765
 21
-1568.958492439161
 31
0.0
  0
LINE
  5
53F9
330
1F
100
AcDbEntity
  8
太線
100
AcDbLine
 10
3102.2091351832
 20
-1610.863912347326
 30
0.0
 11
3066.686889464671
 21
-1575.341666628797
 31
0.0
  0
LINE
  5
53FA
330
1F
100
AcDbEntity
  8
太線
100
AcDbLine
 10
3021.235950791836
 20
-1600.099981464426
 30
0.0
 11
3060.030757962311
 21
-1568.184110516247
 31
0.0
  0
LINE
  5
53FB
330
1F
100
AcDbEntity
  8
太線
100
AcDbLine
 10
3035.651043728291
 20
-1600.87436338734
 30
0.0
 11
3071.173289446821
 21
-1636.39660910587
 31
0.0
  0
LINE
  5
53FC
330
1F
100
AcDbEntity
  8
太線
100
AcDbLine
 10
3043.410005162385
 20
-1594.491189197704
 30
0.0
 11
3078.932250880916
 21
-1630.013434916234
 31
0.0
  0
LINE
  5
53FD
330
1F
100
AcDbEntity
  8
太線
100
AcDbLine
 10
3102.863647473589
 20
-1597.376289013985
 30
0.0
 11
3141.658454644065
 21
-1565.460418065805
 31
0.0
  0
LINE
  5
53FE
330
1F
100
AcDbEntity
  8
太線
100
AcDbLine
 10
3088.654749186177
 20
-1583.167390726573
 30
0.0
 11
3127.449556356653
 21
-1551.251519778393
 31
0.0
  0
LINE
  5
53FF
330
1F
100
AcDbEntity
  8
太線
100
AcDbLine
 10
3095.759198329883
 20
-1590.271839870279
 30
0.0
 11
3134.554005500358
 21
-1558.355968922099
 31
0.0
  0
LINE
  5
5400
330
1F
100
AcDbEntity
  8
太線
100
AcDbLine
 10
3081.550300042471
 20
-1576.062941582867
 30
0.0
 11
3120.345107212947
 21
-1544.147070634687
 31
0.0
  0
LINE
  5
5401
330
1F
100
AcDbEntity
  8
太線
100
AcDbLine
 10
3164.935256951385
 20
-1661.273398915257
 30
0.0
 11
3203.73006412186
 21
-1629.357527967078
 31
0.0
  0
LINE
  5
5402
330
1F
100
AcDbEntity
  8
太線
100
AcDbLine
 10
3196.625614978154
 20
-1622.253078823372
 30
0.0
 11
3157.830807807679
 21
-1654.168949771552
 31
0.0
  0
LINE
  5
5403
330
1F
100
AcDbEntity
  8
太線
100
AcDbLine
 10
3172.039706095091
 20
-1668.377848058963
 30
0.0
 11
3210.834513265567
 21
-1636.461977110784
 31
0.0
  0
LINE
  5
5404
330
1F
100
AcDbEntity
  8
太線
100
AcDbLine
 10
3206.907521518196
 20
-1602.425213692475
 30
0.0
 11
3242.429767236727
 21
-1637.947459411005
 31
0.0
  0
LINE
  5
5405
330
1F
100
AcDbEntity
  8
太線
100
AcDbLine
 10
3199.148560084101
 20
-1608.808387882111
 30
0.0
 11
3234.670805802631
 21
-1644.330633600641
 31
0.0
  0
LINE
  5
5406
330
1F
100
AcDbEntity
  8
太線
100
AcDbLine
 10
3193.353053526209
 20
-1689.691195490081
 30
0.0
 11
3232.147860696684
 21
-1657.775324541902
 31
0.0
  0
LINE
  5
5407
330
1F
100
AcDbEntity
  8
太線
100
AcDbLine
 10
3186.248604382503
 20
-1682.586746346375
 30
0.0
 11
3225.043411552978
 21
-1650.670875398196
 31
0.0
  0
LINE
  5
5408
330
1F
100
AcDbEntity
  8
太線
100
AcDbLine
 10
3179.144155238797
 20
-1675.482297202669
 30
0.0
 11
3217.938962409272
 21
-1643.56642625449
 31
0.0
  0
LINE
  5
5409
330
1F
100
AcDbEntity
  8
太線
100
AcDbLine
 10
3200.457502669916
 20
-1696.795644633787
 30
0.0
 11
3235.979748388444
 21
-1732.317890352317
 31
0.0
  0
LINE
  5
540A
330
1F
100
AcDbEntity
  8
太線
100
AcDbLine
 10
3243.73870982254
 20
-1725.934716162681
 30
0.0
 11
3208.21646410401
 21
-1690.412470444152
 31
0.0
  0
LINE
  5
540B
330
1F
100
AcDbEntity
  8
太線
100
AcDbLine
 10
3185.594092092114
 20
-1696.074369679717
 30
0.0
 11
3150.071846373585
 21
-1660.552123961187
 31
0.0
  0
LINE
  5
540C
330
1F
100
AcDbEntity
  8
太線
100
AcDbLine
 10
3199.802990379526
 20
-1710.283267967129
 30
0.0
 11
3161.008183209052
 21
-1742.199138915308
 31
0.0
  0
LINE
  5
540D
330
1F
100
AcDbEntity
  8
太線
100
AcDbLine
 10
3192.69854123582
 20
-1703.178818823423
 30
0.0
 11
3153.903734065345
 21
-1735.094689771602
 31
0.0
  0
LINE
  5
540E
330
1F
100
AcDbEntity
  8
太線
100
AcDbLine
 10
3215.975425538105
 20
-1684.029296254515
 30
0.0
 11
3251.497671256635
 21
-1719.551541973046
 31
0.0
  0
LINE
  5
540F
330
1F
100
AcDbEntity
  8
太線
100
AcDbLine
 10
3223.734386972199
 20
-1677.64612206488
 30
0.0
 11
3259.25663269073
 21
-1713.16836778341
 31
0.0
  0
LINE
  5
5410
330
1F
100
AcDbEntity
  8
太線
100
AcDbLine
 10
3231.493348406296
 20
-1671.262947875244
 30
0.0
 11
3267.015594124825
 21
-1706.785193593773
 31
0.0
  0
LINE
  5
5411
330
1F
100
AcDbEntity
  8
太線
100
AcDbLine
 10
3239.25230984039
 20
-1664.879773685608
 30
0.0
 11
3274.77455555892
 21
-1700.402019404138
 31
0.0
  0
LINE
  5
5412
330
1F
100
AcDbEntity
  8
太線
100
AcDbLine
 10
3203.523951467782
 20
-1527.829540913216
 30
0.0
 11
3239.046197186311
 21
-1563.351786631747
 31
0.0
  0
LINE
  5
5413
330
1F
100
AcDbEntity
  8
太線
100
AcDbLine
 10
3217.078337464805
 20
-1555.52606253397
 30
0.0
 11
3178.28353029433
 21
-1587.441933482149
 31
0.0
  0
LINE
  5
5414
330
1F
100
AcDbEntity
  8
太線
100
AcDbLine
 10
3224.182786608511
 20
-1562.630511677676
 30
0.0
 11
3185.387979438036
 21
-1594.546382625855
 31
0.0
  0
LINE
  5
5415
330
1F
100
AcDbEntity
  8
太線
100
AcDbLine
 10
3192.492428581742
 20
-1601.650831769561
 30
0.0
 11
3231.287235752216
 21
-1569.734960821382
 31
0.0
  0
LINE
  5
5416
330
1F
100
AcDbEntity
  8
太線
100
AcDbLine
 10
3155.867352931476
 20
-1579.669316353217
 30
0.0
 11
3191.389598650006
 21
-1615.191562071747
 31
0.0
  0
LINE
  5
5417
330
1F
100
AcDbEntity
  8
太線
100
AcDbLine
 10
3148.108391497382
 20
-1586.052490542853
 30
0.0
 11
3183.630637215911
 21
-1621.574736261383
 31
0.0
  0
LINE
  5
5418
330
1F
100
AcDbEntity
  8
太線
100
AcDbLine
 10
3195.764990033687
 20
-1534.212715102852
 30
0.0
 11
3156.970182863212
 21
-1566.128586051032
 31
0.0
  0
LINE
  5
5419
330
1F
100
AcDbEntity
  8
太線
100
AcDbLine
 10
3202.869439177393
 20
-1541.317164246558
 30
0.0
 11
3164.074632006918
 21
-1573.233035194737
 31
0.0
  0
LINE
  5
541A
330
1F
100
AcDbEntity
  8
太線
100
AcDbLine
 10
3209.973888321099
 20
-1548.421613390264
 30
0.0
 11
3171.179081150624
 21
-1580.337484338443
 31
0.0
  0
LINE
  5
541B
330
1F
100
AcDbEntity
  8
太線
100
AcDbLine
 10
3273.465612973106
 20
-1612.414762652462
 30
0.0
 11
3237.943367254576
 21
-1576.892516933932
 31
0.0
  0
LINE
  5
541C
330
1F
100
AcDbEntity
  8
太線
100
AcDbLine
 10
3230.184405820481
 20
-1583.275691123568
 30
0.0
 11
3265.706651539011
 21
-1618.797936842097
 31
0.0
  0
LINE
  5
541D
330
1F
100
AcDbEntity
  8
太線
100
AcDbLine
 10
3222.425444386386
 20
-1589.658865313204
 30
0.0
 11
3257.947690104916
 21
-1625.181111031733
 31
0.0
  0
LINE
  5
541E
330
1F
100
AcDbEntity
  8
太線
100
AcDbLine
 10
3214.666482952292
 20
-1596.042039502839
 30
0.0
 11
3250.188728670821
 21
-1631.564285221369
 31
0.0
  0
LINE
  5
541F
330
1F
100
AcDbEntity
  8
太線
100
AcDbLine
 10
3025.16302453417
 20
-1519.174241464376
 30
0.0
 11
3063.957831704645
 21
-1487.258370516196
 31
0.0
  0
LINE
  5
5420
330
1F
100
AcDbEntity
  8
太線
100
AcDbLine
 10
3018.058575390464
 20
-1512.069792320669
 30
0.0
 11
3056.853382560939
 21
-1480.15392137249
 31
0.0
  0
LINE
  5
5421
330
1F
100
AcDbEntity
  8
太線
100
AcDbLine
 10
3182.210604036663
 20
-1506.516193482099
 30
0.0
 11
3221.005411207139
 21
-1474.600322533919
 31
0.0
  0
LINE
  5
5422
330
1F
100
AcDbEntity
  8
太線
100
AcDbLine
 10
3189.31505318037
 20
-1513.620642625805
 30
0.0
 11
3228.109860350845
 21
-1481.704771677625
 31
0.0
  0
LINE
  5
5423
330
1F
100
AcDbEntity
  8
太線
100
AcDbLine
 10
3196.419502324076
 20
-1520.72509176951
 30
0.0
 11
3235.214309494551
 21
-1488.809220821331
 31
0.0
  0
LINE
  5
5424
330
1F
100
AcDbEntity
  8
太線
100
AcDbLine
 10
3175.106154892958
 20
-1499.411744338393
 30
0.0
 11
3213.900962063433
 21
-1467.495873390213
 31
0.0
  0
LINE
  5
5425
330
1F
100
AcDbEntity
  8
太線
100
AcDbLine
 10
3199.692063776021
 20
-1453.286975102801
 30
0.0
 11
3160.897256605545
 21
-1485.202846050981
 31
0.0
  0
LINE
  5
5426
330
1F
100
AcDbEntity
  8
太線
100
AcDbLine
 10
3168.001705749252
 20
-1492.307295194687
 30
0.0
 11
3206.796512919727
 21
-1460.391424246507
 31
0.0
  0
LINE
  5
5427
330
1F
100
AcDbEntity
  8
太線
100
AcDbLine
 10
3288.329023550907
 20
-1613.136037606532
 30
0.0
 11
3323.851269269436
 21
-1648.658283325062
 31
0.0
  0
LINE
  5
5428
330
1F
100
AcDbEntity
  8
太線
100
AcDbLine
 10
3331.610230703531
 20
-1642.275109135426
 30
0.0
 11
3296.087984985002
 21
-1606.752863416896
 31
0.0
  0
LINE
  5
5429
330
1F
100
AcDbEntity
  8
太線
100
AcDbLine
 10
3311.605907853191
 20
-1593.986515037625
 30
0.0
 11
3347.128153571722
 21
-1629.508760756154
 31
0.0
  0
LINE
  5
542A
330
1F
100
AcDbEntity
  8
太線
100
AcDbLine
 10
3319.364869287287
 20
-1587.603340847988
 30
0.0
 11
3354.887115005817
 21
-1623.125586566518
 31
0.0
  0
LINE
  5
542B
330
1F
100
AcDbEntity
  8
太線
100
AcDbLine
 10
3327.123830721382
 20
-1581.220166658352
 30
0.0
 11
3362.646076439911
 21
-1616.742412376882
 31
0.0
  0
LINE
  5
542C
330
1F
100
AcDbEntity
  8
太線
100
AcDbLine
 10
3281.2245744072
 20
-1606.031588462826
 30
0.0
 11
3320.019381577676
 21
-1574.115717514646
 31
0.0
  0
LINE
  5
542D
330
1F
100
AcDbEntity
  8
太線
100
AcDbLine
 10
3303.846946419097
 20
-1600.36968922726
 30
0.0
 11
3339.369192137626
 21
-1635.89193494579
 31
0.0
  0
LINE
  5
5438
330
1F
100
AcDbEntity
  8
太線
100
AcDbLine
 10
2707.308610131095
 20
-560.5998966557563
 30
0.0
 11
2686.306548154867
 21
-577.8779590710036
 31
0.0
  0
LINE
  5
5439
330
1F
100
AcDbEntity
  8
太線
100
AcDbLine
 10
2714.413059274801
 20
-567.7043457994622
 30
0.0
 11
2696.246921648999
 21
-582.6493383481869
 31
0.0
  0
LINE
  5
543A
330
1F
100
AcDbEntity
  8
太線
100
AcDbLine
 10
2700.204160987389
 20
-553.4954475120502
 30
0.0
 11
2676.366174660735
 21
-573.1065797938202
 31
0.0
  0
LINE
  5
543B
330
1F
100
AcDbEntity
  8
太線
100
AcDbLine
 10
2693.099711843683
 20
-546.3909983683443
 30
0.0
 11
2666.425801166603
 21
-568.3352005166368
 31
0.0
  0
LINE
  5
543C
330
1F
100
AcDbEntity
  8
太線
100
AcDbLine
 10
2665.336427559248
 20
-504.4855784601786
 30
0.0
 11
2683.674497919782
 21
-489.3991395846464
 31
0.0
  0
LINE
  5
543D
330
1F
100
AcDbEntity
  8
太線
100
AcDbLine
 10
2672.440876702954
 20
-511.5900276038846
 30
0.0
 11
2699.338481912841
 21
-489.4617955206187
 31
0.0
  0
LINE
  5
543E
330
1F
100
AcDbEntity
  8
太線
100
AcDbLine
 10
2668.010513926723
 20
-489.3364836486743
 30
0.0
 11
2658.231978415542
 21
-497.3811293164726
 31
0.0
  0
LINE
  5
543F
330
1F
100
AcDbEntity
  8
太線
100
AcDbLine
 10
2685.995262699977
 20
-539.2865492246382
 30
0.0
 11
2650.473016981447
 21
-503.7643035061084
 31
0.0
  0
LINE
  5
5455
330
1F
100
AcDbEntity
  8
太線
100
AcDbLine
 10
2634.955094113257
 20
-516.5306518853801
 30
0.0
 11
2670.477339831787
 21
-552.0528976039099
 31
0.0
  0
LINE
  5
5456
330
1F
100
AcDbEntity
  8
太線
100
AcDbLine
 10
2642.714055547352
 20
-510.1474776957443
 30
0.0
 11
2678.236301265882
 21
-545.6697234142741
 31
0.0
  0
LINE
  5
5459
330
1F
100
AcDbEntity
  8
太線
100
AcDbLine
 10
2636.712436335382
 20
-489.502298249853
 30
0.0
 11
2630.700894193907
 21
-494.447898374729
 31
0.0
  0
LINE
  5
545A
330
1F
100
AcDbEntity
  8
太線
100
AcDbLine
 10
2630.700894193907
 20
-507.3970648547535
 30
0.0
 11
2643.816885479088
 21
-496.6067473935588
 31
0.0
  0
LINE
  5
558C
330
1F
100
AcDbEntity
  8
太線
100
AcDbLine
 10
2630.700894193907
 20
-526.4185875897608
 30
0.0
 11
2662.718378397692
 21
-558.4360717935457
 31
0.0
  0
LINE
  5
558D
330
1F
100
AcDbEntity
  8
太線
100
AcDbLine
 10
2630.700894193907
 20
-540.5607232134916
 30
0.0
 11
2654.959416963597
 21
-564.8192459831816
 31
0.0
  0
LINE
  5
55FB
330
1F
100
AcDbEntity
  8
太線
100
AcDbLine
 10
3080.803042048129
 20
-514.4751274201649
 30
0.0
 11
3116.325287766659
 21
-549.9973731386944
 31
0.0
  0
LINE
  5
55FC
330
1F
100
AcDbEntity
  8
太線
100
AcDbLine
 10
3088.562003482224
 20
-508.091953230529
 30
0.0
 11
3124.084249200754
 21
-543.6141989490588
 31
0.0
  0
LINE
  5
55FD
330
1F
100
AcDbEntity
  8
太線
100
AcDbLine
 10
3125.187079132489
 20
-530.0734686468731
 30
0.0
 11
3130.700894193907
 21
-525.5373406759556
 31
0.0
  0
LINE
  5
55FE
330
1F
100
AcDbEntity
  8
太線
100
AcDbLine
 10
3130.700894193907
 20
-512.5881741959309
 30
0.0
 11
3118.082629988784
 21
-522.9690195031671
 31
0.0
  0
LINE
  5
55FF
330
1F
100
AcDbEntity
  8
太線
100
AcDbLine
 10
3035.558298024337
 20
-525.7989258912966
 30
0.0
 11
3074.353105194812
 21
-493.8830549431172
 31
0.0
  0
LINE
  5
5600
330
1F
100
AcDbEntity
  8
太線
100
AcDbLine
 10
2953.930601342584
 20
-528.5226183417377
 30
0.0
 11
2992.725408513059
 21
-496.6067473935588
 31
0.0
  0
LINE
  5
5601
330
1F
100
AcDbEntity
  8
太線
100
AcDbLine
 10
3034.903785733948
 20
-539.2865492246382
 30
0.0
 11
2999.381540015418
 21
-503.7643035061084
 31
0.0
  0
LINE
  5
5602
330
1F
100
AcDbEntity
  8
太線
100
AcDbLine
 10
2991.622578581323
 20
-510.1474776957443
 30
0.0
 11
3027.144824299853
 21
-545.6697234142741
 31
0.0
  0
LINE
  5
5603
330
1F
100
AcDbEntity
  8
太線
100
AcDbLine
 10
2983.863617147228
 20
-516.5306518853801
 30
0.0
 11
3019.385862865759
 21
-552.0528976039099
 31
0.0
  0
LINE
  5
5604
330
1F
100
AcDbEntity
  8
太線
100
AcDbLine
 10
3073.044080614034
 20
-520.8583016098011
 30
0.0
 11
3108.566326332564
 21
-556.3805473283309
 31
0.0
  0
LINE
  5
5605
330
1F
100
AcDbEntity
  8
太線
100
AcDbLine
 10
3042.662747168043
 20
-532.9033750350027
 30
0.0
 11
3081.457554338518
 21
-500.987504086823
 31
0.0
  0
LINE
  5
5606
330
1F
100
AcDbEntity
  8
太線
100
AcDbLine
 10
2903.150996804064
 20
-516.0259777253002
 30
0.0
 11
2938.673242522593
 21
-551.54822344383
 31
0.0
  0
LINE
  5
5607
330
1F
100
AcDbEntity
  8
太線
100
AcDbLine
 10
2910.909958238159
 20
-509.6428035356644
 30
0.0
 11
2946.432203956689
 21
-545.1650492541942
 31
0.0
  0
LINE
  5
5608
330
1F
100
AcDbEntity
  8
太線
100
AcDbLine
 10
2857.251740489882
 20
-540.8373995297738
 30
0.0
 11
2821.729494771353
 21
-505.3151538112437
 31
0.0
  0
LINE
  5
5609
330
1F
100
AcDbEntity
  8
太線
100
AcDbLine
 10
2865.010701923977
 20
-534.4542253401377
 30
0.0
 11
2903.805509094453
 21
-502.5383543919583
 31
0.0
  0
LINE
  5
560A
330
1F
100
AcDbEntity
  8
太線
100
AcDbLine
 10
2857.906252780271
 20
-527.3497761964319
 30
0.0
 11
2896.701059950747
 21
-495.4339052482523
 31
0.0
  0
LINE
  5
560B
330
1F
100
AcDbEntity
  8
太線
100
AcDbLine
 10
2776.278556098518
 20
-530.0734686468731
 30
0.0
 11
2815.073363268993
 21
-498.1575976986942
 31
0.0
  0
LINE
  5
560C
330
1F
100
AcDbEntity
  8
太線
100
AcDbLine
 10
2807.968914125287
 20
-491.0531485549881
 30
0.0
 11
2769.174106954812
 21
-522.9690195031671
 31
0.0
  0
LINE
  5
560D
330
1F
100
AcDbEntity
  8
太線
100
AcDbLine
 10
2693.754224134072
 20
-532.9033750350027
 30
0.0
 11
2732.549031304547
 21
-500.987504086823
 31
0.0
  0
LINE
  5
560E
330
1F
100
AcDbEntity
  8
太線
100
AcDbLine
 10
2686.649774990366
 20
-525.7989258912966
 30
0.0
 11
2725.444582160841
 21
-493.8830549431172
 31
0.0
  0
LINE
  5
560F
330
1F
100
AcDbEntity
  8
太線
100
AcDbLine
 10
2739.653480448253
 20
-508.091953230529
 30
0.0
 11
2775.175726166783
 21
-543.6141989490588
 31
0.0
  0
LINE
  5
5610
330
1F
100
AcDbEntity
  8
太線
100
AcDbLine
 10
2724.135557580062
 20
-520.8583016098011
 30
0.0
 11
2759.657803298592
 21
-556.3805473283309
 31
0.0
  0
LINE
  5
5611
330
1F
100
AcDbEntity
  8
太線
100
AcDbLine
 10
2731.894519014158
 20
-514.4751274201649
 30
0.0
 11
2767.416764732688
 21
-549.9973731386944
 31
0.0
  0
LINE
  5
5612
330
1F
100
AcDbEntity
  8
太線
100
AcDbLine
 10
2806.211571903163
 20
-518.0815021905154
 30
0.0
 11
2841.733817621692
 21
-553.6037479090452
 31
0.0
  0
LINE
  5
5613
330
1F
100
AcDbEntity
  8
太線
100
AcDbLine
 10
2813.970533337258
 20
-511.6983280008796
 30
0.0
 11
2849.492779055788
 21
-547.2205737194094
 31
0.0
  0
LINE
  5
5614
330
1F
100
AcDbEntity
  8
太線
100
AcDbLine
 10
2984.284744988159
 20
-490.6015805729199
 30
0.0
 11
2946.826152198878
 21
-521.418169198032
 31
0.0
  0
LINE
  5
5615
330
1F
100
AcDbEntity
  8
太線
100
AcDbLine
 10
2947.032264852956
 20
-622.9461562518936
 30
0.0
 11
2911.510019134427
 21
-587.4239105333638
 31
0.0
  0
LINE
  5
5616
330
1F
100
AcDbEntity
  8
太線
100
AcDbLine
 10
2926.373429712227
 20
-588.145185487434
 30
0.0
 11
2965.168236882703
 21
-556.2293145392545
 31
0.0
  0
LINE
  5
5617
330
1F
100
AcDbEntity
  8
太線
100
AcDbLine
 10
2958.063787738996
 20
-549.1248653955485
 30
0.0
 11
2919.268980568521
 21
-581.0407363437279
 31
0.0
  0
LINE
  5
5618
330
1F
100
AcDbEntity
  8
太線
100
AcDbLine
 10
2940.582327999639
 20
-602.354083774846
 30
0.0
 11
2979.377135170114
 21
-570.4382128266665
 31
0.0
  0
LINE
  5
5619
330
1F
100
AcDbEntity
  8
太線
100
AcDbLine
 10
2933.477878855933
 20
-595.24963463114
 30
0.0
 11
2972.272686026409
 21
-563.3337636829605
 31
0.0
  0
LINE
  5
561A
330
1F
100
AcDbEntity
  8
太線
100
AcDbLine
 10
2968.345612284074
 20
-644.2595036830116
 30
0.0
 11
2929.5508051136
 21
-676.1753746311906
 31
0.0
  0
LINE
  5
561B
330
1F
100
AcDbEntity
  8
太線
100
AcDbLine
 10
2961.241163140368
 20
-637.1550545393056
 30
0.0
 11
2922.446355969894
 21
-669.0709254874846
 31
0.0
  0
LINE
  5
561C
330
1F
100
AcDbEntity
  8
太線
100
AcDbLine
 10
2954.136713996662
 20
-630.0506053955996
 30
0.0
 11
2915.341906826188
 21
-661.9664763437786
 31
0.0
  0
LINE
  5
561D
330
1F
100
AcDbEntity
  8
太線
100
AcDbLine
 10
2907.843509440292
 20
-678.6089072562349
 30
0.0
 11
2918.625804116777
 21
-689.3912019327205
 31
0.0
  0
LINE
  5
562C
330
1F
100
AcDbEntity
  8
太線
100
AcDbLine
 10
2975.45006142778
 20
-651.3639528267177
 30
0.0
 11
2936.655254257306
 21
-683.2798237748966
 31
0.0
  0
LINE
  5
567B
330
1F
100
AcDbEntity
  8
太線
100
AcDbLine
 10
2782.934687600878
 20
-537.2310247594227
 30
0.0
 11
2818.456933319408
 21
-572.7532704779528
 31
0.0
  0
LINE
  5
567C
330
1F
100
AcDbEntity
  8
太線
100
AcDbLine
 10
2790.693649034973
 20
-530.8478505697872
 30
0.0
 11
2826.215894753503
 21
-566.3700962883167
 31
0.0
  0
LINE
  5
567D
330
1F
100
AcDbEntity
  8
太線
100
AcDbLine
 10
2798.452610469068
 20
-524.4646763801511
 30
0.0
 11
2833.974856187598
 21
-559.9869220986811
 31
0.0
  0
LINE
  5
567E
330
1F
100
AcDbEntity
  8
太線
100
AcDbLine
 10
2807.520514488976
 20
-606.0687589421918
 30
0.0
 11
2843.042760207506
 21
-641.5910046607214
 31
0.0
  0
LINE
  5
567F
330
1F
100
AcDbEntity
  8
太線
100
AcDbLine
 10
2799.761553054882
 20
-612.4519331318274
 30
0.0
 11
2835.283798773411
 21
-647.9741788503575
 31
0.0
  0
LINE
  5
5680
330
1F
100
AcDbEntity
  8
太線
100
AcDbLine
 10
2810.804423569212
 20
-637.6369392698893
 30
0.0
 11
2792.002591620787
 21
-618.8351073214635
 31
0.0
  0
LINE
  5
5682
330
1F
100
AcDbEntity
  8
太線
100
AcDbLine
 10
2777.139181042986
 20
-618.1138323673931
 30
0.0
 11
2815.933988213461
 21
-586.1979614192136
 31
0.0
  0
LINE
  5
5699
330
1F
100
AcDbEntity
  8
太線
100
AcDbLine
 10
2716.376596145968
 20
-527.2414757994369
 30
0.0
 11
2751.898841864497
 21
-562.7637215179666
 31
0.0
  0
LINE
  5
569A
330
1F
100
AcDbEntity
  8
太線
100
AcDbLine
 10
2726.099012456266
 20
-595.357935028135
 30
0.0
 11
2729.21517958615
 21
-598.4741021580195
 31
0.0
  0
LINE
  5
569B
330
1F
100
AcDbEntity
  8
太線
100
AcDbLine
 10
2756.411594247171
 20
-611.5283811953096
 30
0.0
 11
2733.857973890361
 21
-588.9747608384992
 31
0.0
  0
LINE
  5
569C
330
1F
100
AcDbEntity
  8
太線
100
AcDbLine
 10
2780.411742494931
 20
-550.6757157006838
 30
0.0
 11
2741.616935324456
 21
-582.5915866488635
 31
0.0
  0
LINE
  5
569D
330
1F
100
AcDbEntity
  8
太線
100
AcDbLine
 10
2721.517508418507
 20
-574.8087949431683
 30
0.0
 11
2706.187295143131
 21
-587.4207176253703
 31
0.0
  0
LINE
  5
569E
330
1F
100
AcDbEntity
  8
太線
100
AcDbLine
 10
2716.127668637263
 20
-592.1920969025533
 30
0.0
 11
2728.621957562213
 21
-581.9132440868741
 31
0.0
  0
LINE
  5
569F
330
1F
100
AcDbEntity
  8
太線
100
AcDbLine
 10
2700.858673277778
 20
-540.0078241787086
 30
0.0
 11
2736.380918996307
 21
-575.5300698972383
 31
0.0
  0
LINE
  5
56A0
330
1F
100
AcDbEntity
  8
太線
100
AcDbLine
 10
2744.139880430402
 20
-569.1468957076026
 30
0.0
 11
2708.617634711873
 21
-533.6246499890726
 31
0.0
  0
LINE
  5
56A1
330
1F
100
AcDbEntity
  8
太線
100
AcDbLine
 10
2762.930282755574
 20
-603.9049340799813
 30
0.0
 11
2801.725089926049
 21
-571.9890631318016
 31
0.0
  0
LINE
  5
56A2
330
1F
100
AcDbEntity
  8
太線
100
AcDbLine
 10
2755.825833611868
 20
-596.8004849362753
 30
0.0
 11
2794.620640782343
 21
-564.8846139880959
 31
0.0
  0
LINE
  5
56A3
330
1F
100
AcDbEntity
  8
太線
100
AcDbLine
 10
2748.721384468161
 20
-589.6960357925693
 30
0.0
 11
2787.516191638637
 21
-557.7801648443899
 31
0.0
  0
LINE
  5
56A4
330
1F
100
AcDbEntity
  8
太線
100
AcDbLine
 10
2770.03473189928
 20
-611.0093832236873
 30
0.0
 11
2808.829539069755
 21
-579.0935122755077
 31
0.0
  0
LINE
  5
56A5
330
1F
100
AcDbEntity
  8
太線
100
AcDbLine
 10
2895.992096266237
 20
-600.1902589126355
 30
0.0
 11
2931.514341984767
 21
-635.7125046311653
 31
0.0
  0
LINE
  5
56A6
330
1F
100
AcDbEntity
  8
太線
100
AcDbLine
 10
2888.233134832141
 20
-606.5734331022713
 30
0.0
 11
2923.755380550671
 21
-642.0956788208011
 31
0.0
  0
LINE
  5
56A7
330
1F
100
AcDbEntity
  8
太線
100
AcDbLine
 10
2815.279475923072
 20
-599.6855847525555
 30
0.0
 11
2850.801721641602
 21
-635.2078304710853
 31
0.0
  0
LINE
  5
56A8
330
1F
100
AcDbEntity
  8
太線
100
AcDbLine
 10
2880.474173398047
 20
-612.9566072919069
 30
0.0
 11
2915.996419116577
 21
-648.478853010437
 31
0.0
  0
LINE
  5
56A9
330
1F
100
AcDbEntity
  8
太線
100
AcDbLine
 10
2872.715211963951
 20
-619.339781481543
 30
0.0
 11
2908.237457682481
 21
-654.8620272000725
 31
0.0
  0
LINE
  5
56AB
330
1F
100
AcDbEntity
  8
太線
100
AcDbLine
 10
2883.658731075633
 20
-672.6070068729714
 30
0.0
 11
2893.63461115288
 21
-664.4000089688229
 31
0.0
  0
LINE
  5
56AC
330
1F
100
AcDbEntity
  8
太線
100
AcDbLine
 10
2873.7183575815
 20
-667.8356275957879
 30
0.0
 11
2886.530162009174
 21
-657.2955598251169
 31
0.0
  0
LINE
  5
56AD
330
1F
100
AcDbEntity
  8
太線
100
AcDbLine
 10
2863.777984087369
 20
-663.0642483186047
 30
0.0
 11
2879.425712865468
 21
-650.1911106814111
 31
0.0
  0
LINE
  5
56AE
330
1F
100
AcDbEntity
  8
太線
100
AcDbLine
 10
2893.599104569765
 20
-677.3783861501547
 30
0.0
 11
2900.739060296587
 21
-671.5044581125289
 31
0.0
  0
LINE
  5
56B0
330
1F
100
AcDbEntity
  8
太線
100
AcDbLine
 10
2853.837610593238
 20
-658.2928690414214
 30
0.0
 11
2872.321263721762
 21
-643.0866615377051
 31
0.0
  0
LINE
  5
56B1
330
1F
100
AcDbEntity
  8
太線
100
AcDbLine
 10
2865.216814578056
 20
-635.9822123939991
 30
0.0
 11
2843.897237099106
 21
-653.5214897642381
 31
0.0
  0
LINE
  5
56B5
330
1F
100
AcDbEntity
  8
太線
100
AcDbLine
 10
2885.669537064707
 20
-569.2551961045974
 30
0.0
 11
2846.874729894232
 21
-601.1710670527763
 31
0.0
  0
LINE
  5
56B6
330
1F
100
AcDbEntity
  8
太線
100
AcDbLine
 10
2892.773986208412
 20
-576.3596452483034
 30
0.0
 11
2853.979179037938
 21
-608.2755161964824
 31
0.0
  0
LINE
  5
56B7
330
1F
100
AcDbEntity
  8
太線
100
AcDbLine
 10
2861.083628181643
 20
-615.3799653401883
 30
0.0
 11
2899.878435352118
 21
-583.4640943920094
 31
0.0
  0
LINE
  5
56B8
330
1F
100
AcDbEntity
  8
太線
100
AcDbLine
 10
2872.115151067683
 20
-541.5586744838438
 30
0.0
 11
2907.637396786213
 21
-577.0809202023736
 31
0.0
  0
LINE
  5
56B9
330
1F
100
AcDbEntity
  8
太線
100
AcDbLine
 10
2878.565087921
 20
-562.1507469608913
 30
0.0
 11
2839.770280750526
 21
-594.0666179090706
 31
0.0
  0
LINE
  5
56BA
330
1F
100
AcDbEntity
  8
太線
100
AcDbLine
 10
2864.356189633588
 20
-547.9418486734796
 30
0.0
 11
2825.561382463114
 21
-579.8577196216588
 31
0.0
  0
LINE
  5
56BB
330
1F
100
AcDbEntity
  8
太線
100
AcDbLine
 10
2871.460638777294
 20
-555.0462978171856
 30
0.0
 11
2832.66583160682
 21
-586.9621687653646
 31
0.0
  0
LINE
  5
56BC
330
1F
100
AcDbEntity
  8
太線
100
AcDbLine
 10
2823.038437357167
 20
-593.3024105629197
 30
0.0
 11
2858.560683075697
 21
-628.8246562814495
 31
0.0
  0
LINE
  5
56BD
330
1F
100
AcDbEntity
  8
太線
100
AcDbLine
 10
2903.751057700331
 20
-593.8070847229997
 30
0.0
 11
2939.273303418861
 21
-629.3293304415294
 31
0.0
  0
LINE
  5
56BE
330
1F
100
AcDbEntity
  8
太線
100
AcDbLine
 10
2895.392035369968
 20
-522.4091519149364
 30
0.0
 11
2930.914281088498
 21
-557.9313976334661
 31
0.0
  0
LINE
  5
56BF
330
1F
100
AcDbEntity
  8
太線
100
AcDbLine
 10
2887.633073935873
 20
-528.7923261045721
 30
0.0
 11
2923.155319654403
 21
-564.3145718231021
 31
0.0
  0
LINE
  5
56C0
330
1F
100
AcDbEntity
  8
太線
100
AcDbLine
 10
2915.396358220308
 20
-570.6977460127377
 30
0.0
 11
2879.874112501779
 21
-535.1755002942081
 31
0.0
  0
LINE
  5
56C1
330
1F
100
AcDbEntity
  8
太線
100
AcDbLine
 10
3105.292230832085
 20
-768.6504342559349
 30
0.0
 11
3130.700894193907
 21
-747.7471309540743
 31
0.0
  0
LINE
  5
56C2
330
1F
100
AcDbEntity
  8
太線
100
AcDbLine
 10
3129.878139715149
 20
-722.5256650203434
 30
0.0
 11
3091.083332544673
 21
-754.4415359685231
 31
0.0
  0
LINE
  5
56C3
330
1F
100
AcDbEntity
  8
太線
100
AcDbLine
 10
3098.187781688379
 20
-761.5459851122288
 30
0.0
 11
3130.700894193907
 21
-734.7979644740497
 31
0.0
  0
LINE
  5
56C4
330
1F
100
AcDbEntity
  8
太線
100
AcDbLine
 10
3060.255133510905
 20
-736.6704495200329
 30
0.0
 11
3044.362692241381
 21
-749.74490823253
 31
0.0
  0
LINE
  5
56C5
330
1F
100
AcDbEntity
  8
太線
100
AcDbLine
 10
3053.150684367199
 20
-729.5660003763268
 30
0.0
 11
3034.422318747249
 21
-744.9735289553467
 31
0.0
  0
LINE
  5
56C6
330
1F
100
AcDbEntity
  8
太線
100
AcDbLine
 10
3038.941786079787
 20
-715.3571020889148
 30
0.0
 11
3014.541571758985
 21
-735.4307704009802
 31
0.0
  0
LINE
  5
56C7
330
1F
100
AcDbEntity
  8
太線
100
AcDbLine
 10
3046.046235223494
 20
-722.4615512326209
 30
0.0
 11
3024.481945253117
 21
-740.2021496781633
 31
0.0
  0
LINE
  5
56C8
330
1F
100
AcDbEntity
  8
太線
100
AcDbLine
 10
3046.700747513882
 20
-708.9739278992793
 30
0.0
 11
3082.222993232412
 21
-744.4961736178088
 31
0.0
  0
LINE
  5
56EF
330
1F
100
AcDbEntity
  8
太線
100
AcDbLine
 10
3064.243439229644
 20
-759.2876667868968
 30
0.0
 11
3074.464031798317
 21
-750.8793478074446
 31
0.0
  0
LINE
  5
56F0
330
1F
100
AcDbEntity
  8
太線
100
AcDbLine
 10
3067.359582654611
 20
-743.7748986637388
 30
0.0
 11
3054.303065735513
 21
-754.5162875097133
 31
0.0
  0
LINE
  5
5702
330
1F
100
AcDbEntity
  8
太線
100
AcDbLine
 10
3112.396679975791
 20
-775.7548833996409
 30
0.0
 11
3130.700894193907
 21
-760.6962974340985
 31
0.0
  0
LINE
  5
5703
330
1F
100
AcDbEntity
  8
太線
100
AcDbLine
 10
3119.501129119497
 20
-782.8593325433469
 30
0.0
 11
3130.700894193907
 21
-773.6454639141237
 31
0.0
  0
LINE
  5
570A
330
1F
100
AcDbEntity
  8
太線
100
AcDbLine
 10
3097.981686363629
 20
-775.4820254112092
 30
0.0
 11
3083.324371110578
 21
-760.8247101581587
 31
0.0
  0
LINE
  5
570F
330
1F
100
AcDbEntity
  8
太線
100
AcDbLine
 10
3038.735673425709
 20
-613.829115035053
 30
0.0
 11
3077.530480596184
 21
-581.9132440868741
 31
0.0
  0
LINE
  5
5710
330
1F
100
AcDbEntity
  8
太線
100
AcDbLine
 10
3049.767196311749
 20
-540.0078241787086
 30
0.0
 11
3085.289442030278
 21
-575.5300698972383
 31
0.0
  0
LINE
  5
5711
330
1F
100
AcDbEntity
  8
太線
100
AcDbLine
 10
3093.048403464373
 20
-569.1468957076026
 30
0.0
 11
3057.526157745844
 21
-533.6246499890726
 31
0.0
  0
LINE
  5
5712
330
1F
100
AcDbEntity
  8
太線
100
AcDbLine
 10
3065.285119179939
 20
-527.2414757994369
 30
0.0
 11
3100.807364898468
 21
-562.7637215179666
 31
0.0
  0
LINE
  5
5713
330
1F
100
AcDbEntity
  8
太線
100
AcDbLine
 10
3043.971689753857
 20
-620.8906317866781
 30
0.0
 11
3079.493935472387
 21
-656.4128775052081
 31
0.0
  0
LINE
  5
5714
330
1F
100
AcDbEntity
  8
太線
100
AcDbLine
 10
3051.730651187952
 20
-614.5074575970425
 30
0.0
 11
3087.252896906482
 21
-650.029703315572
 31
0.0
  0
LINE
  5
5715
330
1F
100
AcDbEntity
  8
太線
100
AcDbLine
 10
3059.489612622047
 20
-608.1242834074064
 30
0.0
 11
3095.011858340577
 21
-643.6465291259365
 31
0.0
  0
LINE
  5
5716
330
1F
100
AcDbEntity
  8
太線
100
AcDbLine
 10
3067.248574056142
 20
-601.7411092177708
 30
0.0
 11
3102.770819774672
 21
-637.2633549363006
 31
0.0
  0
LINE
  5
5717
330
1F
100
AcDbEntity
  8
太線
100
AcDbLine
 10
3075.007535490237
 20
-595.357935028135
 30
0.0
 11
3110.529781208767
 21
-630.8801807466648
 31
0.0
  0
LINE
  5
5718
330
1F
100
AcDbEntity
  8
太線
100
AcDbLine
 10
3069.977631816167
 20
-689.8244053303717
 30
0.0
 11
3105.499877534697
 21
-725.3466510489015
 31
0.0
  0
LINE
  5
5719
330
1F
100
AcDbEntity
  8
太線
100
AcDbLine
 10
3062.218670382073
 20
-696.2075795200076
 30
0.0
 11
3097.740916100602
 21
-731.7298252385371
 31
0.0
  0
LINE
  5
571A
330
1F
100
AcDbEntity
  8
太線
100
AcDbLine
 10
3089.981954666507
 20
-738.1129994281732
 30
0.0
 11
3054.459708947977
 21
-702.5907537096432
 31
0.0
  0
LINE
  5
571B
330
1F
100
AcDbEntity
  8
太線
100
AcDbLine
 10
3039.596298370176
 20
-701.8694787555732
 30
0.0
 11
3078.391105540652
 21
-669.9536078073935
 31
0.0
  0
LINE
  5
571C
330
1F
100
AcDbEntity
  8
太線
100
AcDbLine
 10
2961.895675430757
 20
-623.667431205964
 30
0.0
 11
2997.417921149287
 21
-659.1896769244936
 31
0.0
  0
LINE
  5
571D
330
1F
100
AcDbEntity
  8
太線
100
AcDbLine
 10
3005.176882583382
 20
-652.806502734858
 30
0.0
 11
2969.654636864852
 21
-617.2842570163279
 31
0.0
  0
LINE
  5
571E
330
1F
100
AcDbEntity
  8
太線
100
AcDbLine
 10
2977.413598298947
 20
-610.9010828266923
 30
0.0
 11
3012.935844017476
 21
-646.4233285452219
 31
0.0
  0
LINE
  5
571F
330
1F
100
AcDbEntity
  8
太線
100
AcDbLine
 10
2985.172559733042
 20
-604.5179086370565
 30
0.0
 11
3020.694805451572
 21
-640.0401543555862
 31
0.0
  0
LINE
  5
5720
330
1F
100
AcDbEntity
  8
太線
100
AcDbLine
 10
2992.931521167138
 20
-598.1347344474202
 30
0.0
 11
3028.453766885667
 21
-633.6569801659497
 31
0.0
  0
LINE
  5
5721
330
1F
100
AcDbEntity
  8
太線
100
AcDbLine
 10
3042.868859822122
 20
-634.4313620888637
 30
0.0
 11
3004.074052651646
 21
-666.3472330370431
 31
0.0
  0
LINE
  5
5722
330
1F
100
AcDbEntity
  8
太線
100
AcDbLine
 10
2980.797168349361
 20
-685.4967556059507
 30
0.0
 11
3016.319414067892
 21
-721.0190013244805
 31
0.0
  0
LINE
  5
5723
330
1F
100
AcDbEntity
  8
太線
100
AcDbLine
 10
2988.556129783457
 20
-679.1135814163149
 30
0.0
 11
3024.078375501986
 21
-714.6358271348447
 31
0.0
  0
LINE
  5
5724
330
1F
100
AcDbEntity
  8
太線
100
AcDbLine
 10
3031.837336936082
 20
-708.2526529452088
 30
0.0
 11
2996.315091217552
 21
-672.730407226679
 31
0.0
  0
LINE
  5
5725
330
1F
100
AcDbEntity
  8
太線
100
AcDbLine
 10
2982.554510571486
 20
-658.4684019704236
 30
0.0
 11
2943.759703401011
 21
-690.3842729186026
 31
0.0
  0
LINE
  5
5726
330
1F
100
AcDbEntity
  8
太線
100
AcDbLine
 10
2950.864152544717
 20
-697.4887220623084
 30
0.0
 11
2989.658959715192
 21
-665.5728511141294
 31
0.0
  0
LINE
  5
5727
330
1F
100
AcDbEntity
  8
太線
100
AcDbLine
 10
2973.038206915267
 20
-691.8799297955866
 30
0.0
 11
3008.560452633797
 21
-727.4021755141164
 31
0.0
  0
LINE
  5
5728
330
1F
100
AcDbEntity
  8
太線
100
AcDbLine
 10
2957.520284047077
 20
-704.6462781748582
 30
0.0
 11
2964.08619582478
 21
-711.2121899525618
 31
0.0
  0
LINE
  5
5729
330
1F
100
AcDbEntity
  8
太線
100
AcDbLine
 10
2965.279245481172
 20
-698.2631039852222
 30
0.0
 11
2991.2826104858
 21
-724.266468989852
 31
0.0
  0
LINE
  5
572A
330
1F
100
AcDbEntity
  8
太線
100
AcDbLine
 10
3032.49184922647
 20
-694.7650296118673
 30
0.0
 11
3071.286656396946
 21
-662.8491586636878
 31
0.0
  0
LINE
  5
572B
330
1F
100
AcDbEntity
  8
太線
100
AcDbLine
 10
3011.178501795352
 20
-673.4516821807492
 30
0.0
 11
3049.973308965828
 21
-641.5358112325698
 31
0.0
  0
LINE
  5
572C
330
1F
100
AcDbEntity
  8
太線
100
AcDbLine
 10
3018.282950939058
 20
-680.5561313244552
 30
0.0
 11
3057.077758109534
 21
-648.6402603762758
 31
0.0
  0
LINE
  5
572D
330
1F
100
AcDbEntity
  8
太線
100
AcDbLine
 10
3025.387400082764
 20
-687.6605804681612
 30
0.0
 11
3064.18220725324
 21
-655.7447095199818
 31
0.0
  0
LINE
  5
572E
330
1F
100
AcDbEntity
  8
太線
100
AcDbLine
 10
2976.104655713133
 20
-522.9138260750159
 30
0.0
 11
3011.626901431663
 21
-558.4360717935457
 31
0.0
  0
LINE
  5
572F
330
1F
100
AcDbEntity
  8
太線
100
AcDbLine
 10
3000.690482601232
 20
-591.7515602577843
 30
0.0
 11
3036.212728319762
 21
-627.2738059763142
 31
0.0
  0
LINE
  5
5730
330
1F
100
AcDbEntity
  8
太線
100
AcDbLine
 10
3042.008234877654
 20
-546.3909983683443
 30
0.0
 11
3003.21342770718
 21
-578.3068693165232
 31
0.0
  0
LINE
  5
5731
330
1F
100
AcDbEntity
  8
太線
100
AcDbLine
 10
2954.791226287051
 20
-616.562982062258
 30
0.0
 11
2993.586033457527
 21
-584.6471111140783
 31
0.0
  0
LINE
  5
5732
330
1F
100
AcDbEntity
  8
太線
100
AcDbLine
 10
2947.686777143345
 20
-609.458532918552
 30
0.0
 11
2986.481584313821
 21
-577.5426619703726
 31
0.0
  0
LINE
  5
5733
330
1F
100
AcDbEntity
  8
太線
100
AcDbLine
 10
2968.345694279038
 20
-529.2970002646516
 30
0.0
 11
3003.867939997568
 21
-564.8192459831816
 31
0.0
  0
LINE
  5
5734
330
1F
100
AcDbEntity
  8
太線
100
AcDbLine
 10
2960.586732844943
 20
-535.6801744542877
 30
0.0
 11
2996.108978563473
 21
-571.2024201728172
 31
0.0
  0
LINE
  5
5735
330
1F
100
AcDbEntity
  8
太線
100
AcDbLine
 10
3070.426031452478
 20
-574.8087949431683
 30
0.0
 11
3031.631224282003
 21
-606.7246658913473
 31
0.0
  0
LINE
  5
5736
330
1F
100
AcDbEntity
  8
太線
100
AcDbLine
 10
3063.321582308772
 20
-567.7043457994622
 30
0.0
 11
3024.526775138297
 21
-599.6202167476412
 31
0.0
  0
LINE
  5
5737
330
1F
100
AcDbEntity
  8
太線
100
AcDbLine
 10
3056.217133165066
 20
-560.5998966557563
 30
0.0
 11
3017.422325994591
 21
-592.5157676039352
 31
0.0
  0
LINE
  5
5738
330
1F
100
AcDbEntity
  8
太線
100
AcDbLine
 10
3049.11268402136
 20
-553.4954475120502
 30
0.0
 11
3010.317876850885
 21
-585.4113184602292
 31
0.0
  0
LINE
  5
573C
330
1F
100
AcDbEntity
  8
太線
100
AcDbLine
 10
3125.393191786568
 20
-631.6014557007349
 30
0.0
 11
3086.598384616093
 21
-663.5173266489141
 31
0.0
  0
LINE
  5
5741
330
1F
100
AcDbEntity
  8
太線
100
AcDbLine
 10
3130.700894193907
 20
-666.0823927728205
 30
0.0
 11
3107.911732047211
 21
-684.8306740800317
 31
0.0
  0
LINE
  5
5742
330
1F
100
AcDbEntity
  8
太線
100
AcDbLine
 10
3130.700894193907
 20
-679.031559252845
 30
0.0
 11
3115.016181190917
 21
-691.9351232237377
 31
0.0
  0
LINE
  5
5743
330
1F
100
AcDbEntity
  8
太線
100
AcDbLine
 10
3122.120630334623
 20
-699.0395723674437
 30
0.0
 11
3130.700894193907
 21
-691.9807257328698
 31
0.0
  0
LINE
  5
5744
330
1F
100
AcDbEntity
  8
太線
100
AcDbLine
 10
3077.736593250262
 20
-683.4412311407354
 30
0.0
 11
3113.258838968793
 21
-718.963476859265
 31
0.0
  0
LINE
  5
5745
330
1F
100
AcDbEntity
  8
太線
100
AcDbLine
 10
3085.495554684357
 20
-677.0580569510996
 30
0.0
 11
3121.017800402887
 21
-712.5803026696294
 31
0.0
  0
LINE
  5
5746
330
1F
100
AcDbEntity
  8
太線
100
AcDbLine
 10
3130.700894193907
 20
-640.1840598127709
 30
0.0
 11
3093.702833759799
 21
-670.6217757926199
 31
0.0
  0
LINE
  5
5747
330
1F
100
AcDbEntity
  8
太線
100
AcDbLine
 10
3130.700894193907
 20
-653.1332262927957
 30
0.0
 11
3100.807282903505
 21
-677.7262249363259
 31
0.0
  0
LINE
  5
574C
330
1F
100
AcDbEntity
  8
太線
100
AcDbLine
 10
3111.838805789545
 20
-603.9049340799813
 30
0.0
 11
3130.700894193907
 21
-588.3873938926718
 31
0.0
  0
LINE
  5
574D
330
1F
100
AcDbEntity
  8
太線
100
AcDbLine
 10
3118.943254933251
 20
-611.0093832236873
 30
0.0
 11
3130.700894193907
 21
-601.3365603726963
 31
0.0
  0
LINE
  5
574E
330
1F
100
AcDbEntity
  8
太線
100
AcDbLine
 10
3126.047704076956
 20
-618.1138323673931
 30
0.0
 11
3130.700894193907
 21
-614.2857268527211
 31
0.0
  0
LINE
  5
5751
330
1F
100
AcDbEntity
  8
太線
100
AcDbLine
 10
3104.734356645839
 20
-596.8004849362753
 30
0.0
 11
3130.700894193907
 21
-575.4382274126469
 31
0.0
  0
LINE
  5
5752
330
1F
100
AcDbEntity
  8
太線
100
AcDbLine
 10
3129.320265528902
 20
-550.6757157006838
 30
0.0
 11
3090.525458358427
 21
-582.5915866488635
 31
0.0
  0
LINE
  5
5753
330
1F
100
AcDbEntity
  8
太線
100
AcDbLine
 10
3097.629907502133
 20
-589.6960357925693
 30
0.0
 11
3130.700894193907
 21
-562.4890609326217
 31
0.0
  0
LINE
  5
5754
330
1F
100
AcDbEntity
  8
太線
100
AcDbLine
 10
3118.288742642862
 20
-624.4970065570291
 30
0.0
 11
3082.766496924332
 21
-588.9747608384992
 31
0.0
  0
LINE
  5
5756
330
1F
100
AcDbEntity
  8
太線
100
AcDbLine
 10
2968.6207609951
 20
-490.5389246369478
 30
0.0
 11
2939.721703055172
 21
-514.313720054326
 31
0.0
  0
LINE
  5
5757
330
1F
100
AcDbEntity
  8
太線
100
AcDbLine
 10
2921.628809015922
 20
-490.350956829031
 30
0.0
 11
2918.408355624054
 21
-493.0003726232079
 31
0.0
  0
LINE
  5
5758
330
1F
100
AcDbEntity
  8
太線
100
AcDbLine
 10
2937.292793008982
 20
-490.4136127650033
 30
0.0
 11
2925.51280476776
 21
-500.104821766914
 31
0.0
  0
LINE
  5
5759
330
1F
100
AcDbEntity
  8
太線
100
AcDbLine
 10
2952.956777002041
 20
-490.4762687009754
 30
0.0
 11
2932.617253911466
 21
-507.20927091062
 31
0.0
  0
LINE
  5
5768
330
1F
100
AcDbEntity
  8
太線
100
AcDbLine
 10
2746.712341353787
 20
-489.6512909583825
 30
0.0
 11
2740.756310379989
 21
-494.5512229283435
 31
0.0
  0
LINE
  5
576F
330
1F
100
AcDbEntity
  8
太線
100
AcDbLine
 10
2679.54532584666
 20
-518.6944767475906
 30
0.0
 11
2715.0024659059
 21
-489.5244514565909
 31
0.0
  0
LINE
  5
5770
330
1F
100
AcDbEntity
  8
太線
100
AcDbLine
 10
2778.040309339904
 20
-489.7766028303269
 30
0.0
 11
2754.965208667401
 21
-508.7601212157554
 31
0.0
  0
LINE
  5
5771
330
1F
100
AcDbEntity
  8
太線
100
AcDbLine
 10
2793.704293332963
 20
-489.8392587662991
 30
0.0
 11
2762.069657811107
 21
-515.8645703594611
 31
0.0
  0
LINE
  5
5772
330
1F
100
AcDbEntity
  8
太線
100
AcDbLine
 10
2762.376325346846
 20
-489.7139468943547
 30
0.0
 11
2747.860759523695
 21
-501.6556720720493
 31
0.0
  0
LINE
  5
5773
330
1F
100
AcDbEntity
  8
太線
100
AcDbLine
 10
2843.69735449286
 20
-513.1408779090199
 30
0.0
 11
2871.642305836488
 21
-490.1510108163133
 31
0.0
  0
LINE
  5
5774
330
1F
100
AcDbEntity
  8
太線
100
AcDbLine
 10
2850.801803636565
 20
-520.245327052726
 30
0.0
 11
2887.306289829547
 21
-490.2136667522854
 31
0.0
  0
LINE
  5
5777
330
1F
100
AcDbEntity
  8
太線
100
AcDbLine
 10
2840.314337850371
 20
-490.0256989443687
 30
0.0
 11
2829.488456205448
 21
-498.9319796216082
 31
0.0
  0
LINE
  5
5778
330
1F
100
AcDbEntity
  8
太線
100
AcDbLine
 10
2836.592905349153
 20
-506.036428765314
 30
0.0
 11
2855.97832184343
 21
-490.0883548803411
 31
0.0
  0
LINE
  5
5784
330
1F
100
AcDbEntity
  8
太線
100
AcDbLine
 10
3015.230805512507
 20
-490.7253648150174
 30
0.0
 11
3007.140501449513
 21
-497.3811293164726
 31
0.0
  0
LINE
  5
578C
330
1F
100
AcDbEntity
  8
太線
100
AcDbLine
 10
3014.244950593219
 20
-504.4855784601786
 30
0.0
 11
3030.894789505566
 21
-490.7880207509896
 31
0.0
  0
LINE
  5
578D
330
1F
100
AcDbEntity
  8
太線
100
AcDbLine
 10
3028.453848880631
 20
-518.6944767475906
 30
0.0
 11
3062.222757491685
 21
-490.9133326229341
 31
0.0
  0
LINE
  5
578E
330
1F
100
AcDbEntity
  8
太線
100
AcDbLine
 10
3021.349399736925
 20
-511.5900276038846
 30
0.0
 11
3046.558773498625
 21
-490.8506766869619
 31
0.0
  0
LINE
  5
5795
330
1F
100
AcDbEntity
  8
太線
100
AcDbLine
 10
3125.260600925688
 20
-491.1654839966701
 30
0.0
 11
3103.873731701372
 21
-508.7601212157554
 31
0.0
  0
LINE
  5
5796
330
1F
100
AcDbEntity
  8
太線
100
AcDbLine
 10
3130.700894193907
 20
-499.6390077159063
 30
0.0
 11
3110.978180845078
 21
-515.8645703594611
 31
0.0
  0
LINE
  5
5798
330
1F
100
AcDbEntity
  8
太線
100
AcDbLine
 10
3093.932632939571
 20
-491.0401721247256
 30
0.0
 11
3089.66483341396
 21
-494.5512229283435
 31
0.0
  0
LINE
  5
5799
330
1F
100
AcDbEntity
  8
太線
100
AcDbLine
 10
3109.59661693263
 20
-491.1028280606979
 30
0.0
 11
3096.769282557666
 21
-501.6556720720493
 31
0.0
  0
LINE
  5
57B7
330
1F
100
AcDbEntity
  8
太線
100
AcDbLine
 10
2627.303787523088
 20
-510.1918104924007
 30
0.0
 11
2630.700894193907
 21
-495.4773249053787
 31
0.0
  0
LINE
  5
57B8
330
1F
100
AcDbEntity
  8
太線
100
AcDbLine
 10
2622.244811981181
 20
-532.1046410007657
 30
0.0
 11
2627.303787523088
 21
-510.1918104924007
 31
0.0
  0
VIEWPORT
  5
2E
330
1B
100
AcDbEntity
 67
     1
  8
0
100
AcDbViewport
 10
263.8576188997989
 20
221.4989048780807
 30
0.0
 40
909.0374346629113
 41
461.7028909457568
 68
     2
 69
     1
 12
263.8576188997989
 22
221.4989048780807
 13
0.0
 23
0.0
 14
10.0
 24
10.0
 15
10.0
 25
10.0
 16
0.0
 26
0.0
 36
1.0
 17
0.0
 27
0.0
 37
0.0
 42
50.0
 43
0.0
 44
0.0
 45
461.7028909457568
 50
0.0
 51
0.0
 72
   100
 90
    32800
  1

281
     0
 71
     1
 74
     0
110
0.0
120
0.0
130
0.0
111
1.0
121
0.0
131
0.0
112
0.0
122
1.0
132
0.0
 79
     0
146
0.0
  0
VIEWPORT
  5
30
330
1B
100
AcDbEntity
 67
     1
  8
70-0-CON
100
AcDbViewport
 10
141.8594093064315
 20
100.3480256368386
 30
0.0
 40
261.6199023344245
 41
192.6196987113174
 68
     1
 69
     2
 12
2959.731493301249
 22
-474.0343276956137
 13
0.0
 23
0.0
 14
5.0
 24
5.0
 15
10.0
 25
10.0
 16
0.0
 26
0.0
 36
1.0
 17
0.0
 27
0.0
 37
0.0
 42
50.0
 43
0.0
 44
0.0
 45
1200.46283832387
 50
0.0
 51
0.0
 72
   100
 90
    32864
  1

281
     0
 71
     1
 74
     0
110
0.0
120
0.0
130
0.0
111
1.0
121
0.0
131
0.0
112
0.0
122
1.0
132
0.0
 79
     0
146
0.0
  0
LWPOLYLINE
  5
45
330
1B
100
AcDbEntity
 67
     1
  8
50-0-CON
100
AcDbPolyline
 90
        4
 70
     1
 43
0.0
 10
11.04945813921926
 20
4.038176281179858
 10
272.2125713060605
 20
4.033520706629644
 10
273.4987754093466
 20
195.9297862125246
 10
11.04945813921926
 20
196.6578749924973
  0
LINE
  5
4A
330
1B
100
AcDbEntity
 67
     1
  8
50-0-CON
100
AcDbLine
 10
10.38768783662635
 20
100.3480256368386
 30
0.0
 11
-4.391850629656119
 21
100.3480256368386
 31
0.0
  0
LINE
  5
4B
330
1B
100
AcDbEntity
 67
     1
  8
50-0-CON
100
AcDbLine
 10
141.8594093064315
 20
197.098652626247
 30
0.0
 11
141.8594093064315
 21
202.387980773708
 31
0.0
  0
LINE
  5
4C
330
1B
100
AcDbEntity
 67
     1
  8
50-0-CON
100
AcDbLine
 10
272.4487699456857
 20
100.7888032705883
 30
0.0
 11
278.8458837249377
 21
100.7888032705883
 31
0.0
  0
LINE
  5
4D
330
1B
100
AcDbEntity
 67
     1
  8
50-0-CON
100
AcDbLine
 10
140.9770484758805
 20
4.038176281179858
 30
0.0
 11
140.9770484758805
 21
-3.455038652015446
 31
0.0
  0
ENDSEC
  0
SECTION
  2
OBJECTS
  0
DICTIONARY
  5
C
330
0
100
AcDbDictionary
281
     1
  3
ACAD_GROUP
350
D
  3
ACAD_LAYOUT
350
1A
  3
ACAD_MLINESTYLE
350
17
  3
ACAD_PLOTSETTINGS
350
19
  3
ACAD_PLOTSTYLENAME
350
E
  3
AcadDim
350
47A2
  3
AcDbVariableDictionary
350
6AD
  3
DWGPROPS
350
30F
  0
DICTIONARY
  5
D
102
{ACAD_REACTORS
330
C
102
}
330
C
100
AcDbDictionary
281
     1
  0
DICTIONARY
  5
1A
102
{ACAD_REACTORS
330
C
102
}
330
C
100
AcDbDictionary
281
     1
  3
A4
350
1E
  3
Model
350
22
  0
DICTIONARY
  5
17
102
{ACAD_REACTORS
330
C
102
}
330
C
100
AcDbDictionary
281
     1
  3
Standard
350
18
  0
DICTIONARY
  5
19
102
{ACAD_REACTORS
330
C
102
}
330
C
100
AcDbDictionary
281
     1
  0
ACDBDICTIONARYWDFLT
  5
E
102
{ACAD_REACTORS
330
C
102
}
330
C
100
AcDbDictionary
281
     1
  3
Normal
350
F
100
AcDbDictionaryWithDefault
340
F
  0
XRECORD
  5
47A2
102
{ACAD_REACTORS
330
C
102
}
330
C
100
AcDbXrecord
280
     1
 90
   990106
  3

 60
     0
 61
     0
 62
     1
 63
     3
 64
     0
 65
     0
 66
     0
 67
     3
 68
     1
 69
     0
 70
     0
 71
     0
 72
     0
 40
0.0
170
     0
340
0
  0
DICTIONARY
  5
6AD
102
{ACAD_REACTORS
330
C
102
}
330
C
100
AcDbDictionary
281
     1
  3
SORTENTS
350
6AE
  0
XRECORD
  5
30F
102
{ACAD_REACTORS
330
C
102
}
330
C
100
AcDbXrecord
280
     1
  1
DWGPROPS COOKIE
  2

  3

  4

  6

  7

  8

  9

300
=
301
=
302
=
303
=
304
=
305
=
306
=
307
=
308
=
309
=
 40
0.3303803125
 41
2452362.482225463
 42
2452370.969861285
  1

 90
        0
  0
LAYOUT
  5
1E
102
{ACAD_REACTORS
330
1A
102
}
330
1A
100
AcDbPlotSettings
  1

  2
CAD.pc3
  4
A4
  6

 40
3.174999952316284
 41
3.174999952316284
 42
3.175003051757812
 43
3.17498779296875
 44
210.0
 45
297.0
 46
0.0
 47
0.0
 48
0.0
 49
0.0
140
0.0
141
0.0
142
1.0
143
1.0
 70
   688
 72
     1
 73
     1
 74
     5
  7
aclt.ctb
 75
    16
147
1.0
148
0.0
149
0.0
100
AcDbLayout
  1
A4
 70
     1
 71
     1
 10
-3.17498779296875
 20
-3.174999952316284
 11
293.8250122070312
 21
206.8250000476837
 12
0.0
 22
0.0
 32
0.0
 14
-4.400950791736249
 24
-3.461455399935687
 34
-0.0015258207003583
 15
278.8632049462244
 25
202.4035238883311
 35
0.0000000349246037
146
0.0
 13
0.0
 23
0.0
 33
0.0
 16
1.0
 26
0.0
 36
0.0
 17
0.0
 27
1.0
 37
0.0
 76
     0
330
1B
331
30
  0
LAYOUT
  5
22
102
{ACAD_REACTORS
330
1A
102
}
330
1A
100
AcDbPlotSettings
  1

  2
EPSON PM-920C
  4
A4
  6

 40
3.757083177566528
 41
14.7637300491333
 42
3.757080078125
 43
3.757080078125
 44
209.9733276367187
 45
296.9683227539062
 46
0.0
 47
0.0
 48
0.0
 49
0.0
140
0.0
141
0.0
142
1.0
143
1.0
 70
 11952
 72
     1
 73
     1
 74
     0
  7
C:\Program Files\ACAD LT 2000\Plot Styles\ジョイント.ctb
 75
     0
147
1.0
148
-45.64199848979289
149
-84.48806419330498
100
AcDbLayout
  1
Model
 70
     1
 71
     0
 10
0.0
 20
0.0
 11
12.0
 21
9.0
 12
0.0
 22
0.0
 32
0.0
 14
0.0
 24
0.0
 34
0.0
 15
0.0
 25
0.0
 35
0.0
146
0.0
 13
0.0
 23
0.0
 33
0.0
 16
1.0
 26
0.0
 36
0.0
 17
0.0
 27
1.0
 37
0.0
 76
     0
330
1F
  0
MLINESTYLE
  5
18
102
{ACAD_REACTORS
330
17
102
}
330
17
100
AcDbMlineStyle
  2
STANDARD
 70
     0
  3

 62
   256
 51
90.0
 52
90.0
 71
     2
 49
0.5
 62
   256
  6
BYLAYER
 49
-0.5
 62
   256
  6
BYLAYER
  0
ACDBPLACEHOLDER
  5
F
102
{ACAD_REACTORS
330
E
102
}
330
E
  0
DICTIONARYVAR
  5
6AE
102
{ACAD_REACTORS
330
6AD
102
}
330
6AD
100
DictionaryVariables
280
     0
  1
96
  0
ENDSEC
  0
EOF
