  0
SECTION
  2
HEADER
  9
$ACADVER
  1
AC1015
  9
$ACADMAINTVER
 70
     6
  9
$DWGCODEPAGE
  3
ANSI_932
  9
$INSBASE
 10
0.0
 20
0.0
 30
0.0
  9
$EXTMIN
 10
11.84672392151429
 20
-6.750747223656389
 30
-0.00000001
  9
$EXTMAX
 10
324.4769407644665
 20
238.4237584006763
 30
0.00000001
  9
$LIMMIN
 10
0.0
 20
0.0
  9
$LIMMAX
 10
420.0
 20
297.0
  9
$ORTHOMODE
 70
     0
  9
$REGENMODE
 70
     1
  9
$FILLMODE
 70
     1
  9
$QTEXTMODE
 70
     0
  9
$MIRRTEXT
 70
     1
  9
$LTSCALE
 40
1.0
  9
$ATTMODE
 70
     1
  9
$TEXTSIZE
 40
5.0
  9
$TRACEWID
 40
1.0
  9
$TEXTSTYLE
  7
OKANO
  9
$CLAYER
  8
太線
  9
$CELTYPE
  6
ByLayer
  9
$CECOLOR
 62
   256
  9
$CELTSCALE
 40
1.0
  9
$DISPSILH
 70
     0
  9
$DIMSCALE
 40
0.0
  9
$DIMASZ
 40
3.0
  9
$DIMEXO
 40
2.0
  9
$DIMDLI
 40
8.0
  9
$DIMRND
 40
0.0
  9
$DIMDLE
 40
0.0
  9
$DIMEXE
 40
3.0
  9
$DIMTP
 40
0.0
  9
$DIMTM
 40
0.0
  9
$DIMTXT
 40
5.0
  9
$DIMCEN
 40
2.5
  9
$DIMTSZ
 40
0.0
  9
$DIMTOL
 70
     0
  9
$DIMLIM
 70
     0
  9
$DIMTIH
 70
     0
  9
$DIMTOH
 70
     0
  9
$DIMSE1
 70
     0
  9
$DIMSE2
 70
     0
  9
$DIMTAD
 70
     1
  9
$DIMZIN
 70
     8
  9
$DIMBLK
  1
Closed
  9
$DIMASO
 70
     1
  9
$DIMSHO
 70
     1
  9
$DIMPOST
  1

  9
$DIMAPOST
  1

  9
$DIMALT
 70
     0
  9
$DIMALTD
 70
     3
  9
$DIMALTF
 40
0.03937007874016
  9
$DIMLFAC
 40
1.0
  9
$DIMTOFL
 70
     1
  9
$DIMTVP
 40
0.0
  9
$DIMTIX
 70
     0
  9
$DIMSOXD
 70
     0
  9
$DIMSAH
 70
     0
  9
$DIMBLK1
  1

  9
$DIMBLK2
  1

  9
$DIMSTYLE
  2
sunpo
  9
$DIMCLRD
 70
     0
  9
$DIMCLRE
 70
     0
  9
$DIMCLRT
 70
     0
  9
$DIMTFAC
 40
1.0
  9
$DIMGAP
 40
1.0
  9
$DIMJUST
 70
     0
  9
$DIMSD1
 70
     0
  9
$DIMSD2
 70
     0
  9
$DIMTOLJ
 70
     0
  9
$DIMTZIN
 70
     8
  9
$DIMALTZ
 70
     0
  9
$DIMALTTZ
 70
     0
  9
$DIMUPT
 70
     0
  9
$DIMDEC
 70
     2
  9
$DIMTDEC
 70
     2
  9
$DIMALTU
 70
     2
  9
$DIMALTTD
 70
     3
  9
$DIMTXSTY
  7
OKANO
  9
$DIMAUNIT
 70
     0
  9
$DIMADEC
 70
     0
  9
$DIMALTRND
 40
0.0
  9
$DIMAZIN
 70
     0
  9
$DIMDSEP
 70
    46
  9
$DIMATFIT
 70
     3
  9
$DIMFRAC
 70
     0
  9
$DIMLDRBLK
  1
Closed
  9
$DIMLUNIT
 70
     2
  9
$DIMLWD
 70
    -2
  9
$DIMLWE
 70
    -2
  9
$DIMTMOVE
 70
     0
  9
$LUNITS
 70
     2
  9
$LUPREC
 70
     2
  9
$SKETCHINC
 40
1.0
  9
$FILLETRAD
 40
2.0
  9
$AUNITS
 70
     0
  9
$AUPREC
 70
     0
  9
$MENU
  1
.
  9
$ELEVATION
 40
0.0
  9
$PELEVATION
 40
0.0
  9
$THICKNESS
 40
0.0
  9
$LIMCHECK
 70
     0
  9
$CHAMFERA
 40
10.0
  9
$CHAMFERB
 40
10.0
  9
$CHAMFERC
 40
20.0
  9
$CHAMFERD
 40
0.0
  9
$SKPOLY
 70
     0
  9
$TDCREATE
 40
2452362.482225463
  9
$TDUCREATE
 40
2452362.107225463
  9
$TDUPDATE
 40
2455993.572110486
  9
$TDUUPDATE
 40
2455993.197110486
  9
$TDINDWG
 40
2.2779005903
  9
$TDUSRTIMER
 40
2.2779005903
  9
$USRTIMER
 70
     1
  9
$ANGBASE
 50
0.0
  9
$ANGDIR
 70
     0
  9
$PDMODE
 70
     0
  9
$PDSIZE
 40
0.0
  9
$PLINEWID
 40
0.0
  9
$SPLFRAME
 70
     0
  9
$SPLINETYPE
 70
     6
  9
$SPLINESEGS
 70
     8
  9
$HANDSEED
  5
3161
  9
$SURFTAB1
 70
     6
  9
$SURFTAB2
 70
     6
  9
$SURFTYPE
 70
     6
  9
$SURFU
 70
     6
  9
$SURFV
 70
     6
  9
$UCSBASE
  2

  9
$UCSNAME
  2

  9
$UCSORG
 10
0.0
 20
0.0
 30
0.0
  9
$UCSXDIR
 10
1.0
 20
0.0
 30
0.0
  9
$UCSYDIR
 10
0.0
 20
1.0
 30
0.0
  9
$UCSORTHOREF
  2

  9
$UCSORTHOVIEW
 70
     0
  9
$UCSORGTOP
 10
0.0
 20
0.0
 30
0.0
  9
$UCSORGBOTTOM
 10
0.0
 20
0.0
 30
0.0
  9
$UCSORGLEFT
 10
0.0
 20
0.0
 30
0.0
  9
$UCSORGRIGHT
 10
0.0
 20
0.0
 30
0.0
  9
$UCSORGFRONT
 10
0.0
 20
0.0
 30
0.0
  9
$UCSORGBACK
 10
0.0
 20
0.0
 30
0.0
  9
$PUCSBASE
  2

  9
$PUCSNAME
  2

  9
$PUCSORG
 10
0.0
 20
0.0
 30
0.0
  9
$PUCSXDIR
 10
1.0
 20
0.0
 30
0.0
  9
$PUCSYDIR
 10
0.0
 20
1.0
 30
0.0
  9
$PUCSORTHOREF
  2

  9
$PUCSORTHOVIEW
 70
     0
  9
$PUCSORGTOP
 10
0.0
 20
0.0
 30
0.0
  9
$PUCSORGBOTTOM
 10
0.0
 20
0.0
 30
0.0
  9
$PUCSORGLEFT
 10
0.0
 20
0.0
 30
0.0
  9
$PUCSORGRIGHT
 10
0.0
 20
0.0
 30
0.0
  9
$PUCSORGFRONT
 10
0.0
 20
0.0
 30
0.0
  9
$PUCSORGBACK
 10
0.0
 20
0.0
 30
0.0
  9
$USERI1
 70
     0
  9
$USERI2
 70
     0
  9
$USERI3
 70
     0
  9
$USERI4
 70
     0
  9
$USERI5
 70
     0
  9
$USERR1
 40
0.0
  9
$USERR2
 40
0.0
  9
$USERR3
 40
0.0
  9
$USERR4
 40
0.0
  9
$USERR5
 40
0.0
  9
$WORLDVIEW
 70
     1
  9
$SHADEDGE
 70
     3
  9
$SHADEDIF
 70
    70
  9
$TILEMODE
 70
     0
  9
$MAXACTVP
 70
    64
  9
$PINSBASE
 10
0.0
 20
0.0
 30
0.0
  9
$PLIMCHECK
 70
     0
  9
$PEXTMIN
 10
-4.400932062405672
 20
-3.459116387827521
 30
-0.0015258207003583
  9
$PEXTMAX
 10
278.8478616361952
 20
202.393946056399
 30
0.0000000349246037
  9
$PLIMMIN
 10
-3.757080078125
 20
-3.757083177566528
  9
$PLIMMAX
 10
293.2112426757812
 20
206.2162444591522
  9
$UNITMODE
 70
     0
  9
$VISRETAIN
 70
     1
  9
$PLINEGEN
 70
     0
  9
$PSLTSCALE
 70
     1
  9
$TREEDEPTH
 70
  3020
  9
$CMLSTYLE
  2
Standard
  9
$CMLJUST
 70
     0
  9
$CMLSCALE
 40
20.0
  9
$PROXYGRAPHICS
 70
     1
  9
$MEASUREMENT
 70
     1
  9
$CELWEIGHT
370
    -1
  9
$ENDCAPS
280
     0
  9
$JOINSTYLE
280
     0
  9
$LWDISPLAY
290
     0
  9
$INSUNITS
 70
     4
  9
$HYPERLINKBASE
  1

  9
$STYLESHEET
  1

  9
$XEDIT
290
     1
  9
$CEPSNTYPE
380
     0
  9
$PSTYLEMODE
290
     1
  9
$FINGERPRINTGUID
  2
{FF7F33C3-4233-11D6-AEE0-0000F45FD7F4}
  9
$VERSIONGUID
  2
{220C8BF3-C762-4FEE-A043-3D91AA588552}
  9
$EXTNAMES
290
     1
  9
$PSVPSCALE
 40
0.0
  9
$OLESTARTUP
290
     0
  0
ENDSEC
  0
SECTION
  2
CLASSES
  0
CLASS
  1
ACDBDICTIONARYWDFLT
  2
AcDbDictionaryWithDefault
  3
AutoCAD 2000
 90
        0
280
     0
281
     0
  0
CLASS
  1
ACDBPLACEHOLDER
  2
AcDbPlaceHolder
  3
AutoCAD 2000
 90
        0
280
     0
281
     0
  0
CLASS
  1
LAYOUT
  2
AcDbLayout
  3
AutoCAD 2000
 90
        0
280
     0
281
     0
  0
CLASS
  1
DICTIONARYVAR
  2
AcDbDictionaryVar
  3
AutoCAD 2000
 90
        0
280
     0
281
     0
  0
ENDSEC
  0
SECTION
  2
TABLES
  0
TABLE
  2
VPORT
  5
8
330
0
100
AcDbSymbolTable
 70
     3
  0
VPORT
  5
3160
330
8
100
AcDbSymbolTableRecord
100
AcDbViewportTableRecord
  2
*Active
 70
     0
 10
0.0
 20
0.0
 11
1.0
 21
1.0
 12
101.0779437328723
 22
205.4874147510775
 13
0.0
 23
0.0
 14
5.0
 24
5.0
 15
10.0
 25
10.0
 16
0.0
 26
0.0
 36
1.0
 17
0.0
 27
0.0
 37
0.0
 40
178.4998352829271
 41
1.968879668049792
 42
50.0
 43
0.0
 44
0.0
 50
0.0
 51
0.0
 71
     0
 72
   100
 73
     1
 74
     3
 75
     0
 76
     0
 77
     0
 78
     0
281
     0
 65
     1
110
0.0
120
0.0
130
0.0
111
1.0
121
0.0
131
0.0
112
0.0
122
1.0
132
0.0
 79
     0
146
0.0
  0
ENDTAB
  0
TABLE
  2
LTYPE
  5
5
330
0
100
AcDbSymbolTable
 70
     5
  0
LTYPE
  5
14
330
5
100
AcDbSymbolTableRecord
100
AcDbLinetypeTableRecord
  2
ByBlock
 70
     0
  3

 72
    65
 73
     0
 40
0.0
  0
LTYPE
  5
15
330
5
100
AcDbSymbolTableRecord
100
AcDbLinetypeTableRecord
  2
ByLayer
 70
     0
  3

 72
    65
 73
     0
 40
0.0
  0
LTYPE
  5
16
330
5
100
AcDbSymbolTableRecord
100
AcDbLinetypeTableRecord
  2
Continuous
 70
     0
  3
Solid line
 72
    65
 73
     0
 40
0.0
  0
LTYPE
  5
33
330
5
100
AcDbSymbolTableRecord
100
AcDbLinetypeTableRecord
  2
DASHED2
 70
     0
  3
Dashed (.5x) _ _ _ _ _ _ _ _ _ _ _ _ _ _ _ _ _
 72
    65
 73
     2
 40
9.524999999999998
 49
6.349999999999999
 74
     0
 49
-3.174999999999999
 74
     0
  0
LTYPE
  5
34
330
5
100
AcDbSymbolTableRecord
100
AcDbLinetypeTableRecord
  2
CENTER2
 70
     0
  3
Center (.5x) ___ _ ___ _ ___ _ ___ _ ___ _ ___
 72
    65
 73
     4
 40
28.57499999999999
 49
19.05
 74
     0
 49
-3.174999999999999
 74
     0
 49
3.174999999999999
 74
     0
 49
-3.174999999999999
 74
     0
  0
LTYPE
  5
35
330
5
100
AcDbSymbolTableRecord
100
AcDbLinetypeTableRecord
  2
PHANTOM2
 70
     0
  3
Phantom (.5x) ___ _ _ ___ _ _ ___ _ _ ___ _ _
 72
    65
 73
     6
 40
31.75
 49
15.875
 74
     0
 49
-3.174999999999999
 74
     0
 49
3.174999999999999
 74
     0
 49
-3.174999999999999
 74
     0
 49
3.174999999999999
 74
     0
 49
-3.174999999999999
 74
     0
  0
LTYPE
  5
36
330
5
100
AcDbSymbolTableRecord
100
AcDbLinetypeTableRecord
  2
HIDDEN2
 70
     0
  3
Hidden (.5x) _ _ _ _ _ _ _ _ _ _ _ _ _ _ _ _ _
 72
    65
 73
     2
 40
4.762499999999999
 49
3.174999999999999
 74
     0
 49
-1.587499999999999
 74
     0
  0
ENDTAB
  0
TABLE
  2
LAYER
  5
2
330
0
100
AcDbSymbolTable
 70
    13
  0
LAYER
  5
10
330
2
100
AcDbSymbolTableRecord
100
AcDbLayerTableRecord
  2
0
 70
     0
 62
     7
  6
Continuous
370
    -3
390
F
  0
LAYER
  5
40
330
2
100
AcDbSymbolTableRecord
100
AcDbLayerTableRecord
  2
50-0-CON
 70
     0
 62
     4
  6
Continuous
370
    50
390
F
  0
LAYER
  5
41
330
2
100
AcDbSymbolTableRecord
100
AcDbLayerTableRecord
  2
70-0-CON
 70
     0
 62
   202
  6
Continuous
370
    70
390
F
  0
LAYER
  5
4E
330
2
100
AcDbSymbolTableRecord
100
AcDbLayerTableRecord
  2
極太線
 70
     0
 62
     7
  6
Continuous
370
    70
390
F
  0
LAYER
  5
4F
330
2
100
AcDbSymbolTableRecord
100
AcDbLayerTableRecord
  2
細線
 70
     0
 62
     8
  6
Continuous
370
    18
390
F
  0
LAYER
  5
AB
330
2
100
AcDbSymbolTableRecord
100
AcDbLayerTableRecord
  2
構築線
 70
     0
 62
    -2
  6
Continuous
290
     0
370
    18
390
F
  0
LAYER
  5
B8
330
2
100
AcDbSymbolTableRecord
100
AcDbLayerTableRecord
  2
太線
 70
     0
 62
     7
  6
Continuous
370
    35
390
F
  0
LAYER
  5
B9
330
2
100
AcDbSymbolTableRecord
100
AcDbLayerTableRecord
  2
寸法線
 70
     0
 62
     5
  6
Continuous
370
    18
390
F
  0
LAYER
  5
BA
330
2
100
AcDbSymbolTableRecord
100
AcDbLayerTableRecord
  2
破線
 70
     0
 62
     8
  6
HIDDEN2
370
    18
390
F
  0
LAYER
  5
BB
330
2
100
AcDbSymbolTableRecord
100
AcDbLayerTableRecord
  2
中心線
 70
     0
 62
     1
  6
CENTER2
370
    18
390
F
  0
LAYER
  5
BC
330
2
100
AcDbSymbolTableRecord
100
AcDbLayerTableRecord
  2
想像線
 70
     0
 62
     8
  6
PHANTOM2
370
    18
390
F
  0
LAYER
  5
BD
330
2
100
AcDbSymbolTableRecord
100
AcDbLayerTableRecord
  2
文字
 70
     0
 62
     7
  6
Continuous
370
    18
390
F
  0
LAYER
  5
180
330
2
100
AcDbSymbolTableRecord
100
AcDbLayerTableRecord
  2
Defpoints
 70
     0
 62
     7
  6
Continuous
290
     0
370
    -3
390
F
  0
ENDTAB
  0
TABLE
  2
STYLE
  5
3
330
0
100
AcDbSymbolTable
 70
     3
  0
STYLE
  5
11
330
3
100
AcDbSymbolTableRecord
100
AcDbTextStyleTableRecord
  2
Standard
 70
     0
 40
0.0
 41
1.0
 50
0.0
 71
     0
 42
3.0
  3
txt
  4

  0
STYLE
  5
32
330
3
100
AcDbSymbolTableRecord
100
AcDbTextStyleTableRecord
  2

 70
     1
 40
0.0
 41
1.0
 50
0.0
 71
     0
 42
2.5
  3
ltypeshp.shx
  4

  0
STYLE
  5
50
330
3
100
AcDbSymbolTableRecord
100
AcDbTextStyleTableRecord
  2
OKANO
 70
     0
 40
0.0
 41
1.0
 50
15.0
 71
     0
 42
5.0
  3
isocp.shx
  4
bigfont.shx
  0
ENDTAB
  0
TABLE
  2
VIEW
  5
6
330
0
100
AcDbSymbolTable
 70
     0
  0
ENDTAB
  0
TABLE
  2
UCS
  5
7
330
0
100
AcDbSymbolTable
 70
     0
  0
ENDTAB
  0
TABLE
  2
APPID
  5
9
330
0
100
AcDbSymbolTable
 70
     1
  0
APPID
  5
12
330
9
100
AcDbSymbolTableRecord
100
AcDbRegAppTableRecord
  2
ACAD
 70
     0
  0
ENDTAB
  0
TABLE
  2
DIMSTYLE
  5
A
330
0
100
AcDbSymbolTable
 70
     2
100
AcDbDimStyleTable
 71
     2
340
A2
340
27
  0
DIMSTYLE
105
27
330
A
100
AcDbSymbolTableRecord
100
AcDbDimStyleTableRecord
  2
ISO-25
 70
     0
 41
2.5
 42
0.625
 43
3.75
 44
1.25
 73
     0
 74
     0
 77
     1
 78
     8
140
2.5
141
2.5
143
0.03937007874016
147
0.625
171
     3
172
     1
271
     2
272
     2
274
     3
283
     0
284
     8
340
11
  0
DIMSTYLE
105
A2
102
{ACAD_REACTORS
330
2F1E
330
2F2D
330
2F3A
330
2F47
330
2F76
330
2F85
330
2F92
330
2FD3
330
3013
330
3023
330
3037
330
3080
330
3096
330
30EA
330
2FE0
102
}
330
A
100
AcDbSymbolTableRecord
100
AcDbDimStyleTableRecord
  2
sunpo
 70
     0
 40
0.0
 41
3.0
 42
2.0
 43
8.0
 44
3.0
 73
     0
 74
     0
 77
     1
 78
     8
140
5.0
141
2.5
143
0.03937007874016
147
1.0
171
     3
172
     1
271
     2
272
     2
274
     3
283
     0
284
     8
340
50
341
9B
342
9B
  0
ENDTAB
  0
TABLE
  2
BLOCK_RECORD
  5
1
330
0
100
AcDbSymbolTable
 70
    18
  0
BLOCK_RECORD
  5
1F
330
1
100
AcDbSymbolTableRecord
100
AcDbBlockTableRecord
  2
*Model_Space
340
22
  0
BLOCK_RECORD
  5
1B
330
1
100
AcDbSymbolTableRecord
100
AcDbBlockTableRecord
  2
*Paper_Space
340
1E
  0
BLOCK_RECORD
  5
9B
330
1
100
AcDbSymbolTableRecord
100
AcDbBlockTableRecord
  2
_Closed
340
0
102
{BLKREFS
331
2F25
331
2F26
331
2F8A
331
2F8B
331
2FAD
331
2FAE
331
3018
331
3019
331
3047
331
3048
331
3062
331
3090
331
3091
331
30A7
331
30A8
331
30B0
331
30B1
331
30C2
331
30C3
331
30CB
331
30CC
331
30DD
331
30DE
331
311A
331
311B
331
3122
331
312F
331
3130
331
3156
102
}
  0
BLOCK_RECORD
  5
1510
330
1
100
AcDbSymbolTableRecord
100
AcDbBlockTableRecord
  2
A$C10A573AC
340
0
  0
BLOCK_RECORD
  5
2F1F
330
1
100
AcDbSymbolTableRecord
100
AcDbBlockTableRecord
  2
*D2
340
0
  0
BLOCK_RECORD
  5
2F2E
330
1
100
AcDbSymbolTableRecord
100
AcDbBlockTableRecord
  2
*D3
340
0
  0
BLOCK_RECORD
  5
2F3B
330
1
100
AcDbSymbolTableRecord
100
AcDbBlockTableRecord
  2
*D4
340
0
  0
BLOCK_RECORD
  5
2F48
330
1
100
AcDbSymbolTableRecord
100
AcDbBlockTableRecord
  2
*D5
340
0
  0
BLOCK_RECORD
  5
2F77
330
1
100
AcDbSymbolTableRecord
100
AcDbBlockTableRecord
  2
*D6
340
0
  0
BLOCK_RECORD
  5
2F86
330
1
100
AcDbSymbolTableRecord
100
AcDbBlockTableRecord
  2
*D7
340
0
  0
BLOCK_RECORD
  5
2F93
330
1
100
AcDbSymbolTableRecord
100
AcDbBlockTableRecord
  2
*D8
340
0
  0
BLOCK_RECORD
  5
2FD4
330
1
100
AcDbSymbolTableRecord
100
AcDbBlockTableRecord
  2
*D9
340
0
  0
BLOCK_RECORD
  5
2FE1
330
1
100
AcDbSymbolTableRecord
100
AcDbBlockTableRecord
  2
*D10
340
0
  0
BLOCK_RECORD
  5
3014
330
1
100
AcDbSymbolTableRecord
100
AcDbBlockTableRecord
  2
*D11
340
0
  0
BLOCK_RECORD
  5
3024
330
1
100
AcDbSymbolTableRecord
100
AcDbBlockTableRecord
  2
*D12
340
0
  0
BLOCK_RECORD
  5
3038
330
1
100
AcDbSymbolTableRecord
100
AcDbBlockTableRecord
  2
*D13
340
0
  0
BLOCK_RECORD
  5
3081
330
1
100
AcDbSymbolTableRecord
100
AcDbBlockTableRecord
  2
*D14
340
0
  0
BLOCK_RECORD
  5
3097
330
1
100
AcDbSymbolTableRecord
100
AcDbBlockTableRecord
  2
*D15
340
0
  0
BLOCK_RECORD
  5
30EB
330
1
100
AcDbSymbolTableRecord
100
AcDbBlockTableRecord
  2
*D16
340
0
  0
ENDTAB
  0
ENDSEC
  0
SECTION
  2
BLOCKS
  0
BLOCK
  5
20
330
1F
100
AcDbEntity
  8
0
100
AcDbBlockBegin
  2
*Model_Space
 70
     0
 10
0.0
 20
0.0
 30
0.0
  3
*Model_Space
  1

  0
ENDBLK
  5
21
330
1F
100
AcDbEntity
  8
0
100
AcDbBlockEnd
  0
BLOCK
  5
1C
330
1B
100
AcDbEntity
 67
     1
  8
0
100
AcDbBlockBegin
  2
*Paper_Space
 70
     0
 10
0.0
 20
0.0
 30
0.0
  3
*Paper_Space
  1

  0
ENDBLK
  5
1D
330
1B
100
AcDbEntity
 67
     1
  8
0
100
AcDbBlockEnd
  0
BLOCK
  5
A0
330
9B
100
AcDbEntity
  8
0
100
AcDbBlockBegin
  2
_Closed
 70
     0
 10
0.0
 20
0.0
 30
0.0
  3
_Closed
  1

  0
LINE
  5
9C
330
9B
100
AcDbEntity
  8
0
 62
     0
370
    -2
100
AcDbLine
 10
-1.0
 20
0.1666666666666666
 30
0.0
 11
0.0
 21
0.0
 31
0.0
  0
LINE
  5
9D
330
9B
100
AcDbEntity
  8
0
 62
     0
370
    -2
100
AcDbLine
 10
0.0
 20
0.0
 30
0.0
 11
-1.0
 21
-0.1666666666666666
 31
0.0
  0
LINE
  5
9E
330
9B
100
AcDbEntity
  8
0
 62
     0
370
    -2
100
AcDbLine
 10
-1.0
 20
0.1666666666666666
 30
0.0
 11
-1.0
 21
-0.1666666666666666
 31
0.0
  0
LINE
  5
9F
330
9B
100
AcDbEntity
  8
0
 62
     0
370
    -2
100
AcDbLine
 10
0.0
 20
0.0
 30
0.0
 11
-1.0
 21
0.0
 31
0.0
  0
ENDBLK
  5
A1
330
9B
100
AcDbEntity
  8
0
100
AcDbBlockEnd
  0
BLOCK
  5
155B
330
1510
100
AcDbEntity
  8
0
100
AcDbBlockBegin
  2
A$C10A573AC
 70
     0
 10
0.0
 20
0.0
 30
0.0
  3
A$C10A573AC
  1

  0
TEXT
  5
1511
330
1510
100
AcDbEntity
  8
文字
100
AcDbText
 10
0.9844302777919438
 20
5.224957122252135
 30
0.0
 40
3.0
  1
Materal : Steel.
 51
15.0
  7
OKANO
100
AcDbText
  0
TEXT
  5
1512
330
1510
100
AcDbEntity
  8
文字
100
AcDbText
 10
-0.1141909619694843
 20
0.7500001922403499
 30
0.0
 40
3.0
  1
Surface treatment : Electro galvanized.
 51
15.0
  7
OKANO
100
AcDbText
  0
TEXT
  5
1513
330
1510
100
AcDbEntity
  8
文字
100
AcDbText
 10
-0.4901926332574931
 20
9.159967445193728
 30
0.0
 40
3.0
  1
5 TORGUE SCREW  M5-6
 51
15.0
  7
OKANO
100
AcDbText
  0
TEXT
  5
1514
330
1510
100
AcDbEntity
  8
文字
100
AcDbText
 10
1.364713526390005
 20
78.88822913323082
 30
0.0
 40
3.0
  1
Special standard,
 51
15.0
  7
OKANO
100
AcDbText
  0
TEXT
  5
1515
330
1510
100
AcDbEntity
  8
文字
100
AcDbText
 10
92.88160823408942
 20
89.92753849837379
 30
0.0
 40
3.0
  1
Screw Type
 51
15.0
  7
OKANO
100
AcDbText
  0
LINE
  5
1516
330
1510
100
AcDbEntity
  8
太線
100
AcDbLine
 10
113.9464587597784
 20
81.93930390144641
 30
0.0
 11
112.4464587597784
 21
81.93930390144641
 31
0.0
  0
LINE
  5
1517
330
1510
100
AcDbEntity
  8
太線
100
AcDbLine
 10
112.4464587597784
 20
76.9393039014464
 30
0.0
 11
121.4644995438761
 21
76.9393039014464
 31
0.0
  0
TEXT
  5
1518
330
1510
100
AcDbEntity
  8
文字
100
AcDbText
 10
93.46068240437217
 20
77.96976862235396
 30
0.0
 40
2.0
  1
17-30
 51
15.0
  7
OKANO
100
AcDbText
  0
LINE
  5
1519
330
1510
100
AcDbEntity
  8
太線
100
AcDbLine
 10
111.9464587597784
 20
81.43930390144641
 30
0.0
 11
111.9464587597784
 21
77.4393039014464
 31
0.0
  0
LINE
  5
151A
330
1510
100
AcDbEntity
  8
太線
100
AcDbLine
 10
91.94645875977846
 20
81.43930390144641
 30
0.0
 11
91.94645875977846
 21
77.43930390144639
 31
0.0
  0
LINE
  5
151B
330
1510
100
AcDbEntity
  8
太線
100
AcDbLine
 10
101.9644995438761
 20
77.4393039014464
 30
0.0
 11
101.9644995438761
 21
81.43930390144641
 31
0.0
  0
LINE
  5
151C
330
1510
100
AcDbEntity
  8
太線
100
AcDbLine
 10
92.44645875977846
 20
76.9393039014464
 30
0.0
 11
101.4644995438761
 21
76.9393039014464
 31
0.0
  0
ARC
  5
151D
330
1510
100
AcDbEntity
  8
太線
100
AcDbCircle
 10
92.44645875977846
 20
77.43930390144639
 30
0.0
 40
0.5
100
AcDbArc
 50
180.0
 51
270.0
  0
ARC
  5
151E
330
1510
100
AcDbEntity
  8
太線
100
AcDbCircle
 10
101.4644995438761
 20
77.4393039014464
 30
0.0
 40
0.5
100
AcDbArc
 50
270.0
 51
0.0
  0
ARC
  5
151F
330
1510
100
AcDbEntity
  8
太線
100
AcDbCircle
 10
112.4464587597784
 20
77.4393039014464
 30
0.0
 40
0.5
100
AcDbArc
 50
180.0
 51
270.0
  0
LINE
  5
1520
330
1510
100
AcDbEntity
  8
想像線
100
AcDbLine
 10
93.94645875977847
 20
81.93930390144641
 30
0.0
 11
99.96449954387617
 21
81.93930390144641
 31
0.0
  0
LINE
  5
1521
330
1510
100
AcDbEntity
  8
極太線
100
AcDbLine
 10
96.38762957111168
 20
85.43930390144641
 30
0.0
 11
97.50528794844525
 21
85.43930390144641
 31
0.0
  0
CIRCLE
  5
1522
330
1510
100
AcDbEntity
  8
太線
100
AcDbCircle
 10
96.94645875977847
 20
85.43930390144641
 30
0.0
 40
0.5588291886667776
  0
LINE
  5
1523
330
1510
100
AcDbEntity
  8
太線
100
AcDbLine
 10
99.46449954387617
 20
86.93930390144641
 30
0.0
 11
94.44645875977846
 21
86.93930390144641
 31
0.0
  0
LINE
  5
1524
330
1510
100
AcDbEntity
  8
太線
100
AcDbLine
 10
93.94645875977847
 20
86.43930390144641
 30
0.0
 11
93.94645875977847
 21
81.93930390144641
 31
0.0
  0
ARC
  5
1525
330
1510
100
AcDbEntity
  8
太線
100
AcDbCircle
 10
92.44645875977846
 20
81.43930390144641
 30
0.0
 40
0.5
100
AcDbArc
 50
90.0
 51
180.0
  0
LINE
  5
1526
330
1510
100
AcDbEntity
  8
太線
100
AcDbLine
 10
93.94645875977847
 20
81.93930390144641
 30
0.0
 11
92.44645875977846
 21
81.93930390144641
 31
0.0
  0
ARC
  5
1527
330
1510
100
AcDbEntity
  8
太線
100
AcDbCircle
 10
94.44645875977846
 20
86.43930390144641
 30
0.0
 40
0.5
100
AcDbArc
 50
90.0
 51
180.0
  0
LINE
  5
1528
330
1510
100
AcDbEntity
  8
太線
100
AcDbLine
 10
99.96449954387617
 20
81.93930390144641
 30
0.0
 11
99.96449954387617
 21
86.43930390144641
 31
0.0
  0
LINE
  5
1529
330
1510
100
AcDbEntity
  8
太線
100
AcDbLine
 10
101.4644995438761
 20
81.93930390144641
 30
0.0
 11
99.96449954387617
 21
81.93930390144641
 31
0.0
  0
ARC
  5
152A
330
1510
100
AcDbEntity
  8
太線
100
AcDbCircle
 10
101.4644995438761
 20
81.43930390144641
 30
0.0
 40
0.5
100
AcDbArc
 50
0.0
 51
90.0
  0
ARC
  5
152B
330
1510
100
AcDbEntity
  8
太線
100
AcDbCircle
 10
99.46449954387617
 20
86.43930390144641
 30
0.0
 40
0.5
100
AcDbArc
 50
0.0
 51
90.0
  0
LINE
  5
152C
330
1510
100
AcDbEntity
  8
極太線
100
AcDbLine
 10
96.94645875977847
 20
85.99813309011318
 30
0.0
 11
96.94645875977847
 21
84.88047471277964
 31
0.0
  0
ARC
  5
152D
330
1510
100
AcDbEntity
  8
太線
100
AcDbCircle
 10
112.4464587597784
 20
81.43930390144641
 30
0.0
 40
0.5
100
AcDbArc
 50
90.0
 51
180.0
  0
TEXT
  5
152E
330
1510
100
AcDbEntity
  8
文字
100
AcDbText
 10
134.3819212586066
 20
78.16263579228063
 30
0.0
 40
2.0
  1
101
 51
15.0
  7
OKANO
100
AcDbText
  0
TEXT
  5
152F
330
1510
100
AcDbEntity
  8
文字
100
AcDbText
 10
113.3422276612066
 20
77.96976862235396
 30
0.0
 40
2.0
  1
38-83
 51
15.0
  7
OKANO
100
AcDbText
  0
LINE
  5
1530
330
1510
100
AcDbEntity
  8
太線
100
AcDbLine
 10
141.9825403279738
 20
77.4393039014464
 30
0.0
 11
141.9825403279738
 21
81.43930390144641
 31
0.0
  0
LINE
  5
1531
330
1510
100
AcDbEntity
  8
太線
100
AcDbLine
 10
131.9644995438761
 20
81.43930390144641
 30
0.0
 11
131.9644995438761
 21
77.4393039014464
 31
0.0
  0
LINE
  5
1532
330
1510
100
AcDbEntity
  8
太線
100
AcDbLine
 10
121.9644995438761
 20
77.4393039014464
 30
0.0
 11
121.9644995438761
 21
81.43930390144641
 31
0.0
  0
ARC
  5
1533
330
1510
100
AcDbEntity
  8
太線
100
AcDbCircle
 10
121.4644995438761
 20
77.4393039014464
 30
0.0
 40
0.5
100
AcDbArc
 50
270.0
 51
0.0
  0
LINE
  5
1534
330
1510
100
AcDbEntity
  8
太線
100
AcDbLine
 10
132.4644995438761
 20
76.9393039014464
 30
0.0
 11
141.4825403279738
 21
76.9393039014464
 31
0.0
  0
ARC
  5
1535
330
1510
100
AcDbEntity
  8
太線
100
AcDbCircle
 10
132.4644995438761
 20
77.4393039014464
 30
0.0
 40
0.5
100
AcDbArc
 50
180.0
 51
270.0
  0
ARC
  5
1536
330
1510
100
AcDbEntity
  8
太線
100
AcDbCircle
 10
141.4825403279738
 20
77.4393039014464
 30
0.0
 40
0.5
100
AcDbArc
 50
270.0
 51
0.0
  0
ARC
  5
1537
330
1510
100
AcDbEntity
  8
太線
100
AcDbCircle
 10
121.4644995438761
 20
81.43930390144641
 30
0.0
 40
0.5
100
AcDbArc
 50
0.0
 51
90.0
  0
LINE
  5
1538
330
1510
100
AcDbEntity
  8
太線
100
AcDbLine
 10
119.9644995438761
 20
81.93930390144641
 30
0.0
 11
119.9644995438761
 21
86.43930390144641
 31
0.0
  0
LINE
  5
1539
330
1510
100
AcDbEntity
  8
太線
100
AcDbLine
 10
113.9464587597784
 20
86.43930390144641
 30
0.0
 11
113.9464587597784
 21
81.93930390144641
 31
0.0
  0
LINE
  5
153A
330
1510
100
AcDbEntity
  8
想像線
100
AcDbLine
 10
113.9464587597784
 20
81.93930390144641
 30
0.0
 11
119.9644995438761
 21
81.93930390144641
 31
0.0
  0
LINE
  5
153B
330
1510
100
AcDbEntity
  8
太線
100
AcDbLine
 10
121.4644995438761
 20
81.93930390144641
 30
0.0
 11
119.9644995438761
 21
81.93930390144641
 31
0.0
  0
LINE
  5
153C
330
1510
100
AcDbEntity
  8
太線
100
AcDbLine
 10
119.4644995438761
 20
86.93930390144641
 30
0.0
 11
114.4464587597784
 21
86.93930390144641
 31
0.0
  0
ARC
  5
153D
330
1510
100
AcDbEntity
  8
太線
100
AcDbCircle
 10
114.4464587597784
 20
86.43930390144641
 30
0.0
 40
0.5
100
AcDbArc
 50
90.0
 51
180.0
  0
CIRCLE
  5
153E
330
1510
100
AcDbEntity
  8
太線
100
AcDbCircle
 10
115.4464587597784
 20
85.43930390144641
 30
0.0
 40
0.5588291886667776
  0
LINE
  5
153F
330
1510
100
AcDbEntity
  8
極太線
100
AcDbLine
 10
115.4464587597784
 20
85.99813309011318
 30
0.0
 11
115.4464587597784
 21
84.88047471277964
 31
0.0
  0
LINE
  5
1540
330
1510
100
AcDbEntity
  8
極太線
100
AcDbLine
 10
114.8876295711116
 20
85.43930390144641
 30
0.0
 11
116.0052879484452
 21
85.43930390144641
 31
0.0
  0
ARC
  5
1541
330
1510
100
AcDbEntity
  8
太線
100
AcDbCircle
 10
119.4644995438761
 20
86.43930390144641
 30
0.0
 40
0.5
100
AcDbArc
 50
0.0
 51
90.0
  0
LINE
  5
1542
330
1510
100
AcDbEntity
  8
極太線
100
AcDbLine
 10
117.9056703552094
 20
85.43930390144641
 30
0.0
 11
119.0233287325429
 21
85.43930390144641
 31
0.0
  0
LINE
  5
1543
330
1510
100
AcDbEntity
  8
極太線
100
AcDbLine
 10
118.4644995438761
 20
85.99813309011318
 30
0.0
 11
118.4644995438761
 21
84.88047471277964
 31
0.0
  0
CIRCLE
  5
1544
330
1510
100
AcDbEntity
  8
太線
100
AcDbCircle
 10
118.4644995438761
 20
85.43930390144641
 30
0.0
 40
0.5588291886667776
  0
LINE
  5
1545
330
1510
100
AcDbEntity
  8
想像線
100
AcDbLine
 10
133.9644995438761
 20
81.93930390144641
 30
0.0
 11
139.9825403279738
 21
81.93930390144641
 31
0.0
  0
LINE
  5
1546
330
1510
100
AcDbEntity
  8
極太線
100
AcDbLine
 10
137.9237111393071
 20
85.43930390144641
 30
0.0
 11
139.0413695166406
 21
85.43930390144641
 31
0.0
  0
CIRCLE
  5
1547
330
1510
100
AcDbEntity
  8
太線
100
AcDbCircle
 10
138.4825403279738
 20
85.43930390144641
 30
0.0
 40
0.5588291886667776
  0
CIRCLE
  5
1548
330
1510
100
AcDbEntity
  8
太線
100
AcDbCircle
 10
138.4825403279738
 20
83.26342923362075
 30
0.0
 40
0.5588291886667776
  0
LINE
  5
1549
330
1510
100
AcDbEntity
  8
極太線
100
AcDbLine
 10
137.9237111393071
 20
83.26342923362075
 30
0.0
 11
139.0413695166406
 21
83.26342923362075
 31
0.0
  0
LINE
  5
154A
330
1510
100
AcDbEntity
  8
太線
100
AcDbLine
 10
139.4825403279738
 20
86.93930390144641
 30
0.0
 11
134.4644995438761
 21
86.93930390144641
 31
0.0
  0
LINE
  5
154B
330
1510
100
AcDbEntity
  8
太線
100
AcDbLine
 10
133.9644995438761
 20
86.43930390144641
 30
0.0
 11
133.9644995438761
 21
81.93930390144641
 31
0.0
  0
ARC
  5
154C
330
1510
100
AcDbEntity
  8
太線
100
AcDbCircle
 10
132.4644995438761
 20
81.43930390144641
 30
0.0
 40
0.5
100
AcDbArc
 50
90.0
 51
180.0
  0
LINE
  5
154D
330
1510
100
AcDbEntity
  8
太線
100
AcDbLine
 10
133.9644995438761
 20
81.93930390144641
 30
0.0
 11
132.4644995438761
 21
81.93930390144641
 31
0.0
  0
LINE
  5
154E
330
1510
100
AcDbEntity
  8
極太線
100
AcDbLine
 10
134.9056703552093
 20
83.26342923362075
 30
0.0
 11
136.0233287325429
 21
83.26342923362075
 31
0.0
  0
LINE
  5
154F
330
1510
100
AcDbEntity
  8
極太線
100
AcDbLine
 10
135.4644995438761
 20
83.82225842228752
 30
0.0
 11
135.4644995438761
 21
82.70460004495395
 31
0.0
  0
CIRCLE
  5
1550
330
1510
100
AcDbEntity
  8
太線
100
AcDbCircle
 10
135.4644995438761
 20
83.26342923362075
 30
0.0
 40
0.5588291886667776
  0
ARC
  5
1551
330
1510
100
AcDbEntity
  8
太線
100
AcDbCircle
 10
134.4644995438761
 20
86.43930390144641
 30
0.0
 40
0.5
100
AcDbArc
 50
90.0
 51
180.0
  0
CIRCLE
  5
1552
330
1510
100
AcDbEntity
  8
太線
100
AcDbCircle
 10
135.4644995438761
 20
85.43930390144641
 30
0.0
 40
0.5588291886667776
  0
LINE
  5
1553
330
1510
100
AcDbEntity
  8
極太線
100
AcDbLine
 10
135.4644995438761
 20
85.99813309011318
 30
0.0
 11
135.4644995438761
 21
84.88047471277964
 31
0.0
  0
LINE
  5
1554
330
1510
100
AcDbEntity
  8
極太線
100
AcDbLine
 10
134.9056703552093
 20
85.43930390144641
 30
0.0
 11
136.0233287325429
 21
85.43930390144641
 31
0.0
  0
LINE
  5
1555
330
1510
100
AcDbEntity
  8
太線
100
AcDbLine
 10
139.9825403279738
 20
81.93930390144641
 30
0.0
 11
139.9825403279738
 21
86.43930390144641
 31
0.0
  0
ARC
  5
1556
330
1510
100
AcDbEntity
  8
太線
100
AcDbCircle
 10
141.4825403279738
 20
81.43930390144641
 30
0.0
 40
0.5
100
AcDbArc
 50
0.0
 51
90.0
  0
LINE
  5
1557
330
1510
100
AcDbEntity
  8
極太線
100
AcDbLine
 10
138.4825403279738
 20
83.82225842228752
 30
0.0
 11
138.4825403279738
 21
82.70460004495395
 31
0.0
  0
LINE
  5
1558
330
1510
100
AcDbEntity
  8
太線
100
AcDbLine
 10
141.4825403279738
 20
81.93930390144641
 30
0.0
 11
139.9825403279738
 21
81.93930390144641
 31
0.0
  0
ARC
  5
1559
330
1510
100
AcDbEntity
  8
太線
100
AcDbCircle
 10
139.4825403279738
 20
86.43930390144641
 30
0.0
 40
0.5
100
AcDbArc
 50
0.0
 51
90.0
  0
LINE
  5
155A
330
1510
100
AcDbEntity
  8
極太線
100
AcDbLine
 10
138.4825403279738
 20
85.99813309011318
 30
0.0
 11
138.4825403279738
 21
84.88047471277964
 31
0.0
  0
ENDBLK
  5
155C
330
1510
100
AcDbEntity
  8
0
100
AcDbBlockEnd
  0
BLOCK
  5
2F2B
330
2F1F
100
AcDbEntity
  8
0
100
AcDbBlockBegin
  2
*D2
 70
     1
 10
0.0
 20
0.0
 30
0.0
  3
*D2
  1

  0
LINE
  5
2F20
330
2F1F
100
AcDbEntity
  8
寸法線
 62
     0
370
    -2
100
AcDbLine
 10
138.8515140254043
 20
205.1211488256961
 30
0.0
 11
163.9229676393258
 21
205.1211488256961
 31
0.0
  0
LINE
  5
2F21
330
2F1F
100
AcDbEntity
  8
寸法線
 62
     0
370
    -2
100
AcDbLine
 10
136.8515140254043
 20
210.1211488256961
 30
0.0
 11
163.9229676393258
 21
210.1211488256961
 31
0.0
  0
LINE
  5
2F22
330
2F1F
100
AcDbEntity
  8
寸法線
 62
     0
370
    -2
100
AcDbLine
 10
160.9229676393258
 20
202.1211488256961
 30
0.0
 11
160.9229676393258
 21
199.1211488256961
 31
0.0
  0
LINE
  5
2F23
330
2F1F
100
AcDbEntity
  8
寸法線
 62
     0
370
    -2
100
AcDbLine
 10
160.9229676393258
 20
213.1211488256961
 30
0.0
 11
160.9229676393258
 21
216.1211488256961
 31
0.0
  0
LINE
  5
2F24
330
2F1F
100
AcDbEntity
  8
寸法線
 62
     0
370
    -2
100
AcDbLine
 10
160.9229676393258
 20
205.1211488256961
 30
0.0
 11
160.9229676393258
 21
210.1211488256961
 31
0.0
  0
INSERT
  5
2F25
330
2F1F
100
AcDbEntity
  8
寸法線
 62
     0
370
    -2
100
AcDbBlockReference
  2
_Closed
 10
160.9229676393258
 20
205.1211488256961
 30
0.0
 41
3.0
 42
3.0
 43
3.0
 50
90.0
  0
INSERT
  5
2F26
330
2F1F
100
AcDbEntity
  8
寸法線
 62
     0
370
    -2
100
AcDbBlockReference
  2
_Closed
 10
160.9229676393258
 20
210.1211488256961
 30
0.0
 41
3.0
 42
3.0
 43
3.0
 50
270.0
  0
MTEXT
  5
2F27
330
2F1F
100
AcDbEntity
  8
寸法線
 62
     0
100
AcDbMText
 10
157.4229676393258
 20
207.6211488256961
 30
0.0
 40
5.0
 41
0.0
 71
     5
 72
     1
  1
5
  7
OKANO
 11
0.0000000000000001
 21
1.0
 31
0.0
 73
     1
 44
1.0
  0
POINT
  5
2F28
330
2F1F
100
AcDbEntity
  8
Defpoints
 62
     0
100
AcDbPoint
 10
136.8515140254043
 20
205.1211488256961
 30
0.0
  0
POINT
  5
2F29
330
2F1F
100
AcDbEntity
  8
Defpoints
 62
     0
100
AcDbPoint
 10
134.8515140254043
 20
210.1211488256961
 30
0.0
  0
POINT
  5
2F2A
330
2F1F
100
AcDbEntity
  8
Defpoints
 62
     0
100
AcDbPoint
 10
160.9229676393258
 20
210.1211488256961
 30
0.0
  0
ENDBLK
  5
2F2C
330
2F1F
100
AcDbEntity
  8
0
100
AcDbBlockEnd
  0
BLOCK
  5
2F38
330
2F2E
100
AcDbEntity
  8
0
100
AcDbBlockBegin
  2
*D3
 70
     1
 10
0.0
 20
0.0
 30
0.0
  3
*D3
  1

  0
LINE
  5
30BF
330
2F2E
100
AcDbEntity
  8
寸法線
 62
     0
370
    -2
100
AcDbLine
 10
42.55151402540432
 20
80.14019332955458
 30
0.0
 11
42.55151402540432
 21
99.03147875581408
 31
0.0
  0
LINE
  5
30C0
330
2F2E
100
AcDbEntity
  8
寸法線
 62
     0
370
    -2
100
AcDbLine
 10
136.8515140254043
 20
80.14019332955459
 30
0.0
 11
136.8515140254043
 21
99.03147875581408
 31
0.0
  0
LINE
  5
30C1
330
2F2E
100
AcDbEntity
  8
寸法線
 62
     0
370
    -2
100
AcDbLine
 10
45.55151402540432
 20
96.03147875581408
 30
0.0
 11
133.8515140254043
 21
96.03147875581408
 31
0.0
  0
INSERT
  5
30C2
330
2F2E
100
AcDbEntity
  8
寸法線
 62
     0
370
    -2
100
AcDbBlockReference
  2
_Closed
 10
42.55151402540432
 20
96.03147875581408
 30
0.0
 41
3.0
 42
3.0
 43
3.0
 50
180.0
  0
INSERT
  5
30C3
330
2F2E
100
AcDbEntity
  8
寸法線
 62
     0
370
    -2
100
AcDbBlockReference
  2
_Closed
 10
136.8515140254043
 20
96.03147875581408
 30
0.0
 41
3.0
 42
3.0
 43
3.0
  0
MTEXT
  5
30C4
330
2F2E
100
AcDbEntity
  8
寸法線
 62
     0
100
AcDbMText
 10
89.70151402540432
 20
99.53147875581407
 30
0.0
 40
5.0
 41
0.0
 71
     5
 72
     1
  1
95
  7
OKANO
 73
     1
 44
1.0
  0
POINT
  5
30C5
330
2F2E
100
AcDbEntity
  8
Defpoints
 62
     0
100
AcDbPoint
 10
42.55151402540432
 20
78.14019332955457
 30
0.0
  0
POINT
  5
30C6
330
2F2E
100
AcDbEntity
  8
Defpoints
 62
     0
100
AcDbPoint
 10
136.8515140254043
 20
78.14019332955459
 30
0.0
  0
POINT
  5
30C7
330
2F2E
100
AcDbEntity
  8
Defpoints
 62
     0
100
AcDbPoint
 10
136.8515140254043
 20
96.03147875581408
 30
0.0
  0
ENDBLK
  5
2F39
330
2F2E
100
AcDbEntity
  8
0
100
AcDbBlockEnd
  0
BLOCK
  5
2F45
330
2F3B
100
AcDbEntity
  8
0
100
AcDbBlockBegin
  2
*D4
 70
     1
 10
0.0
 20
0.0
 30
0.0
  3
*D4
  1

  0
LINE
  5
30AD
330
2F3B
100
AcDbEntity
  8
寸法線
 62
     0
370
    -2
100
AcDbLine
 10
138.8515140254043
 20
20.84019332955458
 30
0.0
 11
168.0569865204413
 21
20.84019332955457
 31
0.0
  0
LINE
  5
30AE
330
2F3B
100
AcDbEntity
  8
寸法線
 62
     0
370
    -2
100
AcDbLine
 10
136.7295230789496
 20
80.14019332955459
 30
0.0
 11
168.0569865204413
 21
80.14019332955458
 31
0.0
  0
LINE
  5
30AF
330
2F3B
100
AcDbEntity
  8
寸法線
 62
     0
370
    -2
100
AcDbLine
 10
165.0569865204413
 20
23.84019332955458
 30
0.0
 11
165.0569865204413
 21
77.14019332955458
 31
0.0
  0
INSERT
  5
30B0
330
2F3B
100
AcDbEntity
  8
寸法線
 62
     0
370
    -2
100
AcDbBlockReference
  2
_Closed
 10
165.0569865204413
 20
20.84019332955458
 30
0.0
 41
3.0
 42
3.0
 43
3.0
 50
270.0
  0
INSERT
  5
30B1
330
2F3B
100
AcDbEntity
  8
寸法線
 62
     0
370
    -2
100
AcDbBlockReference
  2
_Closed
 10
165.0569865204413
 20
80.14019332955458
 30
0.0
 41
3.0
 42
3.0
 43
3.0
 50
90.0
  0
MTEXT
  5
30B2
330
2F3B
100
AcDbEntity
  8
寸法線
 62
     0
100
AcDbMText
 10
161.5569865204413
 20
50.49019332955461
 30
0.0
 40
5.0
 41
0.0
 71
     5
 72
     1
  1
60
  7
OKANO
 11
0.0000000000000001
 21
1.0
 31
0.0
 73
     1
 44
1.0
  0
POINT
  5
30B3
330
2F3B
100
AcDbEntity
  8
Defpoints
 62
     0
100
AcDbPoint
 10
136.8515140254043
 20
20.84019332955458
 30
0.0
  0
POINT
  5
30B4
330
2F3B
100
AcDbEntity
  8
Defpoints
 62
     0
100
AcDbPoint
 10
134.7295230789496
 20
80.14019332955459
 30
0.0
  0
POINT
  5
30B5
330
2F3B
100
AcDbEntity
  8
Defpoints
 62
     0
100
AcDbPoint
 10
165.0569865204413
 20
80.14019332955458
 30
0.0
  0
ENDBLK
  5
2F46
330
2F3B
100
AcDbEntity
  8
0
100
AcDbBlockEnd
  0
BLOCK
  5
2F52
330
2F48
100
AcDbEntity
  8
0
100
AcDbBlockBegin
  2
*D5
 70
     1
 10
0.0
 20
0.0
 30
0.0
  3
*D5
  1

  0
LINE
  5
3117
330
2F48
100
AcDbEntity
  8
寸法線
 62
     0
370
    -2
100
AcDbLine
 10
206.7621096629795
 20
113.8211488256961
 30
0.0
 11
206.7621096629795
 21
88.95194732801973
 31
0.0
  0
LINE
  5
3118
330
2F48
100
AcDbEntity
  8
寸法線
 62
     0
370
    -2
100
AcDbLine
 10
256.0621096629795
 20
113.8211488256961
 30
0.0
 11
256.0621096629795
 21
88.95194732801973
 31
0.0
  0
LINE
  5
3119
330
2F48
100
AcDbEntity
  8
寸法線
 62
     0
370
    -2
100
AcDbLine
 10
209.7621096629795
 20
91.95194732801974
 30
0.0
 11
253.0621096629795
 21
91.95194732801974
 31
0.0
  0
INSERT
  5
311A
330
2F48
100
AcDbEntity
  8
寸法線
 62
     0
370
    -2
100
AcDbBlockReference
  2
_Closed
 10
206.7621096629795
 20
91.95194732801974
 30
0.0
 41
3.0
 42
3.0
 43
3.0
 50
180.0
  0
INSERT
  5
311B
330
2F48
100
AcDbEntity
  8
寸法線
 62
     0
370
    -2
100
AcDbBlockReference
  2
_Closed
 10
256.0621096629795
 20
91.95194732801974
 30
0.0
 41
3.0
 42
3.0
 43
3.0
  0
MTEXT
  5
311C
330
2F48
100
AcDbEntity
  8
寸法線
 62
     0
100
AcDbMText
 10
231.4121096629795
 20
95.45194732801974
 30
0.0
 40
5.0
 41
0.0
 71
     5
 72
     1
  1
49.3～50
  7
OKANO
 73
     1
 44
1.0
  0
POINT
  5
311D
330
2F48
100
AcDbEntity
  8
Defpoints
 62
     0
100
AcDbPoint
 10
206.7621096629795
 20
115.8211488256961
 30
0.0
  0
POINT
  5
311E
330
2F48
100
AcDbEntity
  8
Defpoints
 62
     0
100
AcDbPoint
 10
256.0621096629795
 20
115.8211488256961
 30
0.0
  0
POINT
  5
311F
330
2F48
100
AcDbEntity
  8
Defpoints
 62
     0
100
AcDbPoint
 10
256.0621096629795
 20
91.95194732801974
 30
0.0
  0
ENDBLK
  5
2F53
330
2F48
100
AcDbEntity
  8
0
100
AcDbBlockEnd
  0
BLOCK
  5
2F83
330
2F77
100
AcDbEntity
  8
0
100
AcDbBlockBegin
  2
*D6
 70
     1
 10
0.0
 20
0.0
 30
0.0
  3
*D6
  1

  0
LINE
  5
2FA8
330
2F77
100
AcDbEntity
  8
寸法線
 62
     0
370
    -2
100
AcDbLine
 10
201.7621096629795
 20
121.5250244641723
 30
0.0
 11
201.7621096629795
 21
99.81232094181974
 31
0.0
  0
LINE
  5
2FA9
330
2F77
100
AcDbEntity
  8
寸法線
 62
     0
370
    -2
100
AcDbLine
 10
196.9083757726986
 20
122.6407640017037
 30
0.0
 11
196.9083757726986
 21
99.81232094181974
 31
0.0
  0
LINE
  5
2FAA
330
2F77
100
AcDbEntity
  8
寸法線
 62
     0
370
    -2
100
AcDbLine
 10
204.7621096629795
 20
102.8123209418197
 30
0.0
 11
207.7621096629795
 21
102.8123209418197
 31
0.0
  0
LINE
  5
2FAB
330
2F77
100
AcDbEntity
  8
寸法線
 62
     0
370
    -2
100
AcDbLine
 10
193.9083757726986
 20
102.8123209418197
 30
0.0
 11
185.9526044067585
 21
102.8123209418197
 31
0.0
  0
LINE
  5
2FAC
330
2F77
100
AcDbEntity
  8
寸法線
 62
     0
370
    -2
100
AcDbLine
 10
201.7621096629795
 20
102.8123209418197
 30
0.0
 11
196.9083757726986
 21
102.8123209418197
 31
0.0
  0
INSERT
  5
2FAD
330
2F77
100
AcDbEntity
  8
寸法線
 62
     0
370
    -2
100
AcDbBlockReference
  2
_Closed
 10
201.7621096629795
 20
102.8123209418197
 30
0.0
 41
3.0
 42
3.0
 43
3.0
 50
180.0
  0
INSERT
  5
2FAE
330
2F77
100
AcDbEntity
  8
寸法線
 62
     0
370
    -2
100
AcDbBlockReference
  2
_Closed
 10
196.9083757726986
 20
102.8123209418197
 30
0.0
 41
3.0
 42
3.0
 43
3.0
  0
MTEXT
  5
2FAF
330
2F77
100
AcDbEntity
  8
寸法線
 62
     0
100
AcDbMText
 10
188.4304900897285
 20
106.3123209418197
 30
0.0
 40
5.0
 41
0.0
 71
     5
 72
     1
  1
5
  7
OKANO
 73
     1
 44
1.0
  0
POINT
  5
2FB0
330
2F77
100
AcDbEntity
  8
Defpoints
 62
     0
100
AcDbPoint
 10
201.7621096629795
 20
123.5250244641723
 30
0.0
  0
POINT
  5
2FB1
330
2F77
100
AcDbEntity
  8
Defpoints
 62
     0
100
AcDbPoint
 10
196.9083757726986
 20
124.6407640017037
 30
0.0
  0
POINT
  5
2FB2
330
2F77
100
AcDbEntity
  8
Defpoints
 62
     0
100
AcDbPoint
 10
196.9083757726986
 20
102.8123209418197
 30
0.0
  0
ENDBLK
  5
2F84
330
2F77
100
AcDbEntity
  8
0
100
AcDbBlockEnd
  0
BLOCK
  5
2F90
330
2F86
100
AcDbEntity
  8
0
100
AcDbBlockBegin
  2
*D7
 70
     1
 10
0.0
 20
0.0
 30
0.0
  3
*D7
  1

  0
LINE
  5
2F87
330
2F86
100
AcDbEntity
  8
寸法線
 62
     0
370
    -2
100
AcDbLine
 10
124.8515140254043
 20
178.4711488256961
 30
0.0
 11
124.8515140254043
 21
123.2262366162249
 31
0.0
  0
LINE
  5
2F88
330
2F86
100
AcDbEntity
  8
寸法線
 62
     0
370
    -2
100
AcDbLine
 10
136.8515140254043
 20
153.8211488256961
 30
0.0
 11
136.8515140254043
 21
123.2262366162249
 31
0.0
  0
LINE
  5
2F89
330
2F86
100
AcDbEntity
  8
寸法線
 62
     0
370
    -2
100
AcDbLine
 10
127.8515140254043
 20
126.2262366162249
 30
0.0
 11
133.8515140254043
 21
126.2262366162249
 31
0.0
  0
INSERT
  5
2F8A
330
2F86
100
AcDbEntity
  8
寸法線
 62
     0
370
    -2
100
AcDbBlockReference
  2
_Closed
 10
124.8515140254043
 20
126.2262366162249
 30
0.0
 41
3.0
 42
3.0
 43
3.0
 50
180.0
  0
INSERT
  5
2F8B
330
2F86
100
AcDbEntity
  8
寸法線
 62
     0
370
    -2
100
AcDbBlockReference
  2
_Closed
 10
136.8515140254043
 20
126.2262366162249
 30
0.0
 41
3.0
 42
3.0
 43
3.0
  0
MTEXT
  5
2F8C
330
2F86
100
AcDbEntity
  8
寸法線
 62
     0
100
AcDbMText
 10
130.8515140254043
 20
129.7267287422091
 30
0.0
 40
5.0
 41
0.0
 71
     5
 72
     1
  1
12
  7
OKANO
 73
     1
 44
1.0
  0
POINT
  5
2F8D
330
2F86
100
AcDbEntity
  8
Defpoints
 62
     0
100
AcDbPoint
 10
124.8515140254043
 20
180.4711488256961
 30
0.0
  0
POINT
  5
2F8E
330
2F86
100
AcDbEntity
  8
Defpoints
 62
     0
100
AcDbPoint
 10
136.8515140254043
 20
155.8211488256961
 30
0.0
  0
POINT
  5
2F8F
330
2F86
100
AcDbEntity
  8
Defpoints
 62
     0
100
AcDbPoint
 10
136.8515140254043
 20
126.2262366162249
 30
0.0
  0
ENDBLK
  5
2F91
330
2F86
100
AcDbEntity
  8
0
100
AcDbBlockEnd
  0
BLOCK
  5
2F9D
330
2F93
100
AcDbEntity
  8
0
100
AcDbBlockBegin
  2
*D8
 70
     1
 10
0.0
 20
0.0
 30
0.0
  3
*D8
  1

  0
LINE
  5
30DA
330
2F93
100
AcDbEntity
  8
寸法線
 62
     0
370
    -2
100
AcDbLine
 10
114.9381829524736
 20
181.9276008441681
 30
0.0
 11
114.9381829524736
 21
201.3659340556188
 31
0.0
  0
LINE
  5
30DB
330
2F93
100
AcDbEntity
  8
寸法線
 62
     0
370
    -2
100
AcDbLine
 10
134.8944890800705
 20
181.9276008441681
 30
0.0
 11
134.8944890800705
 21
201.3659340556188
 31
0.0
  0
LINE
  5
30DC
330
2F93
100
AcDbEntity
  8
寸法線
 62
     0
370
    -2
100
AcDbLine
 10
117.9381829524736
 20
198.3659340556188
 30
0.0
 11
131.8944890800705
 21
198.3659340556188
 31
0.0
  0
INSERT
  5
30DD
330
2F93
100
AcDbEntity
  8
寸法線
 62
     0
370
    -2
100
AcDbBlockReference
  2
_Closed
 10
114.9381829524736
 20
198.3659340556188
 30
0.0
 41
3.0
 42
3.0
 43
3.0
 50
180.0
  0
INSERT
  5
30DE
330
2F93
100
AcDbEntity
  8
寸法線
 62
     0
370
    -2
100
AcDbBlockReference
  2
_Closed
 10
134.8944890800705
 20
198.3659340556188
 30
0.0
 41
3.0
 42
3.0
 43
3.0
  0
MTEXT
  5
30DF
330
2F93
100
AcDbEntity
  8
寸法線
 62
     0
100
AcDbMText
 10
124.9163360162721
 20
201.866426181603
 30
0.0
 40
5.0
 41
0.0
 71
     5
 72
     1
  1
24
  7
OKANO
 73
     1
 44
1.0
  0
POINT
  5
30E0
330
2F93
100
AcDbEntity
  8
Defpoints
 62
     0
100
AcDbPoint
 10
114.9381829524736
 20
179.9276008441681
 30
0.0
  0
POINT
  5
30E1
330
2F93
100
AcDbEntity
  8
Defpoints
 62
     0
100
AcDbPoint
 10
134.8944890800705
 20
179.9276008441681
 30
0.0
  0
POINT
  5
30E2
330
2F93
100
AcDbEntity
  8
Defpoints
 62
     0
100
AcDbPoint
 10
134.8944890800705
 20
198.3659340556188
 30
0.0
  0
ENDBLK
  5
2F9E
330
2F93
100
AcDbEntity
  8
0
100
AcDbBlockEnd
  0
BLOCK
  5
2FDE
330
2FD4
100
AcDbEntity
  8
0
100
AcDbBlockBegin
  2
*D9
 70
     1
 10
0.0
 20
0.0
 30
0.0
  3
*D9
  1

  0
LINE
  5
312C
330
2FD4
100
AcDbEntity
  8
寸法線
 62
     0
370
    -2
100
AcDbLine
 10
41.0888156531962
 20
220.0691285721428
 30
0.0
 11
48.61979406709583
 21
227.6001069860424
 31
0.0
  0
LINE
  5
312D
330
2FD4
100
AcDbEntity
  8
寸法線
 62
     0
370
    -2
100
AcDbLine
 10
48.15988346506168
 20
212.9980607602773
 30
0.0
 11
55.6908618789613
 21
220.5290391741769
 31
0.0
  0
LINE
  5
312E
330
2FD4
100
AcDbEntity
  8
寸法線
 62
     0
370
    -2
100
AcDbLine
 10
48.61979406709584
 20
223.3574662989231
 30
0.0
 11
51.44822119184202
 21
220.5290391741769
 31
0.0
  0
INSERT
  5
312F
330
2FD4
100
AcDbEntity
  8
寸法線
 62
     0
370
    -2
100
AcDbBlockReference
  2
_Closed
 10
46.49847372353619
 20
225.4787866424827
 30
0.0
 41
3.0
 42
3.0
 43
3.0
 50
135.0
  0
INSERT
  5
3130
330
2FD4
100
AcDbEntity
  8
寸法線
 62
     0
370
    -2
100
AcDbBlockReference
  2
_Closed
 10
53.56954153540167
 20
218.4077188306172
 30
0.0
 41
3.0
 42
3.0
 43
3.0
 50
315.0
  0
MTEXT
  5
3131
330
2FD4
100
AcDbEntity
  8
寸法線
 62
     0
100
AcDbMText
 10
52.50888136362179
 20
224.4181264707029
 30
0.0
 40
5.0
 41
0.0
 71
     5
 72
     1
  1
13
  7
OKANO
 11
0.7071067811865476
 21
-0.7071067811865475
 31
0.0
 73
     1
 44
1.0
  0
POINT
  5
3132
330
2FD4
100
AcDbEntity
  8
Defpoints
 62
     0
100
AcDbPoint
 10
39.67460209082313
 20
218.6549150097696
 30
0.0
  0
POINT
  5
3133
330
2FD4
100
AcDbEntity
  8
Defpoints
 62
     0
100
AcDbPoint
 10
46.7456699026886
 20
211.5838471979042
 30
0.0
  0
POINT
  5
3134
330
2FD4
100
AcDbEntity
  8
Defpoints
 62
     0
100
AcDbPoint
 10
53.56954153540167
 20
218.4077188306172
 30
0.0
  0
ENDBLK
  5
2FDF
330
2FD4
100
AcDbEntity
  8
0
100
AcDbBlockEnd
  0
BLOCK
  5
2FEA
330
2FE1
100
AcDbEntity
  8
0
100
AcDbBlockBegin
  2
*D10
 70
     1
 10
0.0
 20
0.0
 30
0.0
  3
*D10
  1

  0
LINE
  5
3154
330
2FE1
100
AcDbEntity
  8
寸法線
 62
     0
370
    -2
100
AcDbLine
 10
12.70340222887105
 20
206.8947375935711
 30
0.0
 11
31.23426281416969
 21
224.2653512810357
 31
0.0
  0
MTEXT
  5
3155
330
2FE1
100
AcDbEntity
  8
寸法線
 62
     0
100
AcDbMText
 10
14.76229004980609
 20
213.6220100423579
 30
0.0
 40
5.0
 41
0.0
 71
     5
 72
     1
  1
3/8
  7
OKANO
 11
0.7295778299791428
 21
0.6838977920734392
 31
0.0
 73
     1
 44
1.0
  0
INSERT
  5
3156
330
2FE1
100
AcDbEntity
  8
寸法線
 62
     0
370
    -2
100
AcDbBlockReference
  2
_Closed
 10
33.42299630410714
 20
226.317044657256
 30
0.0
 41
3.0
 42
3.0
 43
3.0
 50
43.14898627899204
  0
POINT
  5
3157
330
2FE1
100
AcDbEntity
  8
Defpoints
 62
     0
100
AcDbPoint
 10
33.42299630410714
 20
226.317044657256
 30
0.0
  0
POINT
  5
3158
330
2FE1
100
AcDbEntity
  8
Defpoints
 62
     0
100
AcDbPoint
 10
26.12721800431572
 20
219.4780667365216
 30
0.0
  0
ENDBLK
  5
2FEB
330
2FE1
100
AcDbEntity
  8
0
100
AcDbBlockEnd
  0
BLOCK
  5
3020
330
3014
100
AcDbEntity
  8
0
100
AcDbBlockBegin
  2
*D11
 70
     1
 10
0.0
 20
0.0
 30
0.0
  3
*D11
  1

  0
ARC
  5
3015
330
3014
100
AcDbEntity
  8
寸法線
 62
     0
370
    -2
100
AcDbCircle
 10
72.20151402540434
 20
180.4711488256961
 30
0.0
 40
10.79376605055724
100
AcDbArc
 50
119.0236056867589
 51
135.0000000000008
  0
LINE
  5
3016
330
3014
100
AcDbEntity
  8
寸法線
 62
     0
370
    -2
100
AcDbLine
 10
66.96470341688641
 20
189.9094325788302
 30
0.0
 11
79.56952170593202
 21
196.9031877848649
 31
0.0
  0
ARC
  5
3017
330
3014
100
AcDbEntity
  8
寸法線
 62
     0
370
    -2
100
AcDbCircle
 10
72.20151402540434
 20
180.4711488256961
 30
0.0
 40
10.79376605055724
100
AcDbArc
 50
150.9763943132428
 51
164.023605686758
  0
INSERT
  5
3018
330
3014
100
AcDbEntity
  8
寸法線
 62
     0
370
    -2
100
AcDbBlockReference
  2
_Closed
 10
64.56916885651404
 20
188.1034939945861
 30
0.0
 41
3.0
 42
3.0
 43
3.0
 50
52.98819715662187
  0
INSERT
  5
3019
330
3014
100
AcDbEntity
  8
寸法線
 62
     0
370
    -2
100
AcDbBlockReference
  2
_Closed
 10
61.40774797484709
 20
180.4711488256961
 30
0.0
 41
3.0
 42
3.0
 43
3.0
 50
262.011802843379
  0
MTEXT
  5
301A
330
3014
100
AcDbEntity
  8
寸法線
 62
     0
100
AcDbMText
 10
71.56901784229436
 20
196.4667798067441
 30
0.0
 40
5.0
 41
0.0
 71
     5
 72
     1
  1
45°
  7
OKANO
 11
0.874419892827573
 21
0.4851699197471084
 31
0.0
 73
     1
 44
1.0
  0
POINT
  5
301B
330
3014
100
AcDbEntity
  8
Defpoints
 62
     0
100
AcDbPoint
 10
61.77553663424892
 20
183.2647810479613
 30
0.0
  0
POINT
  5
301C
330
3014
100
AcDbEntity
  8
Defpoints
 62
     0
100
AcDbPoint
 10
72.20151402540432
 20
180.4711488256961
 30
0.0
  0
POINT
  5
301D
330
3014
100
AcDbEntity
  8
Defpoints
 62
     0
100
AcDbPoint
 10
42.55151402540431
 20
180.4711488256961
 30
0.0
  0
POINT
  5
301E
330
3014
100
AcDbEntity
  8
Defpoints
 62
     0
100
AcDbPoint
 10
101.8515140254043
 20
180.4711488256961
 30
0.0
  0
POINT
  5
301F
330
3014
100
AcDbEntity
  8
Defpoints
 62
     0
100
AcDbPoint
 10
29.77510715421082
 20
222.8975556968883
 30
0.0
  0
ENDBLK
  5
3021
330
3014
100
AcDbEntity
  8
0
100
AcDbBlockEnd
  0
BLOCK
  5
302E
330
3024
100
AcDbEntity
  8
0
100
AcDbBlockBegin
  2
*D12
 70
     1
 10
0.0
 20
0.0
 30
0.0
  3
*D12
  1

  0
LINE
  5
30C8
330
3024
100
AcDbEntity
  8
寸法線
 62
     0
370
    -2
100
AcDbLine
 10
258.0621096629795
 20
115.8211488256961
 30
0.0
 11
283.760464644448
 21
115.8211488256961
 31
0.0
  0
LINE
  5
30C9
330
3024
100
AcDbEntity
  8
寸法線
 62
     0
370
    -2
100
AcDbLine
 10
261.0621096629794
 20
210.1211488256962
 30
0.0
 11
283.7604646444481
 21
210.1211488256962
 31
0.0
  0
LINE
  5
30CA
330
3024
100
AcDbEntity
  8
寸法線
 62
     0
370
    -2
100
AcDbLine
 10
280.760464644448
 20
118.8211488256961
 30
0.0
 11
280.7604646444481
 21
207.1211488256961
 31
0.0
  0
INSERT
  5
30CB
330
3024
100
AcDbEntity
  8
寸法線
 62
     0
370
    -2
100
AcDbBlockReference
  2
_Closed
 10
280.760464644448
 20
115.8211488256961
 30
0.0
 41
3.0
 42
3.0
 43
3.0
 50
270.0
  0
INSERT
  5
30CC
330
3024
100
AcDbEntity
  8
寸法線
 62
     0
370
    -2
100
AcDbBlockReference
  2
_Closed
 10
280.7604646444481
 20
210.1211488256962
 30
0.0
 41
3.0
 42
3.0
 43
3.0
 50
90.0
  0
MTEXT
  5
30CD
330
3024
100
AcDbEntity
  8
寸法線
 62
     0
100
AcDbMText
 10
277.260464644448
 20
162.9711488256961
 30
0.0
 40
5.0
 41
0.0
 71
     5
 72
     1
  1
95
  7
OKANO
 11
0.0000000000000001
 21
1.0
 31
0.0
 73
     1
 44
1.0
  0
POINT
  5
30CE
330
3024
100
AcDbEntity
  8
Defpoints
 62
     0
100
AcDbPoint
 10
256.0621096629795
 20
115.8211488256961
 30
0.0
  0
POINT
  5
30CF
330
3024
100
AcDbEntity
  8
Defpoints
 62
     0
100
AcDbPoint
 10
259.0621096629794
 20
210.1211488256962
 30
0.0
  0
POINT
  5
30D0
330
3024
100
AcDbEntity
  8
Defpoints
 62
     0
100
AcDbPoint
 10
280.7604646444481
 20
210.1211488256962
 30
0.0
  0
ENDBLK
  5
302F
330
3024
100
AcDbEntity
  8
0
100
AcDbBlockEnd
  0
BLOCK
  5
3042
330
3038
100
AcDbEntity
  8
0
100
AcDbBlockBegin
  2
*D13
 70
     1
 10
0.0
 20
0.0
 30
0.0
  3
*D13
  1

  0
LINE
  5
3044
330
3038
100
AcDbEntity
  8
寸法線
 62
     0
370
    -2
100
AcDbLine
 10
101.8515140254043
 20
73.14019332955457
 30
0.0
 11
113.6569572643186
 21
73.14019332955457
 31
0.0
  0
LINE
  5
3045
330
3038
100
AcDbEntity
  8
寸法線
 62
     0
370
    -2
100
AcDbLine
 10
103.8515140254043
 20
27.84019332955459
 30
0.0
 11
113.6569572643186
 21
27.84019332955458
 31
0.0
  0
LINE
  5
3046
330
3038
100
AcDbEntity
  8
寸法線
 62
     0
370
    -2
100
AcDbLine
 10
110.6569572643186
 20
70.14019332955458
 30
0.0
 11
110.6569572643186
 21
30.84019332955458
 31
0.0
  0
INSERT
  5
3047
330
3038
100
AcDbEntity
  8
寸法線
 62
     0
370
    -2
100
AcDbBlockReference
  2
_Closed
 10
110.6569572643186
 20
73.14019332955457
 30
0.0
 41
3.0
 42
3.0
 43
3.0
 50
90.0
  0
INSERT
  5
3048
330
3038
100
AcDbEntity
  8
寸法線
 62
     0
370
    -2
100
AcDbBlockReference
  2
_Closed
 10
110.6569572643186
 20
27.84019332955458
 30
0.0
 41
3.0
 42
3.0
 43
3.0
 50
270.0
  0
MTEXT
  5
3049
330
3038
100
AcDbEntity
  8
寸法線
 62
     0
100
AcDbMText
 10
107.1569572643186
 20
43.05730560693326
 30
0.0
 40
5.0
 41
0.0
 71
     5
 72
     1
  1
45.3
  7
OKANO
 11
0.0000000000000001
 21
1.0
 31
0.0
 73
     1
 44
1.0
  0
POINT
  5
304A
330
3038
100
AcDbEntity
  8
Defpoints
 62
     0
100
AcDbPoint
 10
99.85151402540433
 20
73.14019332955457
 30
0.0
  0
POINT
  5
304B
330
3038
100
AcDbEntity
  8
Defpoints
 62
     0
100
AcDbPoint
 10
101.8515140254043
 20
27.84019332955459
 30
0.0
  0
POINT
  5
304C
330
3038
100
AcDbEntity
  8
Defpoints
 62
     0
100
AcDbPoint
 10
110.6569572643186
 20
27.84019332955458
 30
0.0
  0
ENDBLK
  5
3043
330
3038
100
AcDbEntity
  8
0
100
AcDbBlockEnd
  0
BLOCK
  5
308B
330
3081
100
AcDbEntity
  8
0
100
AcDbBlockBegin
  2
*D14
 70
     1
 10
0.0
 20
0.0
 30
0.0
  3
*D14
  1

  0
LINE
  5
308D
330
3081
100
AcDbEntity
  8
寸法線
 62
     0
370
    -2
100
AcDbLine
 10
117.5029521993165
 20
183.341083891316
 30
0.0
 11
117.5029521993165
 21
194.1094403824336
 31
0.0
  0
LINE
  5
308E
330
3081
100
AcDbEntity
  8
寸法線
 62
     0
370
    -2
100
AcDbLine
 10
132.3066950905795
 20
183.341083891316
 30
0.0
 11
132.3066950905795
 21
194.1094403824336
 31
0.0
  0
LINE
  5
308F
330
3081
100
AcDbEntity
  8
寸法線
 62
     0
370
    -2
100
AcDbLine
 10
120.5029521993165
 20
191.1094403824336
 30
0.0
 11
129.3066950905795
 21
191.1094403824336
 31
0.0
  0
INSERT
  5
3090
330
3081
100
AcDbEntity
  8
寸法線
 62
     0
370
    -2
100
AcDbBlockReference
  2
_Closed
 10
117.5029521993165
 20
191.1094403824336
 30
0.0
 41
3.0
 42
3.0
 43
3.0
 50
180.0
  0
INSERT
  5
3091
330
3081
100
AcDbEntity
  8
寸法線
 62
     0
370
    -2
100
AcDbBlockReference
  2
_Closed
 10
132.3066950905795
 20
191.1094403824336
 30
0.0
 41
3.0
 42
3.0
 43
3.0
  0
MTEXT
  5
3092
330
3081
100
AcDbEntity
  8
寸法線
 62
     0
100
AcDbMText
 10
124.904823644948
 20
194.6099325084178
 30
0.0
 40
5.0
 41
0.0
 71
     5
 72
     1
  1
20
  7
OKANO
 73
     1
 44
1.0
  0
POINT
  5
3093
330
3081
100
AcDbEntity
  8
Defpoints
 62
     0
100
AcDbPoint
 10
117.5029521993165
 20
181.341083891316
 30
0.0
  0
POINT
  5
3094
330
3081
100
AcDbEntity
  8
Defpoints
 62
     0
100
AcDbPoint
 10
132.3066950905795
 20
181.341083891316
 30
0.0
  0
POINT
  5
3095
330
3081
100
AcDbEntity
  8
Defpoints
 62
     0
100
AcDbPoint
 10
132.3066950905795
 20
191.1094403824336
 30
0.0
  0
ENDBLK
  5
308C
330
3081
100
AcDbEntity
  8
0
100
AcDbBlockEnd
  0
BLOCK
  5
30A2
330
3097
100
AcDbEntity
  8
0
100
AcDbBlockBegin
  2
*D15
 70
     1
 10
0.0
 20
0.0
 30
0.0
  3
*D15
  1

  0
LINE
  5
30A4
330
3097
100
AcDbEntity
  8
寸法線
 62
     0
370
    -2
100
AcDbLine
 10
46.23387568715223
 20
203.9554806921424
 30
0.0
 11
11.84672392151429
 21
170.8158168969939
 31
0.0
  0
LINE
  5
30A5
330
3097
100
AcDbEntity
  8
寸法線
 62
     0
370
    -2
100
AcDbLine
 10
53.49609084828465
 20
196.4198914223099
 30
0.0
 11
19.10893908264671
 21
163.2802276271614
 31
0.0
  0
LINE
  5
30A6
330
3097
100
AcDbEntity
  8
寸法線
 62
     0
370
    -2
100
AcDbLine
 10
16.08864081409242
 20
170.7374518763519
 30
0.0
 11
19.18730410328868
 21
167.5221445197395
 31
0.0
  0
INSERT
  5
30A7
330
3097
100
AcDbEntity
  8
寸法線
 62
     0
370
    -2
100
AcDbBlockReference
  2
_Closed
 10
14.00686487812434
 20
172.8975928329619
 30
0.0
 41
3.0
 42
3.0
 43
3.0
 50
133.9416402134197
  0
INSERT
  5
30A8
330
3097
100
AcDbEntity
  8
寸法線
 62
     0
370
    -2
100
AcDbBlockReference
  2
_Closed
 10
21.26908003925676
 20
165.3620035631295
 30
0.0
 41
3.0
 42
3.0
 43
3.0
 50
313.9416402134197
  0
MTEXT
  5
30A9
330
3097
100
AcDbEntity
  8
寸法線
 62
     0
100
AcDbMText
 10
20.15813690806893
 20
171.5585367900085
 30
0.0
 40
5.0
 41
0.0
 71
     5
 72
     1
  1
10
  7
OKANO
 11
0.693925311989363
 21
-0.7200469855366838
 31
0.0
 73
     1
 44
1.0
  0
POINT
  5
30AA
330
3097
100
AcDbEntity
  8
Defpoints
 62
     0
100
AcDbPoint
 10
47.6739696582256
 20
205.3433313161211
 30
0.0
  0
POINT
  5
30AB
330
3097
100
AcDbEntity
  8
Defpoints
 62
     0
100
AcDbPoint
 10
54.93618481935802
 20
197.8077420462886
 30
0.0
  0
POINT
  5
30AC
330
3097
100
AcDbEntity
  8
Defpoints
 62
     0
100
AcDbPoint
 10
21.26908003925676
 20
165.3620035631295
 30
0.0
  0
ENDBLK
  5
30A3
330
3097
100
AcDbEntity
  8
0
100
AcDbBlockEnd
  0
BLOCK
  5
30F1
330
30EB
100
AcDbEntity
  8
0
100
AcDbBlockBegin
  2
*D16
 70
     1
 10
0.0
 20
0.0
 30
0.0
  3
*D16
  1

  0
LINE
  5
3120
330
30EB
100
AcDbEntity
  8
寸法線
 62
     0
370
    -2
100
AcDbLine
 10
65.79218909642603
 20
185.6543725207261
 30
0.0
 11
89.03564209923064
 21
166.8573825579063
 31
0.0
  0
MTEXT
  5
3121
330
30EB
100
AcDbEntity
  8
寸法線
 62
     0
100
AcDbMText
 10
78.44841859212507
 20
179.9205471771951
 30
0.0
 40
5.0
 41
0.0
 71
     5
 72
     1
  1
49.3～50
  7
OKANO
 11
0.7775578786986777
 21
-0.6288113749556484
 31
0.0
 73
     1
 44
1.0
  0
INSERT
  5
3122
330
30EB
100
AcDbEntity
  8
寸法線
 62
     0
370
    -2
100
AcDbBlockReference
  2
_Closed
 10
91.36831573532667
 20
164.9709484330394
 30
0.0
 41
3.0
 42
3.0
 43
3.0
 50
321.0375177215183
  0
POINT
  5
3123
330
30EB
100
AcDbEntity
  8
Defpoints
 62
     0
100
AcDbPoint
 10
91.36831573532667
 20
164.9709484330394
 30
0.0
  0
POINT
  5
3124
330
30EB
100
AcDbEntity
  8
Defpoints
 62
     0
100
AcDbPoint
 10
53.0347123154819
 20
195.9713492183528
 30
0.0
  0
ENDBLK
  5
30F2
330
30EB
100
AcDbEntity
  8
0
100
AcDbBlockEnd
  0
ENDSEC
  0
SECTION
  2
ENTITIES
  0
XLINE
  5
22CA
330
1F
100
AcDbEntity
  8
構築線
370
     5
100
AcDbXline
 10
72.20151402540432
 20
178.0193172078315
 30
0.0
 11
0.0
 21
-1.0
 31
0.0
  0
TEXT
  5
29C1
330
1F
100
AcDbEntity
  8
文字
100
AcDbText
 10
280.17557812536
 20
3.315952255566458
 30
0.0
 40
3.599999999999999
  1
SET SCREW COUP
 51
15.0
  7
OKANO
100
AcDbText
  0
TEXT
  5
29C2
330
1F
100
AcDbEntity
  8
文字
100
AcDbText
 10
251.3874819578773
 20
-3.782311080513817
 30
0.0
 40
4.799999999999999
  1
joint kogyo T.okano
 51
15.0
  7
OKANO
100
AcDbText
  0
TEXT
  5
29C3
330
1F
100
AcDbEntity
  8
文字
100
AcDbText
 10
243.8991689460804
 20
10.97006042677396
 30
0.0
 40
4.799999999999999
  1
F-999-2011128 Auto CAD
 51
15.0
  7
OKANO
100
AcDbText
  0
LINE
  5
29C4
330
1F
100
AcDbEntity
  8
太線
100
AcDbLine
 10
216.4769407644665
 20
10.04925277634361
 30
0.0
 11
324.4769407644665
 21
10.04925277634361
 31
0.0
  0
LWPOLYLINE
  5
29C5
330
1F
100
AcDbEntity
  8
太線
100
AcDbPolyline
 90
        4
 70
     1
 43
0.0
 10
216.4769407644665
 20
18.4492527763436
 10
324.4769407644665
 20
18.4492527763436
 10
324.4769407644665
 20
-6.750747223656389
 10
216.4769407644665
 20
-6.750747223656389
  0
TEXT
  5
29C6
330
1F
100
AcDbEntity
  8
文字
100
AcDbText
 10
220.3493243305241
 20
1.855740977492928
 30
0.0
 40
2.399999999999999
  1
CHECK
 51
15.0
  7
OKANO
100
AcDbText
  0
LINE
  5
29C7
330
1F
100
AcDbEntity
  8
太線
100
AcDbLine
 10
240.4769407644665
 20
18.4492527763436
 30
0.0
 11
240.4769407644665
 21
-6.750747223656389
 31
0.0
  0
TEXT
  5
29C8
330
1F
100
AcDbEntity
  8
文字
100
AcDbText
 10
220.3493243305241
 20
-5.063686628722894
 30
0.0
 40
2.399999999999999
  1
ISSUED
 51
15.0
  7
OKANO
100
AcDbText
  0
TEXT
  5
29C9
330
1F
100
AcDbEntity
  8
文字
100
AcDbText
 10
220.6058387634247
 20
-1.732110439454753
 30
0.0
 40
2.399999999999999
  1
APPR
 51
15.0
  7
OKANO
100
AcDbText
  0
TEXT
  5
29CA
330
1F
100
AcDbEntity
  8
文字
100
AcDbText
 10
218.5537287788383
 20
11.85046895510877
 30
0.0
 40
2.399999999999999
  1
FILM NAME
 51
15.0
  7
OKANO
100
AcDbText
  0
TEXT
  5
29CB
330
1F
100
AcDbEntity
  8
文字
100
AcDbText
 10
219.8362976561704
 20
5.443591804251965
 30
0.0
 40
2.399999999999999
  1
DRAWN
 51
15.0
  7
OKANO
100
AcDbText
  0
TEXT
  5
29CC
330
1F
100
AcDbEntity
  8
文字
100
AcDbText
 10
246.0529359624883
 20
2.22791308182559
 30
0.0
 40
4.799999999999999
  1
Ｓ-1-3K
 51
15.0
  7
OKANO
100
AcDbText
  0
TEXT
  5
2DA4
330
1F
100
AcDbEntity
  8
文字
100
AcDbText
 10
202.3478118793389
 20
51.78960823658133
 30
0.0
 40
4.799999999999999
  1
パイプ４方出１箇所貫通
 51
15.0
  7
OKANO
100
AcDbText
  0
XLINE
  5
2DB6
330
1F
100
AcDbEntity
  8
構築線
100
AcDbXline
 10
72.20151402540432
 20
180.4711488256961
 30
0.0
 11
1.0
 21
0.0
 31
0.0
  0
XLINE
  5
2DB7
330
1F
100
AcDbEntity
  8
構築線
370
     5
100
AcDbXline
 10
4921.501514025404
 20
178.0193172078315
 30
0.0
 11
0.0
 21
-1.0
 31
0.0
  0
XLINE
  5
2DB8
330
1F
100
AcDbEntity
  8
構築線
370
     5
100
AcDbXline
 10
-4777.098485974596
 20
178.0193172078315
 30
0.0
 11
0.0
 21
-1.0
 31
0.0
  0
CIRCLE
  5
2DD9
330
1F
100
AcDbEntity
  8
太線
100
AcDbCircle
 10
72.20151402540432
 20
180.4711488256961
 30
0.0
 40
24.65
  0
CIRCLE
  5
2DDC
330
1F
100
AcDbEntity
  8
太線
100
AcDbCircle
 10
72.20151402540432
 20
180.4711488256961
 30
0.0
 40
29.65
  0
LINE
  5
2DE3
330
1F
100
AcDbEntity
  8
構築線
100
AcDbLine
 10
42.55151402540432
 20
180.4711488256961
 30
0.0
 11
42.55151402540433
 21
115.8211488256961
 31
0.0
  0
LINE
  5
2DE4
330
1F
100
AcDbEntity
  8
構築線
100
AcDbLine
 10
42.55151402540433
 20
115.8211488256961
 30
0.0
 11
101.8515140254043
 21
115.8211488256961
 31
0.0
  0
LINE
  5
2DE5
330
1F
100
AcDbEntity
  8
構築線
100
AcDbLine
 10
101.8515140254043
 20
115.8211488256961
 30
0.0
 11
101.8515140254043
 21
150.8211488256961
 31
0.0
  0
LINE
  5
2DE6
330
1F
100
AcDbEntity
  8
構築線
100
AcDbLine
 10
101.8515140254043
 20
150.8211488256961
 30
0.0
 11
136.8515140254043
 21
150.8211488256961
 31
0.0
  0
LINE
  5
2DE7
330
1F
100
AcDbEntity
  8
構築線
100
AcDbLine
 10
136.8515140254043
 20
150.8211488256961
 30
0.0
 11
136.8515140254043
 21
210.1211488256961
 31
0.0
  0
LINE
  5
2DE8
330
1F
100
AcDbEntity
  8
構築線
100
AcDbLine
 10
136.8515140254043
 20
210.1211488256961
 30
0.0
 11
72.20151402540432
 21
210.1211488256961
 31
0.0
  0
LINE
  5
2DE9
330
1F
100
AcDbEntity
  8
太線
100
AcDbLine
 10
72.20151402540432
 20
210.1211488256961
 30
0.0
 11
134.8515140254043
 21
210.1211488256961
 31
0.0
  0
LINE
  5
2DEA
330
1F
100
AcDbEntity
  8
太線
100
AcDbLine
 10
136.8515140254043
 20
208.1211488256961
 30
0.0
 11
136.8515140254042
 21
152.8211488256961
 31
0.0
  0
LINE
  5
2DEB
330
1F
100
AcDbEntity
  8
太線
100
AcDbLine
 10
134.8515140254042
 20
150.8211488256961
 30
0.0
 11
101.8515140254043
 21
150.8211488256961
 31
0.0
  0
LINE
  5
2DEC
330
1F
100
AcDbEntity
  8
太線
100
AcDbLine
 10
101.8515140254043
 20
150.8211488256961
 30
0.0
 11
101.8515140254043
 21
117.8211488256961
 31
0.0
  0
LINE
  5
2DED
330
1F
100
AcDbEntity
  8
太線
100
AcDbLine
 10
99.85151402540433
 20
115.8211488256961
 30
0.0
 11
44.55151402540433
 21
115.8211488256961
 31
0.0
  0
LINE
  5
2DEE
330
1F
100
AcDbEntity
  8
太線
100
AcDbLine
 10
42.55151402540433
 20
117.8211488256961
 30
0.0
 11
42.55151402540431
 21
180.4711488256961
 31
0.0
  0
LINE
  5
2DFB
330
1F
100
AcDbEntity
  8
破線
100
AcDbLine
 10
136.8515140254043
 20
205.1211488256961
 30
0.0
 11
101.8515140254043
 21
205.1211488256961
 31
0.0
  0
LINE
  5
2DFC
330
1F
100
AcDbEntity
  8
破線
100
AcDbLine
 10
101.8515140254043
 20
205.1211488256961
 30
0.0
 11
101.8515140254043
 21
203.1211488256961
 31
0.0
  0
LINE
  5
2DFD
330
1F
100
AcDbEntity
  8
破線
100
AcDbLine
 10
101.8515140254043
 20
203.1211488256961
 30
0.0
 11
99.85151402540433
 21
203.1211488256961
 31
0.0
  0
LINE
  5
2E00
330
1F
100
AcDbEntity
  8
破線
100
AcDbLine
 10
136.8515140254043
 20
155.8211488256961
 30
0.0
 11
101.8515140254043
 21
155.8211488256961
 31
0.0
  0
LINE
  5
2E01
330
1F
100
AcDbEntity
  8
破線
100
AcDbLine
 10
101.8515140254043
 20
155.8211488256961
 30
0.0
 11
101.8515140254043
 21
157.8211488256961
 31
0.0
  0
LINE
  5
2E02
330
1F
100
AcDbEntity
  8
破線
100
AcDbLine
 10
101.8515140254043
 20
157.8211488256961
 30
0.0
 11
99.85151402540433
 21
157.8211488256961
 31
0.0
  0
LINE
  5
2E05
330
1F
100
AcDbEntity
  8
破線
100
AcDbLine
 10
101.8515140254043
 20
203.1211488256961
 30
0.0
 11
101.8515140254043
 21
157.8211488256961
 31
0.0
  0
LINE
  5
2E09
330
1F
100
AcDbEntity
  8
破線
100
AcDbLine
 10
96.85151402540434
 20
115.8211488256961
 30
0.0
 11
96.85151402540434
 21
150.8211488256961
 31
0.0
  0
LINE
  5
2E0A
330
1F
100
AcDbEntity
  8
破線
100
AcDbLine
 10
96.85151402540434
 20
150.8211488256961
 30
0.0
 11
94.85151402540433
 21
150.8211488256961
 31
0.0
  0
LINE
  5
2E0B
330
1F
100
AcDbEntity
  8
破線
100
AcDbLine
 10
94.85151402540433
 20
150.8211488256961
 30
0.0
 11
94.85151402540433
 21
152.8211488256961
 31
0.0
  0
LINE
  5
2E0E
330
1F
100
AcDbEntity
  8
破線
100
AcDbLine
 10
47.55151402540432
 20
115.8211488256961
 30
0.0
 11
47.55151402540432
 21
150.8211488256961
 31
0.0
  0
LINE
  5
2E0F
330
1F
100
AcDbEntity
  8
破線
100
AcDbLine
 10
47.55151402540432
 20
150.8211488256961
 30
0.0
 11
49.55151402540432
 21
150.8211488256961
 31
0.0
  0
LINE
  5
2E10
330
1F
100
AcDbEntity
  8
破線
100
AcDbLine
 10
49.55151402540432
 20
150.8211488256961
 30
0.0
 11
49.55151402540432
 21
152.8211488256961
 31
0.0
  0
LINE
  5
2E13
330
1F
100
AcDbEntity
  8
破線
100
AcDbLine
 10
49.55151402540432
 20
150.8211488256961
 30
0.0
 11
94.85151402540433
 21
150.8211488256961
 31
0.0
  0
ARC
  5
2E17
330
1F
100
AcDbEntity
  8
太線
100
AcDbCircle
 10
72.20151402540432
 20
180.4711488256961
 30
0.0
 40
34.65
100
AcDbArc
 50
122.4993777707547
 51
147.5006222292452
  0
LINE
  5
2E1F
330
1F
100
AcDbEntity
  8
太線
100
AcDbLine
 10
59.53527579009096
 20
207.2795226847403
 30
0.0
 11
53.58439996315289
 21
209.6948646057458
 31
0.0
  0
LINE
  5
2E20
330
1F
100
AcDbEntity
  8
太線
100
AcDbLine
 10
45.39314016636004
 20
193.1373870610094
 30
0.0
 11
42.97779824535466
 21
199.0882628879475
 31
0.0
  0
LINE
  5
2E21
330
1F
100
AcDbEntity
  8
細線
100
AcDbLine
 10
44.42116108529439
 20
201.1804339539406
 30
0.0
 11
51.59813754930468
 21
194.0034574899302
 31
0.0
  0
LINE
  5
2E22
330
1F
100
AcDbEntity
  8
細線
100
AcDbLine
 10
51.49222889715985
 20
208.251501765806
 30
0.0
 11
58.66920536117013
 21
201.0745253017957
 31
0.0
  0
LINE
  5
2E26
330
1F
100
AcDbEntity
  8
細線
100
AcDbLine
 10
50.69249572134673
 20
207.637021379246
 30
0.0
 11
57.83077692627026
 21
200.4987401743224
 31
0.0
  0
LINE
  5
2E27
330
1F
100
AcDbEntity
  8
細線
100
AcDbLine
 10
45.03564147185437
 20
201.9801671297537
 30
0.0
 11
52.17392267677791
 21
194.84188592483
 31
0.0
  0
XLINE
  5
2E3C
330
1F
100
AcDbEntity
  8
構築線
370
     5
100
AcDbXline
 10
124.8515140254043
 20
178.0193172078315
 30
0.0
 11
0.0
 21
-1.0
 31
0.0
  0
XLINE
  5
2E3D
330
1F
100
AcDbEntity
  8
構築線
100
AcDbXline
 10
72.20151402540432
 20
127.8211488256961
 30
0.0
 11
1.0
 21
0.0
 31
0.0
  0
CIRCLE
  5
2E3E
330
1F
100
AcDbEntity
  8
太線
100
AcDbCircle
 10
124.8515140254043
 20
180.4711488256961
 30
0.0
 40
10.0
  0
CIRCLE
  5
2E3F
330
1F
100
AcDbEntity
  8
太線
100
AcDbCircle
 10
124.8515140254043
 20
180.4711488256961
 30
0.0
 40
3.999999999999994
  0
CIRCLE
  5
2E40
330
1F
100
AcDbEntity
  8
太線
100
AcDbCircle
 10
124.8515140254043
 20
180.4711488256961
 30
0.0
 40
4.999999999999998
  0
CIRCLE
  5
2E41
330
1F
100
AcDbEntity
  8
太線
100
AcDbCircle
 10
124.8515140254043
 20
180.4711488256961
 30
0.0
 40
7.500000000000017
  0
CIRCLE
  5
2E42
330
1F
100
AcDbEntity
  8
太線
100
AcDbCircle
 10
72.20151402540432
 20
127.8211488256961
 30
0.0
 40
7.500000000000017
  0
CIRCLE
  5
2E43
330
1F
100
AcDbEntity
  8
太線
100
AcDbCircle
 10
72.20151402540432
 20
127.8211488256961
 30
0.0
 40
4.999999999999998
  0
CIRCLE
  5
2E44
330
1F
100
AcDbEntity
  8
太線
100
AcDbCircle
 10
72.20151402540432
 20
127.8211488256961
 30
0.0
 40
3.999999999999994
  0
CIRCLE
  5
2E45
330
1F
100
AcDbEntity
  8
太線
100
AcDbCircle
 10
72.20151402540432
 20
127.8211488256961
 30
0.0
 40
10.0
  0
XLINE
  5
2E46
330
1F
100
AcDbEntity
  8
構築線
100
AcDbXline
 10
231.4121096629795
 20
179.4103712277987
 30
0.0
 11
0.0
 21
1.0
 31
0.0
  0
CIRCLE
  5
2E49
330
1F
100
AcDbEntity
  8
太線
100
AcDbCircle
 10
231.4121096629795
 20
180.4711488256961
 30
0.0
 40
24.64999999999998
  0
CIRCLE
  5
2E4C
330
1F
100
AcDbEntity
  8
太線
100
AcDbCircle
 10
231.4121096629795
 20
180.4711488256961
 30
0.0
 40
29.64999999999998
  0
LINE
  5
2E4D
330
1F
100
AcDbEntity
  8
太線
100
AcDbLine
 10
201.7621096629795
 20
180.4711488256961
 30
0.0
 11
201.7621096629795
 21
208.1211488256961
 31
0.0
  0
LINE
  5
2E4F
330
1F
100
AcDbEntity
  8
太線
100
AcDbLine
 10
261.0621096629794
 20
208.1211488256962
 30
0.0
 11
261.0621096629795
 21
180.4711488256961
 31
0.0
  0
LINE
  5
2E50
330
1F
100
AcDbEntity
  8
太線
100
AcDbLine
 10
201.7621096629795
 20
180.4711488256961
 30
0.0
 11
201.7621096629795
 21
117.8211488256961
 31
0.0
  0
LINE
  5
2E51
330
1F
100
AcDbEntity
  8
太線
100
AcDbLine
 10
203.7621096629795
 20
115.8211488256961
 30
0.0
 11
259.0621096629795
 21
115.8211488256961
 31
0.0
  0
LINE
  5
2E52
330
1F
100
AcDbEntity
  8
太線
100
AcDbLine
 10
261.0621096629795
 20
117.8211488256961
 30
0.0
 11
261.0621096629795
 21
180.4711488256961
 31
0.0
  0
LINE
  5
2E53
330
1F
100
AcDbEntity
  8
太線
100
AcDbLine
 10
203.7621096629795
 20
210.1211488256961
 30
0.0
 11
259.0621096629794
 21
210.1211488256962
 31
0.0
  0
LINE
  5
2E8F
330
1F
100
AcDbEntity
  8
細線
100
AcDbLine
 10
197.0986194317167
 20
185.2885016411992
 30
0.0
 11
207.1908186922941
 21
185.0484366376423
 31
0.0
  0
LINE
  5
2E90
330
1F
100
AcDbEntity
  8
細線
100
AcDbLine
 10
197.2533563482926
 20
186.2851037607091
 30
0.0
 11
207.4002634935737
 21
186.0437374106174
 31
0.0
  0
LINE
  5
2E91
330
1F
100
AcDbEntity
  8
細線
100
AcDbLine
 10
196.9083757726986
 20
177.2907640017037
 30
0.0
 11
207.0005750332759
 21
177.0506989981468
 31
0.0
  0
LINE
  5
2E92
330
1F
100
AcDbEntity
  8
細線
100
AcDbLine
 10
197.0155517745198
 20
176.2879317113397
 30
0.0
 11
207.1624589198011
 21
176.046565361248
 31
0.0
  0
ARC
  5
2E93
330
1F
100
AcDbEntity
  8
太線
100
AcDbCircle
 10
231.4121096629795
 20
180.4711488256961
 30
0.0
 40
34.65
100
AcDbArc
 50
166.1367294756544
 51
191.137973934145
  0
LINE
  5
2E94
330
1F
100
AcDbEntity
  8
太線
100
AcDbLine
 10
203.26943278497
 20
171.1377551160131
 30
0.0
 11
197.4147475876238
 21
173.7777287793246
 31
0.0
  0
LINE
  5
2E95
330
1F
100
AcDbEntity
  8
太線
100
AcDbLine
 10
203.7450419325153
 20
191.1320992147519
 30
0.0
 11
197.7714544482829
 21
188.7734868533787
 31
0.0
  0
ARC
  5
2E96
330
1F
100
AcDbEntity
  8
太線
100
AcDbCircle
 10
231.4121096629795
 20
127.8211488256961
 30
0.0
 40
34.65
100
AcDbArc
 50
166.1367294756544
 51
191.137973934145
  0
LINE
  5
2E97
330
1F
100
AcDbEntity
  8
太線
100
AcDbLine
 10
201.7621096629795
 20
119.167431855244
 30
0.0
 11
197.4147475876238
 21
121.1277287793246
 31
0.0
  0
LINE
  5
2E98
330
1F
100
AcDbEntity
  8
細線
100
AcDbLine
 10
197.0155517745198
 20
123.6379317113397
 30
0.0
 11
207.1624589198011
 21
123.396565361248
 31
0.0
  0
LINE
  5
2E99
330
1F
100
AcDbEntity
  8
細線
100
AcDbLine
 10
196.9083757726986
 20
124.6407640017037
 30
0.0
 11
207.0005750332759
 21
124.4006989981467
 31
0.0
  0
LINE
  5
2E9A
330
1F
100
AcDbEntity
  8
太線
100
AcDbLine
 10
201.7621096629795
 20
137.6991578792415
 30
0.0
 11
197.7714544482829
 21
136.1234868533786
 31
0.0
  0
LINE
  5
2E9B
330
1F
100
AcDbEntity
  8
細線
100
AcDbLine
 10
197.2533563482926
 20
133.6351037607091
 30
0.0
 11
207.4002634935737
 21
133.3937374106174
 31
0.0
  0
LINE
  5
2E9C
330
1F
100
AcDbEntity
  8
細線
100
AcDbLine
 10
197.0986194317167
 20
132.6385016411992
 30
0.0
 11
207.1908186922941
 21
132.3984366376423
 31
0.0
  0
LINE
  5
2E9D
330
1F
100
AcDbEntity
  8
破線
100
AcDbLine
 10
206.7621096629795
 20
115.8211488256961
 30
0.0
 11
206.7621096629795
 21
150.8211488256961
 31
0.0
  0
LINE
  5
2E9E
330
1F
100
AcDbEntity
  8
破線
100
AcDbLine
 10
206.7621096629795
 20
150.8211488256961
 30
0.0
 11
256.0621096629795
 21
150.8211488256961
 31
0.0
  0
LINE
  5
2E9F
330
1F
100
AcDbEntity
  8
破線
100
AcDbLine
 10
256.0621096629795
 20
150.8211488256961
 30
0.0
 11
256.0621096629795
 21
115.8211488256961
 31
0.0
  0
LINE
  5
2EA5
330
1F
100
AcDbEntity
  8
破線
100
AcDbLine
 10
208.7621096629795
 20
150.8211488256961
 30
0.0
 11
208.7621096629795
 21
152.8211488256961
 31
0.0
  0
LINE
  5
2EA6
330
1F
100
AcDbEntity
  8
破線
100
AcDbLine
 10
254.0621096629795
 20
150.8211488256961
 30
0.0
 11
254.0621096629795
 21
152.8211488256961
 31
0.0
  0
XLINE
  5
2EA8
330
1F
100
AcDbEntity
  8
構築線
100
AcDbXline
 10
32.65221632861516
 20
50.49019332955459
 30
0.0
 11
1.0
 21
0.0
 31
0.0
  0
CIRCLE
  5
2EAB
330
1F
100
AcDbEntity
  8
太線
100
AcDbCircle
 10
72.20151402540432
 20
50.49019332955459
 30
0.0
 40
24.65
  0
CIRCLE
  5
2EAE
330
1F
100
AcDbEntity
  8
太線
100
AcDbCircle
 10
72.20151402540432
 20
50.49019332955459
 30
0.0
 40
29.65
  0
ELLIPSE
  5
2EB1
330
1F
100
AcDbEntity
  8
太線
100
AcDbEllipse
 10
55.99748978106697
 20
50.98356219310677
 30
0.0
 11
6.297664918256828
 21
0.0
 31
0.0
210
0.0
220
0.0
230
1.0
 40
0.8062129979295185
 41
-1.570796326794896
 42
4.712388980384689
  0
ELLIPSE
  5
2EB2
330
1F
100
AcDbEntity
  8
太線
100
AcDbEllipse
 10
56.15766545233498
 20
51.40995182821257
 30
0.0
 11
5.421777917755775
 21
0.0
 31
0.0
210
0.0
220
0.0
230
1.0
 40
0.7593413274163612
 41
-1.570796326794896
 42
4.712388980384689
  0
LINE
  5
2EB3
330
1F
100
AcDbEntity
  8
太線
100
AcDbLine
 10
42.55151402540432
 20
50.49019332955459
 30
0.0
 11
42.55151402540432
 21
78.14019332955457
 31
0.0
  0
LINE
  5
2EB4
330
1F
100
AcDbEntity
  8
太線
100
AcDbLine
 10
44.55151402540432
 20
80.14019332955458
 30
0.0
 11
134.8515140254043
 21
80.14019332955459
 31
0.0
  0
LINE
  5
2EB5
330
1F
100
AcDbEntity
  8
太線
100
AcDbLine
 10
136.8515140254043
 20
78.14019332955459
 30
0.0
 11
136.8515140254043
 21
22.84019332955459
 31
0.0
  0
LINE
  5
2EB6
330
1F
100
AcDbEntity
  8
太線
100
AcDbLine
 10
134.8515140254043
 20
20.84019332955459
 30
0.0
 11
44.55151402540432
 21
20.84019332955458
 31
0.0
  0
LINE
  5
2EB7
330
1F
100
AcDbEntity
  8
太線
100
AcDbLine
 10
42.55151402540432
 20
22.84019332955458
 30
0.0
 11
42.55151402540431
 21
50.49019332955459
 31
0.0
  0
ARC
  5
2EB8
330
1F
100
AcDbEntity
  8
太線
100
AcDbCircle
 10
72.20151402540429
 20
50.49019332955459
 30
0.0
 40
34.65
100
AcDbArc
 50
76.13672947565451
 51
101.137973934145
  0
LINE
  5
2EB9
330
1F
100
AcDbEntity
  8
太線
100
AcDbLine
 10
62.86812031572131
 20
78.63287020756406
 30
0.0
 11
65.50809397903273
 21
84.48755540491024
 31
0.0
  0
LINE
  5
2EBA
330
1F
100
AcDbEntity
  8
細線
100
AcDbLine
 10
68.01829691104789
 20
84.88675121801424
 30
0.0
 11
67.77693056095618
 21
74.73984407273295
 31
0.0
  0
LINE
  5
2EBB
330
1F
100
AcDbEntity
  8
細線
100
AcDbLine
 10
69.02112920141189
 20
84.99392721983548
 30
0.0
 11
68.78106419785493
 21
74.90172795925815
 31
0.0
  0
LINE
  5
2EBC
330
1F
100
AcDbEntity
  8
細線
100
AcDbLine
 10
78.01546896041728
 20
84.64894664424154
 30
0.0
 11
77.77410261032557
 21
74.50203949896033
 31
0.0
  0
LINE
  5
2EBD
330
1F
100
AcDbEntity
  8
細線
100
AcDbLine
 10
77.01886684090741
 20
84.80368356081735
 30
0.0
 11
76.77880183735044
 21
74.71148430024001
 31
0.0
  0
LINE
  5
2EBE
330
1F
100
AcDbEntity
  8
太線
100
AcDbLine
 10
82.8624644144601
 20
78.15726106001872
 30
0.0
 11
80.50385205308684
 21
84.13084854425122
 31
0.0
  0
ARC
  5
2EBF
330
1F
100
AcDbEntity
  8
太線
100
AcDbCircle
 10
124.8515140254043
 20
50.49019332955459
 30
0.0
 40
34.65
100
AcDbArc
 50
76.13672947565451
 51
101.137973934145
  0
LINE
  5
2EC0
330
1F
100
AcDbEntity
  8
太線
100
AcDbLine
 10
116.1977970549521
 20
80.14019332955461
 30
0.0
 11
118.1580939790327
 21
84.48755540491024
 31
0.0
  0
LINE
  5
2EC1
330
1F
100
AcDbEntity
  8
細線
100
AcDbLine
 10
120.6682969110479
 20
84.88675121801424
 30
0.0
 11
120.4269305609561
 21
74.73984407273295
 31
0.0
  0
LINE
  5
2EC2
330
1F
100
AcDbEntity
  8
細線
100
AcDbLine
 10
121.6711292014118
 20
84.99392721983548
 30
0.0
 11
121.4310641978549
 21
74.90172795925815
 31
0.0
  0
LINE
  5
2EC3
330
1F
100
AcDbEntity
  8
細線
100
AcDbLine
 10
130.6654689604172
 20
84.64894664424154
 30
0.0
 11
130.4241026103255
 21
74.50203949896033
 31
0.0
  0
LINE
  5
2EC4
330
1F
100
AcDbEntity
  8
細線
100
AcDbLine
 10
129.6688668409074
 20
84.80368356081735
 30
0.0
 11
129.4288018373504
 21
74.71148430024001
 31
0.0
  0
LINE
  5
2EC5
330
1F
100
AcDbEntity
  8
太線
100
AcDbLine
 10
134.7295230789496
 20
80.14019332955459
 30
0.0
 11
133.1538520530868
 21
84.13084854425122
 31
0.0
  0
LINE
  5
2EC8
330
1F
100
AcDbEntity
  8
破線
100
AcDbLine
 10
136.8515140254043
 20
75.14019332955459
 30
0.0
 11
101.8515140254043
 21
75.14019332955459
 31
0.0
  0
LINE
  5
2EC9
330
1F
100
AcDbEntity
  8
破線
100
AcDbLine
 10
101.8515140254043
 20
75.14019332955459
 30
0.0
 11
101.8515140254043
 21
73.14019332955459
 31
0.0
  0
LINE
  5
2ECA
330
1F
100
AcDbEntity
  8
破線
100
AcDbLine
 10
101.8515140254043
 20
73.14019332955459
 30
0.0
 11
99.85151402540433
 21
73.14019332955459
 31
0.0
  0
LINE
  5
2ECD
330
1F
100
AcDbEntity
  8
破線
100
AcDbLine
 10
136.8515140254043
 20
25.84019332955458
 30
0.0
 11
101.8515140254043
 21
25.84019332955458
 31
0.0
  0
LINE
  5
2ECE
330
1F
100
AcDbEntity
  8
破線
100
AcDbLine
 10
101.8515140254043
 20
25.84019332955458
 30
0.0
 11
101.8515140254043
 21
27.84019332955459
 31
0.0
  0
LINE
  5
2ECF
330
1F
100
AcDbEntity
  8
破線
100
AcDbLine
 10
101.8515140254043
 20
27.84019332955459
 30
0.0
 11
99.85151402540433
 21
27.84019332955459
 31
0.0
  0
LINE
  5
2ED2
330
1F
100
AcDbEntity
  8
破線
100
AcDbLine
 10
101.8515140254043
 20
73.14019332955459
 30
0.0
 11
101.8515140254043
 21
27.84019332955459
 31
0.0
  0
LINE
  5
2EDB
330
1F
100
AcDbEntity
  8
太線
100
AcDbLine
 10
41.08881565319623
 20
205.9269929484119
 30
0.0
 11
46.74566990268861
 21
211.5838471979042
 31
0.0
  0
LINE
  5
2EDC
330
1F
100
AcDbEntity
  8
太線
100
AcDbLine
 10
46.74566990268861
 20
211.5838471979042
 30
0.0
 11
46.74566990268861
 21
212.9980607602773
 31
0.0
  0
LINE
  5
2EDD
330
1F
100
AcDbEntity
  8
太線
100
AcDbLine
 10
46.74566990268861
 20
212.9980607602773
 30
0.0
 11
40.38170887200968
 21
219.3620217909562
 31
0.0
  0
LINE
  5
2EDE
330
1F
100
AcDbEntity
  8
太線
100
AcDbLine
 10
40.38170887200968
 20
219.3620217909562
 30
0.0
 11
33.3106410601442
 21
212.2909539790907
 31
0.0
  0
LINE
  5
2EDF
330
1F
100
AcDbEntity
  8
太線
100
AcDbLine
 10
33.3106410601442
 20
212.2909539790907
 30
0.0
 11
39.67460209082313
 21
205.9269929484119
 31
0.0
  0
LINE
  5
2EE0
330
1F
100
AcDbEntity
  8
太線
100
AcDbLine
 10
39.67460209082313
 20
205.9269929484119
 30
0.0
 11
41.08881565319623
 21
205.9269929484119
 31
0.0
  0
LINE
  5
2EE1
330
1F
100
AcDbEntity
  8
破線
100
AcDbLine
 10
46.74566990268862
 20
211.5838471979042
 30
0.0
 11
45.33145634031551
 21
211.5838471979042
 31
0.0
  0
LINE
  5
2EE2
330
1F
100
AcDbEntity
  8
破線
100
AcDbLine
 10
45.33145634031551
 20
211.5838471979042
 30
0.0
 11
38.96749530963658
 21
217.9478082285831
 31
0.0
  0
LINE
  5
2EE3
330
1F
100
AcDbEntity
  8
破線
100
AcDbLine
 10
41.08881565319623
 20
205.9269929484119
 30
0.0
 11
41.08881565319623
 21
207.341206510785
 31
0.0
  0
LINE
  5
2EE4
330
1F
100
AcDbEntity
  8
破線
100
AcDbLine
 10
41.08881565319623
 20
207.341206510785
 30
0.0
 11
34.72485462251731
 21
213.7051675414638
 31
0.0
  0
LINE
  5
2EE5
330
1F
100
AcDbEntity
  8
破線
100
AcDbLine
 10
39.67460209082313
 20
205.9269929484119
 30
0.0
 11
46.74566990268861
 21
212.9980607602773
 31
0.0
  0
LINE
  5
2EE6
330
1F
100
AcDbEntity
  8
破線
100
AcDbLine
 10
34.01774784133076
 20
212.9980607602773
 30
0.0
 11
40.38170887200968
 21
206.6340997295984
 31
0.0
  0
LINE
  5
2EE7
330
1F
100
AcDbEntity
  8
破線
100
AcDbLine
 10
39.67460209082313
 20
218.6549150097697
 30
0.0
 11
46.03856312150206
 21
212.2909539790907
 31
0.0
  0
CIRCLE
  5
2EE8
330
1F
100
AcDbEntity
  8
太線
100
AcDbCircle
 10
29.77510715421147
 20
222.897555696889
 30
0.0
 40
4.999999999999998
  0
CIRCLE
  5
2EE9
330
1F
100
AcDbEntity
  8
太線
100
AcDbCircle
 10
29.77510715421147
 20
222.897555696889
 30
0.0
 40
3.999999999999994
  0
LWPOLYLINE
  5
2EEA
330
1F
100
AcDbEntity
  8
太線
100
AcDbPolyline
 90
        6
 70
     1
 43
0.0
 10
31.8964274977711
 20
225.0188760404486
 10
28.99865001890391
 20
225.7953331757561
 10
26.87732967534428
 20
223.6740128321965
 10
27.65378681065183
 20
220.7762353533293
 10
30.55156428951903
 20
219.9997782180218
 10
32.67288463307866
 20
222.1210985615814
  0
CIRCLE
  5
2EEF
330
1F
100
AcDbEntity
  8
太線
100
AcDbCircle
 10
231.4121096629795
 20
180.4711488256961
 30
0.0
 40
22.65
  0
CIRCLE
  5
2EF0
330
1F
100
AcDbEntity
  8
太線
100
AcDbCircle
 10
72.20151402540429
 20
50.49019332955459
 30
0.0
 40
22.65
  0
ELLIPSE
  5
2EF1
330
1F
100
AcDbEntity
  8
太線
100
AcDbEllipse
 10
231.019614090655
 20
197.3184426812879
 30
0.0
 11
5.421777917755775
 21
0.0
 31
0.0
210
0.0
220
0.0
230
1.0
 40
0.7593413274163612
 41
-1.570796326794896
 42
4.712388980384689
  0
ELLIPSE
  5
2EF2
330
1F
100
AcDbEntity
  8
太線
100
AcDbEllipse
 10
230.859438419387
 20
196.8920530461821
 30
0.0
 11
6.297664918256828
 21
0.0
 31
0.0
210
0.0
220
0.0
230
1.0
 40
0.8062129979295185
 41
-1.570796326794896
 42
4.712388980384689
  0
ARC
  5
2F12
330
1F
100
AcDbEntity
  8
太線
100
AcDbCircle
 10
44.55151402540432
 20
78.14019332955457
 30
0.0
 40
2.0
100
AcDbArc
 50
90.0
 51
180.0
  0
ARC
  5
2F13
330
1F
100
AcDbEntity
  8
太線
100
AcDbCircle
 10
134.8515140254043
 20
78.14019332955459
 30
0.0
 40
2.0
100
AcDbArc
 50
0.0
 51
90.0
  0
ARC
  5
2F14
330
1F
100
AcDbEntity
  8
太線
100
AcDbCircle
 10
44.55151402540433
 20
117.8211488256961
 30
0.0
 40
2.0
100
AcDbArc
 50
180.0
 51
270.0
  0
ARC
  5
2F15
330
1F
100
AcDbEntity
  8
太線
100
AcDbCircle
 10
99.85151402540433
 20
117.8211488256961
 30
0.0
 40
2.0
100
AcDbArc
 50
270.0
 51
0.0
  0
ARC
  5
2F16
330
1F
100
AcDbEntity
  8
太線
100
AcDbCircle
 10
134.8515140254042
 20
152.8211488256961
 30
0.0
 40
2.0
100
AcDbArc
 50
270.0
 51
0.0
  0
ARC
  5
2F17
330
1F
100
AcDbEntity
  8
太線
100
AcDbCircle
 10
134.8515140254043
 20
208.1211488256961
 30
0.0
 40
2.0
100
AcDbArc
 50
0.0
 51
90.0
  0
ARC
  5
2F18
330
1F
100
AcDbEntity
  8
太線
100
AcDbCircle
 10
203.7621096629795
 20
208.1211488256961
 30
0.0
 40
2.0
100
AcDbArc
 50
90.0
 51
180.0
  0
ARC
  5
2F19
330
1F
100
AcDbEntity
  8
太線
100
AcDbCircle
 10
259.0621096629794
 20
208.1211488256962
 30
0.0
 40
2.0
100
AcDbArc
 50
0.0000000000001018
 51
90.0
  0
ARC
  5
2F1A
330
1F
100
AcDbEntity
  8
太線
100
AcDbCircle
 10
259.0621096629795
 20
117.8211488256961
 30
0.0
 40
2.0
100
AcDbArc
 50
270.0
 51
0.0
  0
ARC
  5
2F1B
330
1F
100
AcDbEntity
  8
太線
100
AcDbCircle
 10
203.7621096629795
 20
117.8211488256961
 30
0.0
 40
2.0
100
AcDbArc
 50
180.0
 51
270.0
  0
ARC
  5
2F1C
330
1F
100
AcDbEntity
  8
太線
100
AcDbCircle
 10
44.55151402540432
 20
22.84019332955458
 30
0.0
 40
2.0
100
AcDbArc
 50
180.0
 51
270.0
  0
DIMENSION
  5
2F1E
330
1F
100
AcDbEntity
  8
寸法線
100
AcDbDimension
  2
*D2
 10
160.9229676393258
 20
210.1211488256961
 30
0.0
 11
157.4229676393258
 21
207.6211488256961
 31
0.0
 70
    32
 71
     5
 42
5.0
  3
sunpo
100
AcDbAlignedDimension
 13
136.8515140254043
 23
205.1211488256961
 33
0.0
 14
134.8515140254043
 24
210.1211488256961
 34
0.0
 50
90.0
100
AcDbRotatedDimension
1001
ACAD
1000
DSTYLE
1002
{
1070
    40
1040
1.0
1002
}
  0
DIMENSION
  5
2F2D
330
1F
100
AcDbEntity
  8
寸法線
100
AcDbDimension
  2
*D3
 10
136.8515140254043
 20
96.03147875581408
 30
0.0
 11
89.70151402540432
 21
99.53147875581407
 31
0.0
 70
    32
  1
95
 71
     5
 42
94.30000000000001
  3
sunpo
100
AcDbAlignedDimension
 13
42.55151402540432
 23
78.14019332955457
 33
0.0
 14
136.8515140254043
 24
78.14019332955459
 34
0.0
100
AcDbRotatedDimension
1001
ACAD
1000
DSTYLE
1002
{
1070
    40
1040
1.0
1002
}
  0
DIMENSION
  5
2F3A
330
1F
100
AcDbEntity
  8
寸法線
100
AcDbDimension
  2
*D4
 10
165.0569865204413
 20
80.14019332955458
 30
0.0
 11
161.5569865204413
 21
50.49019332955461
 31
0.0
 70
    32
  1
60
 71
     5
 42
59.29999999999999
  3
sunpo
100
AcDbAlignedDimension
 13
136.8515140254043
 23
20.84019332955458
 33
0.0
 14
134.7295230789496
 24
80.14019332955459
 34
0.0
 50
90.0
100
AcDbRotatedDimension
1001
ACAD
1000
DSTYLE
1002
{
1070
    40
1040
1.0
1002
}
  0
DIMENSION
  5
2F47
330
1F
100
AcDbEntity
  8
寸法線
100
AcDbDimension
  2
*D5
 10
256.0621096629795
 20
91.95194732801974
 30
0.0
 11
231.4121096629795
 21
95.45194732801974
 31
0.0
 70
    32
  1
49.3～50
 71
     5
 42
49.29999999999998
  3
sunpo
100
AcDbAlignedDimension
 13
206.7621096629795
 23
115.8211488256961
 33
0.0
 14
256.0621096629795
 24
115.8211488256961
 34
0.0
100
AcDbRotatedDimension
1001
ACAD
1000
DSTYLE
1002
{
1070
    40
1040
1.0
1002
}
  0
DIMENSION
  5
2F76
330
1F
100
AcDbEntity
  8
寸法線
100
AcDbDimension
  2
*D6
 10
196.9083757726986
 20
102.8123209418197
 30
0.0
 11
188.4304900897285
 21
106.3123209418197
 31
0.0
 70
    32
  1
5
 71
     5
 42
4.853733890280949
  3
sunpo
100
AcDbAlignedDimension
 13
201.7621096629795
 23
123.5250244641723
 33
0.0
 14
196.9083757726986
 24
124.6407640017037
 34
0.0
100
AcDbRotatedDimension
1001
ACAD
1000
DSTYLE
1002
{
1070
    40
1040
1.0
1002
}
  0
DIMENSION
  5
2F85
330
1F
100
AcDbEntity
  8
寸法線
100
AcDbDimension
  2
*D7
 10
136.8515140254043
 20
126.2262366162249
 30
0.0
 11
130.8515140254043
 21
129.7267287422091
 31
0.0
 70
    32
 71
     5
 42
12.0
  3
sunpo
100
AcDbAlignedDimension
 13
124.8515140254043
 23
180.4711488256961
 33
0.0
 14
136.8515140254043
 24
155.8211488256961
 34
0.0
100
AcDbRotatedDimension
1001
ACAD
1000
DSTYLE
1002
{
1070
    40
1040
1.0
1002
}
  0
DIMENSION
  5
2F92
330
1F
100
AcDbEntity
  8
寸法線
100
AcDbDimension
  2
*D8
 10
134.8944890800705
 20
198.3659340556188
 30
0.0
 11
124.9163360162721
 21
201.866426181603
 31
0.0
 70
    32
  1
24
 71
     5
 42
19.95630612759691
  3
sunpo
100
AcDbAlignedDimension
 13
114.9381829524736
 23
179.9276008441681
 33
0.0
 14
134.8944890800705
 24
179.9276008441681
 34
0.0
100
AcDbRotatedDimension
1001
ACAD
1000
DSTYLE
1002
{
1070
    40
1040
1.0
1002
}
  0
DIMENSION
  5
2FD3
330
1F
100
AcDbEntity
  8
寸法線
100
AcDbDimension
  2
*D9
 10
53.56954153540167
 20
218.4077188306172
 30
0.0
 11
52.50888136362179
 21
224.4181264707029
 31
0.0
 70
    33
  1
13
 71
     5
 42
10.0
  3
sunpo
100
AcDbAlignedDimension
 13
39.67460209082313
 23
218.6549150097697
 33
0.0
 14
46.74566990268861
 24
211.5838471979042
 34
0.0
1001
ACAD
1000
DSTYLE
1002
{
1070
    40
1040
1.0
1002
}
  0
ARC
  5
2FF9
330
1F
100
AcDbEntity
  8
太線
100
AcDbCircle
 10
134.8515140254043
 20
22.84019332955459
 30
0.0
 40
2.0
100
AcDbArc
 50
270.0
 51
0.0
  0
LINE
  5
3001
330
1F
100
AcDbEntity
  8
破線
100
AcDbLine
 10
99.85151402540433
 20
73.14019332955457
 30
0.0
 11
81.92776715803459
 21
73.14019332955459
 31
0.0
  0
LINE
  5
3002
330
1F
100
AcDbEntity
  8
破線
100
AcDbLine
 10
99.85151402540433
 20
27.84019332955459
 30
0.0
 11
81.92776715803461
 21
27.84019332955459
 31
0.0
  0
LINE
  5
3003
330
1F
100
AcDbEntity
  8
破線
100
AcDbLine
 10
94.85151402540433
 20
152.8211488256961
 30
0.0
 11
94.85151402540433
 21
170.7448956930659
 31
0.0
  0
LINE
  5
3004
330
1F
100
AcDbEntity
  8
破線
100
AcDbLine
 10
49.55151402540432
 20
152.8211488256961
 30
0.0
 11
49.55151402540432
 21
170.7448956930658
 31
0.0
  0
LINE
  5
3005
330
1F
100
AcDbEntity
  8
破線
100
AcDbLine
 10
99.85151402540433
 20
157.8211488256961
 30
0.0
 11
81.92776715803459
 21
157.8211488256961
 31
0.0
  0
LINE
  5
3006
330
1F
100
AcDbEntity
  8
破線
100
AcDbLine
 10
99.85151402540433
 20
203.1211488256961
 30
0.0
 11
81.92776715803459
 21
203.1211488256961
 31
0.0
  0
LINE
  5
3007
330
1F
100
AcDbEntity
  8
破線
100
AcDbLine
 10
254.0621096629795
 20
152.8211488256961
 30
0.0
 11
254.0621096629795
 21
170.7448956930659
 31
0.0
  0
LINE
  5
3008
330
1F
100
AcDbEntity
  8
破線
100
AcDbLine
 10
208.7621096629795
 20
152.8211488256961
 30
0.0
 11
208.7621096629795
 21
170.7448956930659
 31
0.0
  0
LINE
  5
3010
330
1F
100
AcDbEntity
  8
中心線
100
AcDbLine
 10
72.20151402540432
 20
215.1211488256961
 30
0.0
 11
72.20151402540432
 21
145.7620476561144
 31
0.0
  0
LINE
  5
3011
330
1F
100
AcDbEntity
  8
中心線
100
AcDbLine
 10
42.55151402540431
 20
180.4711488256961
 30
0.0
 11
101.8515140254043
 21
180.4711488256961
 31
0.0
  0
LINE
  5
3012
330
1F
100
AcDbEntity
  8
中心線
100
AcDbLine
 10
72.20151402540432
 20
180.4711488256961
 30
0.0
 11
29.77510715421084
 21
222.8975556968884
 31
0.0
  0
DIMENSION
  5
3013
330
1F
100
AcDbEntity
  8
寸法線
100
AcDbDimension
  2
*D11
 10
29.77510715421084
 20
222.8975556968884
 30
0.0
 11
71.56901784229434
 21
196.4667798067441
 31
0.0
 70
    34
 71
     5
 42
0.785398163397433
  3
sunpo
100
AcDb2LineAngularDimension
 13
42.55151402540431
 23
180.4711488256961
 33
0.0
 14
101.8515140254043
 24
180.4711488256961
 34
0.0
 15
72.20151402540432
 25
180.4711488256961
 35
0.0
 16
61.77553663424892
 26
183.2647810479613
 36
0.0
1001
ACAD
1000
DSTYLE
1002
{
1070
    40
1040
1.0
1002
}
  0
DIMENSION
  5
3023
330
1F
100
AcDbEntity
  8
寸法線
100
AcDbDimension
  2
*D12
 10
280.7604646444481
 20
210.1211488256962
 30
0.0
 11
277.260464644448
 21
162.9711488256961
 31
0.0
 70
    32
  1
95
 71
     5
 42
94.30000000000005
  3
sunpo
100
AcDbAlignedDimension
 13
256.0621096629795
 23
115.8211488256961
 33
0.0
 14
259.0621096629794
 24
210.1211488256962
 34
0.0
 50
90.0
100
AcDbRotatedDimension
1001
ACAD
1000
DSTYLE
1002
{
1070
    40
1040
1.0
1002
}
  0
DIMENSION
  5
3037
330
1F
100
AcDbEntity
  8
寸法線
100
AcDbDimension
  2
*D13
 10
110.6569572643186
 20
27.84019332955458
 30
0.0
 11
110.6569572643186
 21
43.05730560693326
 31
0.0
 70
   160
 71
     5
 42
45.3
  3
sunpo
100
AcDbAlignedDimension
 13
99.85151402540433
 23
73.14019332955457
 33
0.0
 14
101.8515140254043
 24
27.84019332955459
 34
0.0
 50
90.0
100
AcDbRotatedDimension
1001
ACAD
1000
DSTYLE
1002
{
1070
    40
1040
1.0
1002
}
  0
DIMENSION
  5
3080
330
1F
100
AcDbEntity
  8
寸法線
100
AcDbDimension
  2
*D14
 10
132.3066950905795
 20
191.1094403824336
 30
0.0
 11
124.904823644948
 21
194.6099325084178
 31
0.0
 70
    32
  1
20
 71
     5
 42
14.80374289126302
  3
sunpo
100
AcDbAlignedDimension
 13
117.5029521993165
 23
181.341083891316
 33
0.0
 14
132.3066950905795
 24
181.341083891316
 34
0.0
100
AcDbRotatedDimension
1001
ACAD
1000
DSTYLE
1002
{
1070
    40
1040
1.0
1002
}
  0
DIMENSION
  5
3096
330
1F
100
AcDbEntity
  8
寸法線
100
AcDbDimension
  2
*D15
 10
21.26908003925676
 20
165.3620035631295
 30
0.0
 11
20.15813690806893
 21
171.5585367900085
 31
0.0
 70
    33
  1
10
 71
     5
 42
10.46541325940816
  3
sunpo
100
AcDbAlignedDimension
 13
47.67396965822558
 23
205.3433313161211
 33
0.0
 14
54.93618481935801
 24
197.8077420462886
 34
0.0
1001
ACAD
1000
DSTYLE
1002
{
1070
    40
1040
1.0
1002
}
  0
TEXT
  5
30D2
330
1F
100
AcDbEntity
  8
文字
100
AcDbText
 10
207.229596935319
 20
26.14428946409645
 30
0.0
 40
4.799999999999999
  1
JAN 4562182300294
 51
15.0
  7
OKANO
100
AcDbText
  0
DIMENSION
  5
30EA
330
1F
100
AcDbEntity
  8
寸法線
100
AcDbDimension
  2
*D16
 10
53.0347123154819
 20
195.9713492183528
 30
0.0
 11
76.24757877978033
 21
177.1990946017497
 31
0.0
 70
   163
  1
49.3～50
 71
     5
 42
49.29999999999998
  3
sunpo
100
AcDbDiametricDimension
 15
91.36831573532667
 25
164.9709484330394
 35
0.0
 40
0.0
1001
ACAD
1000
DSTYLE
1002
{
1070
    40
1040
1.0
1070
   288
1070
     1
1002
}
  0
TEXT
  5
3104
330
1F
100
AcDbEntity
  8
文字
100
AcDbText
 10
37.85238441882302
 20
233.6237584006762
 30
0.0
 40
4.799999999999999
  1
8mm六角レンチ仕様
 51
15.0
  7
OKANO
100
AcDbText
  0
LEADER
  5
3105
330
1F
100
AcDbEntity
  8
寸法線
100
AcDbLeader
  3
sunpo
 76
     2
 10
30.61635826460406
 20
223.8996286333912
 30
0.0
 10
46.19765865837552
 20
232.1651392967995
 30
0.0
1001
ACAD
1000
DSTYLE
1002
{
1070
   147
1040
1.0
1070
    77
1070
     0
1002
}
  0
TEXT
  5
315F
330
1F
100
AcDbEntity
  8
寸法線
100
AcDbText
 10
63.85436975517746
 20
222.2068193390874
 30
0.0
 40
4.799999999999999
  1
PF3/8 inch19yama クボミ先ホーローセット使用
 51
15.0
  7
OKANO
100
AcDbText
  0
VIEWPORT
  5
2E
330
1B
100
AcDbEntity
 67
     1
  8
0
100
AcDbViewport
 10
232.5664910099547
 20
115.3528206178824
 30
0.0
 40
683.5622948621415
 41
347.1833784231319
 68
     2
 69
     1
 12
232.5664910099547
 22
115.3528206178824
 13
0.0
 23
0.0
 14
10.0
 24
10.0
 15
10.0
 25
10.0
 16
0.0
 26
0.0
 36
1.0
 17
0.0
 27
0.0
 37
0.0
 42
50.0
 43
0.0
 44
0.0
 45
347.1833784231319
 50
0.0
 51
0.0
 72
   100
 90
    32800
  1

281
     0
 71
     1
 74
     0
110
0.0
120
0.0
130
0.0
111
1.0
121
0.0
131
0.0
112
0.0
122
1.0
132
0.0
 79
     0
146
0.0
  0
VIEWPORT
  5
30
330
1B
100
AcDbEntity
 67
     1
  8
70-0-CON
100
AcDbViewport
 10
141.8594093064315
 20
100.3480256368386
 30
0.0
 40
261.6199023344245
 41
192.6196987113174
 68
     1
 69
     2
 12
163.3621222365856
 22
115.8238988090361
 13
0.0
 23
0.0
 14
5.0
 24
5.0
 15
10.0
 25
10.0
 16
0.0
 26
0.0
 36
1.0
 17
0.0
 27
0.0
 37
0.0
 42
50.0
 43
0.0
 44
0.0
 45
258.7061765994391
 50
0.0
 51
0.0
 72
   100
 90
    32864
  1

281
     0
 71
     1
 74
     0
110
0.0
120
0.0
130
0.0
111
1.0
121
0.0
131
0.0
112
0.0
122
1.0
132
0.0
 79
     0
146
0.0
  0
LWPOLYLINE
  5
45
330
1B
100
AcDbEntity
 67
     1
  8
50-0-CON
100
AcDbPolyline
 90
        4
 70
     1
 43
0.0
 10
11.04945813921926
 20
4.038176281179858
 10
272.2125713060605
 20
4.033520706629644
 10
273.4987754093466
 20
195.9297862125246
 10
11.04945813921926
 20
196.6578749924973
  0
LINE
  5
4A
330
1B
100
AcDbEntity
 67
     1
  8
50-0-CON
100
AcDbLine
 10
10.38768783662635
 20
100.3480256368386
 30
0.0
 11
-4.391850629656119
 21
100.3480256368386
 31
0.0
  0
LINE
  5
4B
330
1B
100
AcDbEntity
 67
     1
  8
50-0-CON
100
AcDbLine
 10
141.8594093064315
 20
197.098652626247
 30
0.0
 11
141.8594093064315
 21
202.387980773708
 31
0.0
  0
LINE
  5
4C
330
1B
100
AcDbEntity
 67
     1
  8
50-0-CON
100
AcDbLine
 10
272.4487699456857
 20
100.7888032705883
 30
0.0
 11
278.8458837249377
 21
100.7888032705883
 31
0.0
  0
LINE
  5
4D
330
1B
100
AcDbEntity
 67
     1
  8
50-0-CON
100
AcDbLine
 10
140.9770484758805
 20
4.038176281179858
 30
0.0
 11
140.9770484758805
 21
-3.455038652015446
 31
0.0
  0
ENDSEC
  0
SECTION
  2
OBJECTS
  0
DICTIONARY
  5
C
330
0
100
AcDbDictionary
281
     1
  3
ACAD_GROUP
350
D
  3
ACAD_LAYOUT
350
1A
  3
ACAD_MLINESTYLE
350
17
  3
ACAD_PLOTSETTINGS
350
19
  3
ACAD_PLOTSTYLENAME
350
E
  3
AcadDim
350
13D0
  3
AcDbVariableDictionary
350
6AD
  3
DWGPROPS
350
30F
  0
DICTIONARY
  5
D
102
{ACAD_REACTORS
330
C
102
}
330
C
100
AcDbDictionary
281
     1
  0
DICTIONARY
  5
1A
102
{ACAD_REACTORS
330
C
102
}
330
C
100
AcDbDictionary
281
     1
  3
A4
350
1E
  3
Model
350
22
  0
DICTIONARY
  5
17
102
{ACAD_REACTORS
330
C
102
}
330
C
100
AcDbDictionary
281
     1
  3
Standard
350
18
  0
DICTIONARY
  5
19
102
{ACAD_REACTORS
330
C
102
}
330
C
100
AcDbDictionary
281
     1
  0
ACDBDICTIONARYWDFLT
  5
E
102
{ACAD_REACTORS
330
C
102
}
330
C
100
AcDbDictionary
281
     1
  3
Normal
350
F
100
AcDbDictionaryWithDefault
340
F
  0
XRECORD
  5
13D0
102
{ACAD_REACTORS
330
C
102
}
330
C
100
AcDbXrecord
280
     1
 90
   990106
  3

 60
     0
 61
     0
 62
     1
 63
     3
 64
     0
 65
     0
 66
     0
 67
     3
 68
     1
 69
     0
 70
     0
 71
     0
 72
     0
 40
0.4869161495389563
170
     0
  0
DICTIONARY
  5
6AD
102
{ACAD_REACTORS
330
C
102
}
330
C
100
AcDbDictionary
281
     1
  3
SORTENTS
350
6AE
  0
XRECORD
  5
30F
102
{ACAD_REACTORS
330
C
102
}
330
C
100
AcDbXrecord
280
     1
  1
DWGPROPS COOKIE
  2

  3

  4

  6

  7

  8

  9

300
=
301
=
302
=
303
=
304
=
305
=
306
=
307
=
308
=
309
=
 40
0.3303803125
 41
2452362.482225463
 42
2452370.969861285
  1

 90
        0
  0
LAYOUT
  5
1E
102
{ACAD_REACTORS
330
1A
102
}
330
1A
100
AcDbPlotSettings
  1

  2
EPSON PM-920C
  4
A4
  6

 40
3.757083177566528
 41
14.7637300491333
 42
3.757080078125
 43
3.757080078125
 44
209.9733276367187
 45
296.9683227539062
 46
0.0
 47
0.0
 48
0.0
 49
0.0
140
0.0
141
0.0
142
1.0
143
1.0
 70
   688
 72
     1
 73
     1
 74
     5
  7
joint.ctb
 75
    16
147
1.0
148
0.0
149
0.0
100
AcDbLayout
  1
A4
 70
     1
 71
     1
 10
-3.757080078125
 20
-3.757083177566528
 11
293.2112426757812
 21
206.2162444591522
 12
0.0
 22
0.0
 32
0.0
 14
-4.400932062405672
 24
-3.459116387827521
 34
-0.0015258207003583
 15
278.8478616361952
 25
202.393946056399
 35
0.0000000349246037
146
0.0
 13
0.0
 23
0.0
 33
0.0
 16
1.0
 26
0.0
 36
0.0
 17
0.0
 27
1.0
 37
0.0
 76
     0
330
1B
331
30
  0
LAYOUT
  5
22
102
{ACAD_REACTORS
330
1A
102
}
330
1A
100
AcDbPlotSettings
  1

  2
EPSON PM-920C
  4
A4
  6

 40
3.757083177566528
 41
14.7637300491333
 42
3.757080078125
 43
3.757080078125
 44
209.9733276367187
 45
296.9683227539062
 46
0.0
 47
0.0
 48
0.0
 49
0.0
140
0.0
141
0.0
142
1.0
143
1.0
 70
 11952
 72
     1
 73
     1
 74
     0
  7

 75
     0
147
1.0
148
-45.64199848979289
149
-84.48806419330498
100
AcDbLayout
  1
Model
 70
     1
 71
     0
 10
0.0
 20
0.0
 11
12.0
 21
9.0
 12
0.0
 22
0.0
 32
0.0
 14
0.0
 24
0.0
 34
0.0
 15
0.0
 25
0.0
 35
0.0
146
0.0
 13
0.0
 23
0.0
 33
0.0
 16
1.0
 26
0.0
 36
0.0
 17
0.0
 27
1.0
 37
0.0
 76
     0
330
1F
  0
MLINESTYLE
  5
18
102
{ACAD_REACTORS
330
17
102
}
330
17
100
AcDbMlineStyle
  2
STANDARD
 70
     0
  3

 62
   256
 51
90.0
 52
90.0
 71
     2
 49
0.5
 62
   256
  6
BYLAYER
 49
-0.5
 62
   256
  6
BYLAYER
  0
ACDBPLACEHOLDER
  5
F
102
{ACAD_REACTORS
330
E
102
}
330
E
  0
DICTIONARYVAR
  5
6AE
102
{ACAD_REACTORS
330
6AD
102
}
330
6AD
100
DictionaryVariables
280
     0
  1
96
  0
ENDSEC
  0
EOF
