  0
SECTION
  2
HEADER
  9
$ACADVER
  1
AC1015
  9
$ACADMAINTVER
 70
     6
  9
$DWGCODEPAGE
  3
ANSI_932
  9
$INSBASE
 10
0.0
 20
0.0
 30
0.0
  9
$EXTMIN
 10
-155.3273383394522
 20
-244.8262839820583
 30
-0.00000001
  9
$EXTMAX
 10
324.4769407644665
 20
275.3239625680818
 30
0.00000001
  9
$LIMMIN
 10
0.0
 20
0.0
  9
$LIMMAX
 10
420.0
 20
297.0
  9
$ORTHOMODE
 70
     0
  9
$REGENMODE
 70
     1
  9
$FILLMODE
 70
     1
  9
$QTEXTMODE
 70
     0
  9
$MIRRTEXT
 70
     1
  9
$LTSCALE
 40
1.0
  9
$ATTMODE
 70
     1
  9
$TEXTSIZE
 40
5.0
  9
$TRACEWID
 40
1.0
  9
$TEXTSTYLE
  7
OKANO
  9
$CLAYER
  8
寸法線
  9
$CELTYPE
  6
ByLayer
  9
$CECOLOR
 62
   256
  9
$CELTSCALE
 40
1.0
  9
$DISPSILH
 70
     0
  9
$DIMSCALE
 40
0.0
  9
$DIMASZ
 40
3.0
  9
$DIMEXO
 40
2.0
  9
$DIMDLI
 40
8.0
  9
$DIMRND
 40
0.0
  9
$DIMDLE
 40
0.0
  9
$DIMEXE
 40
3.0
  9
$DIMTP
 40
0.0
  9
$DIMTM
 40
0.0
  9
$DIMTXT
 40
5.0
  9
$DIMCEN
 40
2.5
  9
$DIMTSZ
 40
0.0
  9
$DIMTOL
 70
     0
  9
$DIMLIM
 70
     0
  9
$DIMTIH
 70
     0
  9
$DIMTOH
 70
     0
  9
$DIMSE1
 70
     0
  9
$DIMSE2
 70
     0
  9
$DIMTAD
 70
     1
  9
$DIMZIN
 70
     8
  9
$DIMBLK
  1
Closed
  9
$DIMASO
 70
     1
  9
$DIMSHO
 70
     1
  9
$DIMPOST
  1

  9
$DIMAPOST
  1

  9
$DIMALT
 70
     0
  9
$DIMALTD
 70
     3
  9
$DIMALTF
 40
0.03937007874016
  9
$DIMLFAC
 40
1.0
  9
$DIMTOFL
 70
     1
  9
$DIMTVP
 40
0.0
  9
$DIMTIX
 70
     0
  9
$DIMSOXD
 70
     0
  9
$DIMSAH
 70
     0
  9
$DIMBLK1
  1

  9
$DIMBLK2
  1

  9
$DIMSTYLE
  2
sunpo
  9
$DIMCLRD
 70
     0
  9
$DIMCLRE
 70
     0
  9
$DIMCLRT
 70
     0
  9
$DIMTFAC
 40
1.0
  9
$DIMGAP
 40
1.0
  9
$DIMJUST
 70
     0
  9
$DIMSD1
 70
     0
  9
$DIMSD2
 70
     0
  9
$DIMTOLJ
 70
     0
  9
$DIMTZIN
 70
     8
  9
$DIMALTZ
 70
     0
  9
$DIMALTTZ
 70
     0
  9
$DIMUPT
 70
     0
  9
$DIMDEC
 70
     2
  9
$DIMTDEC
 70
     2
  9
$DIMALTU
 70
     2
  9
$DIMALTTD
 70
     3
  9
$DIMTXSTY
  7
OKANO
  9
$DIMAUNIT
 70
     0
  9
$DIMADEC
 70
     0
  9
$DIMALTRND
 40
0.0
  9
$DIMAZIN
 70
     0
  9
$DIMDSEP
 70
    46
  9
$DIMATFIT
 70
     3
  9
$DIMFRAC
 70
     0
  9
$DIMLDRBLK
  1
Closed
  9
$DIMLUNIT
 70
     2
  9
$DIMLWD
 70
    -2
  9
$DIMLWE
 70
    -2
  9
$DIMTMOVE
 70
     0
  9
$LUNITS
 70
     2
  9
$LUPREC
 70
     2
  9
$SKETCHINC
 40
1.0
  9
$FILLETRAD
 40
2.0
  9
$AUNITS
 70
     0
  9
$AUPREC
 70
     0
  9
$MENU
  1
.
  9
$ELEVATION
 40
0.0
  9
$PELEVATION
 40
0.0
  9
$THICKNESS
 40
0.0
  9
$LIMCHECK
 70
     0
  9
$CHAMFERA
 40
10.0
  9
$CHAMFERB
 40
10.0
  9
$CHAMFERC
 40
20.0
  9
$CHAMFERD
 40
0.0
  9
$SKPOLY
 70
     0
  9
$TDCREATE
 40
2452362.482225463
  9
$TDUCREATE
 40
2452362.107225463
  9
$TDUPDATE
 40
2455993.578621227
  9
$TDUUPDATE
 40
2455993.203621226
  9
$TDINDWG
 40
2.3589110764
  9
$TDUSRTIMER
 40
2.3589110764
  9
$USRTIMER
 70
     1
  9
$ANGBASE
 50
0.0
  9
$ANGDIR
 70
     0
  9
$PDMODE
 70
     0
  9
$PDSIZE
 40
0.0
  9
$PLINEWID
 40
0.0
  9
$SPLFRAME
 70
     0
  9
$SPLINETYPE
 70
     6
  9
$SPLINESEGS
 70
     8
  9
$HANDSEED
  5
349D
  9
$SURFTAB1
 70
     6
  9
$SURFTAB2
 70
     6
  9
$SURFTYPE
 70
     6
  9
$SURFU
 70
     6
  9
$SURFV
 70
     6
  9
$UCSBASE
  2

  9
$UCSNAME
  2

  9
$UCSORG
 10
0.0
 20
0.0
 30
0.0
  9
$UCSXDIR
 10
1.0
 20
0.0
 30
0.0
  9
$UCSYDIR
 10
0.0
 20
1.0
 30
0.0
  9
$UCSORTHOREF
  2

  9
$UCSORTHOVIEW
 70
     0
  9
$UCSORGTOP
 10
0.0
 20
0.0
 30
0.0
  9
$UCSORGBOTTOM
 10
0.0
 20
0.0
 30
0.0
  9
$UCSORGLEFT
 10
0.0
 20
0.0
 30
0.0
  9
$UCSORGRIGHT
 10
0.0
 20
0.0
 30
0.0
  9
$UCSORGFRONT
 10
0.0
 20
0.0
 30
0.0
  9
$UCSORGBACK
 10
0.0
 20
0.0
 30
0.0
  9
$PUCSBASE
  2

  9
$PUCSNAME
  2

  9
$PUCSORG
 10
0.0
 20
0.0
 30
0.0
  9
$PUCSXDIR
 10
1.0
 20
0.0
 30
0.0
  9
$PUCSYDIR
 10
0.0
 20
1.0
 30
0.0
  9
$PUCSORTHOREF
  2

  9
$PUCSORTHOVIEW
 70
     0
  9
$PUCSORGTOP
 10
0.0
 20
0.0
 30
0.0
  9
$PUCSORGBOTTOM
 10
0.0
 20
0.0
 30
0.0
  9
$PUCSORGLEFT
 10
0.0
 20
0.0
 30
0.0
  9
$PUCSORGRIGHT
 10
0.0
 20
0.0
 30
0.0
  9
$PUCSORGFRONT
 10
0.0
 20
0.0
 30
0.0
  9
$PUCSORGBACK
 10
0.0
 20
0.0
 30
0.0
  9
$USERI1
 70
     0
  9
$USERI2
 70
     0
  9
$USERI3
 70
     0
  9
$USERI4
 70
     0
  9
$USERI5
 70
     0
  9
$USERR1
 40
0.0
  9
$USERR2
 40
0.0
  9
$USERR3
 40
0.0
  9
$USERR4
 40
0.0
  9
$USERR5
 40
0.0
  9
$WORLDVIEW
 70
     1
  9
$SHADEDGE
 70
     3
  9
$SHADEDIF
 70
    70
  9
$TILEMODE
 70
     0
  9
$MAXACTVP
 70
    64
  9
$PINSBASE
 10
0.0
 20
0.0
 30
0.0
  9
$PLIMCHECK
 70
     0
  9
$PEXTMIN
 10
-4.391850629656119
 20
-3.455038652015446
 30
0.0
  9
$PEXTMAX
 10
278.8458837249377
 20
202.387980773708
 30
0.0
  9
$PLIMMIN
 10
-3.757080078125
 20
-3.757083177566528
  9
$PLIMMAX
 10
293.2112426757812
 20
206.2162444591522
  9
$UNITMODE
 70
     0
  9
$VISRETAIN
 70
     1
  9
$PLINEGEN
 70
     0
  9
$PSLTSCALE
 70
     1
  9
$TREEDEPTH
 70
  3020
  9
$CMLSTYLE
  2
Standard
  9
$CMLJUST
 70
     0
  9
$CMLSCALE
 40
20.0
  9
$PROXYGRAPHICS
 70
     1
  9
$MEASUREMENT
 70
     1
  9
$CELWEIGHT
370
    -1
  9
$ENDCAPS
280
     0
  9
$JOINSTYLE
280
     0
  9
$LWDISPLAY
290
     0
  9
$INSUNITS
 70
     4
  9
$HYPERLINKBASE
  1

  9
$STYLESHEET
  1

  9
$XEDIT
290
     1
  9
$CEPSNTYPE
380
     0
  9
$PSTYLEMODE
290
     1
  9
$FINGERPRINTGUID
  2
{FF7F33C3-4233-11D6-AEE0-0000F45FD7F4}
  9
$VERSIONGUID
  2
{F4511417-D456-45E3-BCCA-21ED8D3E5495}
  9
$EXTNAMES
290
     1
  9
$PSVPSCALE
 40
0.0
  9
$OLESTARTUP
290
     0
  0
ENDSEC
  0
SECTION
  2
CLASSES
  0
CLASS
  1
ACDBDICTIONARYWDFLT
  2
AcDbDictionaryWithDefault
  3
AutoCAD 2000
 90
        0
280
     0
281
     0
  0
CLASS
  1
ACDBPLACEHOLDER
  2
AcDbPlaceHolder
  3
AutoCAD 2000
 90
        0
280
     0
281
     0
  0
CLASS
  1
LAYOUT
  2
AcDbLayout
  3
AutoCAD 2000
 90
        0
280
     0
281
     0
  0
CLASS
  1
DICTIONARYVAR
  2
AcDbDictionaryVar
  3
AutoCAD 2000
 90
        0
280
     0
281
     0
  0
ENDSEC
  0
SECTION
  2
TABLES
  0
TABLE
  2
VPORT
  5
8
330
0
100
AcDbSymbolTable
 70
     2
  0
VPORT
  5
349C
330
8
100
AcDbSymbolTableRecord
100
AcDbViewportTableRecord
  2
*Active
 70
     0
 10
0.0
 20
0.0
 11
1.0
 21
1.0
 12
220.0713002045142
 22
95.72091645730164
 13
0.0
 23
0.0
 14
5.0
 24
5.0
 15
10.0
 25
10.0
 16
0.0
 26
0.0
 36
1.0
 17
0.0
 27
0.0
 37
0.0
 40
250.5973902130413
 41
1.968879668049792
 42
50.0
 43
0.0
 44
0.0
 50
0.0
 51
0.0
 71
     0
 72
   100
 73
     1
 74
     3
 75
     0
 76
     0
 77
     0
 78
     0
281
     0
 65
     1
110
0.0
120
0.0
130
0.0
111
1.0
121
0.0
131
0.0
112
0.0
122
1.0
132
0.0
 79
     0
146
0.0
  0
ENDTAB
  0
TABLE
  2
LTYPE
  5
5
330
0
100
AcDbSymbolTable
 70
     5
  0
LTYPE
  5
14
330
5
100
AcDbSymbolTableRecord
100
AcDbLinetypeTableRecord
  2
ByBlock
 70
     0
  3

 72
    65
 73
     0
 40
0.0
  0
LTYPE
  5
15
330
5
100
AcDbSymbolTableRecord
100
AcDbLinetypeTableRecord
  2
ByLayer
 70
     0
  3

 72
    65
 73
     0
 40
0.0
  0
LTYPE
  5
16
330
5
100
AcDbSymbolTableRecord
100
AcDbLinetypeTableRecord
  2
Continuous
 70
     0
  3
Solid line
 72
    65
 73
     0
 40
0.0
  0
LTYPE
  5
33
330
5
100
AcDbSymbolTableRecord
100
AcDbLinetypeTableRecord
  2
DASHED2
 70
     0
  3
Dashed (.5x) _ _ _ _ _ _ _ _ _ _ _ _ _ _ _ _ _
 72
    65
 73
     2
 40
9.524999999999998
 49
6.349999999999999
 74
     0
 49
-3.174999999999999
 74
     0
  0
LTYPE
  5
34
330
5
100
AcDbSymbolTableRecord
100
AcDbLinetypeTableRecord
  2
CENTER2
 70
     0
  3
Center (.5x) ___ _ ___ _ ___ _ ___ _ ___ _ ___
 72
    65
 73
     4
 40
28.57499999999999
 49
19.05
 74
     0
 49
-3.174999999999999
 74
     0
 49
3.174999999999999
 74
     0
 49
-3.174999999999999
 74
     0
  0
LTYPE
  5
35
330
5
100
AcDbSymbolTableRecord
100
AcDbLinetypeTableRecord
  2
PHANTOM2
 70
     0
  3
Phantom (.5x) ___ _ _ ___ _ _ ___ _ _ ___ _ _
 72
    65
 73
     6
 40
31.75
 49
15.875
 74
     0
 49
-3.174999999999999
 74
     0
 49
3.174999999999999
 74
     0
 49
-3.174999999999999
 74
     0
 49
3.174999999999999
 74
     0
 49
-3.174999999999999
 74
     0
  0
LTYPE
  5
36
330
5
100
AcDbSymbolTableRecord
100
AcDbLinetypeTableRecord
  2
HIDDEN2
 70
     0
  3
Hidden (.5x) _ _ _ _ _ _ _ _ _ _ _ _ _ _ _ _ _
 72
    65
 73
     2
 40
4.762499999999999
 49
3.174999999999999
 74
     0
 49
-1.587499999999999
 74
     0
  0
ENDTAB
  0
TABLE
  2
LAYER
  5
2
330
0
100
AcDbSymbolTable
 70
    13
  0
LAYER
  5
10
330
2
100
AcDbSymbolTableRecord
100
AcDbLayerTableRecord
  2
0
 70
     0
 62
     7
  6
Continuous
370
    -3
390
F
  0
LAYER
  5
40
330
2
100
AcDbSymbolTableRecord
100
AcDbLayerTableRecord
  2
50-0-CON
 70
     0
 62
     4
  6
Continuous
370
    50
390
F
  0
LAYER
  5
41
330
2
100
AcDbSymbolTableRecord
100
AcDbLayerTableRecord
  2
70-0-CON
 70
     0
 62
   202
  6
Continuous
370
    70
390
F
  0
LAYER
  5
4E
330
2
100
AcDbSymbolTableRecord
100
AcDbLayerTableRecord
  2
極太線
 70
     0
 62
     7
  6
Continuous
370
    70
390
F
  0
LAYER
  5
4F
330
2
100
AcDbSymbolTableRecord
100
AcDbLayerTableRecord
  2
細線
 70
     0
 62
     8
  6
Continuous
370
    18
390
F
  0
LAYER
  5
AB
330
2
100
AcDbSymbolTableRecord
100
AcDbLayerTableRecord
  2
構築線
 70
     0
 62
    -2
  6
Continuous
370
    18
390
F
  0
LAYER
  5
B8
330
2
100
AcDbSymbolTableRecord
100
AcDbLayerTableRecord
  2
太線
 70
     0
 62
     7
  6
Continuous
370
    35
390
F
  0
LAYER
  5
B9
330
2
100
AcDbSymbolTableRecord
100
AcDbLayerTableRecord
  2
寸法線
 70
     0
 62
     5
  6
Continuous
370
    18
390
F
  0
LAYER
  5
BA
330
2
100
AcDbSymbolTableRecord
100
AcDbLayerTableRecord
  2
破線
 70
     0
 62
     8
  6
HIDDEN2
370
    18
390
F
  0
LAYER
  5
BB
330
2
100
AcDbSymbolTableRecord
100
AcDbLayerTableRecord
  2
中心線
 70
     0
 62
     1
  6
CENTER2
370
    18
390
F
  0
LAYER
  5
BC
330
2
100
AcDbSymbolTableRecord
100
AcDbLayerTableRecord
  2
想像線
 70
     0
 62
     8
  6
PHANTOM2
370
    18
390
F
  0
LAYER
  5
BD
330
2
100
AcDbSymbolTableRecord
100
AcDbLayerTableRecord
  2
文字
 70
     0
 62
     7
  6
Continuous
370
    18
390
F
  0
LAYER
  5
180
330
2
100
AcDbSymbolTableRecord
100
AcDbLayerTableRecord
  2
Defpoints
 70
     0
 62
     7
  6
Continuous
290
     0
370
    -3
390
F
  0
ENDTAB
  0
TABLE
  2
STYLE
  5
3
330
0
100
AcDbSymbolTable
 70
     3
  0
STYLE
  5
11
330
3
100
AcDbSymbolTableRecord
100
AcDbTextStyleTableRecord
  2
Standard
 70
     0
 40
0.0
 41
1.0
 50
0.0
 71
     0
 42
3.0
  3
txt
  4

  0
STYLE
  5
32
330
3
100
AcDbSymbolTableRecord
100
AcDbTextStyleTableRecord
  2

 70
     1
 40
0.0
 41
1.0
 50
0.0
 71
     0
 42
2.5
  3
ltypeshp.shx
  4

  0
STYLE
  5
50
330
3
100
AcDbSymbolTableRecord
100
AcDbTextStyleTableRecord
  2
OKANO
 70
     0
 40
0.0
 41
1.0
 50
15.0
 71
     0
 42
5.0
  3
isocp.shx
  4
bigfont.shx
  0
ENDTAB
  0
TABLE
  2
VIEW
  5
6
330
0
100
AcDbSymbolTable
 70
     0
  0
ENDTAB
  0
TABLE
  2
UCS
  5
7
330
0
100
AcDbSymbolTable
 70
     0
  0
ENDTAB
  0
TABLE
  2
APPID
  5
9
330
0
100
AcDbSymbolTable
 70
     1
  0
APPID
  5
12
330
9
100
AcDbSymbolTableRecord
100
AcDbRegAppTableRecord
  2
ACAD
 70
     0
  0
ENDTAB
  0
TABLE
  2
DIMSTYLE
  5
A
330
0
100
AcDbSymbolTable
 70
     2
100
AcDbDimStyleTable
 71
     2
340
A2
340
27
  0
DIMSTYLE
105
27
330
A
100
AcDbSymbolTableRecord
100
AcDbDimStyleTableRecord
  2
ISO-25
 70
     0
 41
2.5
 42
0.625
 43
3.75
 44
1.25
 73
     0
 74
     0
 77
     1
 78
     8
140
2.5
141
2.5
143
0.03937007874016
147
0.625
171
     3
172
     1
271
     2
272
     2
274
     3
283
     0
284
     8
340
11
  0
DIMSTYLE
105
A2
102
{ACAD_REACTORS
330
2F85
330
2F92
330
2FD3
330
2F3A
330
3037
330
2F2D
330
3350
330
3367
330
337D
330
338A
330
3397
330
33A4
330
33B1
330
3402
330
3425
330
3445
330
2FE0
102
}
330
A
100
AcDbSymbolTableRecord
100
AcDbDimStyleTableRecord
  2
sunpo
 70
     0
 40
0.0
 41
3.0
 42
2.0
 43
8.0
 44
3.0
 73
     0
 74
     0
 77
     1
 78
     8
140
5.0
141
2.5
143
0.03937007874016
147
1.0
171
     3
172
     1
271
     2
272
     2
274
     3
283
     0
284
     8
340
50
341
9B
342
9B
  0
ENDTAB
  0
TABLE
  2
BLOCK_RECORD
  5
1
330
0
100
AcDbSymbolTable
 70
    20
  0
BLOCK_RECORD
  5
1F
330
1
100
AcDbSymbolTableRecord
100
AcDbBlockTableRecord
  2
*Model_Space
340
22
  0
BLOCK_RECORD
  5
1B
330
1
100
AcDbSymbolTableRecord
100
AcDbBlockTableRecord
  2
*Paper_Space
340
1E
  0
BLOCK_RECORD
  5
9B
330
1
100
AcDbSymbolTableRecord
100
AcDbBlockTableRecord
  2
_Closed
340
0
102
{BLKREFS
331
2F8A
331
2F8B
331
310A
331
310B
331
3113
331
3114
331
311C
331
311D
331
3361
331
3362
331
3377
331
3378
331
33D8
331
33D9
331
33E1
331
33E2
331
33F3
331
33F4
331
33FC
331
33FD
331
3417
331
3436
331
3437
331
343F
331
3440
331
3459
331
345A
331
3474
331
3475
331
347C
331
3489
331
348A
102
}
  0
BLOCK_RECORD
  5
1510
330
1
100
AcDbSymbolTableRecord
100
AcDbBlockTableRecord
  2
A$C10A573AC
340
0
  0
BLOCK_RECORD
  5
2F2E
330
1
100
AcDbSymbolTableRecord
100
AcDbBlockTableRecord
  2
*D2
340
0
  0
BLOCK_RECORD
  5
2F3B
330
1
100
AcDbSymbolTableRecord
100
AcDbBlockTableRecord
  2
*D3
340
0
  0
BLOCK_RECORD
  5
2F86
330
1
100
AcDbSymbolTableRecord
100
AcDbBlockTableRecord
  2
*D4
340
0
  0
BLOCK_RECORD
  5
2F93
330
1
100
AcDbSymbolTableRecord
100
AcDbBlockTableRecord
  2
*D5
340
0
  0
BLOCK_RECORD
  5
2FD4
330
1
100
AcDbSymbolTableRecord
100
AcDbBlockTableRecord
  2
*D6
340
0
  0
BLOCK_RECORD
  5
2FE1
330
1
100
AcDbSymbolTableRecord
100
AcDbBlockTableRecord
  2
*D7
340
0
  0
BLOCK_RECORD
  5
3038
330
1
100
AcDbSymbolTableRecord
100
AcDbBlockTableRecord
  2
*D8
340
0
  0
BLOCK_RECORD
  5
3351
330
1
100
AcDbSymbolTableRecord
100
AcDbBlockTableRecord
  2
*D9
340
0
  0
BLOCK_RECORD
  5
3368
330
1
100
AcDbSymbolTableRecord
100
AcDbBlockTableRecord
  2
*D10
340
0
  0
BLOCK_RECORD
  5
337E
330
1
100
AcDbSymbolTableRecord
100
AcDbBlockTableRecord
  2
*D11
340
0
  0
BLOCK_RECORD
  5
338B
330
1
100
AcDbSymbolTableRecord
100
AcDbBlockTableRecord
  2
*D12
340
0
  0
BLOCK_RECORD
  5
3398
330
1
100
AcDbSymbolTableRecord
100
AcDbBlockTableRecord
  2
*D13
340
0
  0
BLOCK_RECORD
  5
33A5
330
1
100
AcDbSymbolTableRecord
100
AcDbBlockTableRecord
  2
*D14
340
0
  0
BLOCK_RECORD
  5
33B2
330
1
100
AcDbSymbolTableRecord
100
AcDbBlockTableRecord
  2
*D15
340
0
  0
BLOCK_RECORD
  5
3403
330
1
100
AcDbSymbolTableRecord
100
AcDbBlockTableRecord
  2
*D16
340
0
  0
BLOCK_RECORD
  5
3426
330
1
100
AcDbSymbolTableRecord
100
AcDbBlockTableRecord
  2
*D17
340
0
  0
BLOCK_RECORD
  5
3446
330
1
100
AcDbSymbolTableRecord
100
AcDbBlockTableRecord
  2
*D18
340
0
  0
ENDTAB
  0
ENDSEC
  0
SECTION
  2
BLOCKS
  0
BLOCK
  5
20
330
1F
100
AcDbEntity
  8
0
100
AcDbBlockBegin
  2
*Model_Space
 70
     0
 10
0.0
 20
0.0
 30
0.0
  3
*Model_Space
  1

  0
ENDBLK
  5
21
330
1F
100
AcDbEntity
  8
0
100
AcDbBlockEnd
  0
BLOCK
  5
1C
330
1B
100
AcDbEntity
 67
     1
  8
0
100
AcDbBlockBegin
  2
*Paper_Space
 70
     0
 10
0.0
 20
0.0
 30
0.0
  3
*Paper_Space
  1

  0
ENDBLK
  5
1D
330
1B
100
AcDbEntity
 67
     1
  8
0
100
AcDbBlockEnd
  0
BLOCK
  5
A0
330
9B
100
AcDbEntity
  8
0
100
AcDbBlockBegin
  2
_Closed
 70
     0
 10
0.0
 20
0.0
 30
0.0
  3
_Closed
  1

  0
LINE
  5
9C
330
9B
100
AcDbEntity
  8
0
 62
     0
370
    -2
100
AcDbLine
 10
-1.0
 20
0.1666666666666666
 30
0.0
 11
0.0
 21
0.0
 31
0.0
  0
LINE
  5
9D
330
9B
100
AcDbEntity
  8
0
 62
     0
370
    -2
100
AcDbLine
 10
0.0
 20
0.0
 30
0.0
 11
-1.0
 21
-0.1666666666666666
 31
0.0
  0
LINE
  5
9E
330
9B
100
AcDbEntity
  8
0
 62
     0
370
    -2
100
AcDbLine
 10
-1.0
 20
0.1666666666666666
 30
0.0
 11
-1.0
 21
-0.1666666666666666
 31
0.0
  0
LINE
  5
9F
330
9B
100
AcDbEntity
  8
0
 62
     0
370
    -2
100
AcDbLine
 10
0.0
 20
0.0
 30
0.0
 11
-1.0
 21
0.0
 31
0.0
  0
ENDBLK
  5
A1
330
9B
100
AcDbEntity
  8
0
100
AcDbBlockEnd
  0
BLOCK
  5
155B
330
1510
100
AcDbEntity
  8
0
100
AcDbBlockBegin
  2
A$C10A573AC
 70
     0
 10
0.0
 20
0.0
 30
0.0
  3
A$C10A573AC
  1

  0
TEXT
  5
1511
330
1510
100
AcDbEntity
  8
文字
100
AcDbText
 10
0.9844302777919438
 20
5.224957122252135
 30
0.0
 40
3.0
  1
Materal : Steel.
 51
15.0
  7
OKANO
100
AcDbText
  0
TEXT
  5
1512
330
1510
100
AcDbEntity
  8
文字
100
AcDbText
 10
-0.1141909619694843
 20
0.7500001922403499
 30
0.0
 40
3.0
  1
Surface treatment : Electro galvanized.
 51
15.0
  7
OKANO
100
AcDbText
  0
TEXT
  5
1513
330
1510
100
AcDbEntity
  8
文字
100
AcDbText
 10
-0.4901926332574931
 20
9.159967445193728
 30
0.0
 40
3.0
  1
5 TORGUE SCREW  M5-6
 51
15.0
  7
OKANO
100
AcDbText
  0
TEXT
  5
1514
330
1510
100
AcDbEntity
  8
文字
100
AcDbText
 10
1.364713526390005
 20
78.88822913323082
 30
0.0
 40
3.0
  1
Special standard,
 51
15.0
  7
OKANO
100
AcDbText
  0
TEXT
  5
1515
330
1510
100
AcDbEntity
  8
文字
100
AcDbText
 10
92.88160823408942
 20
89.92753849837379
 30
0.0
 40
3.0
  1
Screw Type
 51
15.0
  7
OKANO
100
AcDbText
  0
LINE
  5
1516
330
1510
100
AcDbEntity
  8
太線
100
AcDbLine
 10
113.9464587597784
 20
81.93930390144641
 30
0.0
 11
112.4464587597784
 21
81.93930390144641
 31
0.0
  0
LINE
  5
1517
330
1510
100
AcDbEntity
  8
太線
100
AcDbLine
 10
112.4464587597784
 20
76.9393039014464
 30
0.0
 11
121.4644995438761
 21
76.9393039014464
 31
0.0
  0
TEXT
  5
1518
330
1510
100
AcDbEntity
  8
文字
100
AcDbText
 10
93.46068240437217
 20
77.96976862235396
 30
0.0
 40
2.0
  1
17-30
 51
15.0
  7
OKANO
100
AcDbText
  0
LINE
  5
1519
330
1510
100
AcDbEntity
  8
太線
100
AcDbLine
 10
111.9464587597784
 20
81.43930390144641
 30
0.0
 11
111.9464587597784
 21
77.4393039014464
 31
0.0
  0
LINE
  5
151A
330
1510
100
AcDbEntity
  8
太線
100
AcDbLine
 10
91.94645875977846
 20
81.43930390144641
 30
0.0
 11
91.94645875977846
 21
77.43930390144639
 31
0.0
  0
LINE
  5
151B
330
1510
100
AcDbEntity
  8
太線
100
AcDbLine
 10
101.9644995438761
 20
77.4393039014464
 30
0.0
 11
101.9644995438761
 21
81.43930390144641
 31
0.0
  0
LINE
  5
151C
330
1510
100
AcDbEntity
  8
太線
100
AcDbLine
 10
92.44645875977846
 20
76.9393039014464
 30
0.0
 11
101.4644995438761
 21
76.9393039014464
 31
0.0
  0
ARC
  5
151D
330
1510
100
AcDbEntity
  8
太線
100
AcDbCircle
 10
92.44645875977846
 20
77.43930390144639
 30
0.0
 40
0.5
100
AcDbArc
 50
180.0
 51
270.0
  0
ARC
  5
151E
330
1510
100
AcDbEntity
  8
太線
100
AcDbCircle
 10
101.4644995438761
 20
77.4393039014464
 30
0.0
 40
0.5
100
AcDbArc
 50
270.0
 51
0.0
  0
ARC
  5
151F
330
1510
100
AcDbEntity
  8
太線
100
AcDbCircle
 10
112.4464587597784
 20
77.4393039014464
 30
0.0
 40
0.5
100
AcDbArc
 50
180.0
 51
270.0
  0
LINE
  5
1520
330
1510
100
AcDbEntity
  8
想像線
100
AcDbLine
 10
93.94645875977847
 20
81.93930390144641
 30
0.0
 11
99.96449954387617
 21
81.93930390144641
 31
0.0
  0
LINE
  5
1521
330
1510
100
AcDbEntity
  8
極太線
100
AcDbLine
 10
96.38762957111168
 20
85.43930390144641
 30
0.0
 11
97.50528794844525
 21
85.43930390144641
 31
0.0
  0
CIRCLE
  5
1522
330
1510
100
AcDbEntity
  8
太線
100
AcDbCircle
 10
96.94645875977847
 20
85.43930390144641
 30
0.0
 40
0.5588291886667776
  0
LINE
  5
1523
330
1510
100
AcDbEntity
  8
太線
100
AcDbLine
 10
99.46449954387617
 20
86.93930390144641
 30
0.0
 11
94.44645875977846
 21
86.93930390144641
 31
0.0
  0
LINE
  5
1524
330
1510
100
AcDbEntity
  8
太線
100
AcDbLine
 10
93.94645875977847
 20
86.43930390144641
 30
0.0
 11
93.94645875977847
 21
81.93930390144641
 31
0.0
  0
ARC
  5
1525
330
1510
100
AcDbEntity
  8
太線
100
AcDbCircle
 10
92.44645875977846
 20
81.43930390144641
 30
0.0
 40
0.5
100
AcDbArc
 50
90.0
 51
180.0
  0
LINE
  5
1526
330
1510
100
AcDbEntity
  8
太線
100
AcDbLine
 10
93.94645875977847
 20
81.93930390144641
 30
0.0
 11
92.44645875977846
 21
81.93930390144641
 31
0.0
  0
ARC
  5
1527
330
1510
100
AcDbEntity
  8
太線
100
AcDbCircle
 10
94.44645875977846
 20
86.43930390144641
 30
0.0
 40
0.5
100
AcDbArc
 50
90.0
 51
180.0
  0
LINE
  5
1528
330
1510
100
AcDbEntity
  8
太線
100
AcDbLine
 10
99.96449954387617
 20
81.93930390144641
 30
0.0
 11
99.96449954387617
 21
86.43930390144641
 31
0.0
  0
LINE
  5
1529
330
1510
100
AcDbEntity
  8
太線
100
AcDbLine
 10
101.4644995438761
 20
81.93930390144641
 30
0.0
 11
99.96449954387617
 21
81.93930390144641
 31
0.0
  0
ARC
  5
152A
330
1510
100
AcDbEntity
  8
太線
100
AcDbCircle
 10
101.4644995438761
 20
81.43930390144641
 30
0.0
 40
0.5
100
AcDbArc
 50
0.0
 51
90.0
  0
ARC
  5
152B
330
1510
100
AcDbEntity
  8
太線
100
AcDbCircle
 10
99.46449954387617
 20
86.43930390144641
 30
0.0
 40
0.5
100
AcDbArc
 50
0.0
 51
90.0
  0
LINE
  5
152C
330
1510
100
AcDbEntity
  8
極太線
100
AcDbLine
 10
96.94645875977847
 20
85.99813309011318
 30
0.0
 11
96.94645875977847
 21
84.88047471277964
 31
0.0
  0
ARC
  5
152D
330
1510
100
AcDbEntity
  8
太線
100
AcDbCircle
 10
112.4464587597784
 20
81.43930390144641
 30
0.0
 40
0.5
100
AcDbArc
 50
90.0
 51
180.0
  0
TEXT
  5
152E
330
1510
100
AcDbEntity
  8
文字
100
AcDbText
 10
134.3819212586066
 20
78.16263579228063
 30
0.0
 40
2.0
  1
101
 51
15.0
  7
OKANO
100
AcDbText
  0
TEXT
  5
152F
330
1510
100
AcDbEntity
  8
文字
100
AcDbText
 10
113.3422276612066
 20
77.96976862235396
 30
0.0
 40
2.0
  1
38-83
 51
15.0
  7
OKANO
100
AcDbText
  0
LINE
  5
1530
330
1510
100
AcDbEntity
  8
太線
100
AcDbLine
 10
141.9825403279738
 20
77.4393039014464
 30
0.0
 11
141.9825403279738
 21
81.43930390144641
 31
0.0
  0
LINE
  5
1531
330
1510
100
AcDbEntity
  8
太線
100
AcDbLine
 10
131.9644995438761
 20
81.43930390144641
 30
0.0
 11
131.9644995438761
 21
77.4393039014464
 31
0.0
  0
LINE
  5
1532
330
1510
100
AcDbEntity
  8
太線
100
AcDbLine
 10
121.9644995438761
 20
77.4393039014464
 30
0.0
 11
121.9644995438761
 21
81.43930390144641
 31
0.0
  0
ARC
  5
1533
330
1510
100
AcDbEntity
  8
太線
100
AcDbCircle
 10
121.4644995438761
 20
77.4393039014464
 30
0.0
 40
0.5
100
AcDbArc
 50
270.0
 51
0.0
  0
LINE
  5
1534
330
1510
100
AcDbEntity
  8
太線
100
AcDbLine
 10
132.4644995438761
 20
76.9393039014464
 30
0.0
 11
141.4825403279738
 21
76.9393039014464
 31
0.0
  0
ARC
  5
1535
330
1510
100
AcDbEntity
  8
太線
100
AcDbCircle
 10
132.4644995438761
 20
77.4393039014464
 30
0.0
 40
0.5
100
AcDbArc
 50
180.0
 51
270.0
  0
ARC
  5
1536
330
1510
100
AcDbEntity
  8
太線
100
AcDbCircle
 10
141.4825403279738
 20
77.4393039014464
 30
0.0
 40
0.5
100
AcDbArc
 50
270.0
 51
0.0
  0
ARC
  5
1537
330
1510
100
AcDbEntity
  8
太線
100
AcDbCircle
 10
121.4644995438761
 20
81.43930390144641
 30
0.0
 40
0.5
100
AcDbArc
 50
0.0
 51
90.0
  0
LINE
  5
1538
330
1510
100
AcDbEntity
  8
太線
100
AcDbLine
 10
119.9644995438761
 20
81.93930390144641
 30
0.0
 11
119.9644995438761
 21
86.43930390144641
 31
0.0
  0
LINE
  5
1539
330
1510
100
AcDbEntity
  8
太線
100
AcDbLine
 10
113.9464587597784
 20
86.43930390144641
 30
0.0
 11
113.9464587597784
 21
81.93930390144641
 31
0.0
  0
LINE
  5
153A
330
1510
100
AcDbEntity
  8
想像線
100
AcDbLine
 10
113.9464587597784
 20
81.93930390144641
 30
0.0
 11
119.9644995438761
 21
81.93930390144641
 31
0.0
  0
LINE
  5
153B
330
1510
100
AcDbEntity
  8
太線
100
AcDbLine
 10
121.4644995438761
 20
81.93930390144641
 30
0.0
 11
119.9644995438761
 21
81.93930390144641
 31
0.0
  0
LINE
  5
153C
330
1510
100
AcDbEntity
  8
太線
100
AcDbLine
 10
119.4644995438761
 20
86.93930390144641
 30
0.0
 11
114.4464587597784
 21
86.93930390144641
 31
0.0
  0
ARC
  5
153D
330
1510
100
AcDbEntity
  8
太線
100
AcDbCircle
 10
114.4464587597784
 20
86.43930390144641
 30
0.0
 40
0.5
100
AcDbArc
 50
90.0
 51
180.0
  0
CIRCLE
  5
153E
330
1510
100
AcDbEntity
  8
太線
100
AcDbCircle
 10
115.4464587597784
 20
85.43930390144641
 30
0.0
 40
0.5588291886667776
  0
LINE
  5
153F
330
1510
100
AcDbEntity
  8
極太線
100
AcDbLine
 10
115.4464587597784
 20
85.99813309011318
 30
0.0
 11
115.4464587597784
 21
84.88047471277964
 31
0.0
  0
LINE
  5
1540
330
1510
100
AcDbEntity
  8
極太線
100
AcDbLine
 10
114.8876295711116
 20
85.43930390144641
 30
0.0
 11
116.0052879484452
 21
85.43930390144641
 31
0.0
  0
ARC
  5
1541
330
1510
100
AcDbEntity
  8
太線
100
AcDbCircle
 10
119.4644995438761
 20
86.43930390144641
 30
0.0
 40
0.5
100
AcDbArc
 50
0.0
 51
90.0
  0
LINE
  5
1542
330
1510
100
AcDbEntity
  8
極太線
100
AcDbLine
 10
117.9056703552094
 20
85.43930390144641
 30
0.0
 11
119.0233287325429
 21
85.43930390144641
 31
0.0
  0
LINE
  5
1543
330
1510
100
AcDbEntity
  8
極太線
100
AcDbLine
 10
118.4644995438761
 20
85.99813309011318
 30
0.0
 11
118.4644995438761
 21
84.88047471277964
 31
0.0
  0
CIRCLE
  5
1544
330
1510
100
AcDbEntity
  8
太線
100
AcDbCircle
 10
118.4644995438761
 20
85.43930390144641
 30
0.0
 40
0.5588291886667776
  0
LINE
  5
1545
330
1510
100
AcDbEntity
  8
想像線
100
AcDbLine
 10
133.9644995438761
 20
81.93930390144641
 30
0.0
 11
139.9825403279738
 21
81.93930390144641
 31
0.0
  0
LINE
  5
1546
330
1510
100
AcDbEntity
  8
極太線
100
AcDbLine
 10
137.9237111393071
 20
85.43930390144641
 30
0.0
 11
139.0413695166406
 21
85.43930390144641
 31
0.0
  0
CIRCLE
  5
1547
330
1510
100
AcDbEntity
  8
太線
100
AcDbCircle
 10
138.4825403279738
 20
85.43930390144641
 30
0.0
 40
0.5588291886667776
  0
CIRCLE
  5
1548
330
1510
100
AcDbEntity
  8
太線
100
AcDbCircle
 10
138.4825403279738
 20
83.26342923362075
 30
0.0
 40
0.5588291886667776
  0
LINE
  5
1549
330
1510
100
AcDbEntity
  8
極太線
100
AcDbLine
 10
137.9237111393071
 20
83.26342923362075
 30
0.0
 11
139.0413695166406
 21
83.26342923362075
 31
0.0
  0
LINE
  5
154A
330
1510
100
AcDbEntity
  8
太線
100
AcDbLine
 10
139.4825403279738
 20
86.93930390144641
 30
0.0
 11
134.4644995438761
 21
86.93930390144641
 31
0.0
  0
LINE
  5
154B
330
1510
100
AcDbEntity
  8
太線
100
AcDbLine
 10
133.9644995438761
 20
86.43930390144641
 30
0.0
 11
133.9644995438761
 21
81.93930390144641
 31
0.0
  0
ARC
  5
154C
330
1510
100
AcDbEntity
  8
太線
100
AcDbCircle
 10
132.4644995438761
 20
81.43930390144641
 30
0.0
 40
0.5
100
AcDbArc
 50
90.0
 51
180.0
  0
LINE
  5
154D
330
1510
100
AcDbEntity
  8
太線
100
AcDbLine
 10
133.9644995438761
 20
81.93930390144641
 30
0.0
 11
132.4644995438761
 21
81.93930390144641
 31
0.0
  0
LINE
  5
154E
330
1510
100
AcDbEntity
  8
極太線
100
AcDbLine
 10
134.9056703552093
 20
83.26342923362075
 30
0.0
 11
136.0233287325429
 21
83.26342923362075
 31
0.0
  0
LINE
  5
154F
330
1510
100
AcDbEntity
  8
極太線
100
AcDbLine
 10
135.4644995438761
 20
83.82225842228752
 30
0.0
 11
135.4644995438761
 21
82.70460004495395
 31
0.0
  0
CIRCLE
  5
1550
330
1510
100
AcDbEntity
  8
太線
100
AcDbCircle
 10
135.4644995438761
 20
83.26342923362075
 30
0.0
 40
0.5588291886667776
  0
ARC
  5
1551
330
1510
100
AcDbEntity
  8
太線
100
AcDbCircle
 10
134.4644995438761
 20
86.43930390144641
 30
0.0
 40
0.5
100
AcDbArc
 50
90.0
 51
180.0
  0
CIRCLE
  5
1552
330
1510
100
AcDbEntity
  8
太線
100
AcDbCircle
 10
135.4644995438761
 20
85.43930390144641
 30
0.0
 40
0.5588291886667776
  0
LINE
  5
1553
330
1510
100
AcDbEntity
  8
極太線
100
AcDbLine
 10
135.4644995438761
 20
85.99813309011318
 30
0.0
 11
135.4644995438761
 21
84.88047471277964
 31
0.0
  0
LINE
  5
1554
330
1510
100
AcDbEntity
  8
極太線
100
AcDbLine
 10
134.9056703552093
 20
85.43930390144641
 30
0.0
 11
136.0233287325429
 21
85.43930390144641
 31
0.0
  0
LINE
  5
1555
330
1510
100
AcDbEntity
  8
太線
100
AcDbLine
 10
139.9825403279738
 20
81.93930390144641
 30
0.0
 11
139.9825403279738
 21
86.43930390144641
 31
0.0
  0
ARC
  5
1556
330
1510
100
AcDbEntity
  8
太線
100
AcDbCircle
 10
141.4825403279738
 20
81.43930390144641
 30
0.0
 40
0.5
100
AcDbArc
 50
0.0
 51
90.0
  0
LINE
  5
1557
330
1510
100
AcDbEntity
  8
極太線
100
AcDbLine
 10
138.4825403279738
 20
83.82225842228752
 30
0.0
 11
138.4825403279738
 21
82.70460004495395
 31
0.0
  0
LINE
  5
1558
330
1510
100
AcDbEntity
  8
太線
100
AcDbLine
 10
141.4825403279738
 20
81.93930390144641
 30
0.0
 11
139.9825403279738
 21
81.93930390144641
 31
0.0
  0
ARC
  5
1559
330
1510
100
AcDbEntity
  8
太線
100
AcDbCircle
 10
139.4825403279738
 20
86.43930390144641
 30
0.0
 40
0.5
100
AcDbArc
 50
0.0
 51
90.0
  0
LINE
  5
155A
330
1510
100
AcDbEntity
  8
極太線
100
AcDbLine
 10
138.4825403279738
 20
85.99813309011318
 30
0.0
 11
138.4825403279738
 21
84.88047471277964
 31
0.0
  0
ENDBLK
  5
155C
330
1510
100
AcDbEntity
  8
0
100
AcDbBlockEnd
  0
BLOCK
  5
2F38
330
2F2E
100
AcDbEntity
  8
0
100
AcDbBlockBegin
  2
*D2
 70
     1
 10
0.0
 20
0.0
 30
0.0
  3
*D2
  1

  0
LINE
  5
3107
330
2F2E
100
AcDbEntity
  8
寸法線
 62
     0
370
    -2
100
AcDbLine
 10
42.55151402540432
 20
-185.1120704196852
 30
0.0
 11
42.55151402540432
 21
-166.2207849934257
 31
0.0
  0
LINE
  5
3108
330
2F2E
100
AcDbEntity
  8
寸法線
 62
     0
370
    -2
100
AcDbLine
 10
136.8515140254043
 20
-185.1120704196852
 30
0.0
 11
136.8515140254043
 21
-166.2207849934257
 31
0.0
  0
LINE
  5
3109
330
2F2E
100
AcDbEntity
  8
寸法線
 62
     0
370
    -2
100
AcDbLine
 10
45.55151402540432
 20
-169.2207849934257
 30
0.0
 11
133.8515140254043
 21
-169.2207849934257
 31
0.0
  0
INSERT
  5
310A
330
2F2E
100
AcDbEntity
  8
寸法線
 62
     0
370
    -2
100
AcDbBlockReference
  2
_Closed
 10
42.55151402540432
 20
-169.2207849934257
 30
0.0
 41
3.0
 42
3.0
 43
3.0
 50
180.0
  0
INSERT
  5
310B
330
2F2E
100
AcDbEntity
  8
寸法線
 62
     0
370
    -2
100
AcDbBlockReference
  2
_Closed
 10
136.8515140254043
 20
-169.2207849934257
 30
0.0
 41
3.0
 42
3.0
 43
3.0
  0
MTEXT
  5
310C
330
2F2E
100
AcDbEntity
  8
寸法線
 62
     0
100
AcDbMText
 10
89.70151402540432
 20
-165.7207849934257
 30
0.0
 40
5.0
 41
0.0
 71
     5
 72
     1
  1
94.3
  7
OKANO
 73
     1
 44
1.0
  0
POINT
  5
310D
330
2F2E
100
AcDbEntity
  8
Defpoints
 62
     0
100
AcDbPoint
 10
42.55151402540432
 20
-187.1120704196852
 30
0.0
  0
POINT
  5
310E
330
2F2E
100
AcDbEntity
  8
Defpoints
 62
     0
100
AcDbPoint
 10
136.8515140254043
 20
-187.1120704196852
 30
0.0
  0
POINT
  5
310F
330
2F2E
100
AcDbEntity
  8
Defpoints
 62
     0
100
AcDbPoint
 10
136.8515140254043
 20
-169.2207849934257
 30
0.0
  0
ENDBLK
  5
2F39
330
2F2E
100
AcDbEntity
  8
0
100
AcDbBlockEnd
  0
BLOCK
  5
2F45
330
2F3B
100
AcDbEntity
  8
0
100
AcDbBlockBegin
  2
*D3
 70
     1
 10
0.0
 20
0.0
 30
0.0
  3
*D3
  1

  0
LINE
  5
3119
330
2F3B
100
AcDbEntity
  8
寸法線
 62
     0
370
    -2
100
AcDbLine
 10
138.8515140254043
 20
-244.4120704196852
 30
0.0
 11
168.0569865204413
 21
-244.4120704196852
 31
0.0
  0
LINE
  5
311A
330
2F3B
100
AcDbEntity
  8
寸法線
 62
     0
370
    -2
100
AcDbLine
 10
136.7295230789496
 20
-185.1120704196852
 30
0.0
 11
168.0569865204413
 21
-185.1120704196852
 31
0.0
  0
LINE
  5
311B
330
2F3B
100
AcDbEntity
  8
寸法線
 62
     0
370
    -2
100
AcDbLine
 10
165.0569865204413
 20
-241.4120704196852
 30
0.0
 11
165.0569865204413
 21
-188.1120704196852
 31
0.0
  0
INSERT
  5
311C
330
2F3B
100
AcDbEntity
  8
寸法線
 62
     0
370
    -2
100
AcDbBlockReference
  2
_Closed
 10
165.0569865204413
 20
-244.4120704196852
 30
0.0
 41
3.0
 42
3.0
 43
3.0
 50
270.0
  0
INSERT
  5
311D
330
2F3B
100
AcDbEntity
  8
寸法線
 62
     0
370
    -2
100
AcDbBlockReference
  2
_Closed
 10
165.0569865204413
 20
-185.1120704196852
 30
0.0
 41
3.0
 42
3.0
 43
3.0
 50
90.0
  0
MTEXT
  5
311E
330
2F3B
100
AcDbEntity
  8
寸法線
 62
     0
100
AcDbMText
 10
161.5569865204413
 20
-214.7620704196852
 30
0.0
 40
5.0
 41
0.0
 71
     5
 72
     1
  1
59.3
  7
OKANO
 11
0.0000000000000001
 21
1.0
 31
0.0
 73
     1
 44
1.0
  0
POINT
  5
311F
330
2F3B
100
AcDbEntity
  8
Defpoints
 62
     0
100
AcDbPoint
 10
136.8515140254043
 20
-244.4120704196852
 30
0.0
  0
POINT
  5
3120
330
2F3B
100
AcDbEntity
  8
Defpoints
 62
     0
100
AcDbPoint
 10
134.7295230789496
 20
-185.1120704196852
 30
0.0
  0
POINT
  5
3121
330
2F3B
100
AcDbEntity
  8
Defpoints
 62
     0
100
AcDbPoint
 10
165.0569865204413
 20
-185.1120704196852
 30
0.0
  0
ENDBLK
  5
2F46
330
2F3B
100
AcDbEntity
  8
0
100
AcDbBlockEnd
  0
BLOCK
  5
2F90
330
2F86
100
AcDbEntity
  8
0
100
AcDbBlockBegin
  2
*D4
 70
     1
 10
0.0
 20
0.0
 30
0.0
  3
*D4
  1

  0
LINE
  5
2F87
330
2F86
100
AcDbEntity
  8
寸法線
 62
     0
370
    -2
100
AcDbLine
 10
124.8515140254043
 20
178.4711488256961
 30
0.0
 11
124.8515140254043
 21
123.2262366162249
 31
0.0
  0
LINE
  5
2F88
330
2F86
100
AcDbEntity
  8
寸法線
 62
     0
370
    -2
100
AcDbLine
 10
136.8515140254043
 20
153.8211488256961
 30
0.0
 11
136.8515140254043
 21
123.2262366162249
 31
0.0
  0
LINE
  5
2F89
330
2F86
100
AcDbEntity
  8
寸法線
 62
     0
370
    -2
100
AcDbLine
 10
127.8515140254043
 20
126.2262366162249
 30
0.0
 11
133.8515140254043
 21
126.2262366162249
 31
0.0
  0
INSERT
  5
2F8A
330
2F86
100
AcDbEntity
  8
寸法線
 62
     0
370
    -2
100
AcDbBlockReference
  2
_Closed
 10
124.8515140254043
 20
126.2262366162249
 30
0.0
 41
3.0
 42
3.0
 43
3.0
 50
180.0
  0
INSERT
  5
2F8B
330
2F86
100
AcDbEntity
  8
寸法線
 62
     0
370
    -2
100
AcDbBlockReference
  2
_Closed
 10
136.8515140254043
 20
126.2262366162249
 30
0.0
 41
3.0
 42
3.0
 43
3.0
  0
MTEXT
  5
2F8C
330
2F86
100
AcDbEntity
  8
寸法線
 62
     0
100
AcDbMText
 10
130.8515140254043
 20
129.7267287422091
 30
0.0
 40
5.0
 41
0.0
 71
     5
 72
     1
  1
12
  7
OKANO
 73
     1
 44
1.0
  0
POINT
  5
2F8D
330
2F86
100
AcDbEntity
  8
Defpoints
 62
     0
100
AcDbPoint
 10
124.8515140254043
 20
180.4711488256961
 30
0.0
  0
POINT
  5
2F8E
330
2F86
100
AcDbEntity
  8
Defpoints
 62
     0
100
AcDbPoint
 10
136.8515140254043
 20
155.8211488256961
 30
0.0
  0
POINT
  5
2F8F
330
2F86
100
AcDbEntity
  8
Defpoints
 62
     0
100
AcDbPoint
 10
136.8515140254043
 20
126.2262366162249
 30
0.0
  0
ENDBLK
  5
2F91
330
2F86
100
AcDbEntity
  8
0
100
AcDbBlockEnd
  0
BLOCK
  5
2F9D
330
2F93
100
AcDbEntity
  8
0
100
AcDbBlockBegin
  2
*D5
 70
     1
 10
0.0
 20
0.0
 30
0.0
  3
*D5
  1

  0
LINE
  5
3433
330
2F93
100
AcDbEntity
  8
寸法線
 62
     0
370
    -2
100
AcDbLine
 10
114.9381829524736
 20
181.9276008441681
 30
0.0
 11
114.9381829524736
 21
201.3874425126348
 31
0.0
  0
LINE
  5
3434
330
2F93
100
AcDbEntity
  8
寸法線
 62
     0
370
    -2
100
AcDbLine
 10
134.8944890800705
 20
181.9276008441681
 30
0.0
 11
134.8944890800705
 21
201.3874425126348
 31
0.0
  0
LINE
  5
3435
330
2F93
100
AcDbEntity
  8
寸法線
 62
     0
370
    -2
100
AcDbLine
 10
117.9381829524736
 20
198.3874425126348
 30
0.0
 11
131.8944890800705
 21
198.3874425126348
 31
0.0
  0
INSERT
  5
3436
330
2F93
100
AcDbEntity
  8
寸法線
 62
     0
370
    -2
100
AcDbBlockReference
  2
_Closed
 10
114.9381829524736
 20
198.3874425126348
 30
0.0
 41
3.0
 42
3.0
 43
3.0
 50
180.0
  0
INSERT
  5
3437
330
2F93
100
AcDbEntity
  8
寸法線
 62
     0
370
    -2
100
AcDbBlockReference
  2
_Closed
 10
134.8944890800705
 20
198.3874425126348
 30
0.0
 41
3.0
 42
3.0
 43
3.0
  0
MTEXT
  5
3438
330
2F93
100
AcDbEntity
  8
寸法線
 62
     0
100
AcDbMText
 10
124.9163360162721
 20
201.887934638619
 30
0.0
 40
5.0
 41
0.0
 71
     5
 72
     1
  1
24
  7
OKANO
 73
     1
 44
1.0
  0
POINT
  5
3439
330
2F93
100
AcDbEntity
  8
Defpoints
 62
     0
100
AcDbPoint
 10
114.9381829524736
 20
179.9276008441681
 30
0.0
  0
POINT
  5
343A
330
2F93
100
AcDbEntity
  8
Defpoints
 62
     0
100
AcDbPoint
 10
134.8944890800705
 20
179.9276008441681
 30
0.0
  0
POINT
  5
343B
330
2F93
100
AcDbEntity
  8
Defpoints
 62
     0
100
AcDbPoint
 10
134.8944890800705
 20
198.3874425126348
 30
0.0
  0
ENDBLK
  5
2F9E
330
2F93
100
AcDbEntity
  8
0
100
AcDbBlockEnd
  0
BLOCK
  5
2FDE
330
2FD4
100
AcDbEntity
  8
0
100
AcDbBlockBegin
  2
*D6
 70
     1
 10
0.0
 20
0.0
 30
0.0
  3
*D6
  1

  0
LINE
  5
3486
330
2FD4
100
AcDbEntity
  8
寸法線
 62
     0
370
    -2
100
AcDbLine
 10
184.6354418931946
 20
104.6676745524996
 30
0.0
 11
195.2857959097772
 21
104.6325880493078
 31
0.0
  0
LINE
  5
3487
330
2FD4
100
AcDbEntity
  8
寸法線
 62
     0
370
    -2
100
AcDbLine
 10
184.6024980936356
 20
94.66772881734332
 30
0.0
 11
195.2528521102183
 21
94.63264231415154
 31
0.0
  0
LINE
  5
3488
330
2FD4
100
AcDbEntity
  8
寸法線
 62
     0
370
    -2
100
AcDbLine
 10
192.2759290493626
 20
101.6424874686286
 30
0.0
 11
192.2627515295391
 21
97.6425091745661
 31
0.0
  0
INSERT
  5
3489
330
2FD4
100
AcDbEntity
  8
寸法線
 62
     0
370
    -2
100
AcDbBlockReference
  2
_Closed
 10
192.2858121892303
 20
104.6424711891755
 30
0.0
 41
3.0
 42
3.0
 43
3.0
 50
89.81124559099029
  0
INSERT
  5
348A
330
2FD4
100
AcDbEntity
  8
寸法線
 62
     0
370
    -2
100
AcDbBlockReference
  2
_Closed
 10
192.2528683896714
 20
94.64252545401922
 30
0.0
 41
3.0
 42
3.0
 43
3.0
 50
269.8112455909902
  0
MTEXT
  5
348B
330
2FD4
100
AcDbEntity
  8
寸法線
 62
     0
100
AcDbMText
 10
188.7693592821461
 20
99.654028651443
 30
0.0
 40
5.0
 41
0.0
 71
     5
 72
     1
  1
13
  7
OKANO
 11
0.0032943799558955
 21
0.9999945735156297
 31
0.0
 73
     1
 44
1.0
  0
POINT
  5
348C
330
2FD4
100
AcDbEntity
  8
Defpoints
 62
     0
100
AcDbPoint
 10
182.6354527461633
 20
104.6742633124114
 30
0.0
  0
POINT
  5
348D
330
2FD4
100
AcDbEntity
  8
Defpoints
 62
     0
100
AcDbPoint
 10
182.6025089466043
 20
94.67431757725512
 30
0.0
  0
POINT
  5
348E
330
2FD4
100
AcDbEntity
  8
Defpoints
 62
     0
100
AcDbPoint
 10
192.2528683896714
 20
94.64252545401922
 30
0.0
  0
ENDBLK
  5
2FDF
330
2FD4
100
AcDbEntity
  8
0
100
AcDbBlockEnd
  0
BLOCK
  5
2FEA
330
2FE1
100
AcDbEntity
  8
0
100
AcDbBlockBegin
  2
*D7
 70
     1
 10
0.0
 20
0.0
 30
0.0
  3
*D7
  1

  0
LINE
  5
3415
330
2FE1
100
AcDbEntity
  8
寸法線
 62
     0
370
    -2
100
AcDbLine
 10
142.1489200638734
 20
115.9880547040199
 30
0.0
 11
180.6671509778206
 21
114.6162002669336
 31
0.0
  0
MTEXT
  5
3416
330
2FE1
100
AcDbEntity
  8
寸法線
 62
     0
100
AcDbMText
 10
153.0879998139715
 20
119.1006706634982
 30
0.0
 40
5.0
 41
0.0
 71
     5
 72
     1
  1
M16-10
  7
OKANO
 11
0.999366363080523
 21
-0.0355931502287769
 31
0.0
 73
     1
 44
1.0
  0
INSERT
  5
3417
330
2FE1
100
AcDbEntity
  8
寸法線
 62
     0
370
    -2
100
AcDbBlockReference
  2
_Closed
 10
183.6652500670622
 20
114.5094208162473
 30
0.0
 41
3.0
 42
3.0
 43
3.0
 50
357.9602318699826
  0
POINT
  5
3418
330
2FE1
100
AcDbEntity
  8
Defpoints
 62
     0
100
AcDbPoint
 10
183.6652500670622
 20
114.5094208162473
 30
0.0
  0
POINT
  5
3419
330
2FE1
100
AcDbEntity
  8
Defpoints
 62
     0
100
AcDbPoint
 10
173.6715864362569
 20
114.865352318535
 30
0.0
  0
ENDBLK
  5
2FEB
330
2FE1
100
AcDbEntity
  8
0
100
AcDbBlockEnd
  0
BLOCK
  5
3042
330
3038
100
AcDbEntity
  8
0
100
AcDbBlockBegin
  2
*D8
 70
     1
 10
0.0
 20
0.0
 30
0.0
  3
*D8
  1

  0
LINE
  5
3110
330
3038
100
AcDbEntity
  8
寸法線
 62
     0
370
    -2
100
AcDbLine
 10
101.8515140254043
 20
-192.1120704196852
 30
0.0
 11
113.6569572643186
 21
-192.1120704196852
 31
0.0
  0
LINE
  5
3111
330
3038
100
AcDbEntity
  8
寸法線
 62
     0
370
    -2
100
AcDbLine
 10
103.8515140254043
 20
-237.4120704196852
 30
0.0
 11
113.6569572643185
 21
-237.4120704196852
 31
0.0
  0
LINE
  5
3112
330
3038
100
AcDbEntity
  8
寸法線
 62
     0
370
    -2
100
AcDbLine
 10
110.6569572643186
 20
-195.1120704196852
 30
0.0
 11
110.6569572643185
 21
-234.4120704196852
 31
0.0
  0
INSERT
  5
3113
330
3038
100
AcDbEntity
  8
寸法線
 62
     0
370
    -2
100
AcDbBlockReference
  2
_Closed
 10
110.6569572643186
 20
-192.1120704196852
 30
0.0
 41
3.0
 42
3.0
 43
3.0
 50
90.0
  0
INSERT
  5
3114
330
3038
100
AcDbEntity
  8
寸法線
 62
     0
370
    -2
100
AcDbBlockReference
  2
_Closed
 10
110.6569572643185
 20
-237.4120704196852
 30
0.0
 41
3.0
 42
3.0
 43
3.0
 50
270.0
  0
MTEXT
  5
3115
330
3038
100
AcDbEntity
  8
寸法線
 62
     0
100
AcDbMText
 10
107.1569572643186
 20
-222.1949581423065
 30
0.0
 40
5.0
 41
0.0
 71
     5
 72
     1
  1
45.3
  7
OKANO
 11
0.0000000000000001
 21
1.0
 31
0.0
 73
     1
 44
1.0
  0
POINT
  5
3116
330
3038
100
AcDbEntity
  8
Defpoints
 62
     0
100
AcDbPoint
 10
99.85151402540433
 20
-192.1120704196852
 30
0.0
  0
POINT
  5
3117
330
3038
100
AcDbEntity
  8
Defpoints
 62
     0
100
AcDbPoint
 10
101.8515140254043
 20
-237.4120704196852
 30
0.0
  0
POINT
  5
3118
330
3038
100
AcDbEntity
  8
Defpoints
 62
     0
100
AcDbPoint
 10
110.6569572643185
 20
-237.4120704196852
 30
0.0
  0
ENDBLK
  5
3043
330
3038
100
AcDbEntity
  8
0
100
AcDbBlockEnd
  0
BLOCK
  5
335C
330
3351
100
AcDbEntity
  8
0
100
AcDbBlockBegin
  2
*D9
 70
     1
 10
0.0
 20
0.0
 30
0.0
  3
*D9
  1

  0
LINE
  5
335E
330
3351
100
AcDbEntity
  8
寸法線
 62
     0
370
    -2
100
AcDbLine
 10
224.6374380735023
 20
182.8311250296821
 30
0.0
 11
224.6374380735023
 21
225.3998365133215
 31
0.0
  0
LINE
  5
335F
330
3351
100
AcDbEntity
  8
寸法線
 62
     0
370
    -2
100
AcDbLine
 10
234.7047220879217
 20
182.4958938175266
 30
0.0
 11
234.7047220879217
 21
225.3998365133215
 31
0.0
  0
LINE
  5
3360
330
3351
100
AcDbEntity
  8
寸法線
 62
     0
370
    -2
100
AcDbLine
 10
227.6374380735024
 20
222.3998365133216
 30
0.0
 11
231.7047220879217
 21
222.3998365133216
 31
0.0
  0
INSERT
  5
3361
330
3351
100
AcDbEntity
  8
寸法線
 62
     0
370
    -2
100
AcDbBlockReference
  2
_Closed
 10
224.6374380735023
 20
222.3998365133216
 30
0.0
 41
3.0
 42
3.0
 43
3.0
 50
180.0
  0
INSERT
  5
3362
330
3351
100
AcDbEntity
  8
寸法線
 62
     0
370
    -2
100
AcDbBlockReference
  2
_Closed
 10
234.7047220879217
 20
222.3998365133216
 30
0.0
 41
3.0
 42
3.0
 43
3.0
  0
MTEXT
  5
3363
330
3351
100
AcDbEntity
  8
寸法線
 62
     0
100
AcDbMText
 10
229.671080080712
 20
225.8998365133215
 30
0.0
 40
5.0
 41
0.0
 71
     5
 72
     1
  1
10
  7
OKANO
 73
     1
 44
1.0
  0
POINT
  5
3364
330
3351
100
AcDbEntity
  8
Defpoints
 62
     0
100
AcDbPoint
 10
224.6374380735023
 20
180.8311250296821
 30
0.0
  0
POINT
  5
3365
330
3351
100
AcDbEntity
  8
Defpoints
 62
     0
100
AcDbPoint
 10
234.7047220879217
 20
180.4958938175266
 30
0.0
  0
POINT
  5
3366
330
3351
100
AcDbEntity
  8
Defpoints
 62
     0
100
AcDbPoint
 10
234.7047220879217
 20
222.3998365133216
 30
0.0
  0
ENDBLK
  5
335D
330
3351
100
AcDbEntity
  8
0
100
AcDbBlockEnd
  0
BLOCK
  5
3372
330
3368
100
AcDbEntity
  8
0
100
AcDbBlockBegin
  2
*D10
 70
     1
 10
0.0
 20
0.0
 30
0.0
  3
*D10
  1

  0
LINE
  5
3374
330
3368
100
AcDbEntity
  8
寸法線
 62
     0
370
    -2
100
AcDbLine
 10
49.55151402540431
 20
148.7500810138306
 30
0.0
 11
49.55151402540431
 21
139.4557183411675
 31
0.0
  0
LINE
  5
3375
330
3368
100
AcDbEntity
  8
寸法線
 62
     0
370
    -2
100
AcDbLine
 10
94.85151402540433
 20
148.7500810138306
 30
0.0
 11
94.85151402540433
 21
139.4557183411675
 31
0.0
  0
LINE
  5
3376
330
3368
100
AcDbEntity
  8
寸法線
 62
     0
370
    -2
100
AcDbLine
 10
52.55151402540431
 20
142.4557183411675
 30
0.0
 11
91.85151402540432
 21
142.4557183411675
 31
0.0
  0
INSERT
  5
3377
330
3368
100
AcDbEntity
  8
寸法線
 62
     0
370
    -2
100
AcDbBlockReference
  2
_Closed
 10
49.55151402540431
 20
142.4557183411675
 30
0.0
 41
3.0
 42
3.0
 43
3.0
 50
180.0
  0
INSERT
  5
3378
330
3368
100
AcDbEntity
  8
寸法線
 62
     0
370
    -2
100
AcDbBlockReference
  2
_Closed
 10
94.85151402540433
 20
142.4557183411675
 30
0.0
 41
3.0
 42
3.0
 43
3.0
  0
MTEXT
  5
3379
330
3368
100
AcDbEntity
  8
寸法線
 62
     0
100
AcDbMText
 10
75.17213125415264
 20
145.9557183411675
 30
0.0
 40
5.0
 41
0.0
 71
     5
 72
     1
  1
45.3
  7
OKANO
 73
     1
 44
1.0
  0
POINT
  5
337A
330
3368
100
AcDbEntity
  8
Defpoints
 62
     0
100
AcDbPoint
 10
49.55151402540431
 20
150.7500810138306
 30
0.0
  0
POINT
  5
337B
330
3368
100
AcDbEntity
  8
Defpoints
 62
     0
100
AcDbPoint
 10
94.85151402540433
 20
150.7500810138306
 30
0.0
  0
POINT
  5
337C
330
3368
100
AcDbEntity
  8
Defpoints
 62
     0
100
AcDbPoint
 10
94.85151402540433
 20
142.4557183411675
 30
0.0
  0
ENDBLK
  5
3373
330
3368
100
AcDbEntity
  8
0
100
AcDbBlockEnd
  0
BLOCK
  5
3388
330
337E
100
AcDbEntity
  8
0
100
AcDbBlockBegin
  2
*D11
 70
     1
 10
0.0
 20
0.0
 30
0.0
  3
*D11
  1

  0
LINE
  5
3471
330
337E
100
AcDbEntity
  8
寸法線
 62
     0
370
    -2
100
AcDbLine
 10
5.551514025404316
 20
155.8211488256961
 30
0.0
 11
-7.125976552654275
 21
155.8211488256961
 31
0.0
  0
LINE
  5
3472
330
337E
100
AcDbEntity
  8
寸法線
 62
     0
370
    -2
100
AcDbLine
 10
5.551514025404316
 20
205.1211488256961
 30
0.0
 11
-7.125976552654265
 21
205.1211488256961
 31
0.0
  0
LINE
  5
3473
330
337E
100
AcDbEntity
  8
寸法線
 62
     0
370
    -2
100
AcDbLine
 10
-4.125976552654274
 20
158.8211488256961
 30
0.0
 11
-4.125976552654265
 21
202.1211488256961
 31
0.0
  0
INSERT
  5
3474
330
337E
100
AcDbEntity
  8
寸法線
 62
     0
370
    -2
100
AcDbBlockReference
  2
_Closed
 10
-4.125976552654275
 20
155.8211488256961
 30
0.0
 41
3.0
 42
3.0
 43
3.0
 50
270.0
  0
INSERT
  5
3475
330
337E
100
AcDbEntity
  8
寸法線
 62
     0
370
    -2
100
AcDbBlockReference
  2
_Closed
 10
-4.125976552654265
 20
205.1211488256961
 30
0.0
 41
3.0
 42
3.0
 43
3.0
 50
90.0
  0
MTEXT
  5
3476
330
337E
100
AcDbEntity
  8
寸法線
 62
     0
100
AcDbMText
 10
-7.625976552654299
 20
180.4711488256961
 30
0.0
 40
5.0
 41
0.0
 71
     5
 72
     1
  1
49.3～50
  7
OKANO
 11
0.0000000000000001
 21
1.0
 31
0.0
 73
     1
 44
1.0
  0
POINT
  5
3477
330
337E
100
AcDbEntity
  8
Defpoints
 62
     0
100
AcDbPoint
 10
7.551514025404316
 20
155.8211488256961
 30
0.0
  0
POINT
  5
3478
330
337E
100
AcDbEntity
  8
Defpoints
 62
     0
100
AcDbPoint
 10
7.551514025404316
 20
205.1211488256961
 30
0.0
  0
POINT
  5
3479
330
337E
100
AcDbEntity
  8
Defpoints
 62
     0
100
AcDbPoint
 10
-4.125976552654265
 20
205.1211488256961
 30
0.0
  0
ENDBLK
  5
3389
330
337E
100
AcDbEntity
  8
0
100
AcDbBlockEnd
  0
BLOCK
  5
3395
330
338B
100
AcDbEntity
  8
0
100
AcDbBlockBegin
  2
*D12
 70
     1
 10
0.0
 20
0.0
 30
0.0
  3
*D12
  1

  0
LINE
  5
33DE
330
338B
100
AcDbEntity
  8
寸法線
 62
     0
370
    -2
100
AcDbLine
 10
7.551514025404316
 20
210.1211488256961
 30
0.0
 11
-17.86959103621937
 21
210.1211488256961
 31
0.0
  0
LINE
  5
33DF
330
338B
100
AcDbEntity
  8
寸法線
 62
     0
370
    -2
100
AcDbLine
 10
7.551514025404344
 20
150.8211488256961
 30
0.0
 11
-17.86959103621939
 21
150.8211488256961
 31
0.0
  0
LINE
  5
33E0
330
338B
100
AcDbEntity
  8
寸法線
 62
     0
370
    -2
100
AcDbLine
 10
-14.86959103621937
 20
207.1211488256961
 30
0.0
 11
-14.86959103621939
 21
153.8211488256961
 31
0.0
  0
INSERT
  5
33E1
330
338B
100
AcDbEntity
  8
寸法線
 62
     0
370
    -2
100
AcDbBlockReference
  2
_Closed
 10
-14.86959103621937
 20
210.1211488256961
 30
0.0
 41
3.0
 42
3.0
 43
3.0
 50
90.0
  0
INSERT
  5
33E2
330
338B
100
AcDbEntity
  8
寸法線
 62
     0
370
    -2
100
AcDbBlockReference
  2
_Closed
 10
-14.86959103621939
 20
150.8211488256961
 30
0.0
 41
3.0
 42
3.0
 43
3.0
 50
270.0
  0
MTEXT
  5
33E3
330
338B
100
AcDbEntity
  8
寸法線
 62
     0
100
AcDbMText
 10
-18.36959103621941
 20
180.4711488256961
 30
0.0
 40
5.0
 41
0.0
 71
     5
 72
     1
  1
60
  7
OKANO
 11
0.0000000000000001
 21
1.0
 31
0.0
 73
     1
 44
1.0
  0
POINT
  5
33E4
330
338B
100
AcDbEntity
  8
Defpoints
 62
     0
100
AcDbPoint
 10
9.551514025404316
 20
210.1211488256961
 30
0.0
  0
POINT
  5
33E5
330
338B
100
AcDbEntity
  8
Defpoints
 62
     0
100
AcDbPoint
 10
9.551514025404344
 20
150.8211488256961
 30
0.0
  0
POINT
  5
33E6
330
338B
100
AcDbEntity
  8
Defpoints
 62
     0
100
AcDbPoint
 10
-14.86959103621939
 20
150.8211488256961
 30
0.0
  0
ENDBLK
  5
3396
330
338B
100
AcDbEntity
  8
0
100
AcDbBlockEnd
  0
BLOCK
  5
33A2
330
3398
100
AcDbEntity
  8
0
100
AcDbBlockBegin
  2
*D13
 70
     1
 10
0.0
 20
0.0
 30
0.0
  3
*D13
  1

  0
LINE
  5
33D5
330
3398
100
AcDbEntity
  8
寸法線
 62
     0
370
    -2
100
AcDbLine
 10
7.551514025404316
 20
210.1211488256961
 30
0.0
 11
7.551514025404317
 21
229.8846254693485
 31
0.0
  0
LINE
  5
33D6
330
3398
100
AcDbEntity
  8
寸法線
 62
     0
370
    -2
100
AcDbLine
 10
136.8515140254043
 20
207.1211488256961
 30
0.0
 11
136.8515140254043
 21
229.8846254693485
 31
0.0
  0
LINE
  5
33D7
330
3398
100
AcDbEntity
  8
寸法線
 62
     0
370
    -2
100
AcDbLine
 10
10.55151402540431
 20
226.8846254693485
 30
0.0
 11
133.8515140254043
 21
226.8846254693485
 31
0.0
  0
INSERT
  5
33D8
330
3398
100
AcDbEntity
  8
寸法線
 62
     0
370
    -2
100
AcDbBlockReference
  2
_Closed
 10
7.551514025404316
 20
226.8846254693485
 30
0.0
 41
3.0
 42
3.0
 43
3.0
 50
180.0
  0
INSERT
  5
33D9
330
3398
100
AcDbEntity
  8
寸法線
 62
     0
370
    -2
100
AcDbBlockReference
  2
_Closed
 10
136.8515140254043
 20
226.8846254693485
 30
0.0
 41
3.0
 42
3.0
 43
3.0
  0
MTEXT
  5
33DA
330
3398
100
AcDbEntity
  8
寸法線
 62
     0
100
AcDbMText
 10
72.20151402540432
 20
230.3846254693485
 30
0.0
 40
5.0
 41
0.0
 71
     5
 72
     1
  1
130
  7
OKANO
 73
     1
 44
1.0
  0
POINT
  5
33DB
330
3398
100
AcDbEntity
  8
Defpoints
 62
     0
100
AcDbPoint
 10
7.551514025404316
 20
208.1211488256961
 30
0.0
  0
POINT
  5
33DC
330
3398
100
AcDbEntity
  8
Defpoints
 62
     0
100
AcDbPoint
 10
136.8515140254043
 20
205.1211488256961
 30
0.0
  0
POINT
  5
33DD
330
3398
100
AcDbEntity
  8
Defpoints
 62
     0
100
AcDbPoint
 10
136.8515140254043
 20
226.8846254693485
 30
0.0
  0
ENDBLK
  5
33A3
330
3398
100
AcDbEntity
  8
0
100
AcDbBlockEnd
  0
BLOCK
  5
33AF
330
33A5
100
AcDbEntity
  8
0
100
AcDbBlockBegin
  2
*D14
 70
     1
 10
0.0
 20
0.0
 30
0.0
  3
*D14
  1

  0
LINE
  5
33F9
330
33A5
100
AcDbEntity
  8
寸法線
 62
     0
370
    -2
100
AcDbLine
 10
289.0453422155108
 20
210.1211488256962
 30
0.0
 11
314.0435140765562
 21
210.1211488256962
 31
0.0
  0
LINE
  5
33FA
330
33A5
100
AcDbEntity
  8
寸法線
 62
     0
370
    -2
100
AcDbLine
 10
289.0453422155109
 20
115.8211488256961
 30
0.0
 11
314.0435140765562
 21
115.8211488256961
 31
0.0
  0
LINE
  5
33FB
330
33A5
100
AcDbEntity
  8
寸法線
 62
     0
370
    -2
100
AcDbLine
 10
311.0435140765563
 20
207.1211488256961
 30
0.0
 11
311.0435140765562
 21
118.8211488256961
 31
0.0
  0
INSERT
  5
33FC
330
33A5
100
AcDbEntity
  8
寸法線
 62
     0
370
    -2
100
AcDbBlockReference
  2
_Closed
 10
311.0435140765563
 20
210.1211488256962
 30
0.0
 41
3.0
 42
3.0
 43
3.0
 50
90.0
  0
INSERT
  5
33FD
330
33A5
100
AcDbEntity
  8
寸法線
 62
     0
370
    -2
100
AcDbBlockReference
  2
_Closed
 10
311.0435140765562
 20
115.8211488256961
 30
0.0
 41
3.0
 42
3.0
 43
3.0
 50
270.0
  0
MTEXT
  5
33FE
330
33A5
100
AcDbEntity
  8
寸法線
 62
     0
100
AcDbMText
 10
307.5435140765562
 20
162.9711488256961
 30
0.0
 40
5.0
 41
0.0
 71
     5
 72
     1
  1
95
  7
OKANO
 11
0.0000000000000001
 21
1.0
 31
0.0
 73
     1
 44
1.0
  0
POINT
  5
33FF
330
33A5
100
AcDbEntity
  8
Defpoints
 62
     0
100
AcDbPoint
 10
287.0453422155108
 20
210.1211488256962
 30
0.0
  0
POINT
  5
3400
330
33A5
100
AcDbEntity
  8
Defpoints
 62
     0
100
AcDbPoint
 10
287.0453422155108
 20
115.8211488256961
 30
0.0
  0
POINT
  5
3401
330
33A5
100
AcDbEntity
  8
Defpoints
 62
     0
100
AcDbPoint
 10
311.0435140765562
 20
115.8211488256961
 30
0.0
  0
ENDBLK
  5
33B0
330
33A5
100
AcDbEntity
  8
0
100
AcDbBlockEnd
  0
BLOCK
  5
33BC
330
33B2
100
AcDbEntity
  8
0
100
AcDbBlockBegin
  2
*D15
 70
     1
 10
0.0
 20
0.0
 30
0.0
  3
*D15
  1

  0
LINE
  5
33F0
330
33B2
100
AcDbEntity
  8
寸法線
 62
     0
370
    -2
100
AcDbLine
 10
229.7453422155109
 20
115.8211488256961
 30
0.0
 11
229.7453422155109
 21
92.14153728489055
 31
0.0
  0
LINE
  5
33F1
330
33B2
100
AcDbEntity
  8
寸法線
 62
     0
370
    -2
100
AcDbLine
 10
289.0453422155109
 20
115.8211488256961
 30
0.0
 11
289.0453422155109
 21
92.14153728489055
 31
0.0
  0
LINE
  5
33F2
330
33B2
100
AcDbEntity
  8
寸法線
 62
     0
370
    -2
100
AcDbLine
 10
232.7453422155109
 20
95.14153728489054
 30
0.0
 11
286.0453422155109
 21
95.14153728489054
 31
0.0
  0
INSERT
  5
33F3
330
33B2
100
AcDbEntity
  8
寸法線
 62
     0
370
    -2
100
AcDbBlockReference
  2
_Closed
 10
229.7453422155109
 20
95.14153728489054
 30
0.0
 41
3.0
 42
3.0
 43
3.0
 50
180.0
  0
INSERT
  5
33F4
330
33B2
100
AcDbEntity
  8
寸法線
 62
     0
370
    -2
100
AcDbBlockReference
  2
_Closed
 10
289.0453422155109
 20
95.14153728489054
 30
0.0
 41
3.0
 42
3.0
 43
3.0
  0
MTEXT
  5
33F5
330
33B2
100
AcDbEntity
  8
寸法線
 62
     0
100
AcDbMText
 10
259.3953422155109
 20
98.64153728489055
 30
0.0
 40
5.0
 41
0.0
 71
     5
 72
     1
  1
60
  7
OKANO
 73
     1
 44
1.0
  0
POINT
  5
33F6
330
33B2
100
AcDbEntity
  8
Defpoints
 62
     0
100
AcDbPoint
 10
229.7453422155109
 20
117.8211488256961
 30
0.0
  0
POINT
  5
33F7
330
33B2
100
AcDbEntity
  8
Defpoints
 62
     0
100
AcDbPoint
 10
289.0453422155109
 20
117.8211488256961
 30
0.0
  0
POINT
  5
33F8
330
33B2
100
AcDbEntity
  8
Defpoints
 62
     0
100
AcDbPoint
 10
289.0453422155109
 20
95.14153728489054
 30
0.0
  0
ENDBLK
  5
33BD
330
33B2
100
AcDbEntity
  8
0
100
AcDbBlockEnd
  0
BLOCK
  5
3409
330
3403
100
AcDbEntity
  8
0
100
AcDbBlockBegin
  2
*D16
 70
     1
 10
0.0
 20
0.0
 30
0.0
  3
*D16
  1

  0
LINE
  5
347A
330
3403
100
AcDbEntity
  8
寸法線
 62
     0
370
    -2
100
AcDbLine
 10
79.98153511676584
 20
173.8087100685983
 30
0.0
 11
55.75718646664757
 21
194.5532861329487
 31
0.0
  0
MTEXT
  5
347B
330
3403
100
AcDbEntity
  8
寸法線
 62
     0
100
AcDbMText
 10
71.28524863990619
 20
185.8637667148506
 30
0.0
 40
5.0
 41
0.0
 71
     5
 72
     1
  1
49-3～50
  7
OKANO
 11
0.7595532359702898
 21
-0.6504451412125865
 31
0.0
 73
     1
 44
1.0
  0
INSERT
  5
347C
330
3403
100
AcDbEntity
  8
寸法線
 62
     0
370
    -2
100
AcDbBlockReference
  2
_Closed
 10
53.47852675873669
 20
196.5046215565864
 30
0.0
 41
3.0
 42
3.0
 43
3.0
 50
139.4248279747373
  0
POINT
  5
347D
330
3403
100
AcDbEntity
  8
Defpoints
 62
     0
100
AcDbPoint
 10
53.47852675873669
 20
196.5046215565864
 30
0.0
  0
POINT
  5
347E
330
3403
100
AcDbEntity
  8
Defpoints
 62
     0
100
AcDbPoint
 10
90.92450129207199
 20
164.4376760948059
 30
0.0
  0
ENDBLK
  5
340A
330
3403
100
AcDbEntity
  8
0
100
AcDbBlockEnd
  0
BLOCK
  5
3431
330
3426
100
AcDbEntity
  8
0
100
AcDbBlockBegin
  2
*D17
 70
     1
 10
0.0
 20
0.0
 30
0.0
  3
*D17
  1

  0
LINE
  5
343C
330
3426
100
AcDbEntity
  8
寸法線
 62
     0
370
    -2
100
AcDbLine
 10
117.597595707487
 20
182.9767221872138
 30
0.0
 11
117.597595707487
 21
193.7652892574285
 31
0.0
  0
LINE
  5
343D
330
3426
100
AcDbEntity
  8
寸法線
 62
     0
370
    -2
100
AcDbLine
 10
132.5287201807732
 20
182.9767221872138
 30
0.0
 11
132.5287201807732
 21
193.7652892574285
 31
0.0
  0
LINE
  5
343E
330
3426
100
AcDbEntity
  8
寸法線
 62
     0
370
    -2
100
AcDbLine
 10
120.597595707487
 20
190.7652892574285
 30
0.0
 11
129.5287201807732
 21
190.7652892574285
 31
0.0
  0
INSERT
  5
343F
330
3426
100
AcDbEntity
  8
寸法線
 62
     0
370
    -2
100
AcDbBlockReference
  2
_Closed
 10
117.597595707487
 20
190.7652892574285
 30
0.0
 41
3.0
 42
3.0
 43
3.0
 50
180.0
  0
INSERT
  5
3440
330
3426
100
AcDbEntity
  8
寸法線
 62
     0
370
    -2
100
AcDbBlockReference
  2
_Closed
 10
132.5287201807732
 20
190.7652892574285
 30
0.0
 41
3.0
 42
3.0
 43
3.0
  0
MTEXT
  5
3441
330
3426
100
AcDbEntity
  8
寸法線
 62
     0
100
AcDbMText
 10
125.0631579441301
 20
194.2657813834128
 30
0.0
 40
5.0
 41
0.0
 71
     5
 72
     1
  1
20
  7
OKANO
 73
     1
 44
1.0
  0
POINT
  5
3442
330
3426
100
AcDbEntity
  8
Defpoints
 62
     0
100
AcDbPoint
 10
117.597595707487
 20
180.9767221872139
 30
0.0
  0
POINT
  5
3443
330
3426
100
AcDbEntity
  8
Defpoints
 62
     0
100
AcDbPoint
 10
132.5287201807732
 20
180.9767221872139
 30
0.0
  0
POINT
  5
3444
330
3426
100
AcDbEntity
  8
Defpoints
 62
     0
100
AcDbPoint
 10
132.5287201807732
 20
190.7652892574285
 30
0.0
  0
ENDBLK
  5
3432
330
3426
100
AcDbEntity
  8
0
100
AcDbBlockEnd
  0
BLOCK
  5
3452
330
3446
100
AcDbEntity
  8
0
100
AcDbBlockBegin
  2
*D18
 70
     1
 10
0.0
 20
0.0
 30
0.0
  3
*D18
  1

  0
LINE
  5
3454
330
3446
100
AcDbEntity
  8
寸法線
 62
     0
370
    -2
100
AcDbLine
 10
137.6297539325642
 20
204.8514975540486
 30
0.0
 11
164.0227052616092
 21
204.8514975540486
 31
0.0
  0
LINE
  5
3455
330
3446
100
AcDbEntity
  8
寸法線
 62
     0
370
    -2
100
AcDbLine
 10
137.6297539325642
 20
209.924913357488
 30
0.0
 11
164.0227052616092
 21
209.924913357488
 31
0.0
  0
LINE
  5
3456
330
3446
100
AcDbEntity
  8
寸法線
 62
     0
370
    -2
100
AcDbLine
 10
161.0227052616092
 20
201.8514975540485
 30
0.0
 11
161.0227052616092
 21
198.8514975540486
 31
0.0
  0
LINE
  5
3457
330
3446
100
AcDbEntity
  8
寸法線
 62
     0
370
    -2
100
AcDbLine
 10
161.0227052616092
 20
212.9249133574881
 30
0.0
 11
161.0227052616092
 21
215.924913357488
 31
0.0
  0
LINE
  5
3458
330
3446
100
AcDbEntity
  8
寸法線
 62
     0
370
    -2
100
AcDbLine
 10
161.0227052616092
 20
204.8514975540486
 30
0.0
 11
161.0227052616092
 21
209.924913357488
 31
0.0
  0
INSERT
  5
3459
330
3446
100
AcDbEntity
  8
寸法線
 62
     0
370
    -2
100
AcDbBlockReference
  2
_Closed
 10
161.0227052616092
 20
204.8514975540486
 30
0.0
 41
3.0
 42
3.0
 43
3.0
 50
90.0
  0
INSERT
  5
345A
330
3446
100
AcDbEntity
  8
寸法線
 62
     0
370
    -2
100
AcDbBlockReference
  2
_Closed
 10
161.0227052616092
 20
209.924913357488
 30
0.0
 41
3.0
 42
3.0
 43
3.0
 50
270.0
  0
MTEXT
  5
345B
330
3446
100
AcDbEntity
  8
寸法線
 62
     0
100
AcDbMText
 10
157.5227052616091
 20
207.3882054557683
 30
0.0
 40
5.0
 41
0.0
 71
     5
 72
     1
  1
5
  7
OKANO
 11
0.0000000000000001
 21
1.0
 31
0.0
 73
     1
 44
1.0
  0
POINT
  5
345C
330
3446
100
AcDbEntity
  8
Defpoints
 62
     0
100
AcDbPoint
 10
135.6297539325642
 20
204.8514975540486
 30
0.0
  0
POINT
  5
345D
330
3446
100
AcDbEntity
  8
Defpoints
 62
     0
100
AcDbPoint
 10
135.6297539325642
 20
209.924913357488
 30
0.0
  0
POINT
  5
345E
330
3446
100
AcDbEntity
  8
Defpoints
 62
     0
100
AcDbPoint
 10
161.0227052616092
 20
209.924913357488
 30
0.0
  0
ENDBLK
  5
3453
330
3446
100
AcDbEntity
  8
0
100
AcDbBlockEnd
  0
ENDSEC
  0
SECTION
  2
ENTITIES
  0
XLINE
  5
22CA
330
1F
100
AcDbEntity
  8
構築線
370
     5
100
AcDbXline
 10
72.20151402540432
 20
178.0193172078315
 30
0.0
 11
0.0
 21
-1.0
 31
0.0
  0
TEXT
  5
29C1
330
1F
100
AcDbEntity
  8
文字
100
AcDbText
 10
280.17557812536
 20
3.315952255566458
 30
0.0
 40
3.599999999999999
  1
SET SCREW COUP
 51
15.0
  7
OKANO
100
AcDbText
  0
TEXT
  5
29C2
330
1F
100
AcDbEntity
  8
文字
100
AcDbText
 10
251.3874819578773
 20
-3.782311080513817
 30
0.0
 40
4.799999999999999
  1
joint kogyo T.okano
 51
15.0
  7
OKANO
100
AcDbText
  0
TEXT
  5
29C3
330
1F
100
AcDbEntity
  8
文字
100
AcDbText
 10
243.8991689460804
 20
10.97006042677396
 30
0.0
 40
4.799999999999999
  1
F-999-20111128 Auto CAD
 51
15.0
  7
OKANO
100
AcDbText
  0
LINE
  5
29C4
330
1F
100
AcDbEntity
  8
太線
100
AcDbLine
 10
216.4769407644665
 20
10.04925277634361
 30
0.0
 11
324.4769407644665
 21
10.04925277634361
 31
0.0
  0
LWPOLYLINE
  5
29C5
330
1F
100
AcDbEntity
  8
太線
100
AcDbPolyline
 90
        4
 70
     1
 43
0.0
 10
216.4769407644665
 20
18.4492527763436
 10
324.4769407644665
 20
18.4492527763436
 10
324.4769407644665
 20
-6.750747223656389
 10
216.4769407644665
 20
-6.750747223656389
  0
TEXT
  5
29C6
330
1F
100
AcDbEntity
  8
文字
100
AcDbText
 10
220.3493243305241
 20
1.855740977492928
 30
0.0
 40
2.399999999999999
  1
CHECK
 51
15.0
  7
OKANO
100
AcDbText
  0
LINE
  5
29C7
330
1F
100
AcDbEntity
  8
太線
100
AcDbLine
 10
240.4769407644665
 20
18.4492527763436
 30
0.0
 11
240.4769407644665
 21
-6.750747223656389
 31
0.0
  0
TEXT
  5
29C8
330
1F
100
AcDbEntity
  8
文字
100
AcDbText
 10
220.3493243305241
 20
-5.063686628722894
 30
0.0
 40
2.399999999999999
  1
ISSUED
 51
15.0
  7
OKANO
100
AcDbText
  0
TEXT
  5
29C9
330
1F
100
AcDbEntity
  8
文字
100
AcDbText
 10
220.6058387634247
 20
-1.732110439454753
 30
0.0
 40
2.399999999999999
  1
APPR
 51
15.0
  7
OKANO
100
AcDbText
  0
TEXT
  5
29CA
330
1F
100
AcDbEntity
  8
文字
100
AcDbText
 10
218.5537287788383
 20
11.85046895510877
 30
0.0
 40
2.399999999999999
  1
FILM NAME
 51
15.0
  7
OKANO
100
AcDbText
  0
TEXT
  5
29CB
330
1F
100
AcDbEntity
  8
文字
100
AcDbText
 10
219.8362976561704
 20
5.443591804251965
 30
0.0
 40
2.399999999999999
  1
DRAWN
 51
15.0
  7
OKANO
100
AcDbText
  0
TEXT
  5
29CC
330
1F
100
AcDbEntity
  8
文字
100
AcDbText
 10
246.0529359624883
 20
2.22791308182559
 30
0.0
 40
4.799999999999999
  1
Ｓ-2-4Ｙ
 51
15.0
  7
OKANO
100
AcDbText
  0
TEXT
  5
2DA4
330
1F
100
AcDbEntity
  8
文字
100
AcDbText
 10
201.7049031767342
 20
-45.83078583715564
 30
0.0
 40
4.799999999999999
  1
注記　内面バリは最小限にする
 51
15.0
  7
OKANO
100
AcDbText
  0
XLINE
  5
2DB6
330
1F
100
AcDbEntity
  8
構築線
100
AcDbXline
 10
72.20151402540432
 20
180.4711488256961
 30
0.0
 11
1.0
 21
0.0
 31
0.0
  0
XLINE
  5
2DB7
330
1F
100
AcDbEntity
  8
構築線
370
     5
100
AcDbXline
 10
4921.501514025404
 20
178.0193172078315
 30
0.0
 11
0.0
 21
-1.0
 31
0.0
  0
XLINE
  5
2DB8
330
1F
100
AcDbEntity
  8
構築線
370
     5
100
AcDbXline
 10
-4777.098485974596
 20
178.0193172078315
 30
0.0
 11
0.0
 21
-1.0
 31
0.0
  0
XLINE
  5
2DD5
330
1F
100
AcDbEntity
  8
構築線
370
     5
100
AcDbXline
 10
96.85151402540434
 20
178.0193172078315
 30
0.0
 11
0.0
 21
-1.0
 31
0.0
  0
XLINE
  5
2DD6
330
1F
100
AcDbEntity
  8
構築線
370
     5
100
AcDbXline
 10
47.55151402540432
 20
178.0193172078315
 30
0.0
 11
0.0
 21
-1.0
 31
0.0
  0
CIRCLE
  5
2DD9
330
1F
100
AcDbEntity
  8
太線
100
AcDbCircle
 10
72.20151402540432
 20
180.4711488256961
 30
0.0
 40
24.65
  0
XLINE
  5
2DDA
330
1F
100
AcDbEntity
  8
構築線
370
     5
100
AcDbXline
 10
101.8515140254043
 20
178.0193172078315
 30
0.0
 11
0.0
 21
-1.0
 31
0.0
  0
XLINE
  5
2DDB
330
1F
100
AcDbEntity
  8
構築線
370
     5
100
AcDbXline
 10
42.55151402540432
 20
178.0193172078315
 30
0.0
 11
0.0
 21
-1.0
 31
0.0
  0
CIRCLE
  5
2DDC
330
1F
100
AcDbEntity
  8
太線
100
AcDbCircle
 10
72.20151402540432
 20
180.4711488256961
 30
0.0
 40
29.65
  0
XLINE
  5
2DDD
330
1F
100
AcDbEntity
  8
構築線
370
     5
100
AcDbXline
 10
136.8515140254043
 20
178.0193172078315
 30
0.0
 11
0.0
 21
-1.0
 31
0.0
  0
XLINE
  5
2DDE
330
1F
100
AcDbEntity
  8
構築線
100
AcDbXline
 10
72.20151402540432
 20
155.8211488256961
 30
0.0
 11
1.0
 21
0.0
 31
0.0
  0
XLINE
  5
2DDF
330
1F
100
AcDbEntity
  8
構築線
100
AcDbXline
 10
72.20151402540432
 20
150.8211488256961
 30
0.0
 11
1.0
 21
0.0
 31
0.0
  0
XLINE
  5
2DE0
330
1F
100
AcDbEntity
  8
構築線
100
AcDbXline
 10
72.20151402540432
 20
210.1211488256961
 30
0.0
 11
1.0
 21
0.0
 31
0.0
  0
XLINE
  5
2DE2
330
1F
100
AcDbEntity
  8
構築線
100
AcDbXline
 10
72.20151402540432
 20
115.8211488256961
 30
0.0
 11
1.0
 21
0.0
 31
0.0
  0
LINE
  5
2DE3
330
1F
100
AcDbEntity
  8
構築線
100
AcDbLine
 10
42.55151402540432
 20
180.4711488256961
 30
0.0
 11
42.55151402540433
 21
115.8211488256961
 31
0.0
  0
LINE
  5
2DE4
330
1F
100
AcDbEntity
  8
構築線
100
AcDbLine
 10
42.55151402540433
 20
115.8211488256961
 30
0.0
 11
101.8515140254043
 21
115.8211488256961
 31
0.0
  0
LINE
  5
2DE5
330
1F
100
AcDbEntity
  8
構築線
100
AcDbLine
 10
101.8515140254043
 20
115.8211488256961
 30
0.0
 11
101.8515140254043
 21
150.8211488256961
 31
0.0
  0
LINE
  5
2DE6
330
1F
100
AcDbEntity
  8
構築線
100
AcDbLine
 10
101.8515140254043
 20
150.8211488256961
 30
0.0
 11
136.8515140254043
 21
150.8211488256961
 31
0.0
  0
LINE
  5
2DE7
330
1F
100
AcDbEntity
  8
構築線
100
AcDbLine
 10
136.8515140254043
 20
150.8211488256961
 30
0.0
 11
136.8515140254043
 21
210.1211488256961
 31
0.0
  0
LINE
  5
2DE8
330
1F
100
AcDbEntity
  8
構築線
100
AcDbLine
 10
136.8515140254043
 20
210.1211488256961
 30
0.0
 11
72.20151402540432
 21
210.1211488256961
 31
0.0
  0
LINE
  5
2DE9
330
1F
100
AcDbEntity
  8
太線
100
AcDbLine
 10
72.20151402540432
 20
210.1211488256961
 30
0.0
 11
134.8515140254043
 21
210.1211488256961
 31
0.0
  0
LINE
  5
2DEA
330
1F
100
AcDbEntity
  8
太線
100
AcDbLine
 10
136.8515140254043
 20
208.1211488256961
 30
0.0
 11
136.8515140254042
 21
152.8211488256961
 31
0.0
  0
LINE
  5
2DEB
330
1F
100
AcDbEntity
  8
太線
100
AcDbLine
 10
134.8515140254042
 20
150.8211488256961
 30
0.0
 11
101.8515140254043
 21
150.8211488256961
 31
0.0
  0
LINE
  5
2DED
330
1F
100
AcDbEntity
  8
太線
100
AcDbLine
 10
99.85151402540433
 20
115.8211488256961
 30
0.0
 11
44.55151402540433
 21
115.8211488256961
 31
0.0
  0
LINE
  5
2DEE
330
1F
100
AcDbEntity
  8
太線
100
AcDbLine
 10
42.55151402540433
 20
117.8211488256961
 30
0.0
 11
42.55151402540431
 21
180.4711488256961
 31
0.0
  0
XLINE
  5
2DEF
330
1F
100
AcDbEntity
  8
構築線
100
AcDbXline
 10
72.20151402540432
 20
205.1211488256961
 30
0.0
 11
1.0
 21
0.0
 31
0.0
  0
RAY
  5
2DF3
330
1F
100
AcDbEntity
  8
構築線
370
     5
100
AcDbRay
 10
94.85151402540433
 20
163.4780030751885
 30
0.0
 11
0.0
 21
-1.0
 31
0.0
  0
XLINE
  5
2DF4
330
1F
100
AcDbEntity
  8
構築線
370
     5
100
AcDbXline
 10
49.55151402540432
 20
178.0193172078315
 30
0.0
 11
0.0
 21
-1.0
 31
0.0
  0
XLINE
  5
2DFA
330
1F
100
AcDbEntity
  8
構築線
370
     5
100
AcDbXline
 10
99.85151402540433
 20
178.0193172078315
 30
0.0
 11
0.0
 21
-1.0
 31
0.0
  0
LINE
  5
2DFB
330
1F
100
AcDbEntity
  8
破線
100
AcDbLine
 10
136.8515140254043
 20
205.1211488256961
 30
0.0
 11
101.8515140254043
 21
205.1211488256961
 31
0.0
  0
LINE
  5
2DFC
330
1F
100
AcDbEntity
  8
破線
100
AcDbLine
 10
101.8515140254043
 20
205.1211488256961
 30
0.0
 11
101.8515140254043
 21
203.1211488256961
 31
0.0
  0
LINE
  5
2DFD
330
1F
100
AcDbEntity
  8
破線
100
AcDbLine
 10
101.8515140254043
 20
203.1211488256961
 30
0.0
 11
99.85151402540433
 21
203.1211488256961
 31
0.0
  0
LINE
  5
2E00
330
1F
100
AcDbEntity
  8
破線
100
AcDbLine
 10
136.8515140254043
 20
155.8211488256961
 30
0.0
 11
101.8515140254043
 21
155.8211488256961
 31
0.0
  0
LINE
  5
2E05
330
1F
100
AcDbEntity
  8
破線
100
AcDbLine
 10
101.8515140254043
 20
203.1211488256961
 30
0.0
 11
101.8515140254043
 21
157.8211488256961
 31
0.0
  0
XLINE
  5
2E08
330
1F
100
AcDbEntity
  8
構築線
100
AcDbXline
 10
72.20151402540432
 20
152.8211488256961
 30
0.0
 11
1.0
 21
0.0
 31
0.0
  0
LINE
  5
2E09
330
1F
100
AcDbEntity
  8
破線
100
AcDbLine
 10
96.85151402540434
 20
115.8211488256961
 30
0.0
 11
96.85151402540434
 21
150.8211488256961
 31
0.0
  0
LINE
  5
2E0A
330
1F
100
AcDbEntity
  8
破線
100
AcDbLine
 10
96.85151402540434
 20
150.8211488256961
 30
0.0
 11
94.85151402540433
 21
150.8211488256961
 31
0.0
  0
LINE
  5
2E0B
330
1F
100
AcDbEntity
  8
破線
100
AcDbLine
 10
94.85151402540433
 20
150.8211488256961
 30
0.0
 11
94.85151402540433
 21
152.8211488256961
 31
0.0
  0
LINE
  5
2E0E
330
1F
100
AcDbEntity
  8
破線
100
AcDbLine
 10
47.55151402540432
 20
115.8211488256961
 30
0.0
 11
47.55151402540432
 21
150.8211488256961
 31
0.0
  0
LINE
  5
2E0F
330
1F
100
AcDbEntity
  8
破線
100
AcDbLine
 10
47.55151402540432
 20
150.8211488256961
 30
0.0
 11
49.55151402540432
 21
150.8211488256961
 31
0.0
  0
LINE
  5
2E10
330
1F
100
AcDbEntity
  8
破線
100
AcDbLine
 10
49.55151402540432
 20
150.8211488256961
 30
0.0
 11
49.55151402540432
 21
152.8211488256961
 31
0.0
  0
LINE
  5
2E13
330
1F
100
AcDbEntity
  8
破線
100
AcDbLine
 10
49.55151402540432
 20
150.8211488256961
 30
0.0
 11
94.85151402540433
 21
150.8211488256961
 31
0.0
  0
XLINE
  5
2E15
330
1F
100
AcDbEntity
  8
構築線
100
AcDbXline
 10
42.55151402540432
 20
210.1211488256961
 30
0.0
 11
0.7071067811865476
 21
-0.7071067811865476
 31
0.0
  0
XLINE
  5
2E16
330
1F
100
AcDbEntity
  8
構築線
100
AcDbXline
 10
72.20151402540432
 20
215.1211488256961
 30
0.0
 11
1.0
 21
0.0
 31
0.0
  0
ARC
  5
2E17
330
1F
100
AcDbEntity
  8
太線
100
AcDbCircle
 10
72.20151402540432
 20
180.4711488256961
 30
0.0
 40
34.65
100
AcDbArc
 50
77.4993777707548
 51
102.5006222292453
  0
XLINE
  5
2E18
330
1F
100
AcDbEntity
  8
構築線
100
AcDbXline
 10
49.6225818372698
 20
217.1922166375616
 30
0.0
 11
0.7071067811865476
 21
-0.7071067811865476
 31
0.0
  0
XLINE
  5
2E19
330
1F
100
AcDbEntity
  8
構築線
100
AcDbXline
 10
35.48044621353884
 20
203.0500810138307
 30
0.0
 11
0.7071067811865476
 21
-0.7071067811865476
 31
0.0
  0
XLINE
  5
2E1A
330
1F
100
AcDbEntity
  8
構築線
100
AcDbXline
 10
46.08704793133706
 20
213.6566827316288
 30
0.0
 11
0.7071067811865476
 21
-0.7071067811865476
 31
0.0
  0
XLINE
  5
2E1B
330
1F
100
AcDbEntity
  8
構築線
100
AcDbXline
 10
46.08704793133706
 20
213.6566827316288
 30
0.0
 11
0.7071067811865476
 21
-0.7071067811865476
 31
0.0
  0
XLINE
  5
2E1C
330
1F
100
AcDbEntity
  8
構築線
100
AcDbXline
 10
39.01598011947158
 20
206.5856149197634
 30
0.0
 11
0.7071067811865476
 21
-0.7071067811865476
 31
0.0
  0
XLINE
  5
2E1D
330
1F
100
AcDbEntity
  8
構築線
100
AcDbXline
 10
47.85481488430343
 20
215.4244496845953
 30
0.0
 11
0.7071067811865476
 21
-0.7071067811865476
 31
0.0
  0
XLINE
  5
2E1E
330
1F
100
AcDbEntity
  8
構築線
100
AcDbXline
 10
37.24821316650521
 20
204.817847966797
 30
0.0
 11
0.7071067811865476
 21
-0.7071067811865476
 31
0.0
  0
LINE
  5
2E1F
330
1F
100
AcDbEntity
  8
太線
100
AcDbLine
 10
82.20151402540427
 20
208.3839147223249
 30
0.0
 11
79.70151402540429
 21
214.299724024779
 31
0.0
  0
LINE
  5
2E20
330
1F
100
AcDbEntity
  8
太線
100
AcDbLine
 10
62.20151402540427
 20
208.3839147223248
 30
0.0
 11
64.70151402540427
 21
214.299724024779
 31
0.0
  0
LINE
  5
2E21
330
1F
100
AcDbEntity
  8
細線
100
AcDbLine
 10
67.20151402540432
 20
214.7585007211109
 30
0.0
 11
67.20151402540427
 21
204.608723268875
 31
0.0
  0
LINE
  5
2E22
330
1F
100
AcDbEntity
  8
細線
100
AcDbLine
 10
77.20151402540429
 20
214.7585007211109
 30
0.0
 11
77.20151402540423
 21
204.608723268875
 31
0.0
  0
XLINE
  5
2E24
330
1F
100
AcDbEntity
  8
構築線
100
AcDbXline
 10
45.37994115015052
 20
212.9495759504423
 30
0.0
 11
0.7071067811865476
 21
-0.7071067811865476
 31
0.0
  0
XLINE
  5
2E25
330
1F
100
AcDbEntity
  8
構築線
100
AcDbXline
 10
39.72308690065813
 20
207.2927217009499
 30
0.0
 11
0.7071067811865476
 21
-0.7071067811865476
 31
0.0
  0
LINE
  5
2E26
330
1F
100
AcDbEntity
  8
細線
100
AcDbLine
 10
76.20151402540429
 20
214.8894942246255
 30
0.0
 11
76.20151402540424
 21
204.7944401325896
 31
0.0
  0
LINE
  5
2E27
330
1F
100
AcDbEntity
  8
細線
100
AcDbLine
 10
68.20151402540432
 20
214.8894942246255
 30
0.0
 11
68.20151402540421
 21
204.7944401325896
 31
0.0
  0
XLINE
  5
2E28
330
1F
100
AcDbEntity
  8
構築線
100
AcDbXline
 10
72.20151402540432
 20
180.4711488256961
 30
0.0
 11
0.7071067811865476
 21
0.7071067811865476
 31
0.0
  0
XLINE
  5
2E29
330
1F
100
AcDbEntity
  8
構築線
100
AcDbXline
 10
43.91724277794241
 20
208.755420073158
 30
0.0
 11
0.7071067811865476
 21
0.7071067811865476
 31
0.0
  0
XLINE
  5
2E2A
330
1F
100
AcDbEntity
  8
構築線
100
AcDbXline
 10
29.77510715421146
 20
222.897555696889
 30
0.0
 11
0.7071067811865476
 21
0.7071067811865476
 31
0.0
  0
CIRCLE
  5
2E2B
330
1F
100
AcDbEntity
  8
太線
100
AcDbCircle
 10
-12.65129971698138
 20
265.3239625680818
 30
0.0
 40
10.0
  0
CIRCLE
  5
2E2C
330
1F
100
AcDbEntity
  8
太線
100
AcDbCircle
 10
-12.65129971698138
 20
265.3239625680818
 30
0.0
 40
7.500000000000017
  0
CIRCLE
  5
2E2D
330
1F
100
AcDbEntity
  8
太線
100
AcDbCircle
 10
-12.65129971698138
 20
265.3239625680818
 30
0.0
 40
4.999999999999998
  0
CIRCLE
  5
2E2E
330
1F
100
AcDbEntity
  8
太線
100
AcDbCircle
 10
-12.65129971698138
 20
265.3239625680818
 30
0.0
 40
3.999999999999994
  0
XLINE
  5
2E3C
330
1F
100
AcDbEntity
  8
構築線
370
     5
100
AcDbXline
 10
124.8515140254043
 20
178.0193172078315
 30
0.0
 11
0.0
 21
-1.0
 31
0.0
  0
XLINE
  5
2E3D
330
1F
100
AcDbEntity
  8
構築線
100
AcDbXline
 10
72.20151402540432
 20
127.8211488256961
 30
0.0
 11
1.0
 21
0.0
 31
0.0
  0
CIRCLE
  5
2E3E
330
1F
100
AcDbEntity
  8
太線
100
AcDbCircle
 10
124.8515140254043
 20
180.4711488256961
 30
0.0
 40
10.0
  0
CIRCLE
  5
2E3F
330
1F
100
AcDbEntity
  8
太線
100
AcDbCircle
 10
124.8515140254043
 20
180.4711488256961
 30
0.0
 40
3.999999999999994
  0
CIRCLE
  5
2E40
330
1F
100
AcDbEntity
  8
太線
100
AcDbCircle
 10
124.8515140254043
 20
180.4711488256961
 30
0.0
 40
4.999999999999998
  0
CIRCLE
  5
2E41
330
1F
100
AcDbEntity
  8
太線
100
AcDbCircle
 10
124.8515140254043
 20
180.4711488256961
 30
0.0
 40
7.500000000000017
  0
CIRCLE
  5
2E42
330
1F
100
AcDbEntity
  8
太線
100
AcDbCircle
 10
72.20151402540432
 20
127.8211488256961
 30
0.0
 40
7.500000000000017
  0
CIRCLE
  5
2E43
330
1F
100
AcDbEntity
  8
太線
100
AcDbCircle
 10
72.20151402540432
 20
127.8211488256961
 30
0.0
 40
4.999999999999998
  0
CIRCLE
  5
2E44
330
1F
100
AcDbEntity
  8
太線
100
AcDbCircle
 10
72.20151402540432
 20
127.8211488256961
 30
0.0
 40
3.999999999999994
  0
CIRCLE
  5
2E45
330
1F
100
AcDbEntity
  8
太線
100
AcDbCircle
 10
72.20151402540432
 20
127.8211488256961
 30
0.0
 40
10.0
  0
LINE
  5
2E65
330
1F
100
AcDbEntity
  8
太線
100
AcDbLine
 10
-125.6773383394522
 20
210.1211488256961
 30
0.0
 11
-61.02733833945226
 21
210.1211488256961
 31
0.0
  0
LINE
  5
2E66
330
1F
100
AcDbEntity
  8
構築線
100
AcDbLine
 10
-61.02733833945226
 20
210.1211488256961
 30
0.0
 11
-125.6773383394522
 21
210.1211488256961
 31
0.0
  0
CIRCLE
  5
2E67
330
1F
100
AcDbEntity
  8
太線
100
AcDbCircle
 10
-125.6773383394522
 20
180.4711488256961
 30
0.0
 40
29.65
  0
CIRCLE
  5
2E68
330
1F
100
AcDbEntity
  8
太線
100
AcDbCircle
 10
-125.6773383394522
 20
180.4711488256961
 30
0.0
 40
24.65
  0
ARC
  5
2E6D
330
1F
100
AcDbEntity
  8
太線
100
AcDbCircle
 10
-125.6773383394522
 20
180.4711488256961
 30
0.0
 40
34.65
100
AcDbArc
 50
76.13672947565451
 51
101.137973934145
  0
LINE
  5
2E6E
330
1F
100
AcDbEntity
  8
細線
100
AcDbLine
 10
-128.8577231634446
 20
214.974882715977
 30
0.0
 11
-129.0977881670016
 21
204.8826834553997
 31
0.0
  0
LINE
  5
2E6F
330
1F
100
AcDbEntity
  8
細線
100
AcDbLine
 10
-129.8605554538087
 20
214.8677067141558
 30
0.0
 11
-130.1019218039004
 21
204.7207995688745
 31
0.0
  0
LINE
  5
2E72
330
1F
100
AcDbEntity
  8
太線
100
AcDbLine
 10
-135.0107320491352
 20
208.6138257037056
 30
0.0
 11
-132.3707583858238
 21
214.4685109010518
 31
0.0
  0
LINE
  5
2E75
330
1F
100
AcDbEntity
  8
細線
100
AcDbLine
 10
-120.8599855239491
 20
214.7846390569589
 30
0.0
 11
-121.1000505275061
 21
204.6924397963815
 31
0.0
  0
LINE
  5
2E76
330
1F
100
AcDbEntity
  8
細線
100
AcDbLine
 10
-119.8633834044393
 20
214.6299021403831
 30
0.0
 11
-120.104749754531
 21
204.4829949951019
 31
0.0
  0
LINE
  5
2E77
330
1F
100
AcDbEntity
  8
太線
100
AcDbLine
 10
-115.0163879503964
 20
208.1382165561603
 30
0.0
 11
-117.3750003117697
 21
214.1118040403927
 31
0.0
  0
XLINE
  5
2E8E
330
1F
100
AcDbEntity
  8
構築線
100
AcDbXline
 10
-125.6773383394522
 20
180.4711488256961
 30
0.0
 11
0.0
 21
-1.0
 31
0.0
  0
CIRCLE
  5
2EAB
330
1F
100
AcDbEntity
  8
太線
100
AcDbCircle
 10
72.20151402540432
 20
-214.7620704196852
 30
0.0
 40
24.65
  0
CIRCLE
  5
2EAE
330
1F
100
AcDbEntity
  8
太線
100
AcDbCircle
 10
72.20151402540432
 20
-214.7620704196852
 30
0.0
 40
29.65
  0
XLINE
  5
2EAF
330
1F
100
AcDbEntity
  8
構築線
100
AcDbXline
 10
230.5833684936667
 20
191.7785719718527
 30
0.0
 11
1.0
 21
0.0
 31
0.0
  0
ELLIPSE
  5
2EB1
330
1F
100
AcDbEntity
  8
太線
100
AcDbEllipse
 10
55.99748978106697
 20
-214.268701556133
 30
0.0
 11
6.297664918256828
 21
0.0
 31
0.0
210
0.0
220
0.0
230
1.0
 40
0.8062129979295185
 41
-1.570796326794896
 42
4.712388980384689
  0
ELLIPSE
  5
2EB2
330
1F
100
AcDbEntity
  8
太線
100
AcDbEllipse
 10
56.15766545233498
 20
-213.8423119210272
 30
0.0
 11
5.421777917755775
 21
0.0
 31
0.0
210
0.0
220
0.0
230
1.0
 40
0.7593413274163612
 41
-1.570796326794896
 42
4.712388980384689
  0
LINE
  5
2EB3
330
1F
100
AcDbEntity
  8
太線
100
AcDbLine
 10
42.55151402540432
 20
-214.7620704196852
 30
0.0
 11
42.55151402540432
 21
-187.1120704196852
 31
0.0
  0
LINE
  5
2EB4
330
1F
100
AcDbEntity
  8
太線
100
AcDbLine
 10
44.55151402540432
 20
-185.1120704196852
 30
0.0
 11
134.8515140254043
 21
-185.1120704196852
 31
0.0
  0
LINE
  5
2EB5
330
1F
100
AcDbEntity
  8
太線
100
AcDbLine
 10
136.8515140254043
 20
-187.1120704196852
 30
0.0
 11
136.8515140254043
 21
-242.4120704196852
 31
0.0
  0
LINE
  5
2EB6
330
1F
100
AcDbEntity
  8
太線
100
AcDbLine
 10
134.8515140254043
 20
-244.4120704196852
 30
0.0
 11
44.55151402540432
 21
-244.4120704196852
 31
0.0
  0
LINE
  5
2EB7
330
1F
100
AcDbEntity
  8
太線
100
AcDbLine
 10
42.55151402540432
 20
-242.4120704196852
 30
0.0
 11
42.55151402540431
 21
-214.7620704196852
 31
0.0
  0
ARC
  5
2EB8
330
1F
100
AcDbEntity
  8
太線
100
AcDbCircle
 10
72.20151402540429
 20
-214.7620704196852
 30
0.0
 40
34.65
100
AcDbArc
 50
76.13672947565451
 51
101.137973934145
  0
LINE
  5
2EB9
330
1F
100
AcDbEntity
  8
太線
100
AcDbLine
 10
62.86812031572131
 20
-186.6193935416757
 30
0.0
 11
65.50809397903273
 21
-180.7647083443296
 31
0.0
  0
LINE
  5
2EBA
330
1F
100
AcDbEntity
  8
細線
100
AcDbLine
 10
68.01829691104789
 20
-180.3655125312255
 30
0.0
 11
67.77693056095618
 21
-190.5124196765068
 31
0.0
  0
LINE
  5
2EBB
330
1F
100
AcDbEntity
  8
細線
100
AcDbLine
 10
69.02112920141189
 20
-180.2583365294043
 30
0.0
 11
68.78106419785493
 21
-190.3505357899816
 31
0.0
  0
LINE
  5
2EBC
330
1F
100
AcDbEntity
  8
細線
100
AcDbLine
 10
78.01546896041728
 20
-180.6033171049983
 30
0.0
 11
77.77410261032557
 21
-190.7502242502794
 31
0.0
  0
LINE
  5
2EBD
330
1F
100
AcDbEntity
  8
細線
100
AcDbLine
 10
77.01886684090741
 20
-180.4485801884224
 30
0.0
 11
76.77880183735044
 21
-190.5407794489997
 31
0.0
  0
LINE
  5
2EBE
330
1F
100
AcDbEntity
  8
太線
100
AcDbLine
 10
82.8624644144601
 20
-187.095002689221
 30
0.0
 11
80.50385205308684
 21
-181.1214152049886
 31
0.0
  0
ARC
  5
2EBF
330
1F
100
AcDbEntity
  8
太線
100
AcDbCircle
 10
124.8515140254043
 20
-214.7620704196852
 30
0.0
 40
34.65
100
AcDbArc
 50
76.13672947565451
 51
101.137973934145
  0
LINE
  5
2EC0
330
1F
100
AcDbEntity
  8
太線
100
AcDbLine
 10
116.1977970549521
 20
-185.1120704196851
 30
0.0
 11
118.1580939790327
 21
-180.7647083443296
 31
0.0
  0
LINE
  5
2EC1
330
1F
100
AcDbEntity
  8
細線
100
AcDbLine
 10
120.6682969110479
 20
-180.3655125312255
 30
0.0
 11
120.4269305609561
 21
-190.5124196765068
 31
0.0
  0
LINE
  5
2EC2
330
1F
100
AcDbEntity
  8
細線
100
AcDbLine
 10
121.6711292014118
 20
-180.2583365294043
 30
0.0
 11
121.4310641978549
 21
-190.3505357899816
 31
0.0
  0
LINE
  5
2EC3
330
1F
100
AcDbEntity
  8
細線
100
AcDbLine
 10
130.6654689604172
 20
-180.6033171049983
 30
0.0
 11
130.4241026103255
 21
-190.7502242502794
 31
0.0
  0
LINE
  5
2EC4
330
1F
100
AcDbEntity
  8
細線
100
AcDbLine
 10
129.6688668409074
 20
-180.4485801884224
 30
0.0
 11
129.4288018373504
 21
-190.5407794489997
 31
0.0
  0
LINE
  5
2EC5
330
1F
100
AcDbEntity
  8
太線
100
AcDbLine
 10
134.7295230789496
 20
-185.1120704196852
 30
0.0
 11
133.1538520530868
 21
-181.1214152049886
 31
0.0
  0
LINE
  5
2EC8
330
1F
100
AcDbEntity
  8
破線
100
AcDbLine
 10
136.8515140254043
 20
-190.1120704196852
 30
0.0
 11
101.8515140254043
 21
-190.1120704196852
 31
0.0
  0
LINE
  5
2EC9
330
1F
100
AcDbEntity
  8
破線
100
AcDbLine
 10
101.8515140254043
 20
-190.1120704196852
 30
0.0
 11
101.8515140254043
 21
-192.1120704196852
 31
0.0
  0
LINE
  5
2ECA
330
1F
100
AcDbEntity
  8
破線
100
AcDbLine
 10
101.8515140254043
 20
-192.1120704196852
 30
0.0
 11
99.85151402540433
 21
-192.1120704196852
 31
0.0
  0
LINE
  5
2ECD
330
1F
100
AcDbEntity
  8
破線
100
AcDbLine
 10
136.8515140254043
 20
-239.4120704196852
 30
0.0
 11
101.8515140254043
 21
-239.4120704196852
 31
0.0
  0
LINE
  5
2ECE
330
1F
100
AcDbEntity
  8
破線
100
AcDbLine
 10
101.8515140254043
 20
-239.4120704196852
 30
0.0
 11
101.8515140254043
 21
-237.4120704196852
 31
0.0
  0
LINE
  5
2ECF
330
1F
100
AcDbEntity
  8
破線
100
AcDbLine
 10
101.8515140254043
 20
-237.4120704196852
 30
0.0
 11
99.85151402540433
 21
-237.4120704196852
 31
0.0
  0
LINE
  5
2ED2
330
1F
100
AcDbEntity
  8
破線
100
AcDbLine
 10
101.8515140254043
 20
-192.1120704196852
 30
0.0
 11
101.8515140254043
 21
-237.4120704196852
 31
0.0
  0
XLINE
  5
2ED4
330
1F
100
AcDbEntity
  8
構築線
100
AcDbXline
 10
8.561903718615042
 20
244.1107591324854
 30
0.0
 11
0.7071067811865476
 21
0.7071067811865476
 31
0.0
  0
XLINE
  5
2ED5
330
1F
100
AcDbEntity
  8
構築線
100
AcDbXline
 10
-12.65129971698138
 20
265.3239625680818
 30
0.0
 11
0.7071067811865476
 21
0.7071067811865476
 31
0.0
  0
XLINE
  5
2ED6
330
1F
100
AcDbEntity
  8
構築線
100
AcDbXline
 10
36.84617496607694
 20
215.8264878850235
 30
0.0
 11
0.7071067811865476
 21
0.7071067811865476
 31
0.0
  0
XLINE
  5
2ED9
330
1F
100
AcDbEntity
  8
構築線
100
AcDbXline
 10
40.43019368184467
 20
207.9998284821365
 30
0.0
 11
0.7071067811865476
 21
-0.7071067811865476
 31
0.0
  0
XLINE
  5
2EDA
330
1F
100
AcDbEntity
  8
構築線
100
AcDbXline
 10
43.21013599675587
 20
209.4625268543446
 30
0.0
 11
0.7071067811865476
 21
0.7071067811865476
 31
0.0
  0
LINE
  5
2EDB
330
1F
100
AcDbEntity
  8
太線
100
AcDbLine
 10
174.6025523584793
 20
94.7006726169023
 30
0.0
 11
182.6025089466043
 21
94.6743175772551
 31
0.0
  0
LINE
  5
2EDC
330
1F
100
AcDbEntity
  8
太線
100
AcDbLine
 10
182.6025089466043
 20
94.6743175772551
 30
0.0
 11
183.6057979000759
 21
95.67101777081484
 31
0.0
  0
LINE
  5
2EDD
330
1F
100
AcDbEntity
  8
太線
100
AcDbLine
 10
183.6057979000759
 20
95.67101777081484
 30
0.0
 11
183.6354473196789
 21
104.6709689324555
 31
0.0
  0
LINE
  5
2EDE
330
1F
100
AcDbEntity
  8
太線
100
AcDbLine
 10
183.6354473196789
 20
104.6709689324555
 30
0.0
 11
173.6355015845226
 21
104.7039127320144
 31
0.0
  0
LINE
  5
2EDF
330
1F
100
AcDbEntity
  8
太線
100
AcDbLine
 10
173.6355015845226
 20
104.7039127320144
 30
0.0
 11
173.6058521649196
 21
95.70396157037379
 31
0.0
  0
LINE
  5
2EE0
330
1F
100
AcDbEntity
  8
太線
100
AcDbLine
 10
173.6058521649196
 20
95.70396157037379
 30
0.0
 11
174.6025523584793
 21
94.7006726169023
 31
0.0
  0
LINE
  5
2EE1
330
1F
100
AcDbEntity
  8
破線
100
AcDbLine
 10
182.6025089466043
 20
94.6743175772551
 30
0.0
 11
181.6058087530446
 21
95.67760653072662
 31
0.0
  0
LINE
  5
2EE2
330
1F
100
AcDbEntity
  8
破線
100
AcDbLine
 10
181.6058087530446
 20
95.67760653072662
 30
0.0
 11
181.6354581726477
 21
104.6775576923673
 31
0.0
  0
LINE
  5
2EE3
330
1F
100
AcDbEntity
  8
破線
100
AcDbLine
 10
174.6025523584793
 20
94.7006726169023
 30
0.0
 11
175.6058413119509
 21
95.69737281046201
 31
0.0
  0
LINE
  5
2EE4
330
1F
100
AcDbEntity
  8
破線
100
AcDbLine
 10
175.6058413119509
 20
95.69737281046201
 30
0.0
 11
175.6354907315538
 21
104.6973239721026
 31
0.0
  0
LINE
  5
2EE5
330
1F
100
AcDbEntity
  8
破線
100
AcDbLine
 10
173.6058521649196
 20
95.70396157037379
 30
0.0
 11
183.6057979000759
 21
95.67101777081484
 31
0.0
  0
LINE
  5
2EE6
330
1F
100
AcDbEntity
  8
破線
100
AcDbLine
 10
174.6354961580382
 20
104.7006183520585
 30
0.0
 11
174.6058467384352
 21
95.70066719041793
 31
0.0
  0
LINE
  5
2EE7
330
1F
100
AcDbEntity
  8
破線
100
AcDbLine
 10
182.6354527461633
 20
104.6742633124114
 30
0.0
 11
182.6058033265602
 21
95.67431215077073
 31
0.0
  0
CIRCLE
  5
2EE8
330
1F
100
AcDbEntity
  8
太線
100
AcDbCircle
 10
178.6684182516597
 20
114.6873865673912
 30
0.0
 40
4.999999999999998
  0
CIRCLE
  5
2EE9
330
1F
100
AcDbEntity
  8
太線
100
AcDbCircle
 10
178.6684182516597
 20
114.6873865673912
 30
0.0
 40
3.999999999999994
  0
LWPOLYLINE
  5
2EEA
330
1F
100
AcDbEntity
  8
太線
100
AcDbPolyline
 90
        6
 70
     1
 43
0.0
 10
181.6684019722065
 20
114.6775034275235
 10
180.1769691621277
 20
117.2805071103908
 10
177.1769854415808
 20
117.2903902502584
 10
175.6684345311128
 20
114.697269707259
 10
177.1598673411916
 20
112.0942660243917
 10
180.1598510617385
 20
112.084382884524
  0
CIRCLE
  5
2EF0
330
1F
100
AcDbEntity
  8
太線
100
AcDbCircle
 10
72.20151402540429
 20
-214.7620704196852
 30
0.0
 40
22.65
  0
ARC
  5
2F12
330
1F
100
AcDbEntity
  8
太線
100
AcDbCircle
 10
44.55151402540432
 20
-187.1120704196852
 30
0.0
 40
2.0
100
AcDbArc
 50
90.0
 51
180.0
  0
ARC
  5
2F13
330
1F
100
AcDbEntity
  8
太線
100
AcDbCircle
 10
134.8515140254043
 20
-187.1120704196852
 30
0.0
 40
2.0
100
AcDbArc
 50
0.0
 51
90.0
  0
ARC
  5
2F14
330
1F
100
AcDbEntity
  8
太線
100
AcDbCircle
 10
44.55151402540433
 20
117.8211488256961
 30
0.0
 40
2.0
100
AcDbArc
 50
180.0
 51
270.0
  0
ARC
  5
2F15
330
1F
100
AcDbEntity
  8
太線
100
AcDbCircle
 10
99.85151402540433
 20
117.8211488256961
 30
0.0
 40
2.0
100
AcDbArc
 50
270.0
 51
0.0
  0
ARC
  5
2F16
330
1F
100
AcDbEntity
  8
太線
100
AcDbCircle
 10
134.8515140254042
 20
152.8211488256961
 30
0.0
 40
2.0
100
AcDbArc
 50
270.0
 51
0.0
  0
ARC
  5
2F17
330
1F
100
AcDbEntity
  8
太線
100
AcDbCircle
 10
134.8515140254043
 20
208.1211488256961
 30
0.0
 40
2.0
100
AcDbArc
 50
0.0
 51
90.0
  0
ARC
  5
2F1C
330
1F
100
AcDbEntity
  8
太線
100
AcDbCircle
 10
44.55151402540432
 20
-242.4120704196852
 30
0.0
 40
2.0
100
AcDbArc
 50
180.0
 51
270.0
  0
DIMENSION
  5
2F2D
330
1F
100
AcDbEntity
  8
寸法線
100
AcDbDimension
  2
*D2
 10
136.8515140254043
 20
-169.2207849934257
 30
0.0
 11
89.70151402540432
 21
-165.7207849934257
 31
0.0
 70
    32
 71
     5
 42
94.30000000000001
  3
sunpo
100
AcDbAlignedDimension
 13
42.55151402540432
 23
-187.1120704196852
 33
0.0
 14
136.8515140254043
 24
-187.1120704196852
 34
0.0
100
AcDbRotatedDimension
1001
ACAD
1000
DSTYLE
1002
{
1070
    40
1040
1.0
1002
}
  0
DIMENSION
  5
2F3A
330
1F
100
AcDbEntity
  8
寸法線
100
AcDbDimension
  2
*D3
 10
165.0569865204413
 20
-185.1120704196852
 30
0.0
 11
161.5569865204413
 21
-214.7620704196852
 31
0.0
 70
    32
 71
     5
 42
59.30000000000001
  3
sunpo
100
AcDbAlignedDimension
 13
136.8515140254043
 23
-244.4120704196852
 33
0.0
 14
134.7295230789496
 24
-185.1120704196852
 34
0.0
 50
90.0
100
AcDbRotatedDimension
1001
ACAD
1000
DSTYLE
1002
{
1070
    40
1040
1.0
1002
}
  0
DIMENSION
  5
2F85
330
1F
100
AcDbEntity
  8
寸法線
100
AcDbDimension
  2
*D4
 10
136.8515140254043
 20
126.2262366162249
 30
0.0
 11
130.8515140254043
 21
129.7267287422091
 31
0.0
 70
    32
 71
     5
 42
12.0
  3
sunpo
100
AcDbAlignedDimension
 13
124.8515140254043
 23
180.4711488256961
 33
0.0
 14
136.8515140254043
 24
155.8211488256961
 34
0.0
100
AcDbRotatedDimension
1001
ACAD
1000
DSTYLE
1002
{
1070
    40
1040
1.0
1002
}
  0
DIMENSION
  5
2F92
330
1F
100
AcDbEntity
  8
寸法線
100
AcDbDimension
  2
*D5
 10
134.8944890800705
 20
198.3874425126348
 30
0.0
 11
124.9163360162721
 21
201.887934638619
 31
0.0
 70
    32
  1
24
 71
     5
 42
19.95630612759691
  3
sunpo
100
AcDbAlignedDimension
 13
114.9381829524736
 23
179.9276008441681
 33
0.0
 14
134.8944890800705
 24
179.9276008441681
 34
0.0
100
AcDbRotatedDimension
1001
ACAD
1000
DSTYLE
1002
{
1070
    40
1040
1.0
1002
}
  0
DIMENSION
  5
2FD3
330
1F
100
AcDbEntity
  8
寸法線
100
AcDbDimension
  2
*D6
 10
192.2528683896714
 20
94.64252545401922
 30
0.0
 11
188.7693592821461
 21
99.654028651443
 31
0.0
 70
    33
  1
13
 71
     5
 42
10.00000000000004
  3
sunpo
100
AcDbAlignedDimension
 13
182.6354527461633
 23
104.6742633124114
 33
0.0
 14
182.6025089466043
 24
94.6743175772551
 34
0.0
1001
ACAD
1000
DSTYLE
1002
{
1070
    40
1040
1.0
1002
}
  0
ARC
  5
2FF9
330
1F
100
AcDbEntity
  8
太線
100
AcDbCircle
 10
134.8515140254043
 20
-242.4120704196852
 30
0.0
 40
2.0
100
AcDbArc
 50
270.0
 51
0.0
  0
LINE
  5
3001
330
1F
100
AcDbEntity
  8
破線
100
AcDbLine
 10
99.85151402540433
 20
-192.1120704196852
 30
0.0
 11
81.92776715803459
 21
-192.1120704196852
 31
0.0
  0
LINE
  5
3002
330
1F
100
AcDbEntity
  8
破線
100
AcDbLine
 10
99.85151402540433
 20
-237.4120704196852
 30
0.0
 11
81.92776715803461
 21
-237.4120704196852
 31
0.0
  0
LINE
  5
3004
330
1F
100
AcDbEntity
  8
破線
100
AcDbLine
 10
49.55151402540432
 20
152.8211488256961
 30
0.0
 11
49.55151402540432
 21
157.8211488256961
 31
0.0
  0
DIMENSION
  5
3037
330
1F
100
AcDbEntity
  8
寸法線
100
AcDbDimension
  2
*D8
 10
110.6569572643185
 20
-237.4120704196852
 30
0.0
 11
110.6569572643186
 21
-222.1949581423065
 31
0.0
 70
   160
 71
     5
 42
45.29999999999998
  3
sunpo
100
AcDbAlignedDimension
 13
99.85151402540433
 23
-192.1120704196852
 33
0.0
 14
101.8515140254043
 24
-237.4120704196852
 34
0.0
 50
90.0
100
AcDbRotatedDimension
1001
ACAD
1000
DSTYLE
1002
{
1070
    40
1040
1.0
1002
}
  0
XLINE
  5
307E
330
1F
100
AcDbEntity
  8
構築線
100
AcDbXline
 10
165.7984281204576
 20
154.4808271744143
 30
0.0
 11
0.0
 21
1.0
 31
0.0
  0
LINE
  5
3087
330
1F
100
AcDbEntity
  8
構築線
100
AcDbLine
 10
194.7453422155109
 20
210.1211488256961
 30
0.0
 11
259.3953422155109
 21
210.1211488256961
 31
0.0
  0
LINE
  5
3088
330
1F
100
AcDbEntity
  8
構築線
100
AcDbLine
 10
229.7453422155109
 20
150.8211488256961
 30
0.0
 11
194.7453422155109
 21
150.8211488256961
 31
0.0
  0
LINE
  5
308B
330
1F
100
AcDbEntity
  8
太線
100
AcDbLine
 10
289.0453422155109
 20
117.8211488256961
 30
0.0
 11
289.0453422155109
 21
180.4711488256961
 31
0.0
  0
LINE
  5
308D
330
1F
100
AcDbEntity
  8
構築線
100
AcDbLine
 10
229.7453422155109
 20
115.8211488256961
 30
0.0
 11
229.7453422155109
 21
150.8211488256961
 31
0.0
  0
ARC
  5
308F
330
1F
100
AcDbEntity
  8
太線
100
AcDbCircle
 10
287.0453422155108
 20
117.8211488256961
 30
0.0
 40
2.0
100
AcDbArc
 50
270.0
 51
0.000000000000007
  0
LINE
  5
3090
330
1F
100
AcDbEntity
  8
太線
100
AcDbLine
 10
231.7453422155109
 20
115.8211488256961
 30
0.0
 11
287.0453422155108
 21
115.8211488256961
 31
0.0
  0
LINE
  5
3091
330
1F
100
AcDbEntity
  8
構築線
100
AcDbLine
 10
289.0453422155109
 20
115.8211488256961
 30
0.0
 11
229.7453422155109
 21
115.8211488256961
 31
0.0
  0
ARC
  5
3096
330
1F
100
AcDbEntity
  8
太線
100
AcDbCircle
 10
231.7453422155109
 20
117.8211488256961
 30
0.0
 40
2.0
100
AcDbArc
 50
180.0
 51
270.0
  0
CIRCLE
  5
3098
330
1F
100
AcDbEntity
  8
太線
100
AcDbCircle
 10
259.3953422155109
 20
180.4711488256961
 30
0.0
 40
29.65
  0
LINE
  5
309A
330
1F
100
AcDbEntity
  8
太線
100
AcDbLine
 10
231.4825763188821
 20
170.4711488256962
 30
0.0
 11
225.5667670164281
 21
172.9711488256962
 31
0.0
  0
LINE
  5
309B
330
1F
100
AcDbEntity
  8
細線
100
AcDbLine
 10
225.1079903200961
 20
175.4711488256962
 30
0.0
 11
235.257767772332
 21
175.4711488256962
 31
0.0
  0
LINE
  5
309C
330
1F
100
AcDbEntity
  8
細線
100
AcDbLine
 10
224.9769968165815
 20
176.4711488256962
 30
0.0
 11
235.0720509086174
 21
176.4711488256962
 31
0.0
  0
ARC
  5
30A1
330
1F
100
AcDbEntity
  8
太線
100
AcDbCircle
 10
259.3953422155109
 20
180.4711488256961
 30
0.0
 40
34.65
100
AcDbArc
 50
167.4993777707546
 51
192.5006222292451
  0
LINE
  5
30A5
330
1F
100
AcDbEntity
  8
細線
100
AcDbLine
 10
225.1079903200961
 20
185.4711488256962
 30
0.0
 11
235.2577677723321
 21
185.4711488256962
 31
0.0
  0
LINE
  5
30A6
330
1F
100
AcDbEntity
  8
細線
100
AcDbLine
 10
224.9769968165815
 20
184.4711488256962
 30
0.0
 11
235.0720509086174
 21
184.4711488256962
 31
0.0
  0
LINE
  5
30A7
330
1F
100
AcDbEntity
  8
太線
100
AcDbLine
 10
231.4825763188822
 20
190.4711488256962
 30
0.0
 11
225.5667670164281
 21
187.9711488256962
 31
0.0
  0
XLINE
  5
30F6
330
1F
100
AcDbEntity
  8
構築線
100
AcDbXline
 10
259.3953422155109
 20
180.4711488256961
 30
0.0
 11
0.0
 21
1.0
 31
0.0
  0
ARC
  5
30F7
330
1F
100
AcDbEntity
  8
太線
100
AcDbCircle
 10
259.3953422155109
 20
127.8211488256961
 30
0.0
 40
34.65
100
AcDbArc
 50
167.4993777707546
 51
192.5006222292451
  0
LINE
  5
30FA
330
1F
100
AcDbEntity
  8
太線
100
AcDbLine
 10
229.7453422155109
 20
118.5552977876356
 30
0.0
 11
225.5667670164281
 21
120.3211488256962
 31
0.0
  0
LINE
  5
30FD
330
1F
100
AcDbEntity
  8
太線
100
AcDbLine
 10
229.7453422155109
 20
137.0869998637568
 30
0.0
 11
225.5667670164281
 21
135.3211488256962
 31
0.0
  0
XLINE
  5
30FE
330
1F
100
AcDbEntity
  8
構築線
100
AcDbXline
 10
99.62175501769275
 20
167.7594832835889
 30
0.0
 11
1.0
 21
0.0
 31
0.0
  0
ARC
  5
3105
330
1F
100
AcDbEntity
  8
太線
100
AcDbCircle
 10
215.7580762031122
 20
126.9142852999784
 30
0.0
 40
17.01375397249016
100
AcDbArc
 50
329.5104071007411
 51
36.21956129915222
  0
ARC
  5
3106
330
1F
100
AcDbEntity
  8
太線
100
AcDbCircle
 10
214.7315875670284
 20
127.1682440870283
 30
0.0
 40
12.81789325105992
100
AcDbArc
 50
328.0721003720161
 51
35.40243900091644
  0
XLINE
  5
3122
330
1F
100
AcDbEntity
  8
構築線
100
AcDbXline
 10
29.92298685899982
 20
102.3083433836751
 30
0.0
 11
1.0
 21
0.0
 31
0.0
  0
LINE
  5
31A1
330
1F
100
AcDbEntity
  8
太線
100
AcDbLine
 10
72.20151402540432
 20
-5.504462058345865
 30
0.0
 11
134.8515140254043
 21
-5.504462058345865
 31
0.0
  0
LINE
  5
31A2
330
1F
100
AcDbEntity
  8
構築線
100
AcDbLine
 10
136.8515140254043
 20
-5.504462058345865
 30
0.0
 11
72.20151402540432
 21
-5.504462058345865
 31
0.0
  0
LINE
  5
31A8
330
1F
100
AcDbEntity
  8
構築線
100
AcDbLine
 10
101.8515140254043
 20
88.79553794165415
 30
0.0
 11
101.8515140254043
 21
53.79553794165414
 31
0.0
  0
LINE
  5
31A9
330
1F
100
AcDbEntity
  8
構築線
100
AcDbLine
 10
42.55151402540432
 20
24.14553794165414
 30
0.0
 11
42.55151402540433
 21
88.79553794165415
 31
0.0
  0
CIRCLE
  5
31B3
330
1F
100
AcDbEntity
  8
太線
100
AcDbCircle
 10
72.20151402540432
 20
24.14553794165414
 30
0.0
 40
29.65
  0
CIRCLE
  5
31B4
330
1F
100
AcDbEntity
  8
太線
100
AcDbCircle
 10
72.20151402540432
 20
24.14553794165414
 30
0.0
 40
24.65
  0
LINE
  5
31B5
330
1F
100
AcDbEntity
  8
太線
100
AcDbLine
 10
62.20151402540438
 20
52.05830383828289
 30
0.0
 11
64.70151402540435
 21
57.97411314073696
 31
0.0
  0
LINE
  5
31B6
330
1F
100
AcDbEntity
  8
細線
100
AcDbLine
 10
67.20151402540435
 20
58.43288983706888
 30
0.0
 11
67.20151402540441
 21
48.28311238483299
 31
0.0
  0
LINE
  5
31B7
330
1F
100
AcDbEntity
  8
細線
100
AcDbLine
 10
68.20151402540435
 20
58.56388334058348
 30
0.0
 11
68.20151402540441
 21
48.46882924854764
 31
0.0
  0
ARC
  5
31BC
330
1F
100
AcDbEntity
  8
太線
100
AcDbCircle
 10
72.20151402540434
 20
24.14553794165414
 30
0.0
 40
34.65
100
AcDbArc
 50
77.49937777075473
 51
102.5006222292452
  0
LINE
  5
31C0
330
1F
100
AcDbEntity
  8
細線
100
AcDbLine
 10
77.20151402540435
 20
58.43288983706887
 30
0.0
 11
77.20151402540441
 21
48.28311238483294
 31
0.0
  0
LINE
  5
31C1
330
1F
100
AcDbEntity
  8
細線
100
AcDbLine
 10
76.20151402540435
 20
58.5638833405835
 30
0.0
 11
76.20151402540442
 21
48.4688292485476
 31
0.0
  0
LINE
  5
31C2
330
1F
100
AcDbEntity
  8
太線
100
AcDbLine
 10
82.20151402540439
 20
52.05830383828284
 30
0.0
 11
79.70151402540439
 21
57.97411314073696
 31
0.0
  0
LINE
  5
31C9
330
1F
100
AcDbEntity
  8
太線
100
AcDbLine
 10
136.8515140254043
 20
-3.504462058345865
 30
0.0
 11
136.8515140254042
 21
51.79553794165414
 31
0.0
  0
LINE
  5
31CA
330
1F
100
AcDbEntity
  8
構築線
100
AcDbLine
 10
136.8515140254043
 20
53.79553794165414
 30
0.0
 11
136.8515140254043
 21
-5.504462058345865
 31
0.0
  0
ARC
  5
31CB
330
1F
100
AcDbEntity
  8
太線
100
AcDbCircle
 10
134.8515140254042
 20
51.79553794165414
 30
0.0
 40
2.0
100
AcDbArc
 50
0.0
 51
90.00000000000003
  0
ARC
  5
31CD
330
1F
100
AcDbEntity
  8
太線
100
AcDbCircle
 10
134.8515140254043
 20
-3.504462058345865
 30
0.0
 40
2.0
100
AcDbArc
 50
270.0
 51
0.0
  0
ARC
  5
3211
330
1F
100
AcDbEntity
  8
太線
100
AcDbCircle
 10
124.9735049718589
 20
24.14553794165414
 30
0.0
 40
34.65
100
AcDbArc
 50
76.13672947565451
 51
101.137973934145
  0
LINE
  5
3216
330
1F
100
AcDbEntity
  8
太線
100
AcDbLine
 10
116.3197880014067
 20
53.79553794165417
 30
0.0
 11
118.2800849254873
 21
58.14290001700979
 31
0.0
  0
LINE
  5
3218
330
1F
100
AcDbEntity
  8
太線
100
AcDbLine
 10
134.8515140254042
 20
53.79553794165414
 30
0.0
 11
133.2758429995414
 21
57.78619315635078
 31
0.0
  0
XLINE
  5
3219
330
1F
100
AcDbEntity
  8
構築線
100
AcDbXline
 10
72.20151402540432
 20
24.14553794165414
 30
0.0
 11
1.0
 21
0.0
 31
0.0
  0
ARC
  5
321A
330
1F
100
AcDbEntity
  8
太線
100
AcDbCircle
 10
125.5849527581184
 20
67.0248341975336
 30
0.0
 40
16.15108533179235
100
AcDbArc
 50
234.9944444592344
 51
304.1257532812697
  0
ARC
  5
321B
330
1F
100
AcDbEntity
  8
太線
100
AcDbCircle
 10
126.4720087270979
 20
71.24411304458114
 30
0.0
 40
15.41858898444818
100
AcDbArc
 50
238.6303451647039
 51
296.5007467030413
  0
XLINE
  5
321C
330
1F
100
AcDbEntity
  8
構築線
100
AcDbXline
 10
84.90920555584034
 20
153.5930758066574
 30
0.0
 11
0.0
 21
-1.0
 31
0.0
  0
XLINE
  5
321F
330
1F
100
AcDbEntity
  8
構築線
100
AcDbXline
 10
87.71171255515993
 20
76.6030576139608
 30
0.0
 11
0.0
 21
-1.0
 31
0.0
  0
LINE
  5
3227
330
1F
100
AcDbEntity
  8
破線
100
AcDbLine
 10
100.088629324269
 20
203.0229798335769
 30
0.0
 11
81.92776715803459
 21
203.1211488256961
 31
0.0
  0
CIRCLE
  5
3259
330
1F
100
AcDbEntity
  8
太線
100
AcDbCircle
 10
259.3953422155109
 20
180.4711488256961
 30
0.0
 40
22.65
  0
CIRCLE
  5
325A
330
1F
100
AcDbEntity
  8
太線
100
AcDbCircle
 10
72.20151402540432
 20
24.14553794165414
 30
0.0
 40
22.61313469248272
  0
CIRCLE
  5
32F7
330
1F
100
AcDbEntity
  8
太線
100
AcDbCircle
 10
259.3953422155109
 20
180.4711488256961
 30
0.0
 40
24.65000000000001
  0
LINE
  5
32FB
330
1F
100
AcDbEntity
  8
太線
100
AcDbLine
 10
101.8515140254043
 20
117.8211488256961
 30
0.0
 11
101.8515140254043
 21
150.8211488256961
 31
0.0
  0
LINE
  5
32FC
330
1F
100
AcDbEntity
  8
破線
100
AcDbLine
 10
94.85151402540433
 20
152.1642945762037
 30
0.0
 11
94.85151402540431
 21
157.8211488256961
 31
0.0
  0
LINE
  5
32FD
330
1F
100
AcDbEntity
  8
破線
100
AcDbLine
 10
101.8515140254043
 20
155.8211488256961
 30
0.0
 11
101.8515140254043
 21
157.8211488256961
 31
0.0
  0
LINE
  5
32FE
330
1F
100
AcDbEntity
  8
破線
100
AcDbLine
 10
101.8515140254043
 20
157.8211488256961
 30
0.0
 11
94.85151402540433
 21
157.8211488256961
 31
0.0
  0
LINE
  5
32FF
330
1F
100
AcDbEntity
  8
破線
100
AcDbLine
 10
94.85151402540433
 20
150.7500810138306
 30
0.0
 11
94.85151402540433
 21
152.1642945762037
 31
0.0
  0
CIRCLE
  5
3301
330
1F
100
AcDbEntity
  8
太線
100
AcDbCircle
 10
19.55151402540431
 20
180.4711488256961
 30
0.0
 40
7.500000000000017
  0
CIRCLE
  5
3302
330
1F
100
AcDbEntity
  8
太線
100
AcDbCircle
 10
19.55151402540431
 20
180.4711488256961
 30
0.0
 40
10.0
  0
LINE
  5
3303
330
1F
100
AcDbEntity
  8
破線
100
AcDbLine
 10
7.551514025404316
 20
155.8211488256961
 30
0.0
 11
42.55151402540431
 21
155.8211488256961
 31
0.0
  0
LINE
  5
3304
330
1F
100
AcDbEntity
  8
破線
100
AcDbLine
 10
7.551514025404316
 20
205.1211488256961
 30
0.0
 11
42.55151402540431
 21
205.1211488256961
 31
0.0
  0
LINE
  5
3305
330
1F
100
AcDbEntity
  8
太線
100
AcDbLine
 10
9.551514025404344
 20
150.8211488256961
 30
0.0
 11
42.55151402540431
 21
150.8211488256961
 31
0.0
  0
LINE
  5
3306
330
1F
100
AcDbEntity
  8
構築線
100
AcDbLine
 10
42.55151402540431
 20
150.8211488256961
 30
0.0
 11
7.551514025404316
 21
150.8211488256961
 31
0.0
  0
LINE
  5
3307
330
1F
100
AcDbEntity
  8
破線
100
AcDbLine
 10
42.55151402540431
 20
203.1211488256961
 30
0.0
 11
42.55151402540431
 21
157.8211488256961
 31
0.0
  0
LINE
  5
3308
330
1F
100
AcDbEntity
  8
破線
100
AcDbLine
 10
49.55151402540431
 20
152.1642945762037
 30
0.0
 11
49.55151402540433
 21
157.8211488256961
 31
0.0
  0
LINE
  5
3309
330
1F
100
AcDbEntity
  8
破線
100
AcDbLine
 10
49.55151402540431
 20
150.7500810138306
 30
0.0
 11
49.55151402540431
 21
152.1642945762037
 31
0.0
  0
LINE
  5
330A
330
1F
100
AcDbEntity
  8
破線
100
AcDbLine
 10
47.55151402540431
 20
150.8211488256961
 30
0.0
 11
49.55151402540431
 21
150.8211488256961
 31
0.0
  0
LINE
  5
330B
330
1F
100
AcDbEntity
  8
破線
100
AcDbLine
 10
49.55151402540431
 20
150.8211488256961
 30
0.0
 11
49.55151402540431
 21
152.8211488256961
 31
0.0
  0
LINE
  5
330C
330
1F
100
AcDbEntity
  8
破線
100
AcDbLine
 10
42.55151402540431
 20
157.8211488256961
 30
0.0
 11
49.55151402540431
 21
157.8211488256961
 31
0.0
  0
LINE
  5
330D
330
1F
100
AcDbEntity
  8
破線
100
AcDbLine
 10
42.55151402540431
 20
155.8211488256961
 30
0.0
 11
42.55151402540431
 21
157.8211488256961
 31
0.0
  0
CIRCLE
  5
330E
330
1F
100
AcDbEntity
  8
太線
100
AcDbCircle
 10
19.55151402540431
 20
180.4711488256961
 30
0.0
 40
4.999999999999998
  0
CIRCLE
  5
330F
330
1F
100
AcDbEntity
  8
太線
100
AcDbCircle
 10
19.55151402540431
 20
180.4711488256961
 30
0.0
 40
3.999999999999994
  0
LINE
  5
3310
330
1F
100
AcDbEntity
  8
破線
100
AcDbLine
 10
42.55151402540431
 20
203.1211488256961
 30
0.0
 11
44.55151402540431
 21
203.1211488256961
 31
0.0
  0
LINE
  5
3311
330
1F
100
AcDbEntity
  8
破線
100
AcDbLine
 10
42.55151402540431
 20
205.1211488256961
 30
0.0
 11
42.55151402540431
 21
203.1211488256961
 31
0.0
  0
LINE
  5
3312
330
1F
100
AcDbEntity
  8
太線
100
AcDbLine
 10
7.551514025404316
 20
208.1211488256961
 30
0.0
 11
7.551514025404344
 21
152.8211488256961
 31
0.0
  0
LINE
  5
3313
330
1F
100
AcDbEntity
  8
構築線
100
AcDbLine
 10
7.551514025404316
 20
150.8211488256961
 30
0.0
 11
7.551514025404316
 21
210.1211488256961
 31
0.0
  0
ARC
  5
3314
330
1F
100
AcDbEntity
  8
太線
100
AcDbCircle
 10
9.551514025404344
 20
152.8211488256961
 30
0.0
 40
2.0
100
AcDbArc
 50
180.0
 51
270.0
  0
ARC
  5
3315
330
1F
100
AcDbEntity
  8
太線
100
AcDbCircle
 10
9.551514025404316
 20
208.1211488256961
 30
0.0
 40
2.0
100
AcDbArc
 50
90.0
 51
180.0
  0
LINE
  5
332B
330
1F
100
AcDbEntity
  8
太線
100
AcDbLine
 10
9.551514025404316
 20
210.1211488256961
 30
0.0
 11
72.20151402540432
 21
210.1211488256961
 31
0.0
  0
LINE
  5
332D
330
1F
100
AcDbEntity
  8
構築線
100
AcDbLine
 10
42.55151402540432
 20
203.0500810138307
 30
0.0
 11
62.47526089277406
 21
203.1211488256961
 31
0.0
  0
LINE
  5
332F
330
1F
100
AcDbEntity
  8
破線
100
AcDbLine
 10
42.55151402540431
 20
203.0500810138307
 30
0.0
 11
62.47526089277406
 21
203.1211488256961
 31
0.0
  0
XLINE
  5
3330
330
1F
100
AcDbEntity
  8
構築線
100
AcDbXline
 10
229.7453422155109
 20
150.8211488256961
 30
0.0
 11
0.0
 21
1.0
 31
0.0
  0
XLINE
  5
3331
330
1F
100
AcDbEntity
  8
構築線
100
AcDbXline
 10
289.0453422155109
 20
117.8211488256961
 30
0.0
 11
0.0
 21
1.0
 31
0.0
  0
ARC
  5
3332
330
1F
100
AcDbEntity
  8
太線
100
AcDbCircle
 10
259.39534221551
 20
180.4711488256957
 30
0.0
 40
34.65
100
AcDbArc
 50
77.4993777707548
 51
102.5006222292453
  0
LINE
  5
3333
330
1F
100
AcDbEntity
  8
太線
100
AcDbLine
 10
249.3953422155099
 20
208.3839147223244
 30
0.0
 11
251.8953422155099
 21
214.2997240247786
 31
0.0
  0
LINE
  5
3334
330
1F
100
AcDbEntity
  8
細線
100
AcDbLine
 10
255.39534221551
 20
214.8894942246251
 30
0.0
 11
255.3953422155099
 21
204.7944401325892
 31
0.0
  0
LINE
  5
3335
330
1F
100
AcDbEntity
  8
細線
100
AcDbLine
 10
254.39534221551
 20
214.7585007211105
 30
0.0
 11
254.3953422155099
 21
204.6087232688746
 31
0.0
  0
LINE
  5
3336
330
1F
100
AcDbEntity
  8
細線
100
AcDbLine
 10
263.39534221551
 20
214.8894942246251
 30
0.0
 11
263.3953422155099
 21
204.7944401325892
 31
0.0
  0
LINE
  5
3337
330
1F
100
AcDbEntity
  8
細線
100
AcDbLine
 10
264.39534221551
 20
214.7585007211105
 30
0.0
 11
264.3953422155099
 21
204.6087232688746
 31
0.0
  0
LINE
  5
3338
330
1F
100
AcDbEntity
  8
太線
100
AcDbLine
 10
269.3953422155099
 20
208.3839147223245
 30
0.0
 11
266.89534221551
 21
214.2997240247786
 31
0.0
  0
LINE
  5
333A
330
1F
100
AcDbEntity
  8
太線
100
AcDbLine
 10
229.7453422155109
 20
136.6005752881431
 30
0.0
 11
229.7453422155109
 21
208.1211488256962
 31
0.0
  0
LINE
  5
333B
330
1F
100
AcDbEntity
  8
太線
100
AcDbLine
 10
231.7453422155109
 20
210.1211488256962
 30
0.0
 11
287.0453422155108
 21
210.1211488256962
 31
0.0
  0
LINE
  5
333C
330
1F
100
AcDbEntity
  8
太線
100
AcDbLine
 10
289.0453422155108
 20
208.1211488256962
 30
0.0
 11
289.0453422155108
 21
180.4711488256961
 31
0.0
  0
ARC
  5
333D
330
1F
100
AcDbEntity
  8
太線
100
AcDbCircle
 10
231.7453422155109
 20
208.1211488256962
 30
0.0
 40
2.0
100
AcDbArc
 50
90.0
 51
180.0
  0
ARC
  5
333E
330
1F
100
AcDbEntity
  8
太線
100
AcDbCircle
 10
287.0453422155108
 20
208.1211488256962
 30
0.0
 40
2.0
100
AcDbArc
 50
359.9999999999998
 51
89.99999999999998
  0
CIRCLE
  5
333F
330
1F
100
AcDbEntity
  8
太線
100
AcDbCircle
 10
72.20151402540434
 20
24.14553794165414
 30
0.0
 40
7.500000000000017
  0
CIRCLE
  5
3340
330
1F
100
AcDbEntity
  8
太線
100
AcDbCircle
 10
72.20151402540434
 20
24.14553794165414
 30
0.0
 40
4.999999999999998
  0
CIRCLE
  5
3341
330
1F
100
AcDbEntity
  8
太線
100
AcDbCircle
 10
72.20151402540434
 20
24.14553794165414
 30
0.0
 40
3.999999999999994
  0
XLINE
  5
3342
330
1F
100
AcDbEntity
  8
構築線
100
AcDbXline
 10
101.8515140254043
 20
53.79553794165414
 30
0.0
 11
-1.0
 21
0.0
 31
0.0
  0
LINE
  5
3343
330
1F
100
AcDbEntity
  8
太線
100
AcDbLine
 10
116.3197880014067
 20
53.79553794165413
 30
0.0
 11
81.46736506346497
 21
53.79553794165414
 31
0.0
  0
ARC
  5
3344
330
1F
100
AcDbEntity
  8
太線
100
AcDbCircle
 10
17.9310193237107
 20
71.24411304458114
 30
0.0
 40
15.41858898444818
100
AcDbArc
 50
243.4992532969586
 51
301.369654835296
  0
ARC
  5
3345
330
1F
100
AcDbEntity
  8
太線
100
AcDbCircle
 10
18.81807529269019
 20
67.0248341975336
 30
0.0
 40
16.15108533179235
100
AcDbArc
 50
235.8742467187303
 51
305.0055555407654
  0
ARC
  5
3346
330
1F
100
AcDbEntity
  8
太線
100
AcDbCircle
 10
19.42952307894972
 20
24.14553794165414
 30
0.0
 40
34.65
100
AcDbArc
 50
78.86202606585498
 51
103.8632705243454
  0
LINE
  5
3347
330
1F
100
AcDbEntity
  8
太線
100
AcDbLine
 10
28.08324004940185
 20
53.79553794165413
 30
0.0
 11
62.93566298734368
 21
53.79553794165414
 31
0.0
  0
LINE
  5
3348
330
1F
100
AcDbEntity
  8
太線
100
AcDbLine
 10
62.20151402540425
 20
52.05830383828284
 30
0.0
 11
64.70151402540425
 21
57.97411314073696
 31
0.0
  0
LINE
  5
3349
330
1F
100
AcDbEntity
  8
太線
100
AcDbLine
 10
28.08324004940185
 20
53.79553794165417
 30
0.0
 11
26.12294312532128
 21
58.14290001700979
 31
0.0
  0
LINE
  5
334A
330
1F
100
AcDbEntity
  8
太線
100
AcDbLine
 10
7.551514025404316
 20
-3.504462058345865
 30
0.0
 11
7.551514025404344
 21
51.79553794165414
 31
0.0
  0
ARC
  5
334B
330
1F
100
AcDbEntity
  8
太線
100
AcDbCircle
 10
9.551514025404316
 20
-3.504462058345865
 30
0.0
 40
2.0
100
AcDbArc
 50
180.0
 51
270.0
  0
ARC
  5
334C
330
1F
100
AcDbEntity
  8
太線
100
AcDbCircle
 10
9.551514025404344
 20
51.79553794165414
 30
0.0
 40
2.0
100
AcDbArc
 50
89.99999999999998
 51
180.0
  0
LINE
  5
334D
330
1F
100
AcDbEntity
  8
太線
100
AcDbLine
 10
9.551514025404344
 20
53.79553794165414
 30
0.0
 11
11.12718505126718
 21
57.78619315635078
 31
0.0
  0
LINE
  5
334E
330
1F
100
AcDbEntity
  8
太線
100
AcDbLine
 10
72.20151402540432
 20
-5.504462058345865
 30
0.0
 11
9.551514025404316
 21
-5.504462058345865
 31
0.0
  0
TEXT
  5
334F
330
1F
100
AcDbEntity
  8
文字
100
AcDbText
 10
51.75254521902662
 20
167.6744510738212
 30
0.0
 40
4.799999999999999
  1
パイプ貫通1箇所
 51
15.0
  7
OKANO
100
AcDbText
  0
DIMENSION
  5
3350
330
1F
100
AcDbEntity
  8
寸法線
100
AcDbDimension
  2
*D9
 10
234.7047220879217
 20
222.3998365133216
 30
0.0
 11
229.671080080712
 21
225.8998365133215
 31
0.0
 70
    32
  1
10
 71
     5
 42
10.06728401441932
  3
sunpo
100
AcDbAlignedDimension
 13
224.6374380735023
 23
180.8311250296821
 33
0.0
 14
234.7047220879217
 24
180.4958938175266
 34
0.0
100
AcDbRotatedDimension
1001
ACAD
1000
DSTYLE
1002
{
1070
    40
1040
1.0
1002
}
  0
DIMENSION
  5
3367
330
1F
100
AcDbEntity
  8
寸法線
100
AcDbDimension
  2
*D10
 10
94.85151402540433
 20
142.4557183411675
 30
0.0
 11
75.17213125415264
 21
142.4557183411675
 31
0.0
 70
   160
 71
     5
 42
45.30000000000001
  3
sunpo
100
AcDbAlignedDimension
 13
49.55151402540431
 23
150.7500810138306
 33
0.0
 14
94.85151402540433
 24
150.7500810138306
 34
0.0
100
AcDbRotatedDimension
1001
ACAD
1000
DSTYLE
1002
{
1070
    40
1040
1.0
1002
}
  0
DIMENSION
  5
337D
330
1F
100
AcDbEntity
  8
寸法線
100
AcDbDimension
  2
*D11
 10
-4.125976552654265
 20
205.1211488256961
 30
0.0
 11
-7.625976552654299
 21
180.4711488256961
 31
0.0
 70
    32
  1
49.3～50
 71
     5
 42
49.30000000000001
  3
sunpo
100
AcDbAlignedDimension
 13
7.551514025404316
 23
155.8211488256961
 33
0.0
 14
7.551514025404316
 24
205.1211488256961
 34
0.0
 50
90.0
100
AcDbRotatedDimension
1001
ACAD
1000
DSTYLE
1002
{
1070
    40
1040
1.0
1002
}
  0
DIMENSION
  5
338A
330
1F
100
AcDbEntity
  8
寸法線
100
AcDbDimension
  2
*D12
 10
-14.86959103621939
 20
150.8211488256961
 30
0.0
 11
-18.36959103621941
 21
180.4711488256961
 31
0.0
 70
    32
  1
60
 71
     5
 42
59.30000000000001
  3
sunpo
100
AcDbAlignedDimension
 13
9.551514025404316
 23
210.1211488256961
 33
0.0
 14
9.551514025404344
 24
150.8211488256961
 34
0.0
 50
90.0
100
AcDbRotatedDimension
1001
ACAD
1000
DSTYLE
1002
{
1070
    40
1040
1.0
1002
}
  0
DIMENSION
  5
3397
330
1F
100
AcDbEntity
  8
寸法線
100
AcDbDimension
  2
*D13
 10
136.8515140254043
 20
226.8846254693485
 30
0.0
 11
72.20151402540432
 21
230.3846254693485
 31
0.0
 70
    32
  1
130
 71
     5
 42
129.3
  3
sunpo
100
AcDbAlignedDimension
 13
7.551514025404316
 23
208.1211488256961
 33
0.0
 14
136.8515140254043
 24
205.1211488256961
 34
0.0
100
AcDbRotatedDimension
1001
ACAD
1000
DSTYLE
1002
{
1070
    40
1040
1.0
1002
}
  0
DIMENSION
  5
33A4
330
1F
100
AcDbEntity
  8
寸法線
100
AcDbDimension
  2
*D14
 10
311.0435140765562
 20
115.8211488256961
 30
0.0
 11
307.5435140765562
 21
162.9711488256961
 31
0.0
 70
    32
  1
95
 71
     5
 42
94.30000000000005
  3
sunpo
100
AcDbAlignedDimension
 13
287.0453422155108
 23
210.1211488256962
 33
0.0
 14
287.0453422155108
 24
115.8211488256961
 34
0.0
 50
90.0
100
AcDbRotatedDimension
1001
ACAD
1000
DSTYLE
1002
{
1070
    40
1040
1.0
1002
}
  0
DIMENSION
  5
33B1
330
1F
100
AcDbEntity
  8
寸法線
100
AcDbDimension
  2
*D15
 10
289.0453422155109
 20
95.14153728489054
 30
0.0
 11
259.3953422155109
 21
98.64153728489055
 31
0.0
 70
    32
  1
60
 71
     5
 42
59.29999999999998
  3
sunpo
100
AcDbAlignedDimension
 13
229.7453422155109
 23
117.8211488256961
 33
0.0
 14
289.0453422155109
 24
117.8211488256961
 34
0.0
100
AcDbRotatedDimension
1001
ACAD
1000
DSTYLE
1002
{
1070
    40
1040
1.0
1002
}
  0
TEXT
  5
33C5
330
1F
100
AcDbEntity
  8
文字
100
AcDbText
 10
188.8362543062426
 20
63.93315315857353
 30
0.0
 40
4.799999999999999
  1
パイプ５方出１箇所貫通
 51
15.0
  7
OKANO
100
AcDbText
  0
DIMENSION
  5
3402
330
1F
100
AcDbEntity
  8
寸法線
100
AcDbDimension
  2
*D16
 10
90.92450129207199
 20
164.4376760948059
 30
0.0
 11
69.00869064566214
 21
183.2053303889546
 31
0.0
 70
   163
  1
49-3～50
 71
     5
 42
49.30000000000005
  3
sunpo
100
AcDbDiametricDimension
 15
53.47852675873669
 25
196.5046215565864
 35
0.0
 40
0.0
1001
ACAD
1000
DSTYLE
1002
{
1070
    40
1040
1.0
1070
   288
1070
     1
1002
}
  0
TEXT
  5
341A
330
1F
100
AcDbEntity
  8
文字
100
AcDbText
 10
188.8362543062426
 20
54.37195948040017
 30
0.0
 40
4.799999999999999
  1
重量　910g
 51
15.0
  7
OKANO
100
AcDbText
  0
TEXT
  5
341B
330
1F
100
AcDbEntity
  8
文字
100
AcDbText
 10
188.8362543062426
 20
44.21319036473096
 30
0.0
 40
4.799999999999999
  1
JAN 4562182300317
 51
15.0
  7
OKANO
100
AcDbText
  0
DIMENSION
  5
3425
330
1F
100
AcDbEntity
  8
寸法線
100
AcDbDimension
  2
*D17
 10
132.5287201807732
 20
190.7652892574285
 30
0.0
 11
125.0631579441301
 21
194.2657813834128
 31
0.0
 70
    32
  1
20
 71
     5
 42
14.93112447328621
  3
sunpo
100
AcDbAlignedDimension
 13
117.597595707487
 23
180.9767221872139
 33
0.0
 14
132.5287201807732
 24
180.9767221872139
 34
0.0
100
AcDbRotatedDimension
1001
ACAD
1000
DSTYLE
1002
{
1070
    40
1040
1.0
1002
}
  0
DIMENSION
  5
3445
330
1F
100
AcDbEntity
  8
寸法線
100
AcDbDimension
  2
*D18
 10
161.0227052616092
 20
209.924913357488
 30
0.0
 11
157.5227052616091
 21
207.3882054557683
 31
0.0
 70
    32
  1
5
 71
     5
 42
5.073415803439502
  3
sunpo
100
AcDbAlignedDimension
 13
135.6297539325642
 23
204.8514975540486
 33
0.0
 14
135.6297539325642
 24
209.924913357488
 34
0.0
 50
90.0
100
AcDbRotatedDimension
1001
ACAD
1000
DSTYLE
1002
{
1070
    40
1040
1.0
1002
}
  0
LEADER
  5
3461
330
1F
100
AcDbEntity
  8
寸法線
100
AcDbLeader
  3
sunpo
 76
     2
 10
178.2304799000539
 20
115.2245398611275
 30
0.0
 10
186.6967562323766
 20
136.0915692397102
 30
0.0
1001
ACAD
1000
DSTYLE
1002
{
1070
   147
1040
1.0
1070
    77
1070
     0
1002
}
  0
TEXT
  5
3469
330
1F
100
AcDbEntity
  8
文字
100
AcDbText
 10
160.4716567255163
 20
139.1060451393293
 30
0.0
 40
4.799999999999999
  1
8mm六角レンチ仕様
 51
15.0
  7
OKANO
100
AcDbText
  0
TEXT
  5
349B
330
1F
100
AcDbEntity
  8
寸法線
100
AcDbText
 10
130.7353743751641
 20
81.8723757766519
 30
0.0
 40
4.799999999999999
  1
PF3/8 inch19yama クボミ先ホーローセット使用
 51
15.0
  7
OKANO
100
AcDbText
  0
VIEWPORT
  5
2E
330
1B
100
AcDbEntity
 67
     1
  8
0
100
AcDbViewport
 10
215.4532475230055
 20
115.3528206178824
 30
0.0
 40
636.8344036117998
 41
323.4501396637381
 68
     2
 69
     1
 12
215.4532475230055
 22
115.3528206178824
 13
0.0
 23
0.0
 14
10.0
 24
10.0
 15
10.0
 25
10.0
 16
0.0
 26
0.0
 36
1.0
 17
0.0
 27
0.0
 37
0.0
 42
50.0
 43
0.0
 44
0.0
 45
323.4501396637381
 50
0.0
 51
0.0
 72
   100
 90
    32800
  1

281
     0
 71
     1
 74
     0
110
0.0
120
0.0
130
0.0
111
1.0
121
0.0
131
0.0
112
0.0
122
1.0
132
0.0
 79
     0
146
0.0
  0
VIEWPORT
  5
30
330
1B
100
AcDbEntity
 67
     1
  8
70-0-CON
100
AcDbViewport
 10
141.8594093064315
 20
100.3480256368386
 30
0.0
 40
261.6199023344245
 41
192.6196987113174
 68
     1
 69
     2
 12
155.772578577712
 22
116.987614961637
 13
0.0
 23
0.0
 14
5.0
 24
5.0
 15
10.0
 25
10.0
 16
0.0
 26
0.0
 36
1.0
 17
0.0
 27
0.0
 37
0.0
 42
50.0
 43
0.0
 44
0.0
 45
271.0207538406854
 50
0.0
 51
0.0
 72
   100
 90
    32864
  1

281
     0
 71
     1
 74
     0
110
0.0
120
0.0
130
0.0
111
1.0
121
0.0
131
0.0
112
0.0
122
1.0
132
0.0
 79
     0
146
0.0
  0
LWPOLYLINE
  5
45
330
1B
100
AcDbEntity
 67
     1
  8
50-0-CON
100
AcDbPolyline
 90
        4
 70
     1
 43
0.0
 10
11.04945813921926
 20
4.038176281179858
 10
272.2125713060605
 20
4.033520706629644
 10
273.4987754093466
 20
195.9297862125246
 10
11.04945813921926
 20
196.6578749924973
  0
LINE
  5
4A
330
1B
100
AcDbEntity
 67
     1
  8
50-0-CON
100
AcDbLine
 10
10.38768783662635
 20
100.3480256368386
 30
0.0
 11
-4.391850629656119
 21
100.3480256368386
 31
0.0
  0
LINE
  5
4B
330
1B
100
AcDbEntity
 67
     1
  8
50-0-CON
100
AcDbLine
 10
141.8594093064315
 20
197.098652626247
 30
0.0
 11
141.8594093064315
 21
202.387980773708
 31
0.0
  0
LINE
  5
4C
330
1B
100
AcDbEntity
 67
     1
  8
50-0-CON
100
AcDbLine
 10
272.4487699456857
 20
100.7888032705883
 30
0.0
 11
278.8458837249377
 21
100.7888032705883
 31
0.0
  0
LINE
  5
4D
330
1B
100
AcDbEntity
 67
     1
  8
50-0-CON
100
AcDbLine
 10
140.9770484758805
 20
4.038176281179858
 30
0.0
 11
140.9770484758805
 21
-3.455038652015446
 31
0.0
  0
ENDSEC
  0
SECTION
  2
OBJECTS
  0
DICTIONARY
  5
C
330
0
100
AcDbDictionary
281
     1
  3
ACAD_GROUP
350
D
  3
ACAD_LAYOUT
350
1A
  3
ACAD_MLINESTYLE
350
17
  3
ACAD_PLOTSETTINGS
350
19
  3
ACAD_PLOTSTYLENAME
350
E
  3
AcadDim
350
13D0
  3
AcDbVariableDictionary
350
6AD
  3
DWGPROPS
350
30F
  0
DICTIONARY
  5
D
102
{ACAD_REACTORS
330
C
102
}
330
C
100
AcDbDictionary
281
     1
  0
DICTIONARY
  5
1A
102
{ACAD_REACTORS
330
C
102
}
330
C
100
AcDbDictionary
281
     1
  3
A4
350
1E
  3
Model
350
22
  0
DICTIONARY
  5
17
102
{ACAD_REACTORS
330
C
102
}
330
C
100
AcDbDictionary
281
     1
  3
Standard
350
18
  0
DICTIONARY
  5
19
102
{ACAD_REACTORS
330
C
102
}
330
C
100
AcDbDictionary
281
     1
  0
ACDBDICTIONARYWDFLT
  5
E
102
{ACAD_REACTORS
330
C
102
}
330
C
100
AcDbDictionary
281
     1
  3
Normal
350
F
100
AcDbDictionaryWithDefault
340
F
  0
XRECORD
  5
13D0
102
{ACAD_REACTORS
330
C
102
}
330
C
100
AcDbXrecord
280
     1
 90
   990106
  3

 60
     0
 61
     0
 62
     1
 63
     3
 64
     0
 65
     0
 66
     0
 67
     3
 68
     1
 69
     0
 70
     0
 71
     0
 72
     0
 40
0.7978932555710511
170
     0
  0
DICTIONARY
  5
6AD
102
{ACAD_REACTORS
330
C
102
}
330
C
100
AcDbDictionary
281
     1
  3
SORTENTS
350
6AE
  0
XRECORD
  5
30F
102
{ACAD_REACTORS
330
C
102
}
330
C
100
AcDbXrecord
280
     1
  1
DWGPROPS COOKIE
  2

  3

  4

  6

  7

  8

  9

300
=
301
=
302
=
303
=
304
=
305
=
306
=
307
=
308
=
309
=
 40
0.3303803125
 41
2452362.482225463
 42
2452370.969861285
  1

 90
        0
  0
LAYOUT
  5
1E
102
{ACAD_REACTORS
330
1A
102
}
330
1A
100
AcDbPlotSettings
  1

  2
EPSON PM-920C
  4
A4
  6

 40
3.757083177566528
 41
14.7637300491333
 42
3.757080078125
 43
3.757080078125
 44
209.9733276367187
 45
296.9683227539062
 46
0.0
 47
0.0
 48
0.0
 49
0.0
140
0.0
141
0.0
142
1.0
143
1.0
 70
   688
 72
     1
 73
     1
 74
     5
  7
joint.ctb
 75
    16
147
1.0
148
0.0
149
0.0
100
AcDbLayout
  1
A4
 70
     1
 71
     1
 10
-3.757080078125
 20
-3.757083177566528
 11
293.2112426757812
 21
206.2162444591522
 12
0.0
 22
0.0
 32
0.0
 14
-4.391850629656119
 24
-3.455038652015446
 34
0.0
 15
278.8458837249377
 25
202.387980773708
 35
0.0
146
0.0
 13
0.0
 23
0.0
 33
0.0
 16
1.0
 26
0.0
 36
0.0
 17
0.0
 27
1.0
 37
0.0
 76
     0
330
1B
331
30
  0
LAYOUT
  5
22
102
{ACAD_REACTORS
330
1A
102
}
330
1A
100
AcDbPlotSettings
  1

  2
EPSON PM-920C
  4
A4
  6

 40
3.757083177566528
 41
14.7637300491333
 42
3.757080078125
 43
3.757080078125
 44
209.9733276367187
 45
296.9683227539062
 46
0.0
 47
0.0
 48
0.0
 49
0.0
140
0.0
141
0.0
142
1.0
143
1.0
 70
 11952
 72
     1
 73
     1
 74
     0
  7

 75
     0
147
1.0
148
-45.64199848979289
149
-84.48806419330498
100
AcDbLayout
  1
Model
 70
     1
 71
     0
 10
0.0
 20
0.0
 11
12.0
 21
9.0
 12
0.0
 22
0.0
 32
0.0
 14
0.0
 24
0.0
 34
0.0
 15
0.0
 25
0.0
 35
0.0
146
0.0
 13
0.0
 23
0.0
 33
0.0
 16
1.0
 26
0.0
 36
0.0
 17
0.0
 27
1.0
 37
0.0
 76
     0
330
1F
  0
MLINESTYLE
  5
18
102
{ACAD_REACTORS
330
17
102
}
330
17
100
AcDbMlineStyle
  2
STANDARD
 70
     0
  3

 62
   256
 51
90.0
 52
90.0
 71
     2
 49
0.5
 62
   256
  6
BYLAYER
 49
-0.5
 62
   256
  6
BYLAYER
  0
ACDBPLACEHOLDER
  5
F
102
{ACAD_REACTORS
330
E
102
}
330
E
  0
DICTIONARYVAR
  5
6AE
102
{ACAD_REACTORS
330
6AD
102
}
330
6AD
100
DictionaryVariables
280
     0
  1
96
  0
ENDSEC
  0
EOF
