  0
SECTION
  2
HEADER
  9
$ACADVER
  1
AC1015
  9
$ACADMAINTVER
 70
     6
  9
$DWGCODEPAGE
  3
ANSI_932
  9
$INSBASE
 10
0.0
 20
0.0
 30
0.0
  9
$EXTMIN
 10
-125.6773383394522
 20
-244.8262839820583
 30
-0.00000001
  9
$EXTMAX
 10
345.9051162773852
 20
262.7735692049891
 30
0.00000001
  9
$LIMMIN
 10
0.0
 20
0.0
  9
$LIMMAX
 10
420.0
 20
297.0
  9
$ORTHOMODE
 70
     1
  9
$REGENMODE
 70
     1
  9
$FILLMODE
 70
     1
  9
$QTEXTMODE
 70
     0
  9
$MIRRTEXT
 70
     1
  9
$LTSCALE
 40
1.0
  9
$ATTMODE
 70
     1
  9
$TEXTSIZE
 40
5.0
  9
$TRACEWID
 40
1.0
  9
$TEXTSTYLE
  7
OKANO
  9
$CLAYER
  8
寸法線
  9
$CELTYPE
  6
ByLayer
  9
$CECOLOR
 62
   256
  9
$CELTSCALE
 40
1.0
  9
$DISPSILH
 70
     0
  9
$DIMSCALE
 40
0.0
  9
$DIMASZ
 40
3.0
  9
$DIMEXO
 40
2.0
  9
$DIMDLI
 40
8.0
  9
$DIMRND
 40
0.0
  9
$DIMDLE
 40
0.0
  9
$DIMEXE
 40
3.0
  9
$DIMTP
 40
0.0
  9
$DIMTM
 40
0.0
  9
$DIMTXT
 40
5.0
  9
$DIMCEN
 40
2.5
  9
$DIMTSZ
 40
0.0
  9
$DIMTOL
 70
     0
  9
$DIMLIM
 70
     0
  9
$DIMTIH
 70
     0
  9
$DIMTOH
 70
     0
  9
$DIMSE1
 70
     0
  9
$DIMSE2
 70
     0
  9
$DIMTAD
 70
     1
  9
$DIMZIN
 70
     8
  9
$DIMBLK
  1
Closed
  9
$DIMASO
 70
     1
  9
$DIMSHO
 70
     1
  9
$DIMPOST
  1

  9
$DIMAPOST
  1

  9
$DIMALT
 70
     0
  9
$DIMALTD
 70
     3
  9
$DIMALTF
 40
0.03937007874016
  9
$DIMLFAC
 40
1.0
  9
$DIMTOFL
 70
     1
  9
$DIMTVP
 40
0.0
  9
$DIMTIX
 70
     0
  9
$DIMSOXD
 70
     0
  9
$DIMSAH
 70
     0
  9
$DIMBLK1
  1

  9
$DIMBLK2
  1

  9
$DIMSTYLE
  2
sunpo
  9
$DIMCLRD
 70
     0
  9
$DIMCLRE
 70
     0
  9
$DIMCLRT
 70
     0
  9
$DIMTFAC
 40
1.0
  9
$DIMGAP
 40
1.0
  9
$DIMJUST
 70
     0
  9
$DIMSD1
 70
     0
  9
$DIMSD2
 70
     0
  9
$DIMTOLJ
 70
     0
  9
$DIMTZIN
 70
     8
  9
$DIMALTZ
 70
     0
  9
$DIMALTTZ
 70
     0
  9
$DIMUPT
 70
     0
  9
$DIMDEC
 70
     2
  9
$DIMTDEC
 70
     2
  9
$DIMALTU
 70
     2
  9
$DIMALTTD
 70
     3
  9
$DIMTXSTY
  7
OKANO
  9
$DIMAUNIT
 70
     0
  9
$DIMADEC
 70
     0
  9
$DIMALTRND
 40
0.0
  9
$DIMAZIN
 70
     0
  9
$DIMDSEP
 70
    46
  9
$DIMATFIT
 70
     3
  9
$DIMFRAC
 70
     0
  9
$DIMLDRBLK
  1
Closed
  9
$DIMLUNIT
 70
     2
  9
$DIMLWD
 70
    -2
  9
$DIMLWE
 70
    -2
  9
$DIMTMOVE
 70
     0
  9
$LUNITS
 70
     2
  9
$LUPREC
 70
     2
  9
$SKETCHINC
 40
1.0
  9
$FILLETRAD
 40
2.0
  9
$AUNITS
 70
     0
  9
$AUPREC
 70
     0
  9
$MENU
  1
.
  9
$ELEVATION
 40
0.0
  9
$PELEVATION
 40
0.0
  9
$THICKNESS
 40
0.0
  9
$LIMCHECK
 70
     0
  9
$CHAMFERA
 40
10.0
  9
$CHAMFERB
 40
10.0
  9
$CHAMFERC
 40
20.0
  9
$CHAMFERD
 40
0.0
  9
$SKPOLY
 70
     0
  9
$TDCREATE
 40
2452362.482225463
  9
$TDUCREATE
 40
2452362.107225463
  9
$TDUPDATE
 40
2455993.579803715
  9
$TDUUPDATE
 40
2455993.204803715
  9
$TDINDWG
 40
2.3961809838
  9
$TDUSRTIMER
 40
2.3961809838
  9
$USRTIMER
 70
     1
  9
$ANGBASE
 50
0.0
  9
$ANGDIR
 70
     0
  9
$PDMODE
 70
     0
  9
$PDSIZE
 40
0.0
  9
$PLINEWID
 40
0.0
  9
$SPLFRAME
 70
     0
  9
$SPLINETYPE
 70
     6
  9
$SPLINESEGS
 70
     8
  9
$HANDSEED
  5
362D
  9
$SURFTAB1
 70
     6
  9
$SURFTAB2
 70
     6
  9
$SURFTYPE
 70
     6
  9
$SURFU
 70
     6
  9
$SURFV
 70
     6
  9
$UCSBASE
  2

  9
$UCSNAME
  2

  9
$UCSORG
 10
0.0
 20
0.0
 30
0.0
  9
$UCSXDIR
 10
1.0
 20
0.0
 30
0.0
  9
$UCSYDIR
 10
0.0
 20
1.0
 30
0.0
  9
$UCSORTHOREF
  2

  9
$UCSORTHOVIEW
 70
     0
  9
$UCSORGTOP
 10
0.0
 20
0.0
 30
0.0
  9
$UCSORGBOTTOM
 10
0.0
 20
0.0
 30
0.0
  9
$UCSORGLEFT
 10
0.0
 20
0.0
 30
0.0
  9
$UCSORGRIGHT
 10
0.0
 20
0.0
 30
0.0
  9
$UCSORGFRONT
 10
0.0
 20
0.0
 30
0.0
  9
$UCSORGBACK
 10
0.0
 20
0.0
 30
0.0
  9
$PUCSBASE
  2

  9
$PUCSNAME
  2

  9
$PUCSORG
 10
0.0
 20
0.0
 30
0.0
  9
$PUCSXDIR
 10
1.0
 20
0.0
 30
0.0
  9
$PUCSYDIR
 10
0.0
 20
1.0
 30
0.0
  9
$PUCSORTHOREF
  2

  9
$PUCSORTHOVIEW
 70
     0
  9
$PUCSORGTOP
 10
0.0
 20
0.0
 30
0.0
  9
$PUCSORGBOTTOM
 10
0.0
 20
0.0
 30
0.0
  9
$PUCSORGLEFT
 10
0.0
 20
0.0
 30
0.0
  9
$PUCSORGRIGHT
 10
0.0
 20
0.0
 30
0.0
  9
$PUCSORGFRONT
 10
0.0
 20
0.0
 30
0.0
  9
$PUCSORGBACK
 10
0.0
 20
0.0
 30
0.0
  9
$USERI1
 70
     0
  9
$USERI2
 70
     0
  9
$USERI3
 70
     0
  9
$USERI4
 70
     0
  9
$USERI5
 70
     0
  9
$USERR1
 40
0.0
  9
$USERR2
 40
0.0
  9
$USERR3
 40
0.0
  9
$USERR4
 40
0.0
  9
$USERR5
 40
0.0
  9
$WORLDVIEW
 70
     1
  9
$SHADEDGE
 70
     3
  9
$SHADEDIF
 70
    70
  9
$TILEMODE
 70
     0
  9
$MAXACTVP
 70
    64
  9
$PINSBASE
 10
0.0
 20
0.0
 30
0.0
  9
$PLIMCHECK
 70
     0
  9
$PEXTMIN
 10
-4.391850629656119
 20
-3.455038652015446
 30
0.0
  9
$PEXTMAX
 10
278.8458837249377
 20
202.387980773708
 30
0.0
  9
$PLIMMIN
 10
-3.757080078125
 20
-3.757083177566528
  9
$PLIMMAX
 10
293.2112426757812
 20
206.2162444591522
  9
$UNITMODE
 70
     0
  9
$VISRETAIN
 70
     1
  9
$PLINEGEN
 70
     0
  9
$PSLTSCALE
 70
     1
  9
$TREEDEPTH
 70
  3020
  9
$CMLSTYLE
  2
Standard
  9
$CMLJUST
 70
     0
  9
$CMLSCALE
 40
20.0
  9
$PROXYGRAPHICS
 70
     1
  9
$MEASUREMENT
 70
     1
  9
$CELWEIGHT
370
    -1
  9
$ENDCAPS
280
     0
  9
$JOINSTYLE
280
     0
  9
$LWDISPLAY
290
     0
  9
$INSUNITS
 70
     4
  9
$HYPERLINKBASE
  1

  9
$STYLESHEET
  1

  9
$XEDIT
290
     1
  9
$CEPSNTYPE
380
     0
  9
$PSTYLEMODE
290
     1
  9
$FINGERPRINTGUID
  2
{FF7F33C3-4233-11D6-AEE0-0000F45FD7F4}
  9
$VERSIONGUID
  2
{F01F57E8-8D14-4559-9984-DFA10002570B}
  9
$EXTNAMES
290
     1
  9
$PSVPSCALE
 40
0.0
  9
$OLESTARTUP
290
     0
  0
ENDSEC
  0
SECTION
  2
CLASSES
  0
CLASS
  1
ACDBDICTIONARYWDFLT
  2
AcDbDictionaryWithDefault
  3
AutoCAD 2000
 90
        0
280
     0
281
     0
  0
CLASS
  1
ACDBPLACEHOLDER
  2
AcDbPlaceHolder
  3
AutoCAD 2000
 90
        0
280
     0
281
     0
  0
CLASS
  1
LAYOUT
  2
AcDbLayout
  3
AutoCAD 2000
 90
        0
280
     0
281
     0
  0
CLASS
  1
DICTIONARYVAR
  2
AcDbDictionaryVar
  3
AutoCAD 2000
 90
        0
280
     0
281
     0
  0
ENDSEC
  0
SECTION
  2
TABLES
  0
TABLE
  2
VPORT
  5
8
330
0
100
AcDbSymbolTable
 70
     3
  0
VPORT
  5
362C
330
8
100
AcDbSymbolTableRecord
100
AcDbViewportTableRecord
  2
*Active
 70
     0
 10
0.0
 20
0.0
 11
1.0
 21
1.0
 12
60.79658326874687
 22
144.4566940072112
 13
0.0
 23
0.0
 14
5.0
 24
5.0
 15
10.0
 25
10.0
 16
0.0
 26
0.0
 36
1.0
 17
0.0
 27
0.0
 37
0.0
 40
242.4223462137799
 41
1.968879668049792
 42
50.0
 43
0.0
 44
0.0
 50
0.0
 51
0.0
 71
     0
 72
   100
 73
     1
 74
     3
 75
     0
 76
     0
 77
     0
 78
     0
281
     0
 65
     1
110
0.0
120
0.0
130
0.0
111
1.0
121
0.0
131
0.0
112
0.0
122
1.0
132
0.0
 79
     0
146
0.0
  0
ENDTAB
  0
TABLE
  2
LTYPE
  5
5
330
0
100
AcDbSymbolTable
 70
     5
  0
LTYPE
  5
14
330
5
100
AcDbSymbolTableRecord
100
AcDbLinetypeTableRecord
  2
ByBlock
 70
     0
  3

 72
    65
 73
     0
 40
0.0
  0
LTYPE
  5
15
330
5
100
AcDbSymbolTableRecord
100
AcDbLinetypeTableRecord
  2
ByLayer
 70
     0
  3

 72
    65
 73
     0
 40
0.0
  0
LTYPE
  5
16
330
5
100
AcDbSymbolTableRecord
100
AcDbLinetypeTableRecord
  2
Continuous
 70
     0
  3
Solid line
 72
    65
 73
     0
 40
0.0
  0
LTYPE
  5
33
330
5
100
AcDbSymbolTableRecord
100
AcDbLinetypeTableRecord
  2
DASHED2
 70
     0
  3
Dashed (.5x) _ _ _ _ _ _ _ _ _ _ _ _ _ _ _ _ _
 72
    65
 73
     2
 40
9.524999999999998
 49
6.349999999999999
 74
     0
 49
-3.174999999999999
 74
     0
  0
LTYPE
  5
34
330
5
100
AcDbSymbolTableRecord
100
AcDbLinetypeTableRecord
  2
CENTER2
 70
     0
  3
Center (.5x) ___ _ ___ _ ___ _ ___ _ ___ _ ___
 72
    65
 73
     4
 40
28.57499999999999
 49
19.05
 74
     0
 49
-3.174999999999999
 74
     0
 49
3.174999999999999
 74
     0
 49
-3.174999999999999
 74
     0
  0
LTYPE
  5
35
330
5
100
AcDbSymbolTableRecord
100
AcDbLinetypeTableRecord
  2
PHANTOM2
 70
     0
  3
Phantom (.5x) ___ _ _ ___ _ _ ___ _ _ ___ _ _
 72
    65
 73
     6
 40
31.75
 49
15.875
 74
     0
 49
-3.174999999999999
 74
     0
 49
3.174999999999999
 74
     0
 49
-3.174999999999999
 74
     0
 49
3.174999999999999
 74
     0
 49
-3.174999999999999
 74
     0
  0
LTYPE
  5
36
330
5
100
AcDbSymbolTableRecord
100
AcDbLinetypeTableRecord
  2
HIDDEN2
 70
     0
  3
Hidden (.5x) _ _ _ _ _ _ _ _ _ _ _ _ _ _ _ _ _
 72
    65
 73
     2
 40
4.762499999999999
 49
3.174999999999999
 74
     0
 49
-1.587499999999999
 74
     0
  0
ENDTAB
  0
TABLE
  2
LAYER
  5
2
330
0
100
AcDbSymbolTable
 70
    13
  0
LAYER
  5
10
330
2
100
AcDbSymbolTableRecord
100
AcDbLayerTableRecord
  2
0
 70
     0
 62
     7
  6
Continuous
370
    -3
390
F
  0
LAYER
  5
40
330
2
100
AcDbSymbolTableRecord
100
AcDbLayerTableRecord
  2
50-0-CON
 70
     0
 62
     4
  6
Continuous
370
    50
390
F
  0
LAYER
  5
41
330
2
100
AcDbSymbolTableRecord
100
AcDbLayerTableRecord
  2
70-0-CON
 70
     0
 62
   202
  6
Continuous
370
    70
390
F
  0
LAYER
  5
4E
330
2
100
AcDbSymbolTableRecord
100
AcDbLayerTableRecord
  2
極太線
 70
     0
 62
     7
  6
Continuous
370
    70
390
F
  0
LAYER
  5
4F
330
2
100
AcDbSymbolTableRecord
100
AcDbLayerTableRecord
  2
細線
 70
     0
 62
     8
  6
Continuous
370
    18
390
F
  0
LAYER
  5
AB
330
2
100
AcDbSymbolTableRecord
100
AcDbLayerTableRecord
  2
構築線
 70
     0
 62
    -2
  6
Continuous
370
    18
390
F
  0
LAYER
  5
B8
330
2
100
AcDbSymbolTableRecord
100
AcDbLayerTableRecord
  2
太線
 70
     0
 62
     7
  6
Continuous
370
    35
390
F
  0
LAYER
  5
B9
330
2
100
AcDbSymbolTableRecord
100
AcDbLayerTableRecord
  2
寸法線
 70
     0
 62
     5
  6
Continuous
370
    18
390
F
  0
LAYER
  5
BA
330
2
100
AcDbSymbolTableRecord
100
AcDbLayerTableRecord
  2
破線
 70
     0
 62
     8
  6
HIDDEN2
370
    18
390
F
  0
LAYER
  5
BB
330
2
100
AcDbSymbolTableRecord
100
AcDbLayerTableRecord
  2
中心線
 70
     0
 62
     1
  6
CENTER2
370
    18
390
F
  0
LAYER
  5
BC
330
2
100
AcDbSymbolTableRecord
100
AcDbLayerTableRecord
  2
想像線
 70
     0
 62
     8
  6
PHANTOM2
370
    18
390
F
  0
LAYER
  5
BD
330
2
100
AcDbSymbolTableRecord
100
AcDbLayerTableRecord
  2
文字
 70
     0
 62
     7
  6
Continuous
370
    18
390
F
  0
LAYER
  5
180
330
2
100
AcDbSymbolTableRecord
100
AcDbLayerTableRecord
  2
Defpoints
 70
     0
 62
     7
  6
Continuous
290
     0
370
    -3
390
F
  0
ENDTAB
  0
TABLE
  2
STYLE
  5
3
330
0
100
AcDbSymbolTable
 70
     3
  0
STYLE
  5
11
330
3
100
AcDbSymbolTableRecord
100
AcDbTextStyleTableRecord
  2
Standard
 70
     0
 40
0.0
 41
1.0
 50
0.0
 71
     0
 42
3.0
  3
txt
  4

  0
STYLE
  5
32
330
3
100
AcDbSymbolTableRecord
100
AcDbTextStyleTableRecord
  2

 70
     1
 40
0.0
 41
1.0
 50
0.0
 71
     0
 42
2.5
  3
ltypeshp.shx
  4

  0
STYLE
  5
50
330
3
100
AcDbSymbolTableRecord
100
AcDbTextStyleTableRecord
  2
OKANO
 70
     0
 40
0.0
 41
1.0
 50
15.0
 71
     0
 42
5.0
  3
isocp.shx
  4
bigfont.shx
  0
ENDTAB
  0
TABLE
  2
VIEW
  5
6
330
0
100
AcDbSymbolTable
 70
     0
  0
ENDTAB
  0
TABLE
  2
UCS
  5
7
330
0
100
AcDbSymbolTable
 70
     0
  0
ENDTAB
  0
TABLE
  2
APPID
  5
9
330
0
100
AcDbSymbolTable
 70
     1
  0
APPID
  5
12
330
9
100
AcDbSymbolTableRecord
100
AcDbRegAppTableRecord
  2
ACAD
 70
     0
  0
ENDTAB
  0
TABLE
  2
DIMSTYLE
  5
A
330
0
100
AcDbSymbolTable
 70
     2
100
AcDbDimStyleTable
 71
     2
340
A2
340
27
  0
DIMSTYLE
105
27
330
A
100
AcDbSymbolTableRecord
100
AcDbDimStyleTableRecord
  2
ISO-25
 70
     0
 41
2.5
 42
0.625
 43
3.75
 44
1.25
 73
     0
 74
     0
 77
     1
 78
     8
140
2.5
141
2.5
143
0.03937007874016
147
0.625
171
     3
172
     1
271
     2
272
     2
274
     3
283
     0
284
     8
340
11
  0
DIMSTYLE
105
A2
102
{ACAD_REACTORS
330
2F85
330
2F92
330
2FD3
330
2F3A
330
3037
330
2F2D
330
3367
330
337D
330
338A
330
347E
330
3498
330
34A8
330
34B8
330
34C5
330
34D2
330
34E8
330
34F5
330
3502
330
3536
330
3543
330
3550
330
358E
330
35C9
330
35DF
330
2FE0
102
}
330
A
100
AcDbSymbolTableRecord
100
AcDbDimStyleTableRecord
  2
sunpo
 70
     0
 40
0.0
 41
3.0
 42
2.0
 43
8.0
 44
3.0
 73
     0
 74
     0
 77
     1
 78
     8
140
5.0
141
2.5
143
0.03937007874016
147
1.0
171
     3
172
     1
271
     2
272
     2
274
     3
283
     0
284
     8
340
50
341
9B
342
9B
  0
ENDTAB
  0
TABLE
  2
BLOCK_RECORD
  5
1
330
0
100
AcDbSymbolTable
 70
    28
  0
BLOCK_RECORD
  5
1F
330
1
100
AcDbSymbolTableRecord
100
AcDbBlockTableRecord
  2
*Model_Space
340
22
  0
BLOCK_RECORD
  5
1B
330
1
100
AcDbSymbolTableRecord
100
AcDbBlockTableRecord
  2
*Paper_Space
340
1E
  0
BLOCK_RECORD
  5
9B
330
1
100
AcDbSymbolTableRecord
100
AcDbBlockTableRecord
  2
_Closed
340
0
102
{BLKREFS
331
2F8A
331
2F8B
331
310A
331
310B
331
3113
331
3114
331
311C
331
311D
331
32C8
331
3377
331
3378
331
349D
331
349E
331
34AD
331
34AE
331
34BD
331
34BE
331
34D7
331
34D8
331
34ED
331
34EE
331
3507
331
3508
331
353B
331
353C
331
3555
331
3556
331
3576
331
3577
331
3588
331
3589
331
359F
331
35A0
331
35A8
331
35A9
331
35B1
331
35B2
331
35C3
331
35C4
331
35D9
331
35DA
331
35F0
331
35F1
331
3601
331
3607
331
3608
331
3617
331
3618
102
}
  0
BLOCK_RECORD
  5
1510
330
1
100
AcDbSymbolTableRecord
100
AcDbBlockTableRecord
  2
A$C10A573AC
340
0
  0
BLOCK_RECORD
  5
2F2E
330
1
100
AcDbSymbolTableRecord
100
AcDbBlockTableRecord
  2
*D2
340
0
  0
BLOCK_RECORD
  5
2F3B
330
1
100
AcDbSymbolTableRecord
100
AcDbBlockTableRecord
  2
*D3
340
0
  0
BLOCK_RECORD
  5
2F86
330
1
100
AcDbSymbolTableRecord
100
AcDbBlockTableRecord
  2
*D4
340
0
  0
BLOCK_RECORD
  5
2F93
330
1
100
AcDbSymbolTableRecord
100
AcDbBlockTableRecord
  2
*D5
340
0
  0
BLOCK_RECORD
  5
2FD4
330
1
100
AcDbSymbolTableRecord
100
AcDbBlockTableRecord
  2
*D6
340
0
  0
BLOCK_RECORD
  5
2FE1
330
1
100
AcDbSymbolTableRecord
100
AcDbBlockTableRecord
  2
*D7
340
0
  0
BLOCK_RECORD
  5
3038
330
1
100
AcDbSymbolTableRecord
100
AcDbBlockTableRecord
  2
*D8
340
0
  0
BLOCK_RECORD
  5
3368
330
1
100
AcDbSymbolTableRecord
100
AcDbBlockTableRecord
  2
*D9
340
0
  0
BLOCK_RECORD
  5
337E
330
1
100
AcDbSymbolTableRecord
100
AcDbBlockTableRecord
  2
*D10
340
0
  0
BLOCK_RECORD
  5
338B
330
1
100
AcDbSymbolTableRecord
100
AcDbBlockTableRecord
  2
*D11
340
0
  0
BLOCK_RECORD
  5
347F
330
1
100
AcDbSymbolTableRecord
100
AcDbBlockTableRecord
  2
*D12
340
0
  0
BLOCK_RECORD
  5
3499
330
1
100
AcDbSymbolTableRecord
100
AcDbBlockTableRecord
  2
*D13
340
0
  0
BLOCK_RECORD
  5
34A9
330
1
100
AcDbSymbolTableRecord
100
AcDbBlockTableRecord
  2
*D14
340
0
  0
BLOCK_RECORD
  5
34B9
330
1
100
AcDbSymbolTableRecord
100
AcDbBlockTableRecord
  2
*D15
340
0
  0
BLOCK_RECORD
  5
34C6
330
1
100
AcDbSymbolTableRecord
100
AcDbBlockTableRecord
  2
*D16
340
0
  0
BLOCK_RECORD
  5
34D3
330
1
100
AcDbSymbolTableRecord
100
AcDbBlockTableRecord
  2
*D17
340
0
  0
BLOCK_RECORD
  5
34E9
330
1
100
AcDbSymbolTableRecord
100
AcDbBlockTableRecord
  2
*D18
340
0
  0
BLOCK_RECORD
  5
34F6
330
1
100
AcDbSymbolTableRecord
100
AcDbBlockTableRecord
  2
*D19
340
0
  0
BLOCK_RECORD
  5
3503
330
1
100
AcDbSymbolTableRecord
100
AcDbBlockTableRecord
  2
*D20
340
0
  0
BLOCK_RECORD
  5
3537
330
1
100
AcDbSymbolTableRecord
100
AcDbBlockTableRecord
  2
*D21
340
0
  0
BLOCK_RECORD
  5
3544
330
1
100
AcDbSymbolTableRecord
100
AcDbBlockTableRecord
  2
*D22
340
0
  0
BLOCK_RECORD
  5
3551
330
1
100
AcDbSymbolTableRecord
100
AcDbBlockTableRecord
  2
*D23
340
0
  0
BLOCK_RECORD
  5
358F
330
1
100
AcDbSymbolTableRecord
100
AcDbBlockTableRecord
  2
*D24
340
0
  0
BLOCK_RECORD
  5
35CA
330
1
100
AcDbSymbolTableRecord
100
AcDbBlockTableRecord
  2
*D25
340
0
  0
BLOCK_RECORD
  5
35E0
330
1
100
AcDbSymbolTableRecord
100
AcDbBlockTableRecord
  2
*D26
340
0
  0
ENDTAB
  0
ENDSEC
  0
SECTION
  2
BLOCKS
  0
BLOCK
  5
20
330
1F
100
AcDbEntity
  8
0
100
AcDbBlockBegin
  2
*Model_Space
 70
     0
 10
0.0
 20
0.0
 30
0.0
  3
*Model_Space
  1

  0
ENDBLK
  5
21
330
1F
100
AcDbEntity
  8
0
100
AcDbBlockEnd
  0
BLOCK
  5
1C
330
1B
100
AcDbEntity
 67
     1
  8
0
100
AcDbBlockBegin
  2
*Paper_Space
 70
     0
 10
0.0
 20
0.0
 30
0.0
  3
*Paper_Space
  1

  0
ENDBLK
  5
1D
330
1B
100
AcDbEntity
 67
     1
  8
0
100
AcDbBlockEnd
  0
BLOCK
  5
A0
330
9B
100
AcDbEntity
  8
0
100
AcDbBlockBegin
  2
_Closed
 70
     0
 10
0.0
 20
0.0
 30
0.0
  3
_Closed
  1

  0
LINE
  5
9C
330
9B
100
AcDbEntity
  8
0
 62
     0
370
    -2
100
AcDbLine
 10
-1.0
 20
0.1666666666666666
 30
0.0
 11
0.0
 21
0.0
 31
0.0
  0
LINE
  5
9D
330
9B
100
AcDbEntity
  8
0
 62
     0
370
    -2
100
AcDbLine
 10
0.0
 20
0.0
 30
0.0
 11
-1.0
 21
-0.1666666666666666
 31
0.0
  0
LINE
  5
9E
330
9B
100
AcDbEntity
  8
0
 62
     0
370
    -2
100
AcDbLine
 10
-1.0
 20
0.1666666666666666
 30
0.0
 11
-1.0
 21
-0.1666666666666666
 31
0.0
  0
LINE
  5
9F
330
9B
100
AcDbEntity
  8
0
 62
     0
370
    -2
100
AcDbLine
 10
0.0
 20
0.0
 30
0.0
 11
-1.0
 21
0.0
 31
0.0
  0
ENDBLK
  5
A1
330
9B
100
AcDbEntity
  8
0
100
AcDbBlockEnd
  0
BLOCK
  5
155B
330
1510
100
AcDbEntity
  8
0
100
AcDbBlockBegin
  2
A$C10A573AC
 70
     0
 10
0.0
 20
0.0
 30
0.0
  3
A$C10A573AC
  1

  0
TEXT
  5
1511
330
1510
100
AcDbEntity
  8
文字
100
AcDbText
 10
0.9844302777919438
 20
5.224957122252135
 30
0.0
 40
3.0
  1
Materal : Steel.
 51
15.0
  7
OKANO
100
AcDbText
  0
TEXT
  5
1512
330
1510
100
AcDbEntity
  8
文字
100
AcDbText
 10
-0.1141909619694843
 20
0.7500001922403499
 30
0.0
 40
3.0
  1
Surface treatment : Electro galvanized.
 51
15.0
  7
OKANO
100
AcDbText
  0
TEXT
  5
1513
330
1510
100
AcDbEntity
  8
文字
100
AcDbText
 10
-0.4901926332574931
 20
9.159967445193728
 30
0.0
 40
3.0
  1
5 TORGUE SCREW  M5-6
 51
15.0
  7
OKANO
100
AcDbText
  0
TEXT
  5
1514
330
1510
100
AcDbEntity
  8
文字
100
AcDbText
 10
1.364713526390005
 20
78.88822913323082
 30
0.0
 40
3.0
  1
Special standard,
 51
15.0
  7
OKANO
100
AcDbText
  0
TEXT
  5
1515
330
1510
100
AcDbEntity
  8
文字
100
AcDbText
 10
92.88160823408942
 20
89.92753849837379
 30
0.0
 40
3.0
  1
Screw Type
 51
15.0
  7
OKANO
100
AcDbText
  0
LINE
  5
1516
330
1510
100
AcDbEntity
  8
太線
100
AcDbLine
 10
113.9464587597784
 20
81.93930390144641
 30
0.0
 11
112.4464587597784
 21
81.93930390144641
 31
0.0
  0
LINE
  5
1517
330
1510
100
AcDbEntity
  8
太線
100
AcDbLine
 10
112.4464587597784
 20
76.9393039014464
 30
0.0
 11
121.4644995438761
 21
76.9393039014464
 31
0.0
  0
TEXT
  5
1518
330
1510
100
AcDbEntity
  8
文字
100
AcDbText
 10
93.46068240437217
 20
77.96976862235396
 30
0.0
 40
2.0
  1
17-30
 51
15.0
  7
OKANO
100
AcDbText
  0
LINE
  5
1519
330
1510
100
AcDbEntity
  8
太線
100
AcDbLine
 10
111.9464587597784
 20
81.43930390144641
 30
0.0
 11
111.9464587597784
 21
77.4393039014464
 31
0.0
  0
LINE
  5
151A
330
1510
100
AcDbEntity
  8
太線
100
AcDbLine
 10
91.94645875977846
 20
81.43930390144641
 30
0.0
 11
91.94645875977846
 21
77.43930390144639
 31
0.0
  0
LINE
  5
151B
330
1510
100
AcDbEntity
  8
太線
100
AcDbLine
 10
101.9644995438761
 20
77.4393039014464
 30
0.0
 11
101.9644995438761
 21
81.43930390144641
 31
0.0
  0
LINE
  5
151C
330
1510
100
AcDbEntity
  8
太線
100
AcDbLine
 10
92.44645875977846
 20
76.9393039014464
 30
0.0
 11
101.4644995438761
 21
76.9393039014464
 31
0.0
  0
ARC
  5
151D
330
1510
100
AcDbEntity
  8
太線
100
AcDbCircle
 10
92.44645875977846
 20
77.43930390144639
 30
0.0
 40
0.5
100
AcDbArc
 50
180.0
 51
270.0
  0
ARC
  5
151E
330
1510
100
AcDbEntity
  8
太線
100
AcDbCircle
 10
101.4644995438761
 20
77.4393039014464
 30
0.0
 40
0.5
100
AcDbArc
 50
270.0
 51
0.0
  0
ARC
  5
151F
330
1510
100
AcDbEntity
  8
太線
100
AcDbCircle
 10
112.4464587597784
 20
77.4393039014464
 30
0.0
 40
0.5
100
AcDbArc
 50
180.0
 51
270.0
  0
LINE
  5
1520
330
1510
100
AcDbEntity
  8
想像線
100
AcDbLine
 10
93.94645875977847
 20
81.93930390144641
 30
0.0
 11
99.96449954387617
 21
81.93930390144641
 31
0.0
  0
LINE
  5
1521
330
1510
100
AcDbEntity
  8
極太線
100
AcDbLine
 10
96.38762957111168
 20
85.43930390144641
 30
0.0
 11
97.50528794844525
 21
85.43930390144641
 31
0.0
  0
CIRCLE
  5
1522
330
1510
100
AcDbEntity
  8
太線
100
AcDbCircle
 10
96.94645875977847
 20
85.43930390144641
 30
0.0
 40
0.5588291886667776
  0
LINE
  5
1523
330
1510
100
AcDbEntity
  8
太線
100
AcDbLine
 10
99.46449954387617
 20
86.93930390144641
 30
0.0
 11
94.44645875977846
 21
86.93930390144641
 31
0.0
  0
LINE
  5
1524
330
1510
100
AcDbEntity
  8
太線
100
AcDbLine
 10
93.94645875977847
 20
86.43930390144641
 30
0.0
 11
93.94645875977847
 21
81.93930390144641
 31
0.0
  0
ARC
  5
1525
330
1510
100
AcDbEntity
  8
太線
100
AcDbCircle
 10
92.44645875977846
 20
81.43930390144641
 30
0.0
 40
0.5
100
AcDbArc
 50
90.0
 51
180.0
  0
LINE
  5
1526
330
1510
100
AcDbEntity
  8
太線
100
AcDbLine
 10
93.94645875977847
 20
81.93930390144641
 30
0.0
 11
92.44645875977846
 21
81.93930390144641
 31
0.0
  0
ARC
  5
1527
330
1510
100
AcDbEntity
  8
太線
100
AcDbCircle
 10
94.44645875977846
 20
86.43930390144641
 30
0.0
 40
0.5
100
AcDbArc
 50
90.0
 51
180.0
  0
LINE
  5
1528
330
1510
100
AcDbEntity
  8
太線
100
AcDbLine
 10
99.96449954387617
 20
81.93930390144641
 30
0.0
 11
99.96449954387617
 21
86.43930390144641
 31
0.0
  0
LINE
  5
1529
330
1510
100
AcDbEntity
  8
太線
100
AcDbLine
 10
101.4644995438761
 20
81.93930390144641
 30
0.0
 11
99.96449954387617
 21
81.93930390144641
 31
0.0
  0
ARC
  5
152A
330
1510
100
AcDbEntity
  8
太線
100
AcDbCircle
 10
101.4644995438761
 20
81.43930390144641
 30
0.0
 40
0.5
100
AcDbArc
 50
0.0
 51
90.0
  0
ARC
  5
152B
330
1510
100
AcDbEntity
  8
太線
100
AcDbCircle
 10
99.46449954387617
 20
86.43930390144641
 30
0.0
 40
0.5
100
AcDbArc
 50
0.0
 51
90.0
  0
LINE
  5
152C
330
1510
100
AcDbEntity
  8
極太線
100
AcDbLine
 10
96.94645875977847
 20
85.99813309011318
 30
0.0
 11
96.94645875977847
 21
84.88047471277964
 31
0.0
  0
ARC
  5
152D
330
1510
100
AcDbEntity
  8
太線
100
AcDbCircle
 10
112.4464587597784
 20
81.43930390144641
 30
0.0
 40
0.5
100
AcDbArc
 50
90.0
 51
180.0
  0
TEXT
  5
152E
330
1510
100
AcDbEntity
  8
文字
100
AcDbText
 10
134.3819212586066
 20
78.16263579228063
 30
0.0
 40
2.0
  1
101
 51
15.0
  7
OKANO
100
AcDbText
  0
TEXT
  5
152F
330
1510
100
AcDbEntity
  8
文字
100
AcDbText
 10
113.3422276612066
 20
77.96976862235396
 30
0.0
 40
2.0
  1
38-83
 51
15.0
  7
OKANO
100
AcDbText
  0
LINE
  5
1530
330
1510
100
AcDbEntity
  8
太線
100
AcDbLine
 10
141.9825403279738
 20
77.4393039014464
 30
0.0
 11
141.9825403279738
 21
81.43930390144641
 31
0.0
  0
LINE
  5
1531
330
1510
100
AcDbEntity
  8
太線
100
AcDbLine
 10
131.9644995438761
 20
81.43930390144641
 30
0.0
 11
131.9644995438761
 21
77.4393039014464
 31
0.0
  0
LINE
  5
1532
330
1510
100
AcDbEntity
  8
太線
100
AcDbLine
 10
121.9644995438761
 20
77.4393039014464
 30
0.0
 11
121.9644995438761
 21
81.43930390144641
 31
0.0
  0
ARC
  5
1533
330
1510
100
AcDbEntity
  8
太線
100
AcDbCircle
 10
121.4644995438761
 20
77.4393039014464
 30
0.0
 40
0.5
100
AcDbArc
 50
270.0
 51
0.0
  0
LINE
  5
1534
330
1510
100
AcDbEntity
  8
太線
100
AcDbLine
 10
132.4644995438761
 20
76.9393039014464
 30
0.0
 11
141.4825403279738
 21
76.9393039014464
 31
0.0
  0
ARC
  5
1535
330
1510
100
AcDbEntity
  8
太線
100
AcDbCircle
 10
132.4644995438761
 20
77.4393039014464
 30
0.0
 40
0.5
100
AcDbArc
 50
180.0
 51
270.0
  0
ARC
  5
1536
330
1510
100
AcDbEntity
  8
太線
100
AcDbCircle
 10
141.4825403279738
 20
77.4393039014464
 30
0.0
 40
0.5
100
AcDbArc
 50
270.0
 51
0.0
  0
ARC
  5
1537
330
1510
100
AcDbEntity
  8
太線
100
AcDbCircle
 10
121.4644995438761
 20
81.43930390144641
 30
0.0
 40
0.5
100
AcDbArc
 50
0.0
 51
90.0
  0
LINE
  5
1538
330
1510
100
AcDbEntity
  8
太線
100
AcDbLine
 10
119.9644995438761
 20
81.93930390144641
 30
0.0
 11
119.9644995438761
 21
86.43930390144641
 31
0.0
  0
LINE
  5
1539
330
1510
100
AcDbEntity
  8
太線
100
AcDbLine
 10
113.9464587597784
 20
86.43930390144641
 30
0.0
 11
113.9464587597784
 21
81.93930390144641
 31
0.0
  0
LINE
  5
153A
330
1510
100
AcDbEntity
  8
想像線
100
AcDbLine
 10
113.9464587597784
 20
81.93930390144641
 30
0.0
 11
119.9644995438761
 21
81.93930390144641
 31
0.0
  0
LINE
  5
153B
330
1510
100
AcDbEntity
  8
太線
100
AcDbLine
 10
121.4644995438761
 20
81.93930390144641
 30
0.0
 11
119.9644995438761
 21
81.93930390144641
 31
0.0
  0
LINE
  5
153C
330
1510
100
AcDbEntity
  8
太線
100
AcDbLine
 10
119.4644995438761
 20
86.93930390144641
 30
0.0
 11
114.4464587597784
 21
86.93930390144641
 31
0.0
  0
ARC
  5
153D
330
1510
100
AcDbEntity
  8
太線
100
AcDbCircle
 10
114.4464587597784
 20
86.43930390144641
 30
0.0
 40
0.5
100
AcDbArc
 50
90.0
 51
180.0
  0
CIRCLE
  5
153E
330
1510
100
AcDbEntity
  8
太線
100
AcDbCircle
 10
115.4464587597784
 20
85.43930390144641
 30
0.0
 40
0.5588291886667776
  0
LINE
  5
153F
330
1510
100
AcDbEntity
  8
極太線
100
AcDbLine
 10
115.4464587597784
 20
85.99813309011318
 30
0.0
 11
115.4464587597784
 21
84.88047471277964
 31
0.0
  0
LINE
  5
1540
330
1510
100
AcDbEntity
  8
極太線
100
AcDbLine
 10
114.8876295711116
 20
85.43930390144641
 30
0.0
 11
116.0052879484452
 21
85.43930390144641
 31
0.0
  0
ARC
  5
1541
330
1510
100
AcDbEntity
  8
太線
100
AcDbCircle
 10
119.4644995438761
 20
86.43930390144641
 30
0.0
 40
0.5
100
AcDbArc
 50
0.0
 51
90.0
  0
LINE
  5
1542
330
1510
100
AcDbEntity
  8
極太線
100
AcDbLine
 10
117.9056703552094
 20
85.43930390144641
 30
0.0
 11
119.0233287325429
 21
85.43930390144641
 31
0.0
  0
LINE
  5
1543
330
1510
100
AcDbEntity
  8
極太線
100
AcDbLine
 10
118.4644995438761
 20
85.99813309011318
 30
0.0
 11
118.4644995438761
 21
84.88047471277964
 31
0.0
  0
CIRCLE
  5
1544
330
1510
100
AcDbEntity
  8
太線
100
AcDbCircle
 10
118.4644995438761
 20
85.43930390144641
 30
0.0
 40
0.5588291886667776
  0
LINE
  5
1545
330
1510
100
AcDbEntity
  8
想像線
100
AcDbLine
 10
133.9644995438761
 20
81.93930390144641
 30
0.0
 11
139.9825403279738
 21
81.93930390144641
 31
0.0
  0
LINE
  5
1546
330
1510
100
AcDbEntity
  8
極太線
100
AcDbLine
 10
137.9237111393071
 20
85.43930390144641
 30
0.0
 11
139.0413695166406
 21
85.43930390144641
 31
0.0
  0
CIRCLE
  5
1547
330
1510
100
AcDbEntity
  8
太線
100
AcDbCircle
 10
138.4825403279738
 20
85.43930390144641
 30
0.0
 40
0.5588291886667776
  0
CIRCLE
  5
1548
330
1510
100
AcDbEntity
  8
太線
100
AcDbCircle
 10
138.4825403279738
 20
83.26342923362075
 30
0.0
 40
0.5588291886667776
  0
LINE
  5
1549
330
1510
100
AcDbEntity
  8
極太線
100
AcDbLine
 10
137.9237111393071
 20
83.26342923362075
 30
0.0
 11
139.0413695166406
 21
83.26342923362075
 31
0.0
  0
LINE
  5
154A
330
1510
100
AcDbEntity
  8
太線
100
AcDbLine
 10
139.4825403279738
 20
86.93930390144641
 30
0.0
 11
134.4644995438761
 21
86.93930390144641
 31
0.0
  0
LINE
  5
154B
330
1510
100
AcDbEntity
  8
太線
100
AcDbLine
 10
133.9644995438761
 20
86.43930390144641
 30
0.0
 11
133.9644995438761
 21
81.93930390144641
 31
0.0
  0
ARC
  5
154C
330
1510
100
AcDbEntity
  8
太線
100
AcDbCircle
 10
132.4644995438761
 20
81.43930390144641
 30
0.0
 40
0.5
100
AcDbArc
 50
90.0
 51
180.0
  0
LINE
  5
154D
330
1510
100
AcDbEntity
  8
太線
100
AcDbLine
 10
133.9644995438761
 20
81.93930390144641
 30
0.0
 11
132.4644995438761
 21
81.93930390144641
 31
0.0
  0
LINE
  5
154E
330
1510
100
AcDbEntity
  8
極太線
100
AcDbLine
 10
134.9056703552093
 20
83.26342923362075
 30
0.0
 11
136.0233287325429
 21
83.26342923362075
 31
0.0
  0
LINE
  5
154F
330
1510
100
AcDbEntity
  8
極太線
100
AcDbLine
 10
135.4644995438761
 20
83.82225842228752
 30
0.0
 11
135.4644995438761
 21
82.70460004495395
 31
0.0
  0
CIRCLE
  5
1550
330
1510
100
AcDbEntity
  8
太線
100
AcDbCircle
 10
135.4644995438761
 20
83.26342923362075
 30
0.0
 40
0.5588291886667776
  0
ARC
  5
1551
330
1510
100
AcDbEntity
  8
太線
100
AcDbCircle
 10
134.4644995438761
 20
86.43930390144641
 30
0.0
 40
0.5
100
AcDbArc
 50
90.0
 51
180.0
  0
CIRCLE
  5
1552
330
1510
100
AcDbEntity
  8
太線
100
AcDbCircle
 10
135.4644995438761
 20
85.43930390144641
 30
0.0
 40
0.5588291886667776
  0
LINE
  5
1553
330
1510
100
AcDbEntity
  8
極太線
100
AcDbLine
 10
135.4644995438761
 20
85.99813309011318
 30
0.0
 11
135.4644995438761
 21
84.88047471277964
 31
0.0
  0
LINE
  5
1554
330
1510
100
AcDbEntity
  8
極太線
100
AcDbLine
 10
134.9056703552093
 20
85.43930390144641
 30
0.0
 11
136.0233287325429
 21
85.43930390144641
 31
0.0
  0
LINE
  5
1555
330
1510
100
AcDbEntity
  8
太線
100
AcDbLine
 10
139.9825403279738
 20
81.93930390144641
 30
0.0
 11
139.9825403279738
 21
86.43930390144641
 31
0.0
  0
ARC
  5
1556
330
1510
100
AcDbEntity
  8
太線
100
AcDbCircle
 10
141.4825403279738
 20
81.43930390144641
 30
0.0
 40
0.5
100
AcDbArc
 50
0.0
 51
90.0
  0
LINE
  5
1557
330
1510
100
AcDbEntity
  8
極太線
100
AcDbLine
 10
138.4825403279738
 20
83.82225842228752
 30
0.0
 11
138.4825403279738
 21
82.70460004495395
 31
0.0
  0
LINE
  5
1558
330
1510
100
AcDbEntity
  8
太線
100
AcDbLine
 10
141.4825403279738
 20
81.93930390144641
 30
0.0
 11
139.9825403279738
 21
81.93930390144641
 31
0.0
  0
ARC
  5
1559
330
1510
100
AcDbEntity
  8
太線
100
AcDbCircle
 10
139.4825403279738
 20
86.43930390144641
 30
0.0
 40
0.5
100
AcDbArc
 50
0.0
 51
90.0
  0
LINE
  5
155A
330
1510
100
AcDbEntity
  8
極太線
100
AcDbLine
 10
138.4825403279738
 20
85.99813309011318
 30
0.0
 11
138.4825403279738
 21
84.88047471277964
 31
0.0
  0
ENDBLK
  5
155C
330
1510
100
AcDbEntity
  8
0
100
AcDbBlockEnd
  0
BLOCK
  5
2F38
330
2F2E
100
AcDbEntity
  8
0
100
AcDbBlockBegin
  2
*D2
 70
     1
 10
0.0
 20
0.0
 30
0.0
  3
*D2
  1

  0
LINE
  5
3107
330
2F2E
100
AcDbEntity
  8
寸法線
 62
     0
370
    -2
100
AcDbLine
 10
42.55151402540432
 20
-185.1120704196852
 30
0.0
 11
42.55151402540432
 21
-166.2207849934257
 31
0.0
  0
LINE
  5
3108
330
2F2E
100
AcDbEntity
  8
寸法線
 62
     0
370
    -2
100
AcDbLine
 10
136.8515140254043
 20
-185.1120704196852
 30
0.0
 11
136.8515140254043
 21
-166.2207849934257
 31
0.0
  0
LINE
  5
3109
330
2F2E
100
AcDbEntity
  8
寸法線
 62
     0
370
    -2
100
AcDbLine
 10
45.55151402540432
 20
-169.2207849934257
 30
0.0
 11
133.8515140254043
 21
-169.2207849934257
 31
0.0
  0
INSERT
  5
310A
330
2F2E
100
AcDbEntity
  8
寸法線
 62
     0
370
    -2
100
AcDbBlockReference
  2
_Closed
 10
42.55151402540432
 20
-169.2207849934257
 30
0.0
 41
3.0
 42
3.0
 43
3.0
 50
180.0
  0
INSERT
  5
310B
330
2F2E
100
AcDbEntity
  8
寸法線
 62
     0
370
    -2
100
AcDbBlockReference
  2
_Closed
 10
136.8515140254043
 20
-169.2207849934257
 30
0.0
 41
3.0
 42
3.0
 43
3.0
  0
MTEXT
  5
310C
330
2F2E
100
AcDbEntity
  8
寸法線
 62
     0
100
AcDbMText
 10
89.70151402540432
 20
-165.7207849934257
 30
0.0
 40
5.0
 41
0.0
 71
     5
 72
     1
  1
94.3
  7
OKANO
 73
     1
 44
1.0
  0
POINT
  5
310D
330
2F2E
100
AcDbEntity
  8
Defpoints
 62
     0
100
AcDbPoint
 10
42.55151402540432
 20
-187.1120704196852
 30
0.0
  0
POINT
  5
310E
330
2F2E
100
AcDbEntity
  8
Defpoints
 62
     0
100
AcDbPoint
 10
136.8515140254043
 20
-187.1120704196852
 30
0.0
  0
POINT
  5
310F
330
2F2E
100
AcDbEntity
  8
Defpoints
 62
     0
100
AcDbPoint
 10
136.8515140254043
 20
-169.2207849934257
 30
0.0
  0
ENDBLK
  5
2F39
330
2F2E
100
AcDbEntity
  8
0
100
AcDbBlockEnd
  0
BLOCK
  5
2F45
330
2F3B
100
AcDbEntity
  8
0
100
AcDbBlockBegin
  2
*D3
 70
     1
 10
0.0
 20
0.0
 30
0.0
  3
*D3
  1

  0
LINE
  5
3119
330
2F3B
100
AcDbEntity
  8
寸法線
 62
     0
370
    -2
100
AcDbLine
 10
138.8515140254043
 20
-244.4120704196852
 30
0.0
 11
168.0569865204413
 21
-244.4120704196852
 31
0.0
  0
LINE
  5
311A
330
2F3B
100
AcDbEntity
  8
寸法線
 62
     0
370
    -2
100
AcDbLine
 10
136.7295230789496
 20
-185.1120704196852
 30
0.0
 11
168.0569865204413
 21
-185.1120704196852
 31
0.0
  0
LINE
  5
311B
330
2F3B
100
AcDbEntity
  8
寸法線
 62
     0
370
    -2
100
AcDbLine
 10
165.0569865204413
 20
-241.4120704196852
 30
0.0
 11
165.0569865204413
 21
-188.1120704196852
 31
0.0
  0
INSERT
  5
311C
330
2F3B
100
AcDbEntity
  8
寸法線
 62
     0
370
    -2
100
AcDbBlockReference
  2
_Closed
 10
165.0569865204413
 20
-244.4120704196852
 30
0.0
 41
3.0
 42
3.0
 43
3.0
 50
270.0
  0
INSERT
  5
311D
330
2F3B
100
AcDbEntity
  8
寸法線
 62
     0
370
    -2
100
AcDbBlockReference
  2
_Closed
 10
165.0569865204413
 20
-185.1120704196852
 30
0.0
 41
3.0
 42
3.0
 43
3.0
 50
90.0
  0
MTEXT
  5
311E
330
2F3B
100
AcDbEntity
  8
寸法線
 62
     0
100
AcDbMText
 10
161.5569865204413
 20
-214.7620704196852
 30
0.0
 40
5.0
 41
0.0
 71
     5
 72
     1
  1
59.3
  7
OKANO
 11
0.0000000000000001
 21
1.0
 31
0.0
 73
     1
 44
1.0
  0
POINT
  5
311F
330
2F3B
100
AcDbEntity
  8
Defpoints
 62
     0
100
AcDbPoint
 10
136.8515140254043
 20
-244.4120704196852
 30
0.0
  0
POINT
  5
3120
330
2F3B
100
AcDbEntity
  8
Defpoints
 62
     0
100
AcDbPoint
 10
134.7295230789496
 20
-185.1120704196852
 30
0.0
  0
POINT
  5
3121
330
2F3B
100
AcDbEntity
  8
Defpoints
 62
     0
100
AcDbPoint
 10
165.0569865204413
 20
-185.1120704196852
 30
0.0
  0
ENDBLK
  5
2F46
330
2F3B
100
AcDbEntity
  8
0
100
AcDbBlockEnd
  0
BLOCK
  5
2F90
330
2F86
100
AcDbEntity
  8
0
100
AcDbBlockBegin
  2
*D4
 70
     1
 10
0.0
 20
0.0
 30
0.0
  3
*D4
  1

  0
LINE
  5
2F87
330
2F86
100
AcDbEntity
  8
寸法線
 62
     0
370
    -2
100
AcDbLine
 10
124.8515140254043
 20
178.4711488256961
 30
0.0
 11
124.8515140254043
 21
123.2262366162249
 31
0.0
  0
LINE
  5
2F88
330
2F86
100
AcDbEntity
  8
寸法線
 62
     0
370
    -2
100
AcDbLine
 10
136.8515140254043
 20
153.8211488256961
 30
0.0
 11
136.8515140254043
 21
123.2262366162249
 31
0.0
  0
LINE
  5
2F89
330
2F86
100
AcDbEntity
  8
寸法線
 62
     0
370
    -2
100
AcDbLine
 10
127.8515140254043
 20
126.2262366162249
 30
0.0
 11
133.8515140254043
 21
126.2262366162249
 31
0.0
  0
INSERT
  5
2F8A
330
2F86
100
AcDbEntity
  8
寸法線
 62
     0
370
    -2
100
AcDbBlockReference
  2
_Closed
 10
124.8515140254043
 20
126.2262366162249
 30
0.0
 41
3.0
 42
3.0
 43
3.0
 50
180.0
  0
INSERT
  5
2F8B
330
2F86
100
AcDbEntity
  8
寸法線
 62
     0
370
    -2
100
AcDbBlockReference
  2
_Closed
 10
136.8515140254043
 20
126.2262366162249
 30
0.0
 41
3.0
 42
3.0
 43
3.0
  0
MTEXT
  5
2F8C
330
2F86
100
AcDbEntity
  8
寸法線
 62
     0
100
AcDbMText
 10
130.8515140254043
 20
129.7267287422091
 30
0.0
 40
5.0
 41
0.0
 71
     5
 72
     1
  1
12
  7
OKANO
 73
     1
 44
1.0
  0
POINT
  5
2F8D
330
2F86
100
AcDbEntity
  8
Defpoints
 62
     0
100
AcDbPoint
 10
124.8515140254043
 20
180.4711488256961
 30
0.0
  0
POINT
  5
2F8E
330
2F86
100
AcDbEntity
  8
Defpoints
 62
     0
100
AcDbPoint
 10
136.8515140254043
 20
155.8211488256961
 30
0.0
  0
POINT
  5
2F8F
330
2F86
100
AcDbEntity
  8
Defpoints
 62
     0
100
AcDbPoint
 10
136.8515140254043
 20
126.2262366162249
 30
0.0
  0
ENDBLK
  5
2F91
330
2F86
100
AcDbEntity
  8
0
100
AcDbBlockEnd
  0
BLOCK
  5
2F9D
330
2F93
100
AcDbEntity
  8
0
100
AcDbBlockBegin
  2
*D5
 70
     1
 10
0.0
 20
0.0
 30
0.0
  3
*D5
  1

  0
LINE
  5
35C0
330
2F93
100
AcDbEntity
  8
寸法線
 62
     0
370
    -2
100
AcDbLine
 10
114.9381829524736
 20
181.9276008441681
 30
0.0
 11
114.9381829524736
 21
201.7755451597795
 31
0.0
  0
LINE
  5
35C1
330
2F93
100
AcDbEntity
  8
寸法線
 62
     0
370
    -2
100
AcDbLine
 10
134.8944890800705
 20
181.9276008441681
 30
0.0
 11
134.8944890800705
 21
201.7755451597795
 31
0.0
  0
LINE
  5
35C2
330
2F93
100
AcDbEntity
  8
寸法線
 62
     0
370
    -2
100
AcDbLine
 10
117.9381829524736
 20
198.7755451597795
 30
0.0
 11
131.8944890800705
 21
198.7755451597795
 31
0.0
  0
INSERT
  5
35C3
330
2F93
100
AcDbEntity
  8
寸法線
 62
     0
370
    -2
100
AcDbBlockReference
  2
_Closed
 10
114.9381829524736
 20
198.7755451597795
 30
0.0
 41
3.0
 42
3.0
 43
3.0
 50
180.0
  0
INSERT
  5
35C4
330
2F93
100
AcDbEntity
  8
寸法線
 62
     0
370
    -2
100
AcDbBlockReference
  2
_Closed
 10
134.8944890800705
 20
198.7755451597795
 30
0.0
 41
3.0
 42
3.0
 43
3.0
  0
MTEXT
  5
35C5
330
2F93
100
AcDbEntity
  8
寸法線
 62
     0
100
AcDbMText
 10
124.9163360162721
 20
202.2760372857637
 30
0.0
 40
5.0
 41
0.0
 71
     5
 72
     1
  1
25
  7
OKANO
 73
     1
 44
1.0
  0
POINT
  5
35C6
330
2F93
100
AcDbEntity
  8
Defpoints
 62
     0
100
AcDbPoint
 10
114.9381829524736
 20
179.9276008441681
 30
0.0
  0
POINT
  5
35C7
330
2F93
100
AcDbEntity
  8
Defpoints
 62
     0
100
AcDbPoint
 10
134.8944890800705
 20
179.9276008441681
 30
0.0
  0
POINT
  5
35C8
330
2F93
100
AcDbEntity
  8
Defpoints
 62
     0
100
AcDbPoint
 10
134.8944890800705
 20
198.7755451597795
 30
0.0
  0
ENDBLK
  5
2F9E
330
2F93
100
AcDbEntity
  8
0
100
AcDbBlockEnd
  0
BLOCK
  5
2FDE
330
2FD4
100
AcDbEntity
  8
0
100
AcDbBlockBegin
  2
*D6
 70
     1
 10
0.0
 20
0.0
 30
0.0
  3
*D6
  1

  0
LINE
  5
3614
330
2FD4
100
AcDbEntity
  8
寸法線
 62
     0
370
    -2
100
AcDbLine
 10
184.6354418931946
 20
104.6676745524996
 30
0.0
 11
195.2857959097772
 21
104.6325880493078
 31
0.0
  0
LINE
  5
3615
330
2FD4
100
AcDbEntity
  8
寸法線
 62
     0
370
    -2
100
AcDbLine
 10
184.6024980936356
 20
94.66772881734332
 30
0.0
 11
195.2528521102183
 21
94.63264231415154
 31
0.0
  0
LINE
  5
3616
330
2FD4
100
AcDbEntity
  8
寸法線
 62
     0
370
    -2
100
AcDbLine
 10
192.2759290493626
 20
101.6424874686286
 30
0.0
 11
192.2627515295391
 21
97.6425091745661
 31
0.0
  0
INSERT
  5
3617
330
2FD4
100
AcDbEntity
  8
寸法線
 62
     0
370
    -2
100
AcDbBlockReference
  2
_Closed
 10
192.2858121892303
 20
104.6424711891755
 30
0.0
 41
3.0
 42
3.0
 43
3.0
 50
89.81124559099029
  0
INSERT
  5
3618
330
2FD4
100
AcDbEntity
  8
寸法線
 62
     0
370
    -2
100
AcDbBlockReference
  2
_Closed
 10
192.2528683896714
 20
94.64252545401922
 30
0.0
 41
3.0
 42
3.0
 43
3.0
 50
269.8112455909902
  0
MTEXT
  5
3619
330
2FD4
100
AcDbEntity
  8
寸法線
 62
     0
100
AcDbMText
 10
188.7693592821461
 20
99.654028651443
 30
0.0
 40
5.0
 41
0.0
 71
     5
 72
     1
  1
13
  7
OKANO
 11
0.0032943799558955
 21
0.9999945735156297
 31
0.0
 73
     1
 44
1.0
  0
POINT
  5
361A
330
2FD4
100
AcDbEntity
  8
Defpoints
 62
     0
100
AcDbPoint
 10
182.6354527461633
 20
104.6742633124114
 30
0.0
  0
POINT
  5
361B
330
2FD4
100
AcDbEntity
  8
Defpoints
 62
     0
100
AcDbPoint
 10
182.6025089466043
 20
94.67431757725512
 30
0.0
  0
POINT
  5
361C
330
2FD4
100
AcDbEntity
  8
Defpoints
 62
     0
100
AcDbPoint
 10
192.2528683896714
 20
94.64252545401922
 30
0.0
  0
ENDBLK
  5
2FDF
330
2FD4
100
AcDbEntity
  8
0
100
AcDbBlockEnd
  0
BLOCK
  5
2FEA
330
2FE1
100
AcDbEntity
  8
0
100
AcDbBlockBegin
  2
*D7
 70
     1
 10
0.0
 20
0.0
 30
0.0
  3
*D7
  1

  0
LINE
  5
32C6
330
2FE1
100
AcDbEntity
  8
寸法線
 62
     0
370
    -2
100
AcDbLine
 10
155.4157380410818
 20
115.5155474606652
 30
0.0
 11
180.6671509778206
 21
114.6162002669336
 31
0.0
  0
MTEXT
  5
32C7
330
2FE1
100
AcDbEntity
  8
寸法線
 62
     0
100
AcDbMText
 10
161.5074102878236
 20
118.8008073171776
 30
0.0
 40
5.0
 41
0.0
 71
     5
 72
     1
  1
\U+220510
  7
OKANO
 11
0.999366363080523
 21
-0.0355931502287769
 31
0.0
 73
     1
 44
1.0
  0
INSERT
  5
32C8
330
2FE1
100
AcDbEntity
  8
寸法線
 62
     0
370
    -2
100
AcDbBlockReference
  2
_Closed
 10
183.6652500670622
 20
114.5094208162473
 30
0.0
 41
3.0
 42
3.0
 43
3.0
 50
357.9602318699826
  0
POINT
  5
32C9
330
2FE1
100
AcDbEntity
  8
Defpoints
 62
     0
100
AcDbPoint
 10
183.6652500670622
 20
114.5094208162473
 30
0.0
  0
POINT
  5
32CA
330
2FE1
100
AcDbEntity
  8
Defpoints
 62
     0
100
AcDbPoint
 10
173.671586436257
 20
114.865352318535
 30
0.0
  0
ENDBLK
  5
2FEB
330
2FE1
100
AcDbEntity
  8
0
100
AcDbBlockEnd
  0
BLOCK
  5
3042
330
3038
100
AcDbEntity
  8
0
100
AcDbBlockBegin
  2
*D8
 70
     1
 10
0.0
 20
0.0
 30
0.0
  3
*D8
  1

  0
LINE
  5
3110
330
3038
100
AcDbEntity
  8
寸法線
 62
     0
370
    -2
100
AcDbLine
 10
101.8515140254043
 20
-192.1120704196852
 30
0.0
 11
113.6569572643186
 21
-192.1120704196852
 31
0.0
  0
LINE
  5
3111
330
3038
100
AcDbEntity
  8
寸法線
 62
     0
370
    -2
100
AcDbLine
 10
103.8515140254043
 20
-237.4120704196852
 30
0.0
 11
113.6569572643185
 21
-237.4120704196852
 31
0.0
  0
LINE
  5
3112
330
3038
100
AcDbEntity
  8
寸法線
 62
     0
370
    -2
100
AcDbLine
 10
110.6569572643186
 20
-195.1120704196852
 30
0.0
 11
110.6569572643185
 21
-234.4120704196852
 31
0.0
  0
INSERT
  5
3113
330
3038
100
AcDbEntity
  8
寸法線
 62
     0
370
    -2
100
AcDbBlockReference
  2
_Closed
 10
110.6569572643186
 20
-192.1120704196852
 30
0.0
 41
3.0
 42
3.0
 43
3.0
 50
90.0
  0
INSERT
  5
3114
330
3038
100
AcDbEntity
  8
寸法線
 62
     0
370
    -2
100
AcDbBlockReference
  2
_Closed
 10
110.6569572643185
 20
-237.4120704196852
 30
0.0
 41
3.0
 42
3.0
 43
3.0
 50
270.0
  0
MTEXT
  5
3115
330
3038
100
AcDbEntity
  8
寸法線
 62
     0
100
AcDbMText
 10
107.1569572643186
 20
-222.1949581423065
 30
0.0
 40
5.0
 41
0.0
 71
     5
 72
     1
  1
45.3
  7
OKANO
 11
0.0000000000000001
 21
1.0
 31
0.0
 73
     1
 44
1.0
  0
POINT
  5
3116
330
3038
100
AcDbEntity
  8
Defpoints
 62
     0
100
AcDbPoint
 10
99.85151402540433
 20
-192.1120704196852
 30
0.0
  0
POINT
  5
3117
330
3038
100
AcDbEntity
  8
Defpoints
 62
     0
100
AcDbPoint
 10
101.8515140254043
 20
-237.4120704196852
 30
0.0
  0
POINT
  5
3118
330
3038
100
AcDbEntity
  8
Defpoints
 62
     0
100
AcDbPoint
 10
110.6569572643185
 20
-237.4120704196852
 30
0.0
  0
ENDBLK
  5
3043
330
3038
100
AcDbEntity
  8
0
100
AcDbBlockEnd
  0
BLOCK
  5
3372
330
3368
100
AcDbEntity
  8
0
100
AcDbBlockBegin
  2
*D9
 70
     1
 10
0.0
 20
0.0
 30
0.0
  3
*D9
  1

  0
LINE
  5
3374
330
3368
100
AcDbEntity
  8
寸法線
 62
     0
370
    -2
100
AcDbLine
 10
49.55151402540431
 20
148.7500810138306
 30
0.0
 11
49.55151402540431
 21
139.4557183411675
 31
0.0
  0
LINE
  5
3375
330
3368
100
AcDbEntity
  8
寸法線
 62
     0
370
    -2
100
AcDbLine
 10
94.85151402540433
 20
148.7500810138306
 30
0.0
 11
94.85151402540433
 21
139.4557183411675
 31
0.0
  0
LINE
  5
3376
330
3368
100
AcDbEntity
  8
寸法線
 62
     0
370
    -2
100
AcDbLine
 10
52.55151402540431
 20
142.4557183411675
 30
0.0
 11
91.85151402540432
 21
142.4557183411675
 31
0.0
  0
INSERT
  5
3377
330
3368
100
AcDbEntity
  8
寸法線
 62
     0
370
    -2
100
AcDbBlockReference
  2
_Closed
 10
49.55151402540431
 20
142.4557183411675
 30
0.0
 41
3.0
 42
3.0
 43
3.0
 50
180.0
  0
INSERT
  5
3378
330
3368
100
AcDbEntity
  8
寸法線
 62
     0
370
    -2
100
AcDbBlockReference
  2
_Closed
 10
94.85151402540433
 20
142.4557183411675
 30
0.0
 41
3.0
 42
3.0
 43
3.0
  0
MTEXT
  5
3379
330
3368
100
AcDbEntity
  8
寸法線
 62
     0
100
AcDbMText
 10
75.17213125415264
 20
145.9557183411675
 30
0.0
 40
5.0
 41
0.0
 71
     5
 72
     1
  1
45.3
  7
OKANO
 73
     1
 44
1.0
  0
POINT
  5
337A
330
3368
100
AcDbEntity
  8
Defpoints
 62
     0
100
AcDbPoint
 10
49.55151402540431
 20
150.7500810138306
 30
0.0
  0
POINT
  5
337B
330
3368
100
AcDbEntity
  8
Defpoints
 62
     0
100
AcDbPoint
 10
94.85151402540433
 20
150.7500810138306
 30
0.0
  0
POINT
  5
337C
330
3368
100
AcDbEntity
  8
Defpoints
 62
     0
100
AcDbPoint
 10
94.85151402540433
 20
142.4557183411675
 30
0.0
  0
ENDBLK
  5
3373
330
3368
100
AcDbEntity
  8
0
100
AcDbBlockEnd
  0
BLOCK
  5
3388
330
337E
100
AcDbEntity
  8
0
100
AcDbBlockBegin
  2
*D10
 70
     1
 10
0.0
 20
0.0
 30
0.0
  3
*D10
  1

  0
LINE
  5
3604
330
337E
100
AcDbEntity
  8
寸法線
 62
     0
370
    -2
100
AcDbLine
 10
5.551514025404316
 20
155.8211488256961
 30
0.0
 11
-7.125976552654275
 21
155.8211488256961
 31
0.0
  0
LINE
  5
3605
330
337E
100
AcDbEntity
  8
寸法線
 62
     0
370
    -2
100
AcDbLine
 10
5.551514025404316
 20
205.1211488256961
 30
0.0
 11
-7.125976552654265
 21
205.1211488256961
 31
0.0
  0
LINE
  5
3606
330
337E
100
AcDbEntity
  8
寸法線
 62
     0
370
    -2
100
AcDbLine
 10
-4.125976552654274
 20
158.8211488256961
 30
0.0
 11
-4.125976552654265
 21
202.1211488256961
 31
0.0
  0
INSERT
  5
3607
330
337E
100
AcDbEntity
  8
寸法線
 62
     0
370
    -2
100
AcDbBlockReference
  2
_Closed
 10
-4.125976552654275
 20
155.8211488256961
 30
0.0
 41
3.0
 42
3.0
 43
3.0
 50
270.0
  0
INSERT
  5
3608
330
337E
100
AcDbEntity
  8
寸法線
 62
     0
370
    -2
100
AcDbBlockReference
  2
_Closed
 10
-4.125976552654265
 20
205.1211488256961
 30
0.0
 41
3.0
 42
3.0
 43
3.0
 50
90.0
  0
MTEXT
  5
3609
330
337E
100
AcDbEntity
  8
寸法線
 62
     0
100
AcDbMText
 10
-7.625976552654299
 20
180.4711488256961
 30
0.0
 40
5.0
 41
0.0
 71
     5
 72
     1
  1
49.3～50
  7
OKANO
 11
0.0000000000000001
 21
1.0
 31
0.0
 73
     1
 44
1.0
  0
POINT
  5
360A
330
337E
100
AcDbEntity
  8
Defpoints
 62
     0
100
AcDbPoint
 10
7.551514025404316
 20
155.8211488256961
 30
0.0
  0
POINT
  5
360B
330
337E
100
AcDbEntity
  8
Defpoints
 62
     0
100
AcDbPoint
 10
7.551514025404316
 20
205.1211488256961
 30
0.0
  0
POINT
  5
360C
330
337E
100
AcDbEntity
  8
Defpoints
 62
     0
100
AcDbPoint
 10
-4.125976552654265
 20
205.1211488256961
 30
0.0
  0
ENDBLK
  5
3389
330
337E
100
AcDbEntity
  8
0
100
AcDbBlockEnd
  0
BLOCK
  5
3395
330
338B
100
AcDbEntity
  8
0
100
AcDbBlockBegin
  2
*D11
 70
     1
 10
0.0
 20
0.0
 30
0.0
  3
*D11
  1

  0
LINE
  5
3585
330
338B
100
AcDbEntity
  8
寸法線
 62
     0
370
    -2
100
AcDbLine
 10
7.551514025404316
 20
210.1211488256961
 30
0.0
 11
-17.86959103621937
 21
210.1211488256961
 31
0.0
  0
LINE
  5
3586
330
338B
100
AcDbEntity
  8
寸法線
 62
     0
370
    -2
100
AcDbLine
 10
7.551514025404344
 20
150.8211488256961
 30
0.0
 11
-17.86959103621939
 21
150.8211488256961
 31
0.0
  0
LINE
  5
3587
330
338B
100
AcDbEntity
  8
寸法線
 62
     0
370
    -2
100
AcDbLine
 10
-14.86959103621937
 20
207.1211488256961
 30
0.0
 11
-14.86959103621939
 21
153.8211488256961
 31
0.0
  0
INSERT
  5
3588
330
338B
100
AcDbEntity
  8
寸法線
 62
     0
370
    -2
100
AcDbBlockReference
  2
_Closed
 10
-14.86959103621937
 20
210.1211488256961
 30
0.0
 41
3.0
 42
3.0
 43
3.0
 50
90.0
  0
INSERT
  5
3589
330
338B
100
AcDbEntity
  8
寸法線
 62
     0
370
    -2
100
AcDbBlockReference
  2
_Closed
 10
-14.86959103621939
 20
150.8211488256961
 30
0.0
 41
3.0
 42
3.0
 43
3.0
 50
270.0
  0
MTEXT
  5
358A
330
338B
100
AcDbEntity
  8
寸法線
 62
     0
100
AcDbMText
 10
-18.36959103621941
 20
180.4711488256961
 30
0.0
 40
5.0
 41
0.0
 71
     5
 72
     1
  1
60
  7
OKANO
 11
0.0000000000000001
 21
1.0
 31
0.0
 73
     1
 44
1.0
  0
POINT
  5
358B
330
338B
100
AcDbEntity
  8
Defpoints
 62
     0
100
AcDbPoint
 10
9.551514025404316
 20
210.1211488256961
 30
0.0
  0
POINT
  5
358C
330
338B
100
AcDbEntity
  8
Defpoints
 62
     0
100
AcDbPoint
 10
9.551514025404344
 20
150.8211488256961
 30
0.0
  0
POINT
  5
358D
330
338B
100
AcDbEntity
  8
Defpoints
 62
     0
100
AcDbPoint
 10
-14.86959103621939
 20
150.8211488256961
 30
0.0
  0
ENDBLK
  5
3396
330
338B
100
AcDbEntity
  8
0
100
AcDbBlockEnd
  0
BLOCK
  5
3489
330
347F
100
AcDbEntity
  8
0
100
AcDbBlockBegin
  2
*D12
 70
     1
 10
0.0
 20
0.0
 30
0.0
  3
*D12
  1

  0
LINE
  5
3573
330
347F
100
AcDbEntity
  8
寸法線
 62
     0
370
    -2
100
AcDbLine
 10
7.551514025404316
 20
207.1211488256961
 30
0.0
 11
7.551514025404319
 21
260.0216007010522
 31
0.0
  0
LINE
  5
3574
330
347F
100
AcDbEntity
  8
寸法線
 62
     0
370
    -2
100
AcDbLine
 10
136.8515140254043
 20
210.1211488256961
 30
0.0
 11
136.8515140254043
 21
260.0216007010522
 31
0.0
  0
LINE
  5
3575
330
347F
100
AcDbEntity
  8
寸法線
 62
     0
370
    -2
100
AcDbLine
 10
10.55151402540432
 20
257.0216007010521
 30
0.0
 11
133.8515140254043
 21
257.0216007010521
 31
0.0
  0
INSERT
  5
3576
330
347F
100
AcDbEntity
  8
寸法線
 62
     0
370
    -2
100
AcDbBlockReference
  2
_Closed
 10
7.551514025404319
 20
257.0216007010521
 30
0.0
 41
3.0
 42
3.0
 43
3.0
 50
180.0
  0
INSERT
  5
3577
330
347F
100
AcDbEntity
  8
寸法線
 62
     0
370
    -2
100
AcDbBlockReference
  2
_Closed
 10
136.8515140254043
 20
257.0216007010521
 30
0.0
 41
3.0
 42
3.0
 43
3.0
  0
MTEXT
  5
3578
330
347F
100
AcDbEntity
  8
寸法線
 62
     0
100
AcDbMText
 10
70.8804001198414
 20
260.5216007010521
 30
0.0
 40
5.0
 41
0.0
 71
     5
 72
     1
  1
130
  7
OKANO
 73
     1
 44
1.0
  0
POINT
  5
3579
330
347F
100
AcDbEntity
  8
Defpoints
 62
     0
100
AcDbPoint
 10
7.551514025404316
 20
205.1211488256961
 30
0.0
  0
POINT
  5
357A
330
347F
100
AcDbEntity
  8
Defpoints
 62
     0
100
AcDbPoint
 10
136.8515140254043
 20
208.1211488256961
 30
0.0
  0
POINT
  5
357B
330
347F
100
AcDbEntity
  8
Defpoints
 62
     0
100
AcDbPoint
 10
136.8515140254043
 20
257.0216007010521
 30
0.0
  0
ENDBLK
  5
348A
330
347F
100
AcDbEntity
  8
0
100
AcDbBlockEnd
  0
BLOCK
  5
34A3
330
3499
100
AcDbEntity
  8
0
100
AcDbBlockBegin
  2
*D13
 70
     1
 10
0.0
 20
0.0
 30
0.0
  3
*D13
  1

  0
LINE
  5
349A
330
3499
100
AcDbEntity
  8
寸法線
 62
     0
370
    -2
100
AcDbLine
 10
296.0453422155109
 20
199.9013309819445
 30
0.0
 11
296.0453422155109
 21
226.2871308454475
 31
0.0
  0
LINE
  5
349B
330
3499
100
AcDbEntity
  8
寸法線
 62
     0
370
    -2
100
AcDbLine
 10
309.0453422155109
 20
210.1211488256962
 30
0.0
 11
309.0453422155109
 21
226.2871308454475
 31
0.0
  0
LINE
  5
349C
330
3499
100
AcDbEntity
  8
寸法線
 62
     0
370
    -2
100
AcDbLine
 10
299.0453422155109
 20
223.2871308454475
 30
0.0
 11
306.0453422155109
 21
223.2871308454475
 31
0.0
  0
INSERT
  5
349D
330
3499
100
AcDbEntity
  8
寸法線
 62
     0
370
    -2
100
AcDbBlockReference
  2
_Closed
 10
296.0453422155109
 20
223.2871308454475
 30
0.0
 41
3.0
 42
3.0
 43
3.0
 50
180.0
  0
INSERT
  5
349E
330
3499
100
AcDbEntity
  8
寸法線
 62
     0
370
    -2
100
AcDbBlockReference
  2
_Closed
 10
309.0453422155109
 20
223.2871308454475
 30
0.0
 41
3.0
 42
3.0
 43
3.0
  0
MTEXT
  5
349F
330
3499
100
AcDbEntity
  8
寸法線
 62
     0
100
AcDbMText
 10
302.5453422155109
 20
226.7871308454475
 30
0.0
 40
5.0
 41
0.0
 71
     5
 72
     1
  1
13
  7
OKANO
 73
     1
 44
1.0
  0
POINT
  5
34A0
330
3499
100
AcDbEntity
  8
Defpoints
 62
     0
100
AcDbPoint
 10
296.0453422155109
 20
197.9013309819445
 30
0.0
  0
POINT
  5
34A1
330
3499
100
AcDbEntity
  8
Defpoints
 62
     0
100
AcDbPoint
 10
309.0453422155109
 20
208.1211488256962
 30
0.0
  0
POINT
  5
34A2
330
3499
100
AcDbEntity
  8
Defpoints
 62
     0
100
AcDbPoint
 10
309.0453422155109
 20
223.2871308454475
 30
0.0
  0
ENDBLK
  5
34A4
330
3499
100
AcDbEntity
  8
0
100
AcDbBlockEnd
  0
BLOCK
  5
34B5
330
34A9
100
AcDbEntity
  8
0
100
AcDbBlockBegin
  2
*D14
 70
     1
 10
0.0
 20
0.0
 30
0.0
  3
*D14
  1

  0
ARC
  5
34AA
330
34A9
100
AcDbEntity
  8
寸法線
 62
     0
370
    -2
100
AcDbCircle
 10
72.20151402540432
 20
180.4711488256961
 30
0.0
 40
12.15459305086622
100
AcDbArc
 50
345.8220950215488
 51
0.0
  0
LINE
  5
34AB
330
34A9
100
AcDbEntity
  8
寸法線
 62
     0
370
    -2
100
AcDbLine
 10
83.9858766636876
 20
177.4940815705608
 30
0.0
 11
80.45514442319902
 21
163.5181026843514
 31
0.0
  0
ARC
  5
34AC
330
34A9
100
AcDbEntity
  8
寸法線
 62
     0
370
    -2
100
AcDbCircle
 10
72.20151402540432
 20
180.4711488256961
 30
0.0
 40
12.15459305086622
100
AcDbArc
 50
14.1779049784511
 51
30.8220950215489
  0
INSERT
  5
34AD
330
34A9
100
AcDbEntity
  8
寸法線
 62
     0
370
    -2
100
AcDbBlockReference
  2
_Closed
 10
84.35610707627052
 20
180.4711488256961
 30
0.0
 41
3.0
 42
3.0
 43
3.0
 50
277.0889524892255
  0
INSERT
  5
34AE
330
34A9
100
AcDbEntity
  8
寸法線
 62
     0
370
    -2
100
AcDbBlockReference
  2
_Closed
 10
80.79610919423471
 20
189.0657439945265
 30
0.0
 41
3.0
 42
3.0
 43
3.0
 50
127.9110475107744
  0
MTEXT
  5
34AF
330
34A9
100
AcDbEntity
  8
寸法線
 62
     0
100
AcDbMText
 10
85.61390010913116
 20
169.6488248088904
 30
0.0
 40
5.0
 41
0.0
 71
     5
 72
     1
  1
45°
  7
OKANO
 11
-0.2449335195902014
 21
-0.9695398759108138
 31
0.0
 73
     1
 44
1.0
  0
POINT
  5
34B0
330
34A9
100
AcDbEntity
  8
Defpoints
 62
     0
100
AcDbPoint
 10
82.72770038011628
 20
186.5484453511292
 30
0.0
  0
POINT
  5
34B1
330
34A9
100
AcDbEntity
  8
Defpoints
 62
     0
100
AcDbPoint
 10
72.20151402540432
 20
180.4711488256961
 30
0.0
  0
POINT
  5
34B2
330
34A9
100
AcDbEntity
  8
Defpoints
 62
     0
100
AcDbPoint
 10
58.05937840167336
 20
180.4711488256961
 30
0.0
  0
POINT
  5
34B3
330
34A9
100
AcDbEntity
  8
Defpoints
 62
     0
100
AcDbPoint
 10
87.71171255515989
 20
180.4711488256961
 30
0.0
  0
POINT
  5
34B4
330
34A9
100
AcDbEntity
  8
Defpoints
 62
     0
100
AcDbPoint
 10
124.8515140254043
 20
233.1211488256961
 30
0.0
  0
ENDBLK
  5
34B6
330
34A9
100
AcDbEntity
  8
0
100
AcDbBlockEnd
  0
BLOCK
  5
34C3
330
34B9
100
AcDbEntity
  8
0
100
AcDbBlockBegin
  2
*D15
 70
     1
 10
0.0
 20
0.0
 30
0.0
  3
*D15
  1

  0
LINE
  5
34BA
330
34B9
100
AcDbEntity
  8
寸法線
 62
     0
370
    -2
100
AcDbLine
 10
7.551514025404344
 20
53.79553794165414
 30
0.0
 11
7.551514025404347
 21
89.74728041210983
 31
0.0
  0
LINE
  5
34BB
330
34B9
100
AcDbEntity
  8
寸法線
 62
     0
370
    -2
100
AcDbLine
 10
42.55151402540433
 20
73.79553794165414
 30
0.0
 11
42.55151402540433
 21
89.74728041210983
 31
0.0
  0
LINE
  5
34BC
330
34B9
100
AcDbEntity
  8
寸法線
 62
     0
370
    -2
100
AcDbLine
 10
10.55151402540434
 20
86.74728041210983
 30
0.0
 11
39.55151402540433
 21
86.74728041210983
 31
0.0
  0
INSERT
  5
34BD
330
34B9
100
AcDbEntity
  8
寸法線
 62
     0
370
    -2
100
AcDbBlockReference
  2
_Closed
 10
7.551514025404346
 20
86.74728041210983
 30
0.0
 41
3.0
 42
3.0
 43
3.0
 50
180.0
  0
INSERT
  5
34BE
330
34B9
100
AcDbEntity
  8
寸法線
 62
     0
370
    -2
100
AcDbBlockReference
  2
_Closed
 10
42.55151402540433
 20
86.74728041210983
 30
0.0
 41
3.0
 42
3.0
 43
3.0
  0
MTEXT
  5
34BF
330
34B9
100
AcDbEntity
  8
寸法線
 62
     0
100
AcDbMText
 10
25.05151402540434
 20
90.24728041210982
 30
0.0
 40
5.0
 41
0.0
 71
     5
 72
     1
  1
35
  7
OKANO
 73
     1
 44
1.0
  0
POINT
  5
34C0
330
34B9
100
AcDbEntity
  8
Defpoints
 62
     0
100
AcDbPoint
 10
7.551514025404344
 20
51.79553794165414
 30
0.0
  0
POINT
  5
34C1
330
34B9
100
AcDbEntity
  8
Defpoints
 62
     0
100
AcDbPoint
 10
42.55151402540433
 20
71.79553794165414
 30
0.0
  0
POINT
  5
34C2
330
34B9
100
AcDbEntity
  8
Defpoints
 62
     0
100
AcDbPoint
 10
42.55151402540433
 20
86.74728041210983
 30
0.0
  0
ENDBLK
  5
34C4
330
34B9
100
AcDbEntity
  8
0
100
AcDbBlockEnd
  0
BLOCK
  5
34D0
330
34C6
100
AcDbEntity
  8
0
100
AcDbBlockBegin
  2
*D16
 70
     1
 10
0.0
 20
0.0
 30
0.0
  3
*D16
  1

  0
LINE
  5
359C
330
34C6
100
AcDbEntity
  8
寸法線
 62
     0
370
    -2
100
AcDbLine
 10
42.55151402540433
 20
73.79553794165414
 30
0.0
 11
42.55151402540433
 21
89.74728041210983
 31
0.0
  0
LINE
  5
359D
330
34C6
100
AcDbEntity
  8
寸法線
 62
     0
370
    -2
100
AcDbLine
 10
101.8515140254043
 20
73.79553794165414
 30
0.0
 11
101.8515140254043
 21
89.74728041210983
 31
0.0
  0
LINE
  5
359E
330
34C6
100
AcDbEntity
  8
寸法線
 62
     0
370
    -2
100
AcDbLine
 10
45.55151402540434
 20
86.74728041210983
 30
0.0
 11
98.85151402540433
 21
86.74728041210983
 31
0.0
  0
INSERT
  5
359F
330
34C6
100
AcDbEntity
  8
寸法線
 62
     0
370
    -2
100
AcDbBlockReference
  2
_Closed
 10
42.55151402540433
 20
86.74728041210983
 30
0.0
 41
3.0
 42
3.0
 43
3.0
 50
180.0
  0
INSERT
  5
35A0
330
34C6
100
AcDbEntity
  8
寸法線
 62
     0
370
    -2
100
AcDbBlockReference
  2
_Closed
 10
101.8515140254043
 20
86.74728041210983
 30
0.0
 41
3.0
 42
3.0
 43
3.0
  0
MTEXT
  5
35A1
330
34C6
100
AcDbEntity
  8
寸法線
 62
     0
100
AcDbMText
 10
72.20151402540434
 20
90.24728041210982
 30
0.0
 40
5.0
 41
0.0
 71
     5
 72
     1
  1
60
  7
OKANO
 73
     1
 44
1.0
  0
POINT
  5
35A2
330
34C6
100
AcDbEntity
  8
Defpoints
 62
     0
100
AcDbPoint
 10
42.55151402540433
 20
71.79553794165414
 30
0.0
  0
POINT
  5
35A3
330
34C6
100
AcDbEntity
  8
Defpoints
 62
     0
100
AcDbPoint
 10
101.8515140254043
 20
71.79553794165414
 30
0.0
  0
POINT
  5
35A4
330
34C6
100
AcDbEntity
  8
Defpoints
 62
     0
100
AcDbPoint
 10
101.8515140254043
 20
86.74728041210983
 30
0.0
  0
ENDBLK
  5
34D1
330
34C6
100
AcDbEntity
  8
0
100
AcDbBlockEnd
  0
BLOCK
  5
34DD
330
34D3
100
AcDbEntity
  8
0
100
AcDbBlockBegin
  2
*D17
 70
     1
 10
0.0
 20
0.0
 30
0.0
  3
*D17
  1

  0
LINE
  5
34D4
330
34D3
100
AcDbEntity
  8
寸法線
 62
     0
370
    -2
100
AcDbLine
 10
101.8515140254043
 20
73.79553794165414
 30
0.0
 11
101.8515140254043
 21
89.74728041210983
 31
0.0
  0
LINE
  5
34D5
330
34D3
100
AcDbEntity
  8
寸法線
 62
     0
370
    -2
100
AcDbLine
 10
136.8515140254042
 20
53.79553794165414
 30
0.0
 11
136.8515140254042
 21
89.74728041210983
 31
0.0
  0
LINE
  5
34D6
330
34D3
100
AcDbEntity
  8
寸法線
 62
     0
370
    -2
100
AcDbLine
 10
104.8515140254043
 20
86.74728041210983
 30
0.0
 11
133.8515140254042
 21
86.74728041210983
 31
0.0
  0
INSERT
  5
34D7
330
34D3
100
AcDbEntity
  8
寸法線
 62
     0
370
    -2
100
AcDbBlockReference
  2
_Closed
 10
101.8515140254043
 20
86.74728041210983
 30
0.0
 41
3.0
 42
3.0
 43
3.0
 50
180.0
  0
INSERT
  5
34D8
330
34D3
100
AcDbEntity
  8
寸法線
 62
     0
370
    -2
100
AcDbBlockReference
  2
_Closed
 10
136.8515140254042
 20
86.74728041210983
 30
0.0
 41
3.0
 42
3.0
 43
3.0
  0
MTEXT
  5
34D9
330
34D3
100
AcDbEntity
  8
寸法線
 62
     0
100
AcDbMText
 10
119.3515140254043
 20
90.24728041210982
 30
0.0
 40
5.0
 41
0.0
 71
     5
 72
     1
  1
35
  7
OKANO
 73
     1
 44
1.0
  0
POINT
  5
34DA
330
34D3
100
AcDbEntity
  8
Defpoints
 62
     0
100
AcDbPoint
 10
101.8515140254043
 20
71.79553794165414
 30
0.0
  0
POINT
  5
34DB
330
34D3
100
AcDbEntity
  8
Defpoints
 62
     0
100
AcDbPoint
 10
136.8515140254042
 20
51.79553794165414
 30
0.0
  0
POINT
  5
34DC
330
34D3
100
AcDbEntity
  8
Defpoints
 62
     0
100
AcDbPoint
 10
136.8515140254042
 20
86.74728041210983
 30
0.0
  0
ENDBLK
  5
34DE
330
34D3
100
AcDbEntity
  8
0
100
AcDbBlockEnd
  0
BLOCK
  5
34F3
330
34E9
100
AcDbEntity
  8
0
100
AcDbBlockBegin
  2
*D18
 70
     1
 10
0.0
 20
0.0
 30
0.0
  3
*D18
  1

  0
LINE
  5
34EA
330
34E9
100
AcDbEntity
  8
寸法線
 62
     0
370
    -2
100
AcDbLine
 10
209.7453422155109
 20
150.8211488256961
 30
0.0
 11
209.7453422155109
 21
94.87231658360428
 31
0.0
  0
LINE
  5
34EB
330
34E9
100
AcDbEntity
  8
寸法線
 62
     0
370
    -2
100
AcDbLine
 10
229.7453422155109
 20
115.8211488256961
 30
0.0
 11
229.7453422155109
 21
94.87231658360428
 31
0.0
  0
LINE
  5
34EC
330
34E9
100
AcDbEntity
  8
寸法線
 62
     0
370
    -2
100
AcDbLine
 10
212.7453422155109
 20
97.87231658360429
 30
0.0
 11
226.7453422155109
 21
97.87231658360429
 31
0.0
  0
INSERT
  5
34ED
330
34E9
100
AcDbEntity
  8
寸法線
 62
     0
370
    -2
100
AcDbBlockReference
  2
_Closed
 10
209.7453422155109
 20
97.87231658360429
 30
0.0
 41
3.0
 42
3.0
 43
3.0
 50
180.0
  0
INSERT
  5
34EE
330
34E9
100
AcDbEntity
  8
寸法線
 62
     0
370
    -2
100
AcDbBlockReference
  2
_Closed
 10
229.7453422155109
 20
97.87231658360429
 30
0.0
 41
3.0
 42
3.0
 43
3.0
  0
MTEXT
  5
34EF
330
34E9
100
AcDbEntity
  8
寸法線
 62
     0
100
AcDbMText
 10
219.7453422155109
 20
101.3728087095885
 30
0.0
 40
5.0
 41
0.0
 71
     5
 72
     1
  1
20
  7
OKANO
 73
     1
 44
1.0
  0
POINT
  5
34F0
330
34E9
100
AcDbEntity
  8
Defpoints
 62
     0
100
AcDbPoint
 10
209.7453422155109
 20
152.8211488256961
 30
0.0
  0
POINT
  5
34F1
330
34E9
100
AcDbEntity
  8
Defpoints
 62
     0
100
AcDbPoint
 10
229.7453422155109
 20
117.8211488256961
 30
0.0
  0
POINT
  5
34F2
330
34E9
100
AcDbEntity
  8
Defpoints
 62
     0
100
AcDbPoint
 10
229.7453422155109
 20
97.87231658360429
 30
0.0
  0
ENDBLK
  5
34F4
330
34E9
100
AcDbEntity
  8
0
100
AcDbBlockEnd
  0
BLOCK
  5
3500
330
34F6
100
AcDbEntity
  8
0
100
AcDbBlockBegin
  2
*D19
 70
     1
 10
0.0
 20
0.0
 30
0.0
  3
*D19
  1

  0
LINE
  5
35AE
330
34F6
100
AcDbEntity
  8
寸法線
 62
     0
370
    -2
100
AcDbLine
 10
229.7453422155109
 20
115.8211488256961
 30
0.0
 11
229.7453422155109
 21
94.87231658360428
 31
0.0
  0
LINE
  5
35AF
330
34F6
100
AcDbEntity
  8
寸法線
 62
     0
370
    -2
100
AcDbLine
 10
289.0453422155109
 20
115.8211488256961
 30
0.0
 11
289.0453422155109
 21
94.87231658360428
 31
0.0
  0
LINE
  5
35B0
330
34F6
100
AcDbEntity
  8
寸法線
 62
     0
370
    -2
100
AcDbLine
 10
232.7453422155109
 20
97.87231658360429
 30
0.0
 11
286.0453422155109
 21
97.87231658360429
 31
0.0
  0
INSERT
  5
35B1
330
34F6
100
AcDbEntity
  8
寸法線
 62
     0
370
    -2
100
AcDbBlockReference
  2
_Closed
 10
229.7453422155109
 20
97.87231658360429
 30
0.0
 41
3.0
 42
3.0
 43
3.0
 50
180.0
  0
INSERT
  5
35B2
330
34F6
100
AcDbEntity
  8
寸法線
 62
     0
370
    -2
100
AcDbBlockReference
  2
_Closed
 10
289.0453422155109
 20
97.87231658360429
 30
0.0
 41
3.0
 42
3.0
 43
3.0
  0
MTEXT
  5
35B3
330
34F6
100
AcDbEntity
  8
寸法線
 62
     0
100
AcDbMText
 10
259.3953422155109
 20
101.3723165836042
 30
0.0
 40
5.0
 41
0.0
 71
     5
 72
     1
  1
60
  7
OKANO
 73
     1
 44
1.0
  0
POINT
  5
35B4
330
34F6
100
AcDbEntity
  8
Defpoints
 62
     0
100
AcDbPoint
 10
229.7453422155109
 20
117.8211488256961
 30
0.0
  0
POINT
  5
35B5
330
34F6
100
AcDbEntity
  8
Defpoints
 62
     0
100
AcDbPoint
 10
289.0453422155109
 20
117.8211488256961
 30
0.0
  0
POINT
  5
35B6
330
34F6
100
AcDbEntity
  8
Defpoints
 62
     0
100
AcDbPoint
 10
289.0453422155109
 20
97.87231658360429
 30
0.0
  0
ENDBLK
  5
3501
330
34F6
100
AcDbEntity
  8
0
100
AcDbBlockEnd
  0
BLOCK
  5
350D
330
3503
100
AcDbEntity
  8
0
100
AcDbBlockBegin
  2
*D20
 70
     1
 10
0.0
 20
0.0
 30
0.0
  3
*D20
  1

  0
LINE
  5
3504
330
3503
100
AcDbEntity
  8
寸法線
 62
     0
370
    -2
100
AcDbLine
 10
289.0453422155109
 20
115.8211488256961
 30
0.0
 11
289.0453422155109
 21
94.87231658360428
 31
0.0
  0
LINE
  5
3505
330
3503
100
AcDbEntity
  8
寸法線
 62
     0
370
    -2
100
AcDbLine
 10
309.0453422155109
 20
150.8211488256961
 30
0.0
 11
309.0453422155109
 21
94.87231658360428
 31
0.0
  0
LINE
  5
3506
330
3503
100
AcDbEntity
  8
寸法線
 62
     0
370
    -2
100
AcDbLine
 10
292.0453422155109
 20
97.87231658360429
 30
0.0
 11
306.0453422155109
 21
97.87231658360429
 31
0.0
  0
INSERT
  5
3507
330
3503
100
AcDbEntity
  8
寸法線
 62
     0
370
    -2
100
AcDbBlockReference
  2
_Closed
 10
289.0453422155109
 20
97.87231658360429
 30
0.0
 41
3.0
 42
3.0
 43
3.0
 50
180.0
  0
INSERT
  5
3508
330
3503
100
AcDbEntity
  8
寸法線
 62
     0
370
    -2
100
AcDbBlockReference
  2
_Closed
 10
309.0453422155109
 20
97.87231658360429
 30
0.0
 41
3.0
 42
3.0
 43
3.0
  0
MTEXT
  5
3509
330
3503
100
AcDbEntity
  8
寸法線
 62
     0
100
AcDbMText
 10
299.0453422155109
 20
101.3728087095885
 30
0.0
 40
5.0
 41
0.0
 71
     5
 72
     1
  1
20
  7
OKANO
 73
     1
 44
1.0
  0
POINT
  5
350A
330
3503
100
AcDbEntity
  8
Defpoints
 62
     0
100
AcDbPoint
 10
289.0453422155109
 20
117.8211488256961
 30
0.0
  0
POINT
  5
350B
330
3503
100
AcDbEntity
  8
Defpoints
 62
     0
100
AcDbPoint
 10
309.0453422155109
 20
152.8211488256961
 30
0.0
  0
POINT
  5
350C
330
3503
100
AcDbEntity
  8
Defpoints
 62
     0
100
AcDbPoint
 10
309.0453422155109
 20
97.87231658360429
 30
0.0
  0
ENDBLK
  5
350E
330
3503
100
AcDbEntity
  8
0
100
AcDbBlockEnd
  0
BLOCK
  5
3541
330
3537
100
AcDbEntity
  8
0
100
AcDbBlockBegin
  2
*D21
 70
     1
 10
0.0
 20
0.0
 30
0.0
  3
*D21
  1

  0
LINE
  5
3538
330
3537
100
AcDbEntity
  8
寸法線
 62
     0
370
    -2
100
AcDbLine
 10
289.0453422155109
 20
115.8211488256961
 30
0.0
 11
326.8490624280683
 21
115.8211488256961
 31
0.0
  0
LINE
  5
3539
330
3537
100
AcDbEntity
  8
寸法線
 62
     0
370
    -2
100
AcDbLine
 10
309.0453422155108
 20
150.8211488256961
 30
0.0
 11
326.8490624280684
 21
150.8211488256961
 31
0.0
  0
LINE
  5
353A
330
3537
100
AcDbEntity
  8
寸法線
 62
     0
370
    -2
100
AcDbLine
 10
323.8490624280684
 20
118.8211488256961
 30
0.0
 11
323.8490624280684
 21
147.8211488256961
 31
0.0
  0
INSERT
  5
353B
330
3537
100
AcDbEntity
  8
寸法線
 62
     0
370
    -2
100
AcDbBlockReference
  2
_Closed
 10
323.8490624280684
 20
115.8211488256961
 30
0.0
 41
3.0
 42
3.0
 43
3.0
 50
270.0
  0
INSERT
  5
353C
330
3537
100
AcDbEntity
  8
寸法線
 62
     0
370
    -2
100
AcDbBlockReference
  2
_Closed
 10
323.8490624280684
 20
150.8211488256961
 30
0.0
 41
3.0
 42
3.0
 43
3.0
 50
90.0
  0
MTEXT
  5
353D
330
3537
100
AcDbEntity
  8
寸法線
 62
     0
100
AcDbMText
 10
320.3490624280683
 20
133.3211488256961
 30
0.0
 40
5.0
 41
0.0
 71
     5
 72
     1
  1
35
  7
OKANO
 11
0.0000000000000001
 21
1.0
 31
0.0
 73
     1
 44
1.0
  0
POINT
  5
353E
330
3537
100
AcDbEntity
  8
Defpoints
 62
     0
100
AcDbPoint
 10
287.0453422155108
 20
115.8211488256961
 30
0.0
  0
POINT
  5
353F
330
3537
100
AcDbEntity
  8
Defpoints
 62
     0
100
AcDbPoint
 10
307.0453422155108
 20
150.8211488256961
 30
0.0
  0
POINT
  5
3540
330
3537
100
AcDbEntity
  8
Defpoints
 62
     0
100
AcDbPoint
 10
323.8490624280684
 20
150.8211488256961
 30
0.0
  0
ENDBLK
  5
3542
330
3537
100
AcDbEntity
  8
0
100
AcDbBlockEnd
  0
BLOCK
  5
354E
330
3544
100
AcDbEntity
  8
0
100
AcDbBlockBegin
  2
*D22
 70
     1
 10
0.0
 20
0.0
 30
0.0
  3
*D22
  1

  0
LINE
  5
35A5
330
3544
100
AcDbEntity
  8
寸法線
 62
     0
370
    -2
100
AcDbLine
 10
309.0453422155108
 20
150.8211488256961
 30
0.0
 11
326.8490624280684
 21
150.8211488256961
 31
0.0
  0
LINE
  5
35A6
330
3544
100
AcDbEntity
  8
寸法線
 62
     0
370
    -2
100
AcDbLine
 10
309.0453422155108
 20
210.1211488256962
 30
0.0
 11
326.8490624280684
 21
210.1211488256961
 31
0.0
  0
LINE
  5
35A7
330
3544
100
AcDbEntity
  8
寸法線
 62
     0
370
    -2
100
AcDbLine
 10
323.8490624280684
 20
153.8211488256961
 30
0.0
 11
323.8490624280684
 21
207.1211488256961
 31
0.0
  0
INSERT
  5
35A8
330
3544
100
AcDbEntity
  8
寸法線
 62
     0
370
    -2
100
AcDbBlockReference
  2
_Closed
 10
323.8490624280684
 20
150.8211488256961
 30
0.0
 41
3.0
 42
3.0
 43
3.0
 50
270.0
  0
INSERT
  5
35A9
330
3544
100
AcDbEntity
  8
寸法線
 62
     0
370
    -2
100
AcDbBlockReference
  2
_Closed
 10
323.8490624280684
 20
210.1211488256961
 30
0.0
 41
3.0
 42
3.0
 43
3.0
 50
90.0
  0
MTEXT
  5
35AA
330
3544
100
AcDbEntity
  8
寸法線
 62
     0
100
AcDbMText
 10
320.3490624280683
 20
180.4711488256961
 30
0.0
 40
5.0
 41
0.0
 71
     5
 72
     1
  1
60
  7
OKANO
 11
0.0000000000000001
 21
1.0
 31
0.0
 73
     1
 44
1.0
  0
POINT
  5
35AB
330
3544
100
AcDbEntity
  8
Defpoints
 62
     0
100
AcDbPoint
 10
307.0453422155108
 20
150.8211488256961
 30
0.0
  0
POINT
  5
35AC
330
3544
100
AcDbEntity
  8
Defpoints
 62
     0
100
AcDbPoint
 10
307.0453422155108
 20
210.1211488256962
 30
0.0
  0
POINT
  5
35AD
330
3544
100
AcDbEntity
  8
Defpoints
 62
     0
100
AcDbPoint
 10
323.8490624280684
 20
210.1211488256961
 30
0.0
  0
ENDBLK
  5
354F
330
3544
100
AcDbEntity
  8
0
100
AcDbBlockEnd
  0
BLOCK
  5
355B
330
3551
100
AcDbEntity
  8
0
100
AcDbBlockBegin
  2
*D23
 70
     1
 10
0.0
 20
0.0
 30
0.0
  3
*D23
  1

  0
LINE
  5
3552
330
3551
100
AcDbEntity
  8
寸法線
 62
     0
370
    -2
100
AcDbLine
 10
309.0453422155108
 20
210.1211488256962
 30
0.0
 11
326.8490624280684
 21
210.1211488256961
 31
0.0
  0
LINE
  5
3553
330
3551
100
AcDbEntity
  8
寸法線
 62
     0
370
    -2
100
AcDbLine
 10
289.0453422155109
 20
245.1211488256961
 30
0.0
 11
326.8490624280684
 21
245.1211488256961
 31
0.0
  0
LINE
  5
3554
330
3551
100
AcDbEntity
  8
寸法線
 62
     0
370
    -2
100
AcDbLine
 10
323.8490624280684
 20
213.1211488256961
 30
0.0
 11
323.8490624280684
 21
242.1211488256961
 31
0.0
  0
INSERT
  5
3555
330
3551
100
AcDbEntity
  8
寸法線
 62
     0
370
    -2
100
AcDbBlockReference
  2
_Closed
 10
323.8490624280684
 20
210.1211488256961
 30
0.0
 41
3.0
 42
3.0
 43
3.0
 50
270.0
  0
INSERT
  5
3556
330
3551
100
AcDbEntity
  8
寸法線
 62
     0
370
    -2
100
AcDbBlockReference
  2
_Closed
 10
323.8490624280684
 20
245.1211488256961
 30
0.0
 41
3.0
 42
3.0
 43
3.0
 50
90.0
  0
MTEXT
  5
3557
330
3551
100
AcDbEntity
  8
寸法線
 62
     0
100
AcDbMText
 10
320.3490624280683
 20
227.6211488256962
 30
0.0
 40
5.0
 41
0.0
 71
     5
 72
     1
  1
35
  7
OKANO
 11
0.0000000000000001
 21
1.0
 31
0.0
 73
     1
 44
1.0
  0
POINT
  5
3558
330
3551
100
AcDbEntity
  8
Defpoints
 62
     0
100
AcDbPoint
 10
307.0453422155108
 20
210.1211488256962
 30
0.0
  0
POINT
  5
3559
330
3551
100
AcDbEntity
  8
Defpoints
 62
     0
100
AcDbPoint
 10
287.0453422155108
 20
245.1211488256961
 30
0.0
  0
POINT
  5
355A
330
3551
100
AcDbEntity
  8
Defpoints
 62
     0
100
AcDbPoint
 10
323.8490624280684
 20
245.1211488256961
 30
0.0
  0
ENDBLK
  5
355C
330
3551
100
AcDbEntity
  8
0
100
AcDbBlockEnd
  0
BLOCK
  5
3595
330
358F
100
AcDbEntity
  8
0
100
AcDbBlockBegin
  2
*D24
 70
     1
 10
0.0
 20
0.0
 30
0.0
  3
*D24
  1

  0
LINE
  5
35FF
330
358F
100
AcDbEntity
  8
寸法線
 62
     0
370
    -2
100
AcDbLine
 10
79.19524580463125
 20
176.1084696353162
 30
0.0
 11
53.83243806341146
 21
191.9297503242446
 31
0.0
  0
MTEXT
  5
3600
330
358F
100
AcDbEntity
  8
寸法線
 62
     0
100
AcDbMText
 10
69.63895598427121
 20
186.1948080684248
 30
0.0
 40
5.0
 41
0.0
 71
     5
 72
     1
  1
49.3～50
  7
OKANO
 11
0.8484561645262292
 21
-0.5292656581315667
 31
0.0
 73
     1
 44
1.0
  0
INSERT
  5
3601
330
358F
100
AcDbEntity
  8
寸法線
 62
     0
370
    -2
100
AcDbBlockReference
  2
_Closed
 10
51.28706956983277
 20
193.5175472986393
 30
0.0
 41
3.0
 42
3.0
 43
3.0
 50
148.0441482760791
  0
POINT
  5
3602
330
358F
100
AcDbEntity
  8
Defpoints
 62
     0
100
AcDbPoint
 10
51.28706956983277
 20
193.5175472986393
 30
0.0
  0
POINT
  5
3603
330
358F
100
AcDbEntity
  8
Defpoints
 62
     0
100
AcDbPoint
 10
93.11595848097587
 20
167.424750352753
 30
0.0
  0
ENDBLK
  5
3596
330
358F
100
AcDbEntity
  8
0
100
AcDbBlockEnd
  0
BLOCK
  5
35D4
330
35CA
100
AcDbEntity
  8
0
100
AcDbBlockBegin
  2
*D25
 70
     1
 10
0.0
 20
0.0
 30
0.0
  3
*D25
  1

  0
LINE
  5
35D6
330
35CA
100
AcDbEntity
  8
寸法線
 62
     0
370
    -2
100
AcDbLine
 10
117.6549156754308
 20
182.593006721785
 30
0.0
 11
117.6549156754308
 21
194.4159470190049
 31
0.0
  0
LINE
  5
35D7
330
35CA
100
AcDbEntity
  8
寸法線
 62
     0
370
    -2
100
AcDbLine
 10
131.9524556945934
 20
182.1600897405637
 30
0.0
 11
131.9524556945934
 21
194.4159470190049
 31
0.0
  0
LINE
  5
35D8
330
35CA
100
AcDbEntity
  8
寸法線
 62
     0
370
    -2
100
AcDbLine
 10
120.6549156754308
 20
191.4159470190049
 30
0.0
 11
128.9524556945934
 21
191.4159470190049
 31
0.0
  0
INSERT
  5
35D9
330
35CA
100
AcDbEntity
  8
寸法線
 62
     0
370
    -2
100
AcDbBlockReference
  2
_Closed
 10
117.6549156754308
 20
191.4159470190049
 30
0.0
 41
3.0
 42
3.0
 43
3.0
 50
180.0
  0
INSERT
  5
35DA
330
35CA
100
AcDbEntity
  8
寸法線
 62
     0
370
    -2
100
AcDbBlockReference
  2
_Closed
 10
131.9524556945934
 20
191.4159470190049
 30
0.0
 41
3.0
 42
3.0
 43
3.0
  0
MTEXT
  5
35DB
330
35CA
100
AcDbEntity
  8
寸法線
 62
     0
100
AcDbMText
 10
124.8036856850121
 20
194.9164391449892
 30
0.0
 40
5.0
 41
0.0
 71
     5
 72
     1
  1
20
  7
OKANO
 73
     1
 44
1.0
  0
POINT
  5
35DC
330
35CA
100
AcDbEntity
  8
Defpoints
 62
     0
100
AcDbPoint
 10
117.6549156754308
 20
180.593006721785
 30
0.0
  0
POINT
  5
35DD
330
35CA
100
AcDbEntity
  8
Defpoints
 62
     0
100
AcDbPoint
 10
131.9524556945934
 20
180.1600897405637
 30
0.0
  0
POINT
  5
35DE
330
35CA
100
AcDbEntity
  8
Defpoints
 62
     0
100
AcDbPoint
 10
131.9524556945934
 20
191.4159470190049
 30
0.0
  0
ENDBLK
  5
35D5
330
35CA
100
AcDbEntity
  8
0
100
AcDbBlockEnd
  0
BLOCK
  5
35EB
330
35E0
100
AcDbEntity
  8
0
100
AcDbBlockBegin
  2
*D26
 70
     1
 10
0.0
 20
0.0
 30
0.0
  3
*D26
  1

  0
LINE
  5
35ED
330
35E0
100
AcDbEntity
  8
寸法線
 62
     0
370
    -2
100
AcDbLine
 10
86.38281457863721
 20
201.0509030510884
 30
0.0
 11
74.36824831821471
 21
216.0809567337305
 31
0.0
  0
LINE
  5
35EE
330
35E0
100
AcDbEntity
  8
寸法線
 62
     0
370
    -2
100
AcDbLine
 10
93.77911916470319
 20
206.9632832333484
 30
0.0
 11
81.76455290428069
 21
221.9933369159905
 31
0.0
  0
LINE
  5
35EF
330
35E0
100
AcDbEntity
  8
寸法線
 62
     0
370
    -2
100
AcDbLine
 10
78.58475939389354
 20
215.6108138313297
 30
0.0
 11
81.29441000187989
 21
217.7768258403117
 31
0.0
  0
INSERT
  5
35F0
330
35E0
100
AcDbEntity
  8
寸法線
 62
     0
370
    -2
100
AcDbBlockReference
  2
_Closed
 10
76.24143240485373
 20
213.7376297446907
 30
0.0
 41
3.0
 42
3.0
 43
3.0
 50
218.6377734951379
  0
INSERT
  5
35F1
330
35E0
100
AcDbEntity
  8
寸法線
 62
     0
370
    -2
100
AcDbBlockReference
  2
_Closed
 10
83.6377369909197
 20
219.6500099269507
 30
0.0
 41
3.0
 42
3.0
 43
3.0
 50
38.63777349513799
  0
MTEXT
  5
35F2
330
35E0
100
AcDbEntity
  8
寸法線
 62
     0
100
AcDbMText
 10
77.75420326347452
 20
219.4277013230338
 30
0.0
 40
5.0
 41
0.0
 71
     5
 72
     1
  1
10
  7
OKANO
 11
0.7811089963466025
 21
0.6243946955463375
 31
0.0
 73
     1
 44
1.0
  0
POINT
  5
35F3
330
35E0
100
AcDbEntity
  8
Defpoints
 62
     0
100
AcDbPoint
 10
87.6316039697299
 20
199.4886850583952
 30
0.0
  0
POINT
  5
35F4
330
35E0
100
AcDbEntity
  8
Defpoints
 62
     0
100
AcDbPoint
 10
95.02790855579588
 20
205.4010652406552
 30
0.0
  0
POINT
  5
35F5
330
35E0
100
AcDbEntity
  8
Defpoints
 62
     0
100
AcDbPoint
 10
83.6377369909197
 20
219.6500099269507
 30
0.0
  0
ENDBLK
  5
35EC
330
35E0
100
AcDbEntity
  8
0
100
AcDbBlockEnd
  0
ENDSEC
  0
SECTION
  2
ENTITIES
  0
XLINE
  5
22CA
330
1F
100
AcDbEntity
  8
構築線
370
     5
100
AcDbXline
 10
72.20151402540432
 20
178.0193172078315
 30
0.0
 11
0.0
 21
-1.0
 31
0.0
  0
TEXT
  5
29C1
330
1F
100
AcDbEntity
  8
文字
100
AcDbText
 10
301.6037536382786
 20
-15.52586327329334
 30
0.0
 40
3.599999999999999
  1
SET SCREW COUP
 51
15.0
  7
OKANO
100
AcDbText
  0
TEXT
  5
29C2
330
1F
100
AcDbEntity
  8
文字
100
AcDbText
 10
272.8156574707959
 20
-22.62412660937361
 30
0.0
 40
4.799999999999999
  1
joint kogyo T.okano
 51
15.0
  7
OKANO
100
AcDbText
  0
TEXT
  5
29C3
330
1F
100
AcDbEntity
  8
文字
100
AcDbText
 10
265.3273444589991
 20
-7.871755102085831
 30
0.0
 40
4.799999999999999
  1
F-999-20111128 Auto CAD
 51
15.0
  7
OKANO
100
AcDbText
  0
LINE
  5
29C4
330
1F
100
AcDbEntity
  8
太線
100
AcDbLine
 10
237.9051162773852
 20
-8.792562752516186
 30
0.0
 11
345.9051162773852
 21
-8.792562752516186
 31
0.0
  0
LWPOLYLINE
  5
29C5
330
1F
100
AcDbEntity
  8
太線
100
AcDbPolyline
 90
        4
 70
     1
 43
0.0
 10
237.9051162773851
 20
-0.3925627525161879
 10
345.9051162773852
 20
-0.3925627525161879
 10
345.9051162773852
 20
-25.59256275251618
 10
237.9051162773851
 20
-25.59256275251618
  0
TEXT
  5
29C6
330
1F
100
AcDbEntity
  8
文字
100
AcDbText
 10
241.7774998434427
 20
-16.98607455136686
 30
0.0
 40
2.399999999999999
  1
CHECK
 51
15.0
  7
OKANO
100
AcDbText
  0
LINE
  5
29C7
330
1F
100
AcDbEntity
  8
太線
100
AcDbLine
 10
261.9051162773852
 20
-0.3925627525161879
 30
0.0
 11
261.9051162773852
 21
-25.59256275251618
 31
0.0
  0
TEXT
  5
29C8
330
1F
100
AcDbEntity
  8
文字
100
AcDbText
 10
241.7774998434427
 20
-23.90550215758269
 30
0.0
 40
2.399999999999999
  1
ISSUED
 51
15.0
  7
OKANO
100
AcDbText
  0
TEXT
  5
29C9
330
1F
100
AcDbEntity
  8
文字
100
AcDbText
 10
242.0340142763434
 20
-20.57392596831455
 30
0.0
 40
2.399999999999999
  1
APPR
 51
15.0
  7
OKANO
100
AcDbText
  0
TEXT
  5
29CA
330
1F
100
AcDbEntity
  8
文字
100
AcDbText
 10
239.981904291757
 20
-6.991346573751027
 30
0.0
 40
2.399999999999999
  1
FILM NAME
 51
15.0
  7
OKANO
100
AcDbText
  0
TEXT
  5
29CB
330
1F
100
AcDbEntity
  8
文字
100
AcDbText
 10
241.264473169089
 20
-13.39822372460783
 30
0.0
 40
2.399999999999999
  1
DRAWN
 51
15.0
  7
OKANO
100
AcDbText
  0
TEXT
  5
29CC
330
1F
100
AcDbEntity
  8
文字
100
AcDbText
 10
267.481111475407
 20
-16.6139024470342
 30
0.0
 40
4.799999999999999
  1
Ｓ-2-5Z
 51
15.0
  7
OKANO
100
AcDbText
  0
TEXT
  5
2DA4
330
1F
100
AcDbEntity
  8
文字
100
AcDbText
 10
200.5544905775418
 20
62.05825069994467
 30
0.0
 40
4.799999999999999
  1
パイプ６方出１箇所貫通
 51
15.0
  7
OKANO
100
AcDbText
  0
XLINE
  5
2DB6
330
1F
100
AcDbEntity
  8
構築線
100
AcDbXline
 10
72.20151402540432
 20
180.4711488256961
 30
0.0
 11
1.0
 21
0.0
 31
0.0
  0
XLINE
  5
2DB7
330
1F
100
AcDbEntity
  8
構築線
370
     5
100
AcDbXline
 10
4921.501514025404
 20
178.0193172078315
 30
0.0
 11
0.0
 21
-1.0
 31
0.0
  0
XLINE
  5
2DB8
330
1F
100
AcDbEntity
  8
構築線
370
     5
100
AcDbXline
 10
-4777.098485974596
 20
178.0193172078315
 30
0.0
 11
0.0
 21
-1.0
 31
0.0
  0
XLINE
  5
2DD5
330
1F
100
AcDbEntity
  8
構築線
370
     5
100
AcDbXline
 10
96.85151402540434
 20
178.0193172078315
 30
0.0
 11
0.0
 21
-1.0
 31
0.0
  0
XLINE
  5
2DD6
330
1F
100
AcDbEntity
  8
構築線
370
     5
100
AcDbXline
 10
47.55151402540432
 20
178.0193172078315
 30
0.0
 11
0.0
 21
-1.0
 31
0.0
  0
CIRCLE
  5
2DD9
330
1F
100
AcDbEntity
  8
太線
100
AcDbCircle
 10
72.20151402540432
 20
180.4711488256961
 30
0.0
 40
24.65
  0
XLINE
  5
2DDA
330
1F
100
AcDbEntity
  8
構築線
370
     5
100
AcDbXline
 10
101.8515140254043
 20
178.0193172078315
 30
0.0
 11
0.0
 21
-1.0
 31
0.0
  0
XLINE
  5
2DDB
330
1F
100
AcDbEntity
  8
構築線
370
     5
100
AcDbXline
 10
42.55151402540432
 20
178.0193172078315
 30
0.0
 11
0.0
 21
-1.0
 31
0.0
  0
CIRCLE
  5
2DDC
330
1F
100
AcDbEntity
  8
太線
100
AcDbCircle
 10
72.20151402540432
 20
180.4711488256961
 30
0.0
 40
29.65
  0
XLINE
  5
2DDD
330
1F
100
AcDbEntity
  8
構築線
370
     5
100
AcDbXline
 10
136.8515140254043
 20
178.0193172078315
 30
0.0
 11
0.0
 21
-1.0
 31
0.0
  0
XLINE
  5
2DDE
330
1F
100
AcDbEntity
  8
構築線
100
AcDbXline
 10
72.20151402540432
 20
155.8211488256961
 30
0.0
 11
1.0
 21
0.0
 31
0.0
  0
XLINE
  5
2DDF
330
1F
100
AcDbEntity
  8
構築線
100
AcDbXline
 10
72.20151402540432
 20
150.8211488256961
 30
0.0
 11
1.0
 21
0.0
 31
0.0
  0
XLINE
  5
2DE0
330
1F
100
AcDbEntity
  8
構築線
100
AcDbXline
 10
72.20151402540432
 20
210.1211488256961
 30
0.0
 11
1.0
 21
0.0
 31
0.0
  0
XLINE
  5
2DE2
330
1F
100
AcDbEntity
  8
構築線
100
AcDbXline
 10
72.20151402540432
 20
115.8211488256961
 30
0.0
 11
1.0
 21
0.0
 31
0.0
  0
LINE
  5
2DE3
330
1F
100
AcDbEntity
  8
構築線
100
AcDbLine
 10
42.55151402540432
 20
180.4711488256961
 30
0.0
 11
42.55151402540433
 21
115.8211488256961
 31
0.0
  0
LINE
  5
2DE4
330
1F
100
AcDbEntity
  8
構築線
100
AcDbLine
 10
42.55151402540433
 20
115.8211488256961
 30
0.0
 11
101.8515140254043
 21
115.8211488256961
 31
0.0
  0
LINE
  5
2DE5
330
1F
100
AcDbEntity
  8
構築線
100
AcDbLine
 10
101.8515140254043
 20
115.8211488256961
 30
0.0
 11
101.8515140254043
 21
150.8211488256961
 31
0.0
  0
LINE
  5
2DE6
330
1F
100
AcDbEntity
  8
構築線
100
AcDbLine
 10
101.8515140254043
 20
150.8211488256961
 30
0.0
 11
136.8515140254043
 21
150.8211488256961
 31
0.0
  0
LINE
  5
2DE7
330
1F
100
AcDbEntity
  8
構築線
100
AcDbLine
 10
136.8515140254043
 20
150.8211488256961
 30
0.0
 11
136.8515140254043
 21
210.1211488256961
 31
0.0
  0
LINE
  5
2DE8
330
1F
100
AcDbEntity
  8
構築線
100
AcDbLine
 10
136.8515140254043
 20
210.1211488256961
 30
0.0
 11
72.20151402540432
 21
210.1211488256961
 31
0.0
  0
LINE
  5
2DE9
330
1F
100
AcDbEntity
  8
太線
100
AcDbLine
 10
103.8515140254043
 20
210.1211488256961
 30
0.0
 11
134.8515140254043
 21
210.1211488256961
 31
0.0
  0
LINE
  5
2DEA
330
1F
100
AcDbEntity
  8
太線
100
AcDbLine
 10
136.8515140254043
 20
208.1211488256961
 30
0.0
 11
136.8515140254042
 21
152.8211488256961
 31
0.0
  0
LINE
  5
2DEB
330
1F
100
AcDbEntity
  8
太線
100
AcDbLine
 10
134.8515140254042
 20
150.8211488256961
 30
0.0
 11
103.8515140254043
 21
150.8211488256961
 31
0.0
  0
LINE
  5
2DED
330
1F
100
AcDbEntity
  8
太線
100
AcDbLine
 10
99.85151402540433
 20
115.8211488256961
 30
0.0
 11
44.55151402540433
 21
115.8211488256961
 31
0.0
  0
LINE
  5
2DEE
330
1F
100
AcDbEntity
  8
太線
100
AcDbLine
 10
42.55151402540433
 20
117.8211488256961
 30
0.0
 11
42.55151402540432
 21
148.8211488256961
 31
0.0
  0
XLINE
  5
2DEF
330
1F
100
AcDbEntity
  8
構築線
100
AcDbXline
 10
72.20151402540432
 20
205.1211488256961
 30
0.0
 11
1.0
 21
0.0
 31
0.0
  0
RAY
  5
2DF3
330
1F
100
AcDbEntity
  8
構築線
370
     5
100
AcDbRay
 10
94.85151402540433
 20
163.4780030751885
 30
0.0
 11
0.0
 21
-1.0
 31
0.0
  0
XLINE
  5
2DF4
330
1F
100
AcDbEntity
  8
構築線
370
     5
100
AcDbXline
 10
49.55151402540432
 20
178.0193172078315
 30
0.0
 11
0.0
 21
-1.0
 31
0.0
  0
XLINE
  5
2DFA
330
1F
100
AcDbEntity
  8
構築線
370
     5
100
AcDbXline
 10
99.85151402540433
 20
178.0193172078315
 30
0.0
 11
0.0
 21
-1.0
 31
0.0
  0
LINE
  5
2DFB
330
1F
100
AcDbEntity
  8
破線
100
AcDbLine
 10
136.8515140254043
 20
205.1211488256961
 30
0.0
 11
101.8515140254043
 21
205.1211488256961
 31
0.0
  0
LINE
  5
2DFC
330
1F
100
AcDbEntity
  8
破線
100
AcDbLine
 10
101.8515140254043
 20
205.1211488256961
 30
0.0
 11
101.8515140254043
 21
203.1211488256961
 31
0.0
  0
LINE
  5
2DFD
330
1F
100
AcDbEntity
  8
破線
100
AcDbLine
 10
101.8515140254043
 20
203.1211488256961
 30
0.0
 11
99.85151402540433
 21
203.1211488256961
 31
0.0
  0
LINE
  5
2E00
330
1F
100
AcDbEntity
  8
破線
100
AcDbLine
 10
136.8515140254043
 20
155.8211488256961
 30
0.0
 11
101.8515140254043
 21
155.8211488256961
 31
0.0
  0
LINE
  5
2E05
330
1F
100
AcDbEntity
  8
破線
100
AcDbLine
 10
101.8515140254043
 20
203.1211488256961
 30
0.0
 11
101.8515140254043
 21
157.8211488256961
 31
0.0
  0
XLINE
  5
2E08
330
1F
100
AcDbEntity
  8
構築線
100
AcDbXline
 10
72.20151402540432
 20
152.8211488256961
 30
0.0
 11
1.0
 21
0.0
 31
0.0
  0
LINE
  5
2E09
330
1F
100
AcDbEntity
  8
破線
100
AcDbLine
 10
96.85151402540434
 20
115.8211488256961
 30
0.0
 11
96.85151402540434
 21
150.8211488256961
 31
0.0
  0
LINE
  5
2E0A
330
1F
100
AcDbEntity
  8
破線
100
AcDbLine
 10
96.85151402540434
 20
150.8211488256961
 30
0.0
 11
94.85151402540433
 21
150.8211488256961
 31
0.0
  0
LINE
  5
2E0B
330
1F
100
AcDbEntity
  8
破線
100
AcDbLine
 10
94.85151402540433
 20
150.8211488256961
 30
0.0
 11
94.85151402540433
 21
152.8211488256961
 31
0.0
  0
LINE
  5
2E0E
330
1F
100
AcDbEntity
  8
破線
100
AcDbLine
 10
47.55151402540432
 20
115.8211488256961
 30
0.0
 11
47.55151402540432
 21
150.8211488256961
 31
0.0
  0
LINE
  5
2E0F
330
1F
100
AcDbEntity
  8
破線
100
AcDbLine
 10
47.55151402540432
 20
150.8211488256961
 30
0.0
 11
49.55151402540432
 21
150.8211488256961
 31
0.0
  0
LINE
  5
2E10
330
1F
100
AcDbEntity
  8
破線
100
AcDbLine
 10
49.55151402540432
 20
150.8211488256961
 30
0.0
 11
49.55151402540432
 21
152.8211488256961
 31
0.0
  0
LINE
  5
2E13
330
1F
100
AcDbEntity
  8
破線
100
AcDbLine
 10
49.55151402540432
 20
150.8211488256961
 30
0.0
 11
94.85151402540433
 21
150.8211488256961
 31
0.0
  0
XLINE
  5
2E15
330
1F
100
AcDbEntity
  8
構築線
100
AcDbXline
 10
42.55151402540432
 20
210.1211488256961
 30
0.0
 11
0.7071067811865476
 21
-0.7071067811865476
 31
0.0
  0
XLINE
  5
2E16
330
1F
100
AcDbEntity
  8
構築線
100
AcDbXline
 10
72.20151402540432
 20
215.1211488256961
 30
0.0
 11
1.0
 21
0.0
 31
0.0
  0
ARC
  5
2E17
330
1F
100
AcDbEntity
  8
太線
100
AcDbCircle
 10
72.20151402540435
 20
180.4711488256961
 30
0.0
 40
34.65
100
AcDbArc
 50
32.49937777075479
 51
57.50062222924535
  0
XLINE
  5
2E18
330
1F
100
AcDbEntity
  8
構築線
100
AcDbXline
 10
49.6225818372698
 20
217.1922166375616
 30
0.0
 11
0.7071067811865476
 21
-0.7071067811865476
 31
0.0
  0
XLINE
  5
2E19
330
1F
100
AcDbEntity
  8
構築線
100
AcDbXline
 10
35.48044621353884
 20
203.0500810138307
 30
0.0
 11
0.7071067811865476
 21
-0.7071067811865476
 31
0.0
  0
XLINE
  5
2E1A
330
1F
100
AcDbEntity
  8
構築線
100
AcDbXline
 10
46.08704793133706
 20
213.6566827316288
 30
0.0
 11
0.7071067811865476
 21
-0.7071067811865476
 31
0.0
  0
XLINE
  5
2E1B
330
1F
100
AcDbEntity
  8
構築線
100
AcDbXline
 10
46.08704793133706
 20
213.6566827316288
 30
0.0
 11
0.7071067811865476
 21
-0.7071067811865476
 31
0.0
  0
XLINE
  5
2E1C
330
1F
100
AcDbEntity
  8
構築線
100
AcDbXline
 10
39.01598011947158
 20
206.5856149197634
 30
0.0
 11
0.7071067811865476
 21
-0.7071067811865476
 31
0.0
  0
XLINE
  5
2E1D
330
1F
100
AcDbEntity
  8
構築線
100
AcDbXline
 10
47.85481488430343
 20
215.4244496845953
 30
0.0
 11
0.7071067811865476
 21
-0.7071067811865476
 31
0.0
  0
XLINE
  5
2E1E
330
1F
100
AcDbEntity
  8
構築線
100
AcDbXline
 10
37.24821316650521
 20
204.817847966797
 30
0.0
 11
0.7071067811865476
 21
-0.7071067811865476
 31
0.0
  0
LINE
  5
2E1F
330
1F
100
AcDbEntity
  8
太線
100
AcDbLine
 10
99.00988788444861
 20
193.1373870610095
 30
0.0
 11
101.4252298054539
 21
199.0882628879476
 31
0.0
  0
LINE
  5
2E20
330
1F
100
AcDbEntity
  8
太線
100
AcDbLine
 10
84.86775226071761
 20
207.2795226847404
 30
0.0
 11
90.81862808765576
 21
209.6948646057458
 31
0.0
  0
LINE
  5
2E21
330
1F
100
AcDbEntity
  8
細線
100
AcDbLine
 10
92.9107991536488
 20
208.2515017658061
 30
0.0
 11
85.73382268963843
 21
201.0745253017958
 31
0.0
  0
LINE
  5
2E22
330
1F
100
AcDbEntity
  8
細線
100
AcDbLine
 10
99.98186696551426
 20
201.1804339539406
 30
0.0
 11
92.80489050150391
 21
194.0034574899303
 31
0.0
  0
XLINE
  5
2E24
330
1F
100
AcDbEntity
  8
構築線
100
AcDbXline
 10
45.37994115015052
 20
212.9495759504423
 30
0.0
 11
0.7071067811865476
 21
-0.7071067811865476
 31
0.0
  0
XLINE
  5
2E25
330
1F
100
AcDbEntity
  8
構築線
100
AcDbXline
 10
39.72308690065813
 20
207.2927217009499
 30
0.0
 11
0.7071067811865476
 21
-0.7071067811865476
 31
0.0
  0
LINE
  5
2E26
330
1F
100
AcDbEntity
  8
細線
100
AcDbLine
 10
99.36738657895427
 20
201.9801671297537
 30
0.0
 11
92.22910537403066
 21
194.8418859248302
 31
0.0
  0
LINE
  5
2E27
330
1F
100
AcDbEntity
  8
細線
100
AcDbLine
 10
93.7105323294619
 20
207.637021379246
 30
0.0
 11
86.57225112453827
 21
200.4987401743226
 31
0.0
  0
XLINE
  5
2E28
330
1F
100
AcDbEntity
  8
構築線
100
AcDbXline
 10
72.20151402540432
 20
180.4711488256961
 30
0.0
 11
0.7071067811865476
 21
0.7071067811865476
 31
0.0
  0
XLINE
  5
2E29
330
1F
100
AcDbEntity
  8
構築線
100
AcDbXline
 10
43.91724277794241
 20
208.755420073158
 30
0.0
 11
0.7071067811865476
 21
0.7071067811865476
 31
0.0
  0
XLINE
  5
2E2A
330
1F
100
AcDbEntity
  8
構築線
100
AcDbXline
 10
29.77510715421146
 20
222.897555696889
 30
0.0
 11
0.7071067811865476
 21
0.7071067811865476
 31
0.0
  0
XLINE
  5
2E3C
330
1F
100
AcDbEntity
  8
構築線
370
     5
100
AcDbXline
 10
124.8515140254043
 20
178.0193172078315
 30
0.0
 11
0.0
 21
-1.0
 31
0.0
  0
XLINE
  5
2E3D
330
1F
100
AcDbEntity
  8
構築線
100
AcDbXline
 10
72.20151402540432
 20
127.8211488256961
 30
0.0
 11
1.0
 21
0.0
 31
0.0
  0
CIRCLE
  5
2E3E
330
1F
100
AcDbEntity
  8
太線
100
AcDbCircle
 10
124.8515140254043
 20
180.4711488256961
 30
0.0
 40
10.0
  0
CIRCLE
  5
2E3F
330
1F
100
AcDbEntity
  8
太線
100
AcDbCircle
 10
124.8515140254043
 20
180.4711488256961
 30
0.0
 40
3.999999999999994
  0
CIRCLE
  5
2E40
330
1F
100
AcDbEntity
  8
太線
100
AcDbCircle
 10
124.8515140254043
 20
180.4711488256961
 30
0.0
 40
4.999999999999998
  0
CIRCLE
  5
2E41
330
1F
100
AcDbEntity
  8
太線
100
AcDbCircle
 10
124.8515140254043
 20
180.4711488256961
 30
0.0
 40
7.500000000000017
  0
CIRCLE
  5
2E42
330
1F
100
AcDbEntity
  8
太線
100
AcDbCircle
 10
72.20151402540432
 20
127.8211488256961
 30
0.0
 40
7.500000000000017
  0
CIRCLE
  5
2E43
330
1F
100
AcDbEntity
  8
太線
100
AcDbCircle
 10
72.20151402540432
 20
127.8211488256961
 30
0.0
 40
4.999999999999998
  0
CIRCLE
  5
2E44
330
1F
100
AcDbEntity
  8
太線
100
AcDbCircle
 10
72.20151402540432
 20
127.8211488256961
 30
0.0
 40
3.999999999999994
  0
CIRCLE
  5
2E45
330
1F
100
AcDbEntity
  8
太線
100
AcDbCircle
 10
72.20151402540432
 20
127.8211488256961
 30
0.0
 40
10.0
  0
LINE
  5
2E66
330
1F
100
AcDbEntity
  8
構築線
100
AcDbLine
 10
-61.02733833945226
 20
210.1211488256961
 30
0.0
 11
-125.6773383394522
 21
210.1211488256961
 31
0.0
  0
XLINE
  5
2E8E
330
1F
100
AcDbEntity
  8
構築線
100
AcDbXline
 10
-125.6773383394522
 20
180.4711488256961
 30
0.0
 11
0.0
 21
-1.0
 31
0.0
  0
CIRCLE
  5
2EAB
330
1F
100
AcDbEntity
  8
太線
100
AcDbCircle
 10
72.20151402540432
 20
-214.7620704196852
 30
0.0
 40
24.65
  0
CIRCLE
  5
2EAE
330
1F
100
AcDbEntity
  8
太線
100
AcDbCircle
 10
72.20151402540432
 20
-214.7620704196852
 30
0.0
 40
29.65
  0
XLINE
  5
2EAF
330
1F
100
AcDbEntity
  8
構築線
100
AcDbXline
 10
230.5833684936667
 20
191.7785719718527
 30
0.0
 11
1.0
 21
0.0
 31
0.0
  0
ELLIPSE
  5
2EB1
330
1F
100
AcDbEntity
  8
太線
100
AcDbEllipse
 10
55.99748978106697
 20
-214.268701556133
 30
0.0
 11
6.297664918256828
 21
0.0
 31
0.0
210
0.0
220
0.0
230
1.0
 40
0.8062129979295185
 41
-1.570796326794896
 42
4.712388980384689
  0
ELLIPSE
  5
2EB2
330
1F
100
AcDbEntity
  8
太線
100
AcDbEllipse
 10
56.15766545233498
 20
-213.8423119210272
 30
0.0
 11
5.421777917755775
 21
0.0
 31
0.0
210
0.0
220
0.0
230
1.0
 40
0.7593413274163612
 41
-1.570796326794896
 42
4.712388980384689
  0
LINE
  5
2EB3
330
1F
100
AcDbEntity
  8
太線
100
AcDbLine
 10
42.55151402540432
 20
-214.7620704196852
 30
0.0
 11
42.55151402540432
 21
-187.1120704196852
 31
0.0
  0
LINE
  5
2EB4
330
1F
100
AcDbEntity
  8
太線
100
AcDbLine
 10
44.55151402540432
 20
-185.1120704196852
 30
0.0
 11
134.8515140254043
 21
-185.1120704196852
 31
0.0
  0
LINE
  5
2EB5
330
1F
100
AcDbEntity
  8
太線
100
AcDbLine
 10
136.8515140254043
 20
-187.1120704196852
 30
0.0
 11
136.8515140254043
 21
-242.4120704196852
 31
0.0
  0
LINE
  5
2EB6
330
1F
100
AcDbEntity
  8
太線
100
AcDbLine
 10
134.8515140254043
 20
-244.4120704196852
 30
0.0
 11
44.55151402540432
 21
-244.4120704196852
 31
0.0
  0
LINE
  5
2EB7
330
1F
100
AcDbEntity
  8
太線
100
AcDbLine
 10
42.55151402540432
 20
-242.4120704196852
 30
0.0
 11
42.55151402540431
 21
-214.7620704196852
 31
0.0
  0
ARC
  5
2EB8
330
1F
100
AcDbEntity
  8
太線
100
AcDbCircle
 10
72.20151402540429
 20
-214.7620704196852
 30
0.0
 40
34.65
100
AcDbArc
 50
76.13672947565451
 51
101.137973934145
  0
LINE
  5
2EB9
330
1F
100
AcDbEntity
  8
太線
100
AcDbLine
 10
62.86812031572131
 20
-186.6193935416757
 30
0.0
 11
65.50809397903273
 21
-180.7647083443296
 31
0.0
  0
LINE
  5
2EBA
330
1F
100
AcDbEntity
  8
細線
100
AcDbLine
 10
68.01829691104789
 20
-180.3655125312255
 30
0.0
 11
67.77693056095618
 21
-190.5124196765068
 31
0.0
  0
LINE
  5
2EBB
330
1F
100
AcDbEntity
  8
細線
100
AcDbLine
 10
69.02112920141189
 20
-180.2583365294043
 30
0.0
 11
68.78106419785493
 21
-190.3505357899816
 31
0.0
  0
LINE
  5
2EBC
330
1F
100
AcDbEntity
  8
細線
100
AcDbLine
 10
78.01546896041728
 20
-180.6033171049983
 30
0.0
 11
77.77410261032557
 21
-190.7502242502794
 31
0.0
  0
LINE
  5
2EBD
330
1F
100
AcDbEntity
  8
細線
100
AcDbLine
 10
77.01886684090741
 20
-180.4485801884224
 30
0.0
 11
76.77880183735044
 21
-190.5407794489997
 31
0.0
  0
LINE
  5
2EBE
330
1F
100
AcDbEntity
  8
太線
100
AcDbLine
 10
82.8624644144601
 20
-187.095002689221
 30
0.0
 11
80.50385205308684
 21
-181.1214152049886
 31
0.0
  0
ARC
  5
2EBF
330
1F
100
AcDbEntity
  8
太線
100
AcDbCircle
 10
124.8515140254043
 20
-214.7620704196852
 30
0.0
 40
34.65
100
AcDbArc
 50
76.13672947565451
 51
101.137973934145
  0
LINE
  5
2EC0
330
1F
100
AcDbEntity
  8
太線
100
AcDbLine
 10
116.1977970549521
 20
-185.1120704196851
 30
0.0
 11
118.1580939790327
 21
-180.7647083443296
 31
0.0
  0
LINE
  5
2EC1
330
1F
100
AcDbEntity
  8
細線
100
AcDbLine
 10
120.6682969110479
 20
-180.3655125312255
 30
0.0
 11
120.4269305609561
 21
-190.5124196765068
 31
0.0
  0
LINE
  5
2EC2
330
1F
100
AcDbEntity
  8
細線
100
AcDbLine
 10
121.6711292014118
 20
-180.2583365294043
 30
0.0
 11
121.4310641978549
 21
-190.3505357899816
 31
0.0
  0
LINE
  5
2EC3
330
1F
100
AcDbEntity
  8
細線
100
AcDbLine
 10
130.6654689604172
 20
-180.6033171049983
 30
0.0
 11
130.4241026103255
 21
-190.7502242502794
 31
0.0
  0
LINE
  5
2EC4
330
1F
100
AcDbEntity
  8
細線
100
AcDbLine
 10
129.6688668409074
 20
-180.4485801884224
 30
0.0
 11
129.4288018373504
 21
-190.5407794489997
 31
0.0
  0
LINE
  5
2EC5
330
1F
100
AcDbEntity
  8
太線
100
AcDbLine
 10
134.7295230789496
 20
-185.1120704196852
 30
0.0
 11
133.1538520530868
 21
-181.1214152049886
 31
0.0
  0
LINE
  5
2EC8
330
1F
100
AcDbEntity
  8
破線
100
AcDbLine
 10
136.8515140254043
 20
-190.1120704196852
 30
0.0
 11
101.8515140254043
 21
-190.1120704196852
 31
0.0
  0
LINE
  5
2EC9
330
1F
100
AcDbEntity
  8
破線
100
AcDbLine
 10
101.8515140254043
 20
-190.1120704196852
 30
0.0
 11
101.8515140254043
 21
-192.1120704196852
 31
0.0
  0
LINE
  5
2ECA
330
1F
100
AcDbEntity
  8
破線
100
AcDbLine
 10
101.8515140254043
 20
-192.1120704196852
 30
0.0
 11
99.85151402540433
 21
-192.1120704196852
 31
0.0
  0
LINE
  5
2ECD
330
1F
100
AcDbEntity
  8
破線
100
AcDbLine
 10
136.8515140254043
 20
-239.4120704196852
 30
0.0
 11
101.8515140254043
 21
-239.4120704196852
 31
0.0
  0
LINE
  5
2ECE
330
1F
100
AcDbEntity
  8
破線
100
AcDbLine
 10
101.8515140254043
 20
-239.4120704196852
 30
0.0
 11
101.8515140254043
 21
-237.4120704196852
 31
0.0
  0
LINE
  5
2ECF
330
1F
100
AcDbEntity
  8
破線
100
AcDbLine
 10
101.8515140254043
 20
-237.4120704196852
 30
0.0
 11
99.85151402540433
 21
-237.4120704196852
 31
0.0
  0
LINE
  5
2ED2
330
1F
100
AcDbEntity
  8
破線
100
AcDbLine
 10
101.8515140254043
 20
-192.1120704196852
 30
0.0
 11
101.8515140254043
 21
-237.4120704196852
 31
0.0
  0
XLINE
  5
2ED4
330
1F
100
AcDbEntity
  8
構築線
100
AcDbXline
 10
8.561903718615042
 20
244.1107591324854
 30
0.0
 11
0.7071067811865476
 21
0.7071067811865476
 31
0.0
  0
XLINE
  5
2ED5
330
1F
100
AcDbEntity
  8
構築線
100
AcDbXline
 10
-12.65129971698138
 20
265.3239625680818
 30
0.0
 11
0.7071067811865476
 21
0.7071067811865476
 31
0.0
  0
XLINE
  5
2ED6
330
1F
100
AcDbEntity
  8
構築線
100
AcDbXline
 10
36.84617496607694
 20
215.8264878850235
 30
0.0
 11
0.7071067811865476
 21
0.7071067811865476
 31
0.0
  0
XLINE
  5
2ED9
330
1F
100
AcDbEntity
  8
構築線
100
AcDbXline
 10
40.43019368184467
 20
207.9998284821365
 30
0.0
 11
0.7071067811865476
 21
-0.7071067811865476
 31
0.0
  0
XLINE
  5
2EDA
330
1F
100
AcDbEntity
  8
構築線
100
AcDbXline
 10
43.21013599675587
 20
209.4625268543446
 30
0.0
 11
0.7071067811865476
 21
0.7071067811865476
 31
0.0
  0
LINE
  5
2EDB
330
1F
100
AcDbEntity
  8
太線
100
AcDbLine
 10
174.6025523584793
 20
94.7006726169023
 30
0.0
 11
182.6025089466043
 21
94.6743175772551
 31
0.0
  0
LINE
  5
2EDC
330
1F
100
AcDbEntity
  8
太線
100
AcDbLine
 10
182.6025089466043
 20
94.6743175772551
 30
0.0
 11
183.6057979000759
 21
95.67101777081484
 31
0.0
  0
LINE
  5
2EDD
330
1F
100
AcDbEntity
  8
太線
100
AcDbLine
 10
183.6057979000759
 20
95.67101777081484
 30
0.0
 11
183.6354473196789
 21
104.6709689324555
 31
0.0
  0
LINE
  5
2EDE
330
1F
100
AcDbEntity
  8
太線
100
AcDbLine
 10
183.6354473196789
 20
104.6709689324555
 30
0.0
 11
173.6355015845226
 21
104.7039127320144
 31
0.0
  0
LINE
  5
2EDF
330
1F
100
AcDbEntity
  8
太線
100
AcDbLine
 10
173.6355015845226
 20
104.7039127320144
 30
0.0
 11
173.6058521649196
 21
95.70396157037379
 31
0.0
  0
LINE
  5
2EE0
330
1F
100
AcDbEntity
  8
太線
100
AcDbLine
 10
173.6058521649196
 20
95.70396157037379
 30
0.0
 11
174.6025523584793
 21
94.7006726169023
 31
0.0
  0
LINE
  5
2EE1
330
1F
100
AcDbEntity
  8
破線
100
AcDbLine
 10
182.6025089466043
 20
94.6743175772551
 30
0.0
 11
181.6058087530446
 21
95.67760653072662
 31
0.0
  0
LINE
  5
2EE2
330
1F
100
AcDbEntity
  8
破線
100
AcDbLine
 10
181.6058087530446
 20
95.67760653072662
 30
0.0
 11
181.6354581726477
 21
104.6775576923673
 31
0.0
  0
LINE
  5
2EE3
330
1F
100
AcDbEntity
  8
破線
100
AcDbLine
 10
174.6025523584793
 20
94.7006726169023
 30
0.0
 11
175.6058413119509
 21
95.69737281046201
 31
0.0
  0
LINE
  5
2EE4
330
1F
100
AcDbEntity
  8
破線
100
AcDbLine
 10
175.6058413119509
 20
95.69737281046201
 30
0.0
 11
175.6354907315538
 21
104.6973239721026
 31
0.0
  0
LINE
  5
2EE5
330
1F
100
AcDbEntity
  8
破線
100
AcDbLine
 10
173.6058521649196
 20
95.70396157037379
 30
0.0
 11
183.6057979000759
 21
95.67101777081484
 31
0.0
  0
LINE
  5
2EE6
330
1F
100
AcDbEntity
  8
破線
100
AcDbLine
 10
174.6354961580382
 20
104.7006183520585
 30
0.0
 11
174.6058467384352
 21
95.70066719041793
 31
0.0
  0
LINE
  5
2EE7
330
1F
100
AcDbEntity
  8
破線
100
AcDbLine
 10
182.6354527461633
 20
104.6742633124114
 30
0.0
 11
182.6058033265602
 21
95.67431215077073
 31
0.0
  0
CIRCLE
  5
2EE8
330
1F
100
AcDbEntity
  8
太線
100
AcDbCircle
 10
178.6684182516597
 20
114.6873865673912
 30
0.0
 40
4.999999999999998
  0
CIRCLE
  5
2EE9
330
1F
100
AcDbEntity
  8
太線
100
AcDbCircle
 10
178.6684182516597
 20
114.6873865673912
 30
0.0
 40
3.999999999999994
  0
LWPOLYLINE
  5
2EEA
330
1F
100
AcDbEntity
  8
太線
100
AcDbPolyline
 90
        6
 70
     1
 43
0.0
 10
181.6684019722065
 20
114.6775034275235
 10
180.1769691621277
 20
117.2805071103908
 10
177.1769854415808
 20
117.2903902502584
 10
175.6684345311128
 20
114.697269707259
 10
177.1598673411916
 20
112.0942660243917
 10
180.1598510617385
 20
112.084382884524
  0
CIRCLE
  5
2EF0
330
1F
100
AcDbEntity
  8
太線
100
AcDbCircle
 10
72.20151402540429
 20
-214.7620704196852
 30
0.0
 40
22.65
  0
ARC
  5
2F12
330
1F
100
AcDbEntity
  8
太線
100
AcDbCircle
 10
44.55151402540432
 20
-187.1120704196852
 30
0.0
 40
2.0
100
AcDbArc
 50
90.0
 51
180.0
  0
ARC
  5
2F13
330
1F
100
AcDbEntity
  8
太線
100
AcDbCircle
 10
134.8515140254043
 20
-187.1120704196852
 30
0.0
 40
2.0
100
AcDbArc
 50
0.0
 51
90.0
  0
ARC
  5
2F14
330
1F
100
AcDbEntity
  8
太線
100
AcDbCircle
 10
44.55151402540433
 20
117.8211488256961
 30
0.0
 40
2.0
100
AcDbArc
 50
180.0
 51
270.0
  0
ARC
  5
2F15
330
1F
100
AcDbEntity
  8
太線
100
AcDbCircle
 10
99.85151402540433
 20
117.8211488256961
 30
0.0
 40
2.0
100
AcDbArc
 50
270.0
 51
0.0
  0
ARC
  5
2F16
330
1F
100
AcDbEntity
  8
太線
100
AcDbCircle
 10
134.8515140254042
 20
152.8211488256961
 30
0.0
 40
2.0
100
AcDbArc
 50
270.0
 51
0.0
  0
ARC
  5
2F17
330
1F
100
AcDbEntity
  8
太線
100
AcDbCircle
 10
134.8515140254043
 20
208.1211488256961
 30
0.0
 40
2.0
100
AcDbArc
 50
0.0
 51
90.0
  0
ARC
  5
2F1C
330
1F
100
AcDbEntity
  8
太線
100
AcDbCircle
 10
44.55151402540432
 20
-242.4120704196852
 30
0.0
 40
2.0
100
AcDbArc
 50
180.0
 51
270.0
  0
DIMENSION
  5
2F2D
330
1F
100
AcDbEntity
  8
寸法線
100
AcDbDimension
  2
*D2
 10
136.8515140254043
 20
-169.2207849934257
 30
0.0
 11
89.70151402540432
 21
-165.7207849934257
 31
0.0
 70
    32
 71
     5
 42
94.30000000000001
  3
sunpo
100
AcDbAlignedDimension
 13
42.55151402540432
 23
-187.1120704196852
 33
0.0
 14
136.8515140254043
 24
-187.1120704196852
 34
0.0
100
AcDbRotatedDimension
1001
ACAD
1000
DSTYLE
1002
{
1070
    40
1040
1.0
1002
}
  0
DIMENSION
  5
2F3A
330
1F
100
AcDbEntity
  8
寸法線
100
AcDbDimension
  2
*D3
 10
165.0569865204413
 20
-185.1120704196852
 30
0.0
 11
161.5569865204413
 21
-214.7620704196852
 31
0.0
 70
    32
 71
     5
 42
59.30000000000001
  3
sunpo
100
AcDbAlignedDimension
 13
136.8515140254043
 23
-244.4120704196852
 33
0.0
 14
134.7295230789496
 24
-185.1120704196852
 34
0.0
 50
90.0
100
AcDbRotatedDimension
1001
ACAD
1000
DSTYLE
1002
{
1070
    40
1040
1.0
1002
}
  0
DIMENSION
  5
2F85
330
1F
100
AcDbEntity
  8
寸法線
100
AcDbDimension
  2
*D4
 10
136.8515140254043
 20
126.2262366162249
 30
0.0
 11
130.8515140254043
 21
129.7267287422091
 31
0.0
 70
    32
 71
     5
 42
12.0
  3
sunpo
100
AcDbAlignedDimension
 13
124.8515140254043
 23
180.4711488256961
 33
0.0
 14
136.8515140254043
 24
155.8211488256961
 34
0.0
100
AcDbRotatedDimension
1001
ACAD
1000
DSTYLE
1002
{
1070
    40
1040
1.0
1002
}
  0
DIMENSION
  5
2F92
330
1F
100
AcDbEntity
  8
寸法線
100
AcDbDimension
  2
*D5
 10
134.8944890800705
 20
198.7755451597795
 30
0.0
 11
124.9163360162721
 21
202.2760372857637
 31
0.0
 70
    32
  1
25
 71
     5
 42
19.95630612759691
  3
sunpo
100
AcDbAlignedDimension
 13
114.9381829524736
 23
179.9276008441681
 33
0.0
 14
134.8944890800705
 24
179.9276008441681
 34
0.0
100
AcDbRotatedDimension
1001
ACAD
1000
DSTYLE
1002
{
1070
    40
1040
1.0
1002
}
  0
DIMENSION
  5
2FD3
330
1F
100
AcDbEntity
  8
寸法線
100
AcDbDimension
  2
*D6
 10
192.2528683896714
 20
94.64252545401922
 30
0.0
 11
188.7693592821461
 21
99.654028651443
 31
0.0
 70
    33
  1
13
 71
     5
 42
10.00000000000004
  3
sunpo
100
AcDbAlignedDimension
 13
182.6354527461633
 23
104.6742633124114
 33
0.0
 14
182.6025089466043
 24
94.6743175772551
 34
0.0
1001
ACAD
1000
DSTYLE
1002
{
1070
    40
1040
1.0
1002
}
  0
ARC
  5
2FF9
330
1F
100
AcDbEntity
  8
太線
100
AcDbCircle
 10
134.8515140254043
 20
-242.4120704196852
 30
0.0
 40
2.0
100
AcDbArc
 50
270.0
 51
0.0
  0
LINE
  5
3001
330
1F
100
AcDbEntity
  8
破線
100
AcDbLine
 10
99.85151402540433
 20
-192.1120704196852
 30
0.0
 11
81.92776715803459
 21
-192.1120704196852
 31
0.0
  0
LINE
  5
3002
330
1F
100
AcDbEntity
  8
破線
100
AcDbLine
 10
99.85151402540433
 20
-237.4120704196852
 30
0.0
 11
81.92776715803461
 21
-237.4120704196852
 31
0.0
  0
LINE
  5
3004
330
1F
100
AcDbEntity
  8
破線
100
AcDbLine
 10
49.55151402540432
 20
152.8211488256961
 30
0.0
 11
49.55151402540432
 21
157.8211488256961
 31
0.0
  0
DIMENSION
  5
3037
330
1F
100
AcDbEntity
  8
寸法線
100
AcDbDimension
  2
*D8
 10
110.6569572643185
 20
-237.4120704196852
 30
0.0
 11
110.6569572643186
 21
-222.1949581423065
 31
0.0
 70
   160
 71
     5
 42
45.29999999999998
  3
sunpo
100
AcDbAlignedDimension
 13
99.85151402540433
 23
-192.1120704196852
 33
0.0
 14
101.8515140254043
 24
-237.4120704196852
 34
0.0
 50
90.0
100
AcDbRotatedDimension
1001
ACAD
1000
DSTYLE
1002
{
1070
    40
1040
1.0
1002
}
  0
XLINE
  5
307E
330
1F
100
AcDbEntity
  8
構築線
100
AcDbXline
 10
165.7984281204576
 20
154.4808271744143
 30
0.0
 11
0.0
 21
1.0
 31
0.0
  0
LINE
  5
3087
330
1F
100
AcDbEntity
  8
構築線
100
AcDbLine
 10
194.7453422155109
 20
210.1211488256961
 30
0.0
 11
259.3953422155109
 21
210.1211488256961
 31
0.0
  0
LINE
  5
3088
330
1F
100
AcDbEntity
  8
構築線
100
AcDbLine
 10
229.7453422155109
 20
150.8211488256961
 30
0.0
 11
194.7453422155109
 21
150.8211488256961
 31
0.0
  0
LINE
  5
308D
330
1F
100
AcDbEntity
  8
構築線
100
AcDbLine
 10
229.7453422155109
 20
115.8211488256961
 30
0.0
 11
229.7453422155109
 21
150.8211488256961
 31
0.0
  0
ARC
  5
308F
330
1F
100
AcDbEntity
  8
太線
100
AcDbCircle
 10
287.0453422155108
 20
117.8211488256961
 30
0.0
 40
2.0
100
AcDbArc
 50
270.0
 51
0.000000000000007
  0
LINE
  5
3090
330
1F
100
AcDbEntity
  8
太線
100
AcDbLine
 10
231.7453422155109
 20
115.8211488256961
 30
0.0
 11
287.0453422155108
 21
115.8211488256961
 31
0.0
  0
LINE
  5
3091
330
1F
100
AcDbEntity
  8
構築線
100
AcDbLine
 10
289.0453422155109
 20
115.8211488256961
 30
0.0
 11
229.7453422155109
 21
115.8211488256961
 31
0.0
  0
ARC
  5
3096
330
1F
100
AcDbEntity
  8
太線
100
AcDbCircle
 10
231.7453422155109
 20
117.8211488256961
 30
0.0
 40
2.0
100
AcDbArc
 50
180.0
 51
270.0
  0
CIRCLE
  5
3098
330
1F
100
AcDbEntity
  8
太線
100
AcDbCircle
 10
259.3953422155109
 20
180.4711488256961
 30
0.0
 40
29.65
  0
LINE
  5
309A
330
1F
100
AcDbEntity
  8
太線
100
AcDbLine
 10
231.4825763188821
 20
170.4711488256962
 30
0.0
 11
225.5667670164281
 21
172.9711488256962
 31
0.0
  0
LINE
  5
309B
330
1F
100
AcDbEntity
  8
細線
100
AcDbLine
 10
225.1079903200961
 20
175.4711488256962
 30
0.0
 11
235.257767772332
 21
175.4711488256962
 31
0.0
  0
LINE
  5
309C
330
1F
100
AcDbEntity
  8
細線
100
AcDbLine
 10
224.9769968165815
 20
176.4711488256962
 30
0.0
 11
235.0720509086174
 21
176.4711488256962
 31
0.0
  0
ARC
  5
30A1
330
1F
100
AcDbEntity
  8
太線
100
AcDbCircle
 10
259.3953422155109
 20
180.4711488256961
 30
0.0
 40
34.65
100
AcDbArc
 50
167.4993777707546
 51
192.5006222292451
  0
LINE
  5
30A5
330
1F
100
AcDbEntity
  8
細線
100
AcDbLine
 10
225.1079903200961
 20
185.4711488256962
 30
0.0
 11
235.2577677723321
 21
185.4711488256962
 31
0.0
  0
LINE
  5
30A6
330
1F
100
AcDbEntity
  8
細線
100
AcDbLine
 10
224.9769968165815
 20
184.4711488256962
 30
0.0
 11
235.0720509086174
 21
184.4711488256962
 31
0.0
  0
LINE
  5
30A7
330
1F
100
AcDbEntity
  8
太線
100
AcDbLine
 10
231.4825763188822
 20
190.4711488256962
 30
0.0
 11
225.5667670164281
 21
187.9711488256962
 31
0.0
  0
XLINE
  5
30F6
330
1F
100
AcDbEntity
  8
構築線
100
AcDbXline
 10
259.3953422155109
 20
180.4711488256961
 30
0.0
 11
0.0
 21
1.0
 31
0.0
  0
ARC
  5
30F7
330
1F
100
AcDbEntity
  8
太線
100
AcDbCircle
 10
259.3953422155109
 20
127.8211488256961
 30
0.0
 40
34.65
100
AcDbArc
 50
167.4993777707546
 51
192.5006222292451
  0
LINE
  5
30FA
330
1F
100
AcDbEntity
  8
太線
100
AcDbLine
 10
229.7453422155109
 20
118.5552977876356
 30
0.0
 11
225.5667670164281
 21
120.3211488256962
 31
0.0
  0
LINE
  5
30FD
330
1F
100
AcDbEntity
  8
太線
100
AcDbLine
 10
229.7453422155109
 20
137.0869998637568
 30
0.0
 11
225.5667670164281
 21
135.3211488256962
 31
0.0
  0
XLINE
  5
30FE
330
1F
100
AcDbEntity
  8
構築線
100
AcDbXline
 10
99.62175501769275
 20
167.7594832835889
 30
0.0
 11
1.0
 21
0.0
 31
0.0
  0
ARC
  5
3105
330
1F
100
AcDbEntity
  8
太線
100
AcDbCircle
 10
215.7580762031122
 20
126.9142852999784
 30
0.0
 40
17.01375397249016
100
AcDbArc
 50
329.5104071007411
 51
36.21956129915222
  0
ARC
  5
3106
330
1F
100
AcDbEntity
  8
太線
100
AcDbCircle
 10
214.7315875670284
 20
127.1682440870283
 30
0.0
 40
12.81789325105992
100
AcDbArc
 50
328.0721003720161
 51
35.40243900091644
  0
XLINE
  5
3122
330
1F
100
AcDbEntity
  8
構築線
100
AcDbXline
 10
29.92298685899982
 20
102.3083433836751
 30
0.0
 11
1.0
 21
0.0
 31
0.0
  0
LINE
  5
31A1
330
1F
100
AcDbEntity
  8
太線
100
AcDbLine
 10
101.8515140254043
 20
-5.504462058345865
 30
0.0
 11
134.8515140254043
 21
-5.504462058345865
 31
0.0
  0
LINE
  5
31A2
330
1F
100
AcDbEntity
  8
構築線
100
AcDbLine
 10
136.8515140254043
 20
-5.504462058345865
 30
0.0
 11
72.20151402540432
 21
-5.504462058345865
 31
0.0
  0
LINE
  5
31A8
330
1F
100
AcDbEntity
  8
構築線
100
AcDbLine
 10
101.8515140254043
 20
88.79553794165415
 30
0.0
 11
101.8515140254043
 21
53.79553794165414
 31
0.0
  0
LINE
  5
31A9
330
1F
100
AcDbEntity
  8
構築線
100
AcDbLine
 10
42.55151402540432
 20
24.14553794165414
 30
0.0
 11
42.55151402540433
 21
88.79553794165415
 31
0.0
  0
CIRCLE
  5
31B3
330
1F
100
AcDbEntity
  8
太線
100
AcDbCircle
 10
72.20151402540432
 20
24.14553794165414
 30
0.0
 40
29.65
  0
CIRCLE
  5
31B4
330
1F
100
AcDbEntity
  8
太線
100
AcDbCircle
 10
72.20151402540432
 20
24.14553794165414
 30
0.0
 40
24.65
  0
LINE
  5
31B5
330
1F
100
AcDbEntity
  8
太線
100
AcDbLine
 10
62.20151402540438
 20
52.05830383828289
 30
0.0
 11
64.70151402540435
 21
57.97411314073696
 31
0.0
  0
LINE
  5
31B6
330
1F
100
AcDbEntity
  8
細線
100
AcDbLine
 10
67.20151402540435
 20
58.43288983706888
 30
0.0
 11
67.20151402540441
 21
48.28311238483299
 31
0.0
  0
LINE
  5
31B7
330
1F
100
AcDbEntity
  8
細線
100
AcDbLine
 10
68.20151402540435
 20
58.56388334058348
 30
0.0
 11
68.20151402540441
 21
48.46882924854764
 31
0.0
  0
ARC
  5
31BC
330
1F
100
AcDbEntity
  8
太線
100
AcDbCircle
 10
72.20151402540434
 20
24.14553794165414
 30
0.0
 40
34.65
100
AcDbArc
 50
77.49937777075473
 51
102.5006222292452
  0
LINE
  5
31C0
330
1F
100
AcDbEntity
  8
細線
100
AcDbLine
 10
77.20151402540435
 20
58.43288983706887
 30
0.0
 11
77.20151402540441
 21
48.28311238483294
 31
0.0
  0
LINE
  5
31C1
330
1F
100
AcDbEntity
  8
細線
100
AcDbLine
 10
76.20151402540435
 20
58.5638833405835
 30
0.0
 11
76.20151402540442
 21
48.4688292485476
 31
0.0
  0
LINE
  5
31C2
330
1F
100
AcDbEntity
  8
太線
100
AcDbLine
 10
82.20151402540439
 20
52.05830383828284
 30
0.0
 11
79.70151402540439
 21
57.97411314073696
 31
0.0
  0
LINE
  5
31C9
330
1F
100
AcDbEntity
  8
太線
100
AcDbLine
 10
136.8515140254043
 20
-3.504462058345865
 30
0.0
 11
136.8515140254042
 21
51.79553794165414
 31
0.0
  0
LINE
  5
31CA
330
1F
100
AcDbEntity
  8
構築線
100
AcDbLine
 10
136.8515140254043
 20
53.79553794165414
 30
0.0
 11
136.8515140254043
 21
-5.504462058345865
 31
0.0
  0
ARC
  5
31CB
330
1F
100
AcDbEntity
  8
太線
100
AcDbCircle
 10
134.8515140254042
 20
51.79553794165414
 30
0.0
 40
2.0
100
AcDbArc
 50
0.0
 51
90.00000000000003
  0
ARC
  5
31CD
330
1F
100
AcDbEntity
  8
太線
100
AcDbCircle
 10
134.8515140254043
 20
-3.504462058345865
 30
0.0
 40
2.0
100
AcDbArc
 50
270.0
 51
0.0
  0
ARC
  5
3211
330
1F
100
AcDbEntity
  8
太線
100
AcDbCircle
 10
124.9735049718589
 20
24.14553794165414
 30
0.0
 40
34.65
100
AcDbArc
 50
76.13672947565451
 51
101.137973934145
  0
LINE
  5
3216
330
1F
100
AcDbEntity
  8
太線
100
AcDbLine
 10
116.3197880014067
 20
53.79553794165417
 30
0.0
 11
118.2800849254873
 21
58.14290001700979
 31
0.0
  0
LINE
  5
3218
330
1F
100
AcDbEntity
  8
太線
100
AcDbLine
 10
134.8515140254042
 20
53.79553794165414
 30
0.0
 11
133.2758429995414
 21
57.78619315635078
 31
0.0
  0
XLINE
  5
3219
330
1F
100
AcDbEntity
  8
構築線
100
AcDbXline
 10
72.20151402540432
 20
24.14553794165414
 30
0.0
 11
1.0
 21
0.0
 31
0.0
  0
ARC
  5
321A
330
1F
100
AcDbEntity
  8
太線
100
AcDbCircle
 10
125.5849527581184
 20
67.0248341975336
 30
0.0
 40
16.15108533179235
100
AcDbArc
 50
234.9944444592344
 51
304.1257532812697
  0
ARC
  5
321B
330
1F
100
AcDbEntity
  8
太線
100
AcDbCircle
 10
126.4720087270979
 20
71.24411304458114
 30
0.0
 40
15.41858898444818
100
AcDbArc
 50
238.6303451647039
 51
296.5007467030413
  0
XLINE
  5
321C
330
1F
100
AcDbEntity
  8
構築線
100
AcDbXline
 10
84.90920555584034
 20
153.5930758066574
 30
0.0
 11
0.0
 21
-1.0
 31
0.0
  0
XLINE
  5
321F
330
1F
100
AcDbEntity
  8
構築線
100
AcDbXline
 10
87.71171255515993
 20
76.6030576139608
 30
0.0
 11
0.0
 21
-1.0
 31
0.0
  0
LINE
  5
3227
330
1F
100
AcDbEntity
  8
破線
100
AcDbLine
 10
100.088629324269
 20
203.0229798335769
 30
0.0
 11
81.92776715803459
 21
203.1211488256961
 31
0.0
  0
CIRCLE
  5
3259
330
1F
100
AcDbEntity
  8
太線
100
AcDbCircle
 10
259.3953422155109
 20
180.4711488256961
 30
0.0
 40
22.65
  0
CIRCLE
  5
325A
330
1F
100
AcDbEntity
  8
太線
100
AcDbCircle
 10
72.20151402540432
 20
24.14553794165414
 30
0.0
 40
22.61313469248272
  0
CIRCLE
  5
32F7
330
1F
100
AcDbEntity
  8
太線
100
AcDbCircle
 10
259.3953422155109
 20
180.4711488256961
 30
0.0
 40
24.65000000000001
  0
LINE
  5
32FB
330
1F
100
AcDbEntity
  8
太線
100
AcDbLine
 10
101.8515140254043
 20
117.8211488256961
 30
0.0
 11
101.8515140254043
 21
148.8211488256961
 31
0.0
  0
LINE
  5
32FC
330
1F
100
AcDbEntity
  8
破線
100
AcDbLine
 10
94.85151402540433
 20
152.1642945762037
 30
0.0
 11
94.85151402540431
 21
157.8211488256961
 31
0.0
  0
LINE
  5
32FD
330
1F
100
AcDbEntity
  8
破線
100
AcDbLine
 10
101.8515140254043
 20
155.8211488256961
 30
0.0
 11
101.8515140254043
 21
157.8211488256961
 31
0.0
  0
LINE
  5
32FE
330
1F
100
AcDbEntity
  8
破線
100
AcDbLine
 10
101.8515140254043
 20
157.8211488256961
 30
0.0
 11
94.85151402540433
 21
157.8211488256961
 31
0.0
  0
LINE
  5
32FF
330
1F
100
AcDbEntity
  8
破線
100
AcDbLine
 10
94.85151402540433
 20
150.7500810138306
 30
0.0
 11
94.85151402540433
 21
152.1642945762037
 31
0.0
  0
CIRCLE
  5
3301
330
1F
100
AcDbEntity
  8
太線
100
AcDbCircle
 10
19.55151402540431
 20
180.4711488256961
 30
0.0
 40
7.500000000000017
  0
CIRCLE
  5
3302
330
1F
100
AcDbEntity
  8
太線
100
AcDbCircle
 10
19.55151402540431
 20
180.4711488256961
 30
0.0
 40
10.0
  0
LINE
  5
3303
330
1F
100
AcDbEntity
  8
破線
100
AcDbLine
 10
7.551514025404316
 20
155.8211488256961
 30
0.0
 11
42.55151402540431
 21
155.8211488256961
 31
0.0
  0
LINE
  5
3304
330
1F
100
AcDbEntity
  8
破線
100
AcDbLine
 10
7.551514025404316
 20
205.1211488256961
 30
0.0
 11
42.55151402540431
 21
205.1211488256961
 31
0.0
  0
LINE
  5
3305
330
1F
100
AcDbEntity
  8
太線
100
AcDbLine
 10
9.551514025404344
 20
150.8211488256961
 30
0.0
 11
40.55151402540432
 21
150.8211488256961
 31
0.0
  0
LINE
  5
3306
330
1F
100
AcDbEntity
  8
構築線
100
AcDbLine
 10
42.55151402540431
 20
150.8211488256961
 30
0.0
 11
7.551514025404316
 21
150.8211488256961
 31
0.0
  0
LINE
  5
3307
330
1F
100
AcDbEntity
  8
破線
100
AcDbLine
 10
42.55151402540431
 20
203.1211488256961
 30
0.0
 11
42.55151402540431
 21
157.8211488256961
 31
0.0
  0
LINE
  5
3308
330
1F
100
AcDbEntity
  8
破線
100
AcDbLine
 10
49.55151402540431
 20
152.1642945762037
 30
0.0
 11
49.55151402540433
 21
157.8211488256961
 31
0.0
  0
LINE
  5
3309
330
1F
100
AcDbEntity
  8
破線
100
AcDbLine
 10
49.55151402540431
 20
150.7500810138306
 30
0.0
 11
49.55151402540431
 21
152.1642945762037
 31
0.0
  0
LINE
  5
330A
330
1F
100
AcDbEntity
  8
破線
100
AcDbLine
 10
47.55151402540431
 20
150.8211488256961
 30
0.0
 11
49.55151402540431
 21
150.8211488256961
 31
0.0
  0
LINE
  5
330B
330
1F
100
AcDbEntity
  8
破線
100
AcDbLine
 10
49.55151402540431
 20
150.8211488256961
 30
0.0
 11
49.55151402540431
 21
152.8211488256961
 31
0.0
  0
LINE
  5
330C
330
1F
100
AcDbEntity
  8
破線
100
AcDbLine
 10
42.55151402540431
 20
157.8211488256961
 30
0.0
 11
49.55151402540431
 21
157.8211488256961
 31
0.0
  0
LINE
  5
330D
330
1F
100
AcDbEntity
  8
破線
100
AcDbLine
 10
42.55151402540431
 20
155.8211488256961
 30
0.0
 11
42.55151402540431
 21
157.8211488256961
 31
0.0
  0
CIRCLE
  5
330E
330
1F
100
AcDbEntity
  8
太線
100
AcDbCircle
 10
19.55151402540431
 20
180.4711488256961
 30
0.0
 40
4.999999999999998
  0
CIRCLE
  5
330F
330
1F
100
AcDbEntity
  8
太線
100
AcDbCircle
 10
19.55151402540431
 20
180.4711488256961
 30
0.0
 40
3.999999999999994
  0
LINE
  5
3310
330
1F
100
AcDbEntity
  8
破線
100
AcDbLine
 10
42.55151402540431
 20
203.1211488256961
 30
0.0
 11
44.55151402540431
 21
203.1211488256961
 31
0.0
  0
LINE
  5
3311
330
1F
100
AcDbEntity
  8
破線
100
AcDbLine
 10
42.55151402540431
 20
205.1211488256961
 30
0.0
 11
42.55151402540431
 21
203.1211488256961
 31
0.0
  0
LINE
  5
3312
330
1F
100
AcDbEntity
  8
太線
100
AcDbLine
 10
7.551514025404316
 20
208.1211488256961
 30
0.0
 11
7.551514025404344
 21
152.8211488256961
 31
0.0
  0
LINE
  5
3313
330
1F
100
AcDbEntity
  8
構築線
100
AcDbLine
 10
7.551514025404316
 20
150.8211488256961
 30
0.0
 11
7.551514025404316
 21
210.1211488256961
 31
0.0
  0
ARC
  5
3314
330
1F
100
AcDbEntity
  8
太線
100
AcDbCircle
 10
9.551514025404344
 20
152.8211488256961
 30
0.0
 40
2.0
100
AcDbArc
 50
180.0
 51
270.0
  0
ARC
  5
3315
330
1F
100
AcDbEntity
  8
太線
100
AcDbCircle
 10
9.551514025404316
 20
208.1211488256961
 30
0.0
 40
2.0
100
AcDbArc
 50
90.0
 51
180.0
  0
LINE
  5
332B
330
1F
100
AcDbEntity
  8
太線
100
AcDbLine
 10
9.551514025404316
 20
210.1211488256961
 30
0.0
 11
40.55151402540431
 21
210.1211488256961
 31
0.0
  0
LINE
  5
332D
330
1F
100
AcDbEntity
  8
構築線
100
AcDbLine
 10
42.55151402540432
 20
203.0500810138307
 30
0.0
 11
62.47526089277406
 21
203.1211488256961
 31
0.0
  0
LINE
  5
332F
330
1F
100
AcDbEntity
  8
破線
100
AcDbLine
 10
42.55151402540431
 20
203.0500810138307
 30
0.0
 11
62.47526089277406
 21
203.1211488256961
 31
0.0
  0
XLINE
  5
3330
330
1F
100
AcDbEntity
  8
構築線
100
AcDbXline
 10
229.7453422155109
 20
150.8211488256961
 30
0.0
 11
0.0
 21
1.0
 31
0.0
  0
XLINE
  5
3331
330
1F
100
AcDbEntity
  8
構築線
100
AcDbXline
 10
289.0453422155109
 20
117.8211488256961
 30
0.0
 11
0.0
 21
1.0
 31
0.0
  0
XLINE
  5
3342
330
1F
100
AcDbEntity
  8
構築線
100
AcDbXline
 10
101.8515140254043
 20
53.79553794165414
 30
0.0
 11
-1.0
 21
0.0
 31
0.0
  0
LINE
  5
3343
330
1F
100
AcDbEntity
  8
太線
100
AcDbLine
 10
116.3197880014067
 20
53.79553794165413
 30
0.0
 11
101.8515140254043
 21
53.79553794165414
 31
0.0
  0
ARC
  5
3344
330
1F
100
AcDbEntity
  8
太線
100
AcDbCircle
 10
17.9310193237107
 20
71.24411304458114
 30
0.0
 40
15.41858898444818
100
AcDbArc
 50
243.4992532969586
 51
301.369654835296
  0
ARC
  5
3345
330
1F
100
AcDbEntity
  8
太線
100
AcDbCircle
 10
18.81807529269019
 20
67.0248341975336
 30
0.0
 40
16.15108533179235
100
AcDbArc
 50
235.8742467187303
 51
305.0055555407654
  0
ARC
  5
3346
330
1F
100
AcDbEntity
  8
太線
100
AcDbCircle
 10
19.42952307894972
 20
24.14553794165414
 30
0.0
 40
34.65
100
AcDbArc
 50
78.86202606585498
 51
103.8632705243454
  0
LINE
  5
3347
330
1F
100
AcDbEntity
  8
太線
100
AcDbLine
 10
28.08324004940185
 20
53.79553794165413
 30
0.0
 11
42.55151402540433
 21
53.79553794165413
 31
0.0
  0
LINE
  5
3348
330
1F
100
AcDbEntity
  8
太線
100
AcDbLine
 10
62.20151402540425
 20
52.05830383828284
 30
0.0
 11
64.70151402540425
 21
57.97411314073696
 31
0.0
  0
LINE
  5
3349
330
1F
100
AcDbEntity
  8
太線
100
AcDbLine
 10
28.08324004940185
 20
53.79553794165417
 30
0.0
 11
26.12294312532128
 21
58.14290001700979
 31
0.0
  0
LINE
  5
334A
330
1F
100
AcDbEntity
  8
太線
100
AcDbLine
 10
7.551514025404316
 20
-3.504462058345865
 30
0.0
 11
7.551514025404344
 21
51.79553794165414
 31
0.0
  0
ARC
  5
334B
330
1F
100
AcDbEntity
  8
太線
100
AcDbCircle
 10
9.551514025404316
 20
-3.504462058345865
 30
0.0
 40
2.0
100
AcDbArc
 50
180.0
 51
270.0
  0
ARC
  5
334C
330
1F
100
AcDbEntity
  8
太線
100
AcDbCircle
 10
9.551514025404344
 20
51.79553794165414
 30
0.0
 40
2.0
100
AcDbArc
 50
89.99999999999998
 51
180.0
  0
LINE
  5
334D
330
1F
100
AcDbEntity
  8
太線
100
AcDbLine
 10
9.551514025404344
 20
53.79553794165414
 30
0.0
 11
11.12718505126718
 21
57.78619315635078
 31
0.0
  0
LINE
  5
334E
330
1F
100
AcDbEntity
  8
太線
100
AcDbLine
 10
42.55151402540433
 20
-5.504462058345866
 30
0.0
 11
9.551514025404316
 21
-5.504462058345865
 31
0.0
  0
TEXT
  5
334F
330
1F
100
AcDbEntity
  8
文字
100
AcDbText
 10
-7.923200246382293
 20
129.7092887509725
 30
0.0
 40
4.799999999999999
  1
パイプ貫通1箇所
 51
15.0
  7
OKANO
100
AcDbText
  0
DIMENSION
  5
3367
330
1F
100
AcDbEntity
  8
寸法線
100
AcDbDimension
  2
*D9
 10
94.85151402540433
 20
142.4557183411675
 30
0.0
 11
75.17213125415264
 21
142.4557183411675
 31
0.0
 70
   160
 71
     5
 42
45.30000000000001
  3
sunpo
100
AcDbAlignedDimension
 13
49.55151402540431
 23
150.7500810138306
 33
0.0
 14
94.85151402540433
 24
150.7500810138306
 34
0.0
100
AcDbRotatedDimension
1001
ACAD
1000
DSTYLE
1002
{
1070
    40
1040
1.0
1002
}
  0
DIMENSION
  5
337D
330
1F
100
AcDbEntity
  8
寸法線
100
AcDbDimension
  2
*D10
 10
-4.125976552654265
 20
205.1211488256961
 30
0.0
 11
-7.625976552654299
 21
180.4711488256961
 31
0.0
 70
    32
  1
49.3～50
 71
     5
 42
49.30000000000001
  3
sunpo
100
AcDbAlignedDimension
 13
7.551514025404316
 23
155.8211488256961
 33
0.0
 14
7.551514025404316
 24
205.1211488256961
 34
0.0
 50
90.0
100
AcDbRotatedDimension
1001
ACAD
1000
DSTYLE
1002
{
1070
    40
1040
1.0
1002
}
  0
DIMENSION
  5
338A
330
1F
100
AcDbEntity
  8
寸法線
100
AcDbDimension
  2
*D11
 10
-14.86959103621939
 20
150.8211488256961
 30
0.0
 11
-18.36959103621941
 21
180.4711488256961
 31
0.0
 70
    32
  1
60
 71
     5
 42
59.30000000000001
  3
sunpo
100
AcDbAlignedDimension
 13
9.551514025404316
 23
210.1211488256961
 33
0.0
 14
9.551514025404344
 24
150.8211488256961
 34
0.0
 50
90.0
100
AcDbRotatedDimension
1001
ACAD
1000
DSTYLE
1002
{
1070
    40
1040
1.0
1002
}
  0
ARC
  5
33C7
330
1F
100
AcDbEntity
  8
太線
100
AcDbCircle
 10
44.55151402540433
 20
243.1211488256961
 30
0.0
 40
2.0
100
AcDbArc
 50
90.00000000000003
 51
180.0
  0
LINE
  5
33C9
330
1F
100
AcDbEntity
  8
破線
100
AcDbLine
 10
49.55151402540432
 20
210.1211488256961
 30
0.0
 11
94.85151402540433
 21
210.1211488256961
 31
0.0
  0
LINE
  5
33CA
330
1F
100
AcDbEntity
  8
太線
100
AcDbLine
 10
99.85151402540433
 20
245.1211488256961
 30
0.0
 11
44.55151402540433
 21
245.1211488256961
 31
0.0
  0
LINE
  5
33CB
330
1F
100
AcDbEntity
  8
構築線
100
AcDbLine
 10
42.55151402540433
 20
245.1211488256961
 30
0.0
 11
101.8515140254043
 21
245.1211488256961
 31
0.0
  0
LINE
  5
33CC
330
1F
100
AcDbEntity
  8
破線
100
AcDbLine
 10
49.55151402540431
 20
208.7780030751885
 30
0.0
 11
49.55151402540433
 21
203.1211488256961
 31
0.0
  0
LINE
  5
33CD
330
1F
100
AcDbEntity
  8
破線
100
AcDbLine
 10
49.55151402540432
 20
208.1211488256961
 30
0.0
 11
49.55151402540432
 21
203.1211488256961
 31
0.0
  0
CIRCLE
  5
33CE
330
1F
100
AcDbEntity
  8
太線
100
AcDbCircle
 10
72.20151402540432
 20
233.1211488256961
 30
0.0
 40
10.0
  0
CIRCLE
  5
33CF
330
1F
100
AcDbEntity
  8
太線
100
AcDbCircle
 10
72.20151402540432
 20
233.1211488256961
 30
0.0
 40
7.500000000000017
  0
LINE
  5
33D0
330
1F
100
AcDbEntity
  8
破線
100
AcDbLine
 10
47.55151402540432
 20
245.1211488256961
 30
0.0
 11
47.55151402540432
 21
210.1211488256961
 31
0.0
  0
LINE
  5
33D1
330
1F
100
AcDbEntity
  8
破線
100
AcDbLine
 10
47.55151402540431
 20
210.1211488256961
 30
0.0
 11
49.55151402540431
 21
210.1211488256961
 31
0.0
  0
LINE
  5
33D2
330
1F
100
AcDbEntity
  8
破線
100
AcDbLine
 10
47.55151402540432
 20
210.1211488256961
 30
0.0
 11
49.55151402540432
 21
210.1211488256961
 31
0.0
  0
LINE
  5
33D3
330
1F
100
AcDbEntity
  8
破線
100
AcDbLine
 10
49.55151402540431
 20
210.1211488256961
 30
0.0
 11
49.55151402540431
 21
208.1211488256961
 31
0.0
  0
LINE
  5
33D4
330
1F
100
AcDbEntity
  8
破線
100
AcDbLine
 10
49.55151402540431
 20
210.1922166375616
 30
0.0
 11
49.55151402540431
 21
208.7780030751885
 31
0.0
  0
LINE
  5
33D5
330
1F
100
AcDbEntity
  8
破線
100
AcDbLine
 10
49.55151402540432
 20
210.1211488256961
 30
0.0
 11
49.55151402540432
 21
208.1211488256961
 31
0.0
  0
CIRCLE
  5
33D6
330
1F
100
AcDbEntity
  8
太線
100
AcDbCircle
 10
72.20151402540432
 20
233.1211488256961
 30
0.0
 40
4.999999999999998
  0
CIRCLE
  5
33D7
330
1F
100
AcDbEntity
  8
太線
100
AcDbCircle
 10
72.20151402540432
 20
233.1211488256961
 30
0.0
 40
3.999999999999994
  0
LINE
  5
33D8
330
1F
100
AcDbEntity
  8
破線
100
AcDbLine
 10
42.55151402540431
 20
203.1211488256961
 30
0.0
 11
49.55151402540431
 21
203.1211488256961
 31
0.0
  0
LINE
  5
33D9
330
1F
100
AcDbEntity
  8
破線
100
AcDbLine
 10
42.55151402540431
 20
205.1211488256961
 30
0.0
 11
42.55151402540431
 21
203.1211488256961
 31
0.0
  0
LINE
  5
33DA
330
1F
100
AcDbEntity
  8
破線
100
AcDbLine
 10
94.85151402540433
 20
208.7780030751885
 30
0.0
 11
94.85151402540431
 21
203.1211488256961
 31
0.0
  0
LINE
  5
33DB
330
1F
100
AcDbEntity
  8
太線
100
AcDbLine
 10
101.8515140254043
 20
243.1211488256961
 30
0.0
 11
101.8515140254043
 21
212.1211488256961
 31
0.0
  0
LINE
  5
33DC
330
1F
100
AcDbEntity
  8
破線
100
AcDbLine
 10
96.85151402540434
 20
245.1211488256961
 30
0.0
 11
96.85151402540434
 21
210.1211488256961
 31
0.0
  0
LINE
  5
33DD
330
1F
100
AcDbEntity
  8
構築線
100
AcDbLine
 10
101.8515140254043
 20
245.1211488256961
 30
0.0
 11
101.8515140254043
 21
210.1211488256961
 31
0.0
  0
ARC
  5
33DE
330
1F
100
AcDbEntity
  8
太線
100
AcDbCircle
 10
99.85151402540433
 20
243.1211488256961
 30
0.0
 40
2.0
100
AcDbArc
 50
0.0
 51
90.00000000000003
  0
LINE
  5
33DF
330
1F
100
AcDbEntity
  8
破線
100
AcDbLine
 10
94.85151402540433
 20
210.1922166375616
 30
0.0
 11
94.85151402540433
 21
208.7780030751885
 31
0.0
  0
LINE
  5
33E0
330
1F
100
AcDbEntity
  8
破線
100
AcDbLine
 10
94.85151402540433
 20
210.1211488256961
 30
0.0
 11
94.85151402540433
 21
208.1211488256961
 31
0.0
  0
LINE
  5
33E1
330
1F
100
AcDbEntity
  8
破線
100
AcDbLine
 10
96.85151402540434
 20
210.1211488256961
 30
0.0
 11
94.85151402540433
 21
210.1211488256961
 31
0.0
  0
LINE
  5
33E2
330
1F
100
AcDbEntity
  8
破線
100
AcDbLine
 10
101.8515140254043
 20
203.1211488256961
 30
0.0
 11
94.85151402540433
 21
203.1211488256961
 31
0.0
  0
LINE
  5
33E3
330
1F
100
AcDbEntity
  8
破線
100
AcDbLine
 10
101.8515140254043
 20
205.1211488256961
 30
0.0
 11
101.8515140254043
 21
203.1211488256961
 31
0.0
  0
LINE
  5
33F9
330
1F
100
AcDbEntity
  8
太線
100
AcDbLine
 10
42.55151402540433
 20
243.1211488256961
 30
0.0
 11
42.55151402540431
 21
212.1211488256961
 31
0.0
  0
XLINE
  5
33FA
330
1F
100
AcDbEntity
  8
構築線
100
AcDbXline
 10
314.0453422155109
 20
117.8211488256961
 30
0.0
 11
0.0
 21
1.0
 31
0.0
  0
XLINE
  5
33FB
330
1F
100
AcDbEntity
  8
構築線
100
AcDbXline
 10
204.7453422155109
 20
150.8211488256961
 30
0.0
 11
0.0
 21
1.0
 31
0.0
  0
LINE
  5
33FC
330
1F
100
AcDbEntity
  8
太線
100
AcDbLine
 10
291.0453422155109
 20
150.8211488256961
 30
0.0
 11
307.0453422155108
 21
150.8211488256961
 31
0.0
  0
LINE
  5
33FF
330
1F
100
AcDbEntity
  8
構築線
100
AcDbLine
 10
289.0453422155109
 20
245.1211488256961
 30
0.0
 11
229.7453422155109
 21
245.1211488256961
 31
0.0
  0
LINE
  5
3400
330
1F
100
AcDbEntity
  8
太線
100
AcDbLine
 10
231.7453422155109
 20
245.1211488256961
 30
0.0
 11
287.0453422155108
 21
245.1211488256961
 31
0.0
  0
ARC
  5
3401
330
1F
100
AcDbEntity
  8
太線
100
AcDbCircle
 10
214.7315875670284
 20
233.7740535643639
 30
0.0
 40
12.81789325105992
100
AcDbArc
 50
324.5975609990835
 51
31.92789962798386
  0
ARC
  5
3402
330
1F
100
AcDbEntity
  8
太線
100
AcDbCircle
 10
215.7580762031122
 20
234.0280123514139
 30
0.0
 40
17.01375397249016
100
AcDbArc
 50
323.7804387008477
 51
30.4895928992589
  0
ARC
  5
3403
330
1F
100
AcDbEntity
  8
太線
100
AcDbCircle
 10
259.3953422155109
 20
233.1211488256961
 30
0.0
 40
34.65
100
AcDbArc
 50
167.4993777707548
 51
192.5006222292453
  0
LINE
  5
3404
330
1F
100
AcDbEntity
  8
構築線
100
AcDbLine
 10
229.7453422155109
 20
245.1211488256961
 30
0.0
 11
229.7453422155109
 21
210.1211488256961
 31
0.0
  0
LINE
  5
3405
330
1F
100
AcDbEntity
  8
太線
100
AcDbLine
 10
229.7453422155109
 20
242.3869998637566
 30
0.0
 11
225.5667670164281
 21
240.621148825696
 31
0.0
  0
ARC
  5
3406
330
1F
100
AcDbEntity
  8
太線
100
AcDbCircle
 10
231.7453422155109
 20
243.1211488256961
 30
0.0
 40
2.0
100
AcDbArc
 50
90.00000000000003
 51
180.0
  0
LINE
  5
3407
330
1F
100
AcDbEntity
  8
太線
100
AcDbLine
 10
229.7453422155109
 20
223.8552977876354
 30
0.0
 11
225.5667670164281
 21
225.621148825696
 31
0.0
  0
ARC
  5
3408
330
1F
100
AcDbEntity
  8
太線
100
AcDbCircle
 10
287.0453422155108
 20
243.1211488256961
 30
0.0
 40
2.0
100
AcDbArc
 50
0.0
 51
90.00000000000003
  0
LINE
  5
341E
330
1F
100
AcDbEntity
  8
太線
100
AcDbLine
 10
307.0453422155108
 20
210.1211488256962
 30
0.0
 11
291.0453422155108
 21
210.1211488256961
 31
0.0
  0
LINE
  5
341F
330
1F
100
AcDbEntity
  8
太線
100
AcDbLine
 10
227.7453422155109
 20
210.1211488256962
 30
0.0
 11
211.7453422155109
 21
210.1211488256962
 31
0.0
  0
LINE
  5
3421
330
1F
100
AcDbEntity
  8
太線
100
AcDbLine
 10
211.7453422155109
 20
150.8211488256961
 30
0.0
 11
227.7453422155109
 21
150.8211488256961
 31
0.0
  0
XLINE
  5
3422
330
1F
100
AcDbEntity
  8
構築線
100
AcDbXline
 10
302.0453422155109
 20
117.8211488256961
 30
0.0
 11
0.0
 21
1.0
 31
0.0
  0
XLINE
  5
3423
330
1F
100
AcDbEntity
  8
構築線
100
AcDbXline
 10
216.7453422155109
 20
150.8211488256961
 30
0.0
 11
0.0
 21
1.0
 31
0.0
  0
XLINE
  5
3424
330
1F
100
AcDbEntity
  8
構築線
100
AcDbXline
 10
89.63169618165272
 20
197.9013309819445
 30
0.0
 11
1.0
 21
0.0
 31
0.0
  0
LINE
  5
3425
330
1F
100
AcDbEntity
  8
太線
100
AcDbLine
 10
229.7453422155109
 20
212.1211488256962
 30
0.0
 11
229.7453422155109
 21
223.8552977876354
 31
0.0
  0
LINE
  5
3426
330
1F
100
AcDbEntity
  8
太線
100
AcDbLine
 10
289.0453422155109
 20
243.1211488256961
 30
0.0
 11
289.0453422155108
 21
212.1211488256961
 31
0.0
  0
CIRCLE
  5
3427
330
1F
100
AcDbEntity
  8
太線
100
AcDbCircle
 10
222.7453422155109
 20
197.9013309819445
 30
0.0
 40
7.500000000000017
  0
CIRCLE
  5
3428
330
1F
100
AcDbEntity
  8
太線
100
AcDbCircle
 10
222.7453422155109
 20
197.9013309819445
 30
0.0
 40
10.0
  0
CIRCLE
  5
3429
330
1F
100
AcDbEntity
  8
太線
100
AcDbCircle
 10
222.7453422155109
 20
197.9013309819445
 30
0.0
 40
3.999999999999994
  0
CIRCLE
  5
342A
330
1F
100
AcDbEntity
  8
太線
100
AcDbCircle
 10
222.7453422155109
 20
197.9013309819445
 30
0.0
 40
4.999999999999998
  0
XLINE
  5
342C
330
1F
100
AcDbEntity
  8
構築線
100
AcDbXline
 10
209.7453422155109
 20
150.8211488256961
 30
0.0
 11
0.0
 21
1.0
 31
0.0
  0
XLINE
  5
342D
330
1F
100
AcDbEntity
  8
構築線
100
AcDbXline
 10
309.0453422155109
 20
117.8211488256961
 30
0.0
 11
0.0
 21
1.0
 31
0.0
  0
LINE
  5
342E
330
1F
100
AcDbEntity
  8
太線
100
AcDbLine
 10
209.7453422155109
 20
208.1211488256962
 30
0.0
 11
209.7453422155109
 21
152.8211488256961
 31
0.0
  0
LINE
  5
342F
330
1F
100
AcDbEntity
  8
太線
100
AcDbLine
 10
309.0453422155108
 20
208.1211488256962
 30
0.0
 11
309.0453422155108
 21
152.8211488256961
 31
0.0
  0
LINE
  5
3430
330
1F
100
AcDbEntity
  8
太線
100
AcDbLine
 10
229.7453422155109
 20
137.0869998637568
 30
0.0
 11
229.7453422155109
 21
148.8211488256961
 31
0.0
  0
LINE
  5
3431
330
1F
100
AcDbEntity
  8
太線
100
AcDbLine
 10
289.0453422155109
 20
117.8211488256961
 30
0.0
 11
289.0453422155109
 21
148.8211488256961
 31
0.0
  0
XLINE
  5
3441
330
1F
100
AcDbEntity
  8
構築線
100
AcDbXline
 10
222.7453422155109
 20
150.8211488256961
 30
0.0
 11
0.0
 21
1.0
 31
0.0
  0
XLINE
  5
3442
330
1F
100
AcDbEntity
  8
構築線
100
AcDbXline
 10
296.0453422155109
 20
117.8211488256961
 30
0.0
 11
0.0
 21
1.0
 31
0.0
  0
CIRCLE
  5
3443
330
1F
100
AcDbEntity
  8
太線
100
AcDbCircle
 10
296.0453422155109
 20
197.9013309819445
 30
0.0
 40
10.0
  0
CIRCLE
  5
3444
330
1F
100
AcDbEntity
  8
太線
100
AcDbCircle
 10
296.0453422155109
 20
197.9013309819445
 30
0.0
 40
7.500000000000017
  0
CIRCLE
  5
3445
330
1F
100
AcDbEntity
  8
太線
100
AcDbCircle
 10
296.0453422155109
 20
197.9013309819445
 30
0.0
 40
3.999999999999994
  0
CIRCLE
  5
3446
330
1F
100
AcDbEntity
  8
太線
100
AcDbCircle
 10
296.0453422155109
 20
197.9013309819445
 30
0.0
 40
4.999999999999998
  0
ARC
  5
3447
330
1F
100
AcDbEntity
  8
太線
100
AcDbCircle
 10
307.0453422155108
 20
208.1211488256962
 30
0.0
 40
2.0
100
AcDbArc
 50
0.0
 51
90.0
  0
ARC
  5
3448
330
1F
100
AcDbEntity
  8
太線
100
AcDbCircle
 10
307.0453422155108
 20
152.8211488256961
 30
0.0
 40
2.0
100
AcDbArc
 50
270.0
 51
0.0000000000000509
  0
ARC
  5
3449
330
1F
100
AcDbEntity
  8
太線
100
AcDbCircle
 10
291.0453422155109
 20
148.8211488256961
 30
0.0
 40
2.0
100
AcDbArc
 50
89.99999999999991
 51
180.0
  0
ARC
  5
344A
330
1F
100
AcDbEntity
  8
太線
100
AcDbCircle
 10
291.0453422155108
 20
212.1211488256961
 30
0.0
 40
2.0
100
AcDbArc
 50
179.9999999999998
 51
270.0000000000001
  0
ARC
  5
344B
330
1F
100
AcDbEntity
  8
太線
100
AcDbCircle
 10
227.7453422155109
 20
212.1211488256962
 30
0.0
 40
2.0
100
AcDbArc
 50
270.0000000000001
 51
0.0000000000001145
  0
ARC
  5
344C
330
1F
100
AcDbEntity
  8
太線
100
AcDbCircle
 10
211.7453422155109
 20
208.1211488256962
 30
0.0
 40
2.0
100
AcDbArc
 50
90.00000000000028
 51
180.0
  0
ARC
  5
344D
330
1F
100
AcDbEntity
  8
太線
100
AcDbCircle
 10
211.7453422155109
 20
152.8211488256961
 30
0.0
 40
2.0
100
AcDbArc
 50
179.9999999999999
 51
270.0
  0
ARC
  5
344E
330
1F
100
AcDbEntity
  8
太線
100
AcDbCircle
 10
227.7453422155109
 20
148.8211488256961
 30
0.0
 40
2.0
100
AcDbArc
 50
359.9999999999997
 51
90.0000000000001
  0
ARC
  5
344F
330
1F
100
AcDbEntity
  8
太線
100
AcDbCircle
 10
103.8515140254043
 20
148.8211488256961
 30
0.0
 40
2.0
100
AcDbArc
 50
90.0
 51
180.0
  0
ARC
  5
3450
330
1F
100
AcDbEntity
  8
太線
100
AcDbCircle
 10
103.8515140254043
 20
212.1211488256961
 30
0.0
 40
2.0
100
AcDbArc
 50
180.0
 51
270.0
  0
ARC
  5
3451
330
1F
100
AcDbEntity
  8
太線
100
AcDbCircle
 10
40.55151402540431
 20
212.1211488256961
 30
0.0
 40
2.0
100
AcDbArc
 50
270.0
 51
359.9999999999999
  0
ARC
  5
3452
330
1F
100
AcDbEntity
  8
太線
100
AcDbCircle
 10
40.55151402540432
 20
148.8211488256961
 30
0.0
 40
2.0
100
AcDbArc
 50
0.0
 51
90.0
  0
XLINE
  5
3453
330
1F
100
AcDbEntity
  8
構築線
100
AcDbXline
 10
101.8515140254043
 20
73.79553794165414
 30
0.0
 11
-1.0
 21
0.0
 31
0.0
  0
LINE
  5
3454
330
1F
100
AcDbEntity
  8
構築線
100
AcDbLine
 10
136.8515140254043
 20
-25.50446205834586
 30
0.0
 11
72.20151402540432
 21
-25.50446205834586
 31
0.0
  0
LINE
  5
3455
330
1F
100
AcDbEntity
  8
太線
100
AcDbLine
 10
42.55151402540432
 20
53.79553794165413
 30
0.0
 11
42.55151402540433
 21
71.79553794165414
 31
0.0
  0
LINE
  5
3456
330
1F
100
AcDbEntity
  8
太線
100
AcDbLine
 10
44.55151402540433
 20
73.79553794165414
 30
0.0
 11
99.85151402540433
 21
73.79553794165414
 31
0.0
  0
LINE
  5
3457
330
1F
100
AcDbEntity
  8
太線
100
AcDbLine
 10
101.8515140254043
 20
71.79553794165414
 30
0.0
 11
101.8515140254043
 21
53.79553794165414
 31
0.0
  0
LINE
  5
3458
330
1F
100
AcDbEntity
  8
構築線
100
AcDbLine
 10
72.20151402540432
 20
-25.50446205834586
 30
0.0
 11
-19.77590844046472
 21
-25.50446205834586
 31
0.0
  0
LINE
  5
3459
330
1F
100
AcDbEntity
  8
太線
100
AcDbLine
 10
42.55151402540432
 20
-5.504462058345865
 30
0.0
 11
42.55151402540432
 21
-23.50446205834586
 31
0.0
  0
LINE
  5
345A
330
1F
100
AcDbEntity
  8
太線
100
AcDbLine
 10
44.55151402540432
 20
-25.50446205834587
 30
0.0
 11
99.85151402540431
 21
-25.50446205834589
 31
0.0
  0
LINE
  5
345B
330
1F
100
AcDbEntity
  8
太線
100
AcDbLine
 10
101.8515140254043
 20
-23.50446205834589
 30
0.0
 11
101.8515140254043
 21
-5.504462058345865
 31
0.0
  0
LINE
  5
345C
330
1F
100
AcDbEntity
  8
太線
100
AcDbLine
 10
42.76525561854668
 20
53.53847529484051
 30
0.0
 11
51.25653687088393
 21
45.13197241720571
 31
0.0
  0
LINE
  5
345D
330
1F
100
AcDbEntity
  8
太線
100
AcDbLine
 10
101.5082700715543
 20
54.07691628215684
 30
0.0
 11
92.92907990057662
 21
45.34672924993663
 31
0.0
  0
LINE
  5
345E
330
1F
100
AcDbEntity
  8
太線
100
AcDbLine
 10
51.3651519601947
 20
3.051261090159709
 30
0.0
 11
43.30418207848606
 21
-5.151584787587125
 31
0.0
  0
LINE
  5
345F
330
1F
100
AcDbEntity
  8
太線
100
AcDbLine
 10
93.39705404766178
 20
3.412193224390541
 30
0.0
 11
102.0471965314936
 21
-5.151584787587125
 31
0.0
  0
ARC
  5
3460
330
1F
100
AcDbEntity
  8
太線
100
AcDbCircle
 10
44.55151402540433
 20
71.79553794165414
 30
0.0
 40
2.0
100
AcDbArc
 50
90.0
 51
180.0
  0
ARC
  5
3461
330
1F
100
AcDbEntity
  8
太線
100
AcDbCircle
 10
99.85151402540433
 20
71.79553794165414
 30
0.0
 40
2.0
100
AcDbArc
 50
0.0
 51
90.0
  0
ARC
  5
3462
330
1F
100
AcDbEntity
  8
太線
100
AcDbCircle
 10
44.55151402540432
 20
-23.50446205834586
 30
0.0
 40
2.0
100
AcDbArc
 50
180.0
 51
270.0
  0
ARC
  5
3463
330
1F
100
AcDbEntity
  8
太線
100
AcDbCircle
 10
99.85151402540431
 20
-23.50446205834589
 30
0.0
 40
2.0
100
AcDbArc
 50
270.0
 51
0.0
  0
CIRCLE
  5
3468
330
1F
100
AcDbEntity
  8
破線
100
AcDbCircle
 10
91.11407228959341
 20
60.36712352300765
 30
0.0
 40
7.500000000000017
  0
CIRCLE
  5
3469
330
1F
100
AcDbEntity
  8
破線
100
AcDbCircle
 10
91.11407228959341
 20
60.36712352300765
 30
0.0
 40
10.0
  0
CIRCLE
  5
346A
330
1F
100
AcDbEntity
  8
破線
100
AcDbCircle
 10
91.11407228959341
 20
60.36712352300765
 30
0.0
 40
4.999999999999998
  0
CIRCLE
  5
346B
330
1F
100
AcDbEntity
  8
破線
100
AcDbCircle
 10
91.11407228959341
 20
60.36712352300765
 30
0.0
 40
3.999999999999994
  0
CIRCLE
  5
346C
330
1F
100
AcDbEntity
  8
破線
100
AcDbCircle
 10
91.08217139195904
 20
-12.14295245936023
 30
0.0
 40
7.500000000000017
  0
CIRCLE
  5
346D
330
1F
100
AcDbEntity
  8
破線
100
AcDbCircle
 10
91.08217139195904
 20
-12.14295245936023
 30
0.0
 40
10.0
  0
CIRCLE
  5
346E
330
1F
100
AcDbEntity
  8
破線
100
AcDbCircle
 10
91.08217139195904
 20
-12.14295245936023
 30
0.0
 40
4.999999999999998
  0
CIRCLE
  5
346F
330
1F
100
AcDbEntity
  8
破線
100
AcDbCircle
 10
91.08217139195904
 20
-12.14295245936023
 30
0.0
 40
3.999999999999994
  0
LINE
  5
3470
330
1F
100
AcDbEntity
  8
太線
100
AcDbLine
 10
289.0453422155109
 20
150.8211488256961
 30
0.0
 11
280.361058277692
 21
159.505432763515
 31
0.0
  0
LINE
  5
3471
330
1F
100
AcDbEntity
  8
太線
100
AcDbLine
 10
238.4296261533298
 20
159.505432763515
 30
0.0
 11
229.7453422155109
 21
150.8211488256961
 31
0.0
  0
LINE
  5
3472
330
1F
100
AcDbEntity
  8
太線
100
AcDbLine
 10
229.7453422155109
 20
210.1211488256961
 30
0.0
 11
238.4296261533298
 21
201.4368648878773
 31
0.0
  0
LINE
  5
3473
330
1F
100
AcDbEntity
  8
太線
100
AcDbLine
 10
280.361058277692
 20
201.4368648878773
 30
0.0
 11
289.0453422155109
 21
210.1211488256961
 31
0.0
  0
DIMENSION
  5
347E
330
1F
100
AcDbEntity
  8
寸法線
100
AcDbDimension
  2
*D12
 10
136.8515140254043
 20
257.0216007010521
 30
0.0
 11
70.8804001198414
 21
257.0216007010521
 31
0.0
 70
   160
  1
130
 71
     5
 42
129.3
  3
sunpo
100
AcDbAlignedDimension
 13
7.551514025404316
 23
205.1211488256961
 33
0.0
 14
136.8515140254043
 24
208.1211488256961
 34
0.0
100
AcDbRotatedDimension
1001
ACAD
1000
DSTYLE
1002
{
1070
    40
1040
1.0
1002
}
  0
DIMENSION
  5
3498
330
1F
100
AcDbEntity
  8
寸法線
100
AcDbDimension
  2
*D13
 10
309.0453422155109
 20
223.2871308454475
 30
0.0
 11
302.5453422155109
 21
226.7871308454475
 31
0.0
 70
    32
 71
     5
 42
13.0
  3
sunpo
100
AcDbAlignedDimension
 13
296.0453422155109
 23
197.9013309819445
 33
0.0
 14
309.0453422155109
 24
208.1211488256962
 34
0.0
100
AcDbRotatedDimension
1001
ACAD
1000
DSTYLE
1002
{
1070
    40
1040
1.0
1002
}
  0
LINE
  5
34A5
330
1F
100
AcDbEntity
  8
中心線
100
AcDbLine
 10
58.05937840167338
 20
180.4711488256961
 30
0.0
 11
87.71171255515993
 21
180.4711488256961
 31
0.0
  0
LINE
  5
34A6
330
1F
100
AcDbEntity
  8
中心線
100
AcDbLine
 10
72.20151402540432
 20
191.7785719718527
 30
0.0
 11
72.20151402540432
 21
167.7594832835889
 31
0.0
  0
LINE
  5
34A7
330
1F
100
AcDbEntity
  8
中心線
100
AcDbLine
 10
72.20151402540432
 20
180.4711488256961
 30
0.0
 11
124.8515140254043
 21
233.1211488256961
 31
0.0
  0
DIMENSION
  5
34A8
330
1F
100
AcDbEntity
  8
寸法線
100
AcDbDimension
  2
*D14
 10
124.8515140254043
 20
233.1211488256961
 30
0.0
 11
85.61390010913115
 21
169.6488248088904
 31
0.0
 70
    34
 71
     5
 42
0.7853981633974483
  3
sunpo
100
AcDb2LineAngularDimension
 13
58.05937840167338
 23
180.4711488256961
 33
0.0
 14
87.71171255515993
 24
180.4711488256961
 34
0.0
 15
72.20151402540432
 25
180.4711488256961
 35
0.0
 16
82.72770038011628
 26
186.5484453511292
 36
0.0
1001
ACAD
1000
DSTYLE
1002
{
1070
    40
1040
1.0
1002
}
  0
LEADER
  5
34B7
330
1F
100
AcDbEntity
  8
寸法線
100
AcDbLeader
  3
sunpo
 76
     3
 10
65.69516094458823
 20
172.7983762893124
 30
0.0
 10
15.23467810110787
 20
136.9202200417205
 30
0.0
 10
15.85382502850052
 20
137.2295139041502
 30
0.0
1001
ACAD
1000
DSTYLE
1002
{
1070
   147
1040
1.0
1070
    77
1070
     0
1002
}
  0
DIMENSION
  5
34B8
330
1F
100
AcDbEntity
  8
寸法線
100
AcDbDimension
  2
*D15
 10
42.55151402540433
 20
86.74728041210983
 30
0.0
 11
25.05151402540434
 21
90.24728041210982
 31
0.0
 70
    32
 71
     5
 42
34.99999999999999
  3
sunpo
100
AcDbAlignedDimension
 13
7.551514025404344
 23
51.79553794165414
 33
0.0
 14
42.55151402540433
 24
71.79553794165414
 34
0.0
100
AcDbRotatedDimension
1001
ACAD
1000
DSTYLE
1002
{
1070
    40
1040
1.0
1002
}
  0
DIMENSION
  5
34C5
330
1F
100
AcDbEntity
  8
寸法線
100
AcDbDimension
  2
*D16
 10
101.8515140254043
 20
86.74728041210983
 30
0.0
 11
72.20151402540434
 21
90.24728041210982
 31
0.0
 70
    32
  1
60
 71
     5
 42
59.29999999999999
  3
sunpo
100
AcDbAlignedDimension
 13
42.55151402540433
 23
71.79553794165414
 33
0.0
 14
101.8515140254043
 24
71.79553794165414
 34
0.0
100
AcDbRotatedDimension
1001
ACAD
1000
DSTYLE
1002
{
1070
    40
1040
1.0
1070
   279
1070
     1
1002
}
  0
DIMENSION
  5
34D2
330
1F
100
AcDbEntity
  8
寸法線
100
AcDbDimension
  2
*D17
 10
136.8515140254042
 20
86.74728041210983
 30
0.0
 11
119.3515140254043
 21
90.24728041210982
 31
0.0
 70
    32
 71
     5
 42
34.99999999999997
  3
sunpo
100
AcDbAlignedDimension
 13
101.8515140254043
 23
71.79553794165414
 33
0.0
 14
136.8515140254042
 24
51.79553794165414
 34
0.0
100
AcDbRotatedDimension
1001
ACAD
1000
DSTYLE
1002
{
1070
    40
1040
1.0
1070
   279
1070
     1
1002
}
  0
DIMENSION
  5
34E8
330
1F
100
AcDbEntity
  8
寸法線
100
AcDbDimension
  2
*D18
 10
229.7453422155109
 20
97.87231658360429
 30
0.0
 11
219.7453422155109
 21
101.3728087095885
 31
0.0
 70
    32
 71
     5
 42
20.0
  3
sunpo
100
AcDbAlignedDimension
 13
209.7453422155109
 23
152.8211488256961
 33
0.0
 14
229.7453422155109
 24
117.8211488256961
 34
0.0
100
AcDbRotatedDimension
1001
ACAD
1000
DSTYLE
1002
{
1070
    40
1040
1.0
1002
}
  0
DIMENSION
  5
34F5
330
1F
100
AcDbEntity
  8
寸法線
100
AcDbDimension
  2
*D19
 10
289.0453422155109
 20
97.87231658360429
 30
0.0
 11
259.3953422155109
 21
101.3723165836042
 31
0.0
 70
    32
  1
60
 71
     5
 42
59.29999999999998
  3
sunpo
100
AcDbAlignedDimension
 13
229.7453422155109
 23
117.8211488256961
 33
0.0
 14
289.0453422155109
 24
117.8211488256961
 34
0.0
100
AcDbRotatedDimension
1001
ACAD
1000
DSTYLE
1002
{
1070
    40
1040
1.0
1070
   279
1070
     1
1002
}
  0
DIMENSION
  5
3502
330
1F
100
AcDbEntity
  8
寸法線
100
AcDbDimension
  2
*D20
 10
309.0453422155109
 20
97.87231658360429
 30
0.0
 11
299.0453422155109
 21
101.3728087095885
 31
0.0
 70
    32
 71
     5
 42
20.0
  3
sunpo
100
AcDbAlignedDimension
 13
289.0453422155109
 23
117.8211488256961
 33
0.0
 14
309.0453422155109
 24
152.8211488256961
 34
0.0
100
AcDbRotatedDimension
1001
ACAD
1000
DSTYLE
1002
{
1070
    40
1040
1.0
1070
   279
1070
     1
1002
}
  0
DIMENSION
  5
3536
330
1F
100
AcDbEntity
  8
寸法線
100
AcDbDimension
  2
*D21
 10
323.8490624280684
 20
150.8211488256961
 30
0.0
 11
320.3490624280683
 21
133.3211488256961
 31
0.0
 70
    32
 71
     5
 42
34.99999999999997
  3
sunpo
100
AcDbAlignedDimension
 13
287.0453422155108
 23
115.8211488256961
 33
0.0
 14
307.0453422155108
 24
150.8211488256961
 34
0.0
 50
90.0
100
AcDbRotatedDimension
1001
ACAD
1000
DSTYLE
1002
{
1070
    40
1040
1.0
1002
}
  0
DIMENSION
  5
3543
330
1F
100
AcDbEntity
  8
寸法線
100
AcDbDimension
  2
*D22
 10
323.8490624280684
 20
210.1211488256961
 30
0.0
 11
320.3490624280683
 21
180.4711488256961
 31
0.0
 70
    32
  1
60
 71
     5
 42
59.30000000000006
  3
sunpo
100
AcDbAlignedDimension
 13
307.0453422155108
 23
150.8211488256961
 33
0.0
 14
307.0453422155108
 24
210.1211488256962
 34
0.0
 50
90.0
100
AcDbRotatedDimension
1001
ACAD
1000
DSTYLE
1002
{
1070
    40
1040
1.0
1070
   279
1070
     1
1002
}
  0
DIMENSION
  5
3550
330
1F
100
AcDbEntity
  8
寸法線
100
AcDbDimension
  2
*D23
 10
323.8490624280684
 20
245.1211488256961
 30
0.0
 11
320.3490624280683
 21
227.6211488256962
 31
0.0
 70
    32
 71
     5
 42
34.99999999999997
  3
sunpo
100
AcDbAlignedDimension
 13
307.0453422155108
 23
210.1211488256962
 33
0.0
 14
287.0453422155108
 24
245.1211488256961
 34
0.0
 50
90.0
100
AcDbRotatedDimension
1001
ACAD
1000
DSTYLE
1002
{
1070
    40
1040
1.0
1070
   279
1070
     1
1002
}
  0
TEXT
  5
3571
330
1F
100
AcDbEntity
  8
文字
100
AcDbText
 10
153.3130344481856
 20
128.2624305072611
 30
0.0
 40
4.799999999999999
  1
8mm六角レンチ仕様
 51
15.0
  7
OKANO
100
AcDbText
  0
LEADER
  5
3572
330
1F
100
AcDbEntity
  8
寸法線
100
AcDbLeader
  3
sunpo
 76
     2
 10
179.0305613545356
 20
116.6182207904198
 30
0.0
 10
187.2233505033141
 20
126.9851805956318
 30
0.0
1001
ACAD
1000
DSTYLE
1002
{
1070
   147
1040
1.0
1070
    77
1070
     0
1002
}
  0
DIMENSION
  5
358E
330
1F
100
AcDbEntity
  8
寸法線
100
AcDbDimension
  2
*D24
 10
93.11595848097587
 20
167.424750352753
 30
0.0
 11
67.78652618081072
 21
183.225211492583
 31
0.0
 70
   163
  1
49.3～50
 71
     5
 42
49.30000000000001
  3
sunpo
100
AcDbDiametricDimension
 15
51.28706956983277
 25
193.5175472986393
 35
0.0
 40
0.0
1001
ACAD
1000
DSTYLE
1002
{
1070
    40
1040
1.0
1070
   288
1070
     1
1002
}
  0
DIMENSION
  5
35C9
330
1F
100
AcDbEntity
  8
寸法線
100
AcDbDimension
  2
*D25
 10
131.9524556945934
 20
191.4159470190049
 30
0.0
 11
124.8036856850121
 21
194.9164391449892
 31
0.0
 70
    32
  1
20
 71
     5
 42
14.29754001916262
  3
sunpo
100
AcDbAlignedDimension
 13
117.6549156754308
 23
180.593006721785
 33
0.0
 14
131.9524556945934
 24
180.1600897405637
 34
0.0
100
AcDbRotatedDimension
1001
ACAD
1000
DSTYLE
1002
{
1070
    40
1040
1.0
1002
}
  0
DIMENSION
  5
35DF
330
1F
100
AcDbEntity
  8
寸法線
100
AcDbDimension
  2
*D26
 10
83.6377369909197
 20
219.6500099269507
 30
0.0
 11
77.75420326347452
 21
219.4277013230338
 31
0.0
 70
    33
  1
10
 71
     5
 42
9.468978875752213
  3
sunpo
100
AcDbAlignedDimension
 13
87.6316039697299
 23
199.4886850583952
 33
0.0
 14
95.02790855579588
 24
205.4010652406552
 34
0.0
1001
ACAD
1000
DSTYLE
1002
{
1070
    40
1040
1.0
1002
}
  0
TEXT
  5
35F6
330
1F
100
AcDbEntity
  8
文字
100
AcDbText
 10
200.5544905775418
 20
51.31042132632138
 30
0.0
 40
4.799999999999999
  1
重量　1330g
 51
15.0
  7
OKANO
100
AcDbText
  0
TEXT
  5
35F7
330
1F
100
AcDbEntity
  8
文字
100
AcDbText
 10
200.5544905775418
 20
39.84606852289903
 30
0.0
 40
4.799999999999999
  1
JAN 4562182300324
 51
15.0
  7
OKANO
100
AcDbText
  0
TEXT
  5
362A
330
1F
100
AcDbEntity
  8
寸法線
100
AcDbText
 10
157.1891032690819
 20
81.58813059221676
 30
0.0
 40
4.799999999999999
  1
PF3/8 inch19yama クボミ先ホーローセット使用
 51
15.0
  7
OKANO
100
AcDbText
  0
VIEWPORT
  5
2E
330
1B
100
AcDbEntity
 67
     1
  8
0
100
AcDbViewport
 10
242.1062383468081
 20
122.4766741449475
 30
0.0
 40
713.0738369192108
 41
362.1723808167118
 68
     2
 69
     1
 12
242.1062383468081
 22
122.4766741449475
 13
0.0
 23
0.0
 14
10.0
 24
10.0
 15
10.0
 25
10.0
 16
0.0
 26
0.0
 36
1.0
 17
0.0
 27
0.0
 37
0.0
 42
50.0
 43
0.0
 44
0.0
 45
362.1723808167118
 50
0.0
 51
0.0
 72
   100
 90
    32800
  1

281
     0
 71
     1
 74
     0
110
0.0
120
0.0
130
0.0
111
1.0
121
0.0
131
0.0
112
0.0
122
1.0
132
0.0
 79
     0
146
0.0
  0
VIEWPORT
  5
30
330
1B
100
AcDbEntity
 67
     1
  8
70-0-CON
100
AcDbViewport
 10
141.8594093064315
 20
100.3480256368386
 30
0.0
 40
261.6199023344245
 41
192.6196987113174
 68
     1
 69
     2
 12
163.7586910274927
 22
115.7678789311624
 13
0.0
 23
0.0
 14
5.0
 24
5.0
 15
10.0
 25
10.0
 16
0.0
 26
0.0
 36
1.0
 17
0.0
 27
0.0
 37
0.0
 42
50.0
 43
0.0
 44
0.0
 45
311.7486259596642
 50
0.0
 51
0.0
 72
   100
 90
    32864
  1

281
     0
 71
     1
 74
     0
110
0.0
120
0.0
130
0.0
111
1.0
121
0.0
131
0.0
112
0.0
122
1.0
132
0.0
 79
     0
146
0.0
  0
LWPOLYLINE
  5
45
330
1B
100
AcDbEntity
 67
     1
  8
50-0-CON
100
AcDbPolyline
 90
        4
 70
     1
 43
0.0
 10
11.04945813921926
 20
4.038176281179858
 10
272.2125713060605
 20
4.033520706629644
 10
273.4987754093466
 20
195.9297862125246
 10
11.04945813921926
 20
196.6578749924973
  0
LINE
  5
4A
330
1B
100
AcDbEntity
 67
     1
  8
50-0-CON
100
AcDbLine
 10
10.38768783662635
 20
100.3480256368386
 30
0.0
 11
-4.391850629656119
 21
100.3480256368386
 31
0.0
  0
LINE
  5
4B
330
1B
100
AcDbEntity
 67
     1
  8
50-0-CON
100
AcDbLine
 10
141.8594093064315
 20
197.098652626247
 30
0.0
 11
141.8594093064315
 21
202.387980773708
 31
0.0
  0
LINE
  5
4C
330
1B
100
AcDbEntity
 67
     1
  8
50-0-CON
100
AcDbLine
 10
272.4487699456857
 20
100.7888032705883
 30
0.0
 11
278.8458837249377
 21
100.7888032705883
 31
0.0
  0
LINE
  5
4D
330
1B
100
AcDbEntity
 67
     1
  8
50-0-CON
100
AcDbLine
 10
140.9770484758805
 20
4.038176281179858
 30
0.0
 11
140.9770484758805
 21
-3.455038652015446
 31
0.0
  0
ENDSEC
  0
SECTION
  2
OBJECTS
  0
DICTIONARY
  5
C
330
0
100
AcDbDictionary
281
     1
  3
ACAD_GROUP
350
D
  3
ACAD_LAYOUT
350
1A
  3
ACAD_MLINESTYLE
350
17
  3
ACAD_PLOTSETTINGS
350
19
  3
ACAD_PLOTSTYLENAME
350
E
  3
AcadDim
350
13D0
  3
AcDbVariableDictionary
350
6AD
  3
DWGPROPS
350
30F
  0
DICTIONARY
  5
D
102
{ACAD_REACTORS
330
C
102
}
330
C
100
AcDbDictionary
281
     1
  0
DICTIONARY
  5
1A
102
{ACAD_REACTORS
330
C
102
}
330
C
100
AcDbDictionary
281
     1
  3
A4
350
1E
  3
Model
350
22
  0
DICTIONARY
  5
17
102
{ACAD_REACTORS
330
C
102
}
330
C
100
AcDbDictionary
281
     1
  3
Standard
350
18
  0
DICTIONARY
  5
19
102
{ACAD_REACTORS
330
C
102
}
330
C
100
AcDbDictionary
281
     1
  0
ACDBDICTIONARYWDFLT
  5
E
102
{ACAD_REACTORS
330
C
102
}
330
C
100
AcDbDictionary
281
     1
  3
Normal
350
F
100
AcDbDictionaryWithDefault
340
F
  0
XRECORD
  5
13D0
102
{ACAD_REACTORS
330
C
102
}
330
C
100
AcDbXrecord
280
     1
 90
   990106
  3

 60
     0
 61
     0
 62
     1
 63
     3
 64
     0
 65
     0
 66
     0
 67
     3
 68
     1
 69
     0
 70
     0
 71
     0
 72
     0
 40
0.5461871849606724
170
     0
  0
DICTIONARY
  5
6AD
102
{ACAD_REACTORS
330
C
102
}
330
C
100
AcDbDictionary
281
     1
  3
SORTENTS
350
6AE
  0
XRECORD
  5
30F
102
{ACAD_REACTORS
330
C
102
}
330
C
100
AcDbXrecord
280
     1
  1
DWGPROPS COOKIE
  2

  3

  4

  6

  7

  8

  9

300
=
301
=
302
=
303
=
304
=
305
=
306
=
307
=
308
=
309
=
 40
0.3303803125
 41
2452362.482225463
 42
2452370.969861285
  1

 90
        0
  0
LAYOUT
  5
1E
102
{ACAD_REACTORS
330
1A
102
}
330
1A
100
AcDbPlotSettings
  1

  2
EPSON PM-920C
  4
A4
  6

 40
3.757083177566528
 41
14.7637300491333
 42
3.757080078125
 43
3.757080078125
 44
209.9733276367187
 45
296.9683227539062
 46
0.0
 47
0.0
 48
0.0
 49
0.0
140
0.0
141
0.0
142
1.0
143
1.0
 70
   688
 72
     1
 73
     1
 74
     5
  7
joint.ctb
 75
    16
147
1.0
148
0.0
149
0.0
100
AcDbLayout
  1
A4
 70
     1
 71
     1
 10
-3.757080078125
 20
-3.757083177566528
 11
293.2112426757812
 21
206.2162444591522
 12
0.0
 22
0.0
 32
0.0
 14
-4.391850629656119
 24
-3.455038652015446
 34
0.0
 15
278.8458837249377
 25
202.387980773708
 35
0.0
146
0.0
 13
0.0
 23
0.0
 33
0.0
 16
1.0
 26
0.0
 36
0.0
 17
0.0
 27
1.0
 37
0.0
 76
     0
330
1B
331
30
  0
LAYOUT
  5
22
102
{ACAD_REACTORS
330
1A
102
}
330
1A
100
AcDbPlotSettings
  1

  2
EPSON PM-920C
  4
A4
  6

 40
3.757083177566528
 41
14.7637300491333
 42
3.757080078125
 43
3.757080078125
 44
209.9733276367187
 45
296.9683227539062
 46
0.0
 47
0.0
 48
0.0
 49
0.0
140
0.0
141
0.0
142
1.0
143
1.0
 70
 11952
 72
     1
 73
     1
 74
     0
  7

 75
     0
147
1.0
148
-45.64199848979289
149
-84.48806419330498
100
AcDbLayout
  1
Model
 70
     1
 71
     0
 10
0.0
 20
0.0
 11
12.0
 21
9.0
 12
0.0
 22
0.0
 32
0.0
 14
0.0
 24
0.0
 34
0.0
 15
0.0
 25
0.0
 35
0.0
146
0.0
 13
0.0
 23
0.0
 33
0.0
 16
1.0
 26
0.0
 36
0.0
 17
0.0
 27
1.0
 37
0.0
 76
     0
330
1F
  0
MLINESTYLE
  5
18
102
{ACAD_REACTORS
330
17
102
}
330
17
100
AcDbMlineStyle
  2
STANDARD
 70
     0
  3

 62
   256
 51
90.0
 52
90.0
 71
     2
 49
0.5
 62
   256
  6
BYLAYER
 49
-0.5
 62
   256
  6
BYLAYER
  0
ACDBPLACEHOLDER
  5
F
102
{ACAD_REACTORS
330
E
102
}
330
E
  0
DICTIONARYVAR
  5
6AE
102
{ACAD_REACTORS
330
6AD
102
}
330
6AD
100
DictionaryVariables
280
     0
  1
96
  0
ENDSEC
  0
EOF
