  0
SECTION
  2
HEADER
  9
$ACADVER
  1
AC1015
  9
$ACADMAINTVER
 70
     6
  9
$DWGCODEPAGE
  3
ANSI_932
  9
$INSBASE
 10
0.0
 20
0.0
 30
0.0
  9
$EXTMIN
 10
22.01362022271607
 20
-365.3742784373452
 30
0.0
  9
$EXTMAX
 10
668.3709422511339
 20
111.0993779243956
 30
0.0
  9
$LIMMIN
 10
0.0
 20
0.0
  9
$LIMMAX
 10
420.0
 20
297.0
  9
$ORTHOMODE
 70
     0
  9
$REGENMODE
 70
     1
  9
$FILLMODE
 70
     1
  9
$QTEXTMODE
 70
     0
  9
$MIRRTEXT
 70
     1
  9
$LTSCALE
 40
1.0
  9
$ATTMODE
 70
     1
  9
$TEXTSIZE
 40
5.0
  9
$TRACEWID
 40
1.0
  9
$TEXTSTYLE
  7
OKANO
  9
$CLAYER
  8
太線
  9
$CELTYPE
  6
ByLayer
  9
$CECOLOR
 62
   256
  9
$CELTSCALE
 40
1.0
  9
$DISPSILH
 70
     0
  9
$DIMSCALE
 40
0.0
  9
$DIMASZ
 40
3.0
  9
$DIMEXO
 40
2.0
  9
$DIMDLI
 40
8.0
  9
$DIMRND
 40
0.0
  9
$DIMDLE
 40
0.0
  9
$DIMEXE
 40
3.0
  9
$DIMTP
 40
0.0
  9
$DIMTM
 40
0.0
  9
$DIMTXT
 40
5.0
  9
$DIMCEN
 40
2.5
  9
$DIMTSZ
 40
0.0
  9
$DIMTOL
 70
     0
  9
$DIMLIM
 70
     0
  9
$DIMTIH
 70
     0
  9
$DIMTOH
 70
     0
  9
$DIMSE1
 70
     0
  9
$DIMSE2
 70
     0
  9
$DIMTAD
 70
     1
  9
$DIMZIN
 70
     8
  9
$DIMBLK
  1
Closed
  9
$DIMASO
 70
     1
  9
$DIMSHO
 70
     1
  9
$DIMPOST
  1

  9
$DIMAPOST
  1

  9
$DIMALT
 70
     0
  9
$DIMALTD
 70
     3
  9
$DIMALTF
 40
0.03937007874016
  9
$DIMLFAC
 40
1.0
  9
$DIMTOFL
 70
     1
  9
$DIMTVP
 40
0.0
  9
$DIMTIX
 70
     0
  9
$DIMSOXD
 70
     0
  9
$DIMSAH
 70
     0
  9
$DIMBLK1
  1

  9
$DIMBLK2
  1

  9
$DIMSTYLE
  2
sunpo
  9
$DIMCLRD
 70
     0
  9
$DIMCLRE
 70
     0
  9
$DIMCLRT
 70
     0
  9
$DIMTFAC
 40
1.0
  9
$DIMGAP
 40
1.0
  9
$DIMJUST
 70
     0
  9
$DIMSD1
 70
     0
  9
$DIMSD2
 70
     0
  9
$DIMTOLJ
 70
     0
  9
$DIMTZIN
 70
     8
  9
$DIMALTZ
 70
     0
  9
$DIMALTTZ
 70
     0
  9
$DIMUPT
 70
     0
  9
$DIMDEC
 70
     2
  9
$DIMTDEC
 70
     2
  9
$DIMALTU
 70
     2
  9
$DIMALTTD
 70
     3
  9
$DIMTXSTY
  7
OKANO
  9
$DIMAUNIT
 70
     0
  9
$DIMADEC
 70
     0
  9
$DIMALTRND
 40
0.0
  9
$DIMAZIN
 70
     0
  9
$DIMDSEP
 70
    46
  9
$DIMATFIT
 70
     3
  9
$DIMFRAC
 70
     0
  9
$DIMLDRBLK
  1
Closed
  9
$DIMLUNIT
 70
     2
  9
$DIMLWD
 70
    -2
  9
$DIMLWE
 70
    -2
  9
$DIMTMOVE
 70
     0
  9
$LUNITS
 70
     2
  9
$LUPREC
 70
     2
  9
$SKETCHINC
 40
1.0
  9
$FILLETRAD
 40
2.0
  9
$AUNITS
 70
     0
  9
$AUPREC
 70
     0
  9
$MENU
  1
.
  9
$ELEVATION
 40
0.0
  9
$PELEVATION
 40
0.0
  9
$THICKNESS
 40
0.0
  9
$LIMCHECK
 70
     0
  9
$CHAMFERA
 40
10.0
  9
$CHAMFERB
 40
10.0
  9
$CHAMFERC
 40
20.0
  9
$CHAMFERD
 40
0.0
  9
$SKPOLY
 70
     0
  9
$TDCREATE
 40
2452362.482225463
  9
$TDUCREATE
 40
2452362.107225463
  9
$TDUPDATE
 40
2455968.431756227
  9
$TDUUPDATE
 40
2455968.056756227
  9
$TDINDWG
 40
2.7204764352
  9
$TDUSRTIMER
 40
2.7204764352
  9
$USRTIMER
 70
     1
  9
$ANGBASE
 50
0.0
  9
$ANGDIR
 70
     0
  9
$PDMODE
 70
     0
  9
$PDSIZE
 40
0.0
  9
$PLINEWID
 40
0.0
  9
$SPLFRAME
 70
     0
  9
$SPLINETYPE
 70
     6
  9
$SPLINESEGS
 70
     8
  9
$HANDSEED
  5
3CE1
  9
$SURFTAB1
 70
     6
  9
$SURFTAB2
 70
     6
  9
$SURFTYPE
 70
     6
  9
$SURFU
 70
     6
  9
$SURFV
 70
     6
  9
$UCSBASE
  2

  9
$UCSNAME
  2

  9
$UCSORG
 10
0.0
 20
0.0
 30
0.0
  9
$UCSXDIR
 10
1.0
 20
0.0
 30
0.0
  9
$UCSYDIR
 10
0.0
 20
1.0
 30
0.0
  9
$UCSORTHOREF
  2

  9
$UCSORTHOVIEW
 70
     0
  9
$UCSORGTOP
 10
0.0
 20
0.0
 30
0.0
  9
$UCSORGBOTTOM
 10
0.0
 20
0.0
 30
0.0
  9
$UCSORGLEFT
 10
0.0
 20
0.0
 30
0.0
  9
$UCSORGRIGHT
 10
0.0
 20
0.0
 30
0.0
  9
$UCSORGFRONT
 10
0.0
 20
0.0
 30
0.0
  9
$UCSORGBACK
 10
0.0
 20
0.0
 30
0.0
  9
$PUCSBASE
  2

  9
$PUCSNAME
  2

  9
$PUCSORG
 10
0.0
 20
0.0
 30
0.0
  9
$PUCSXDIR
 10
1.0
 20
0.0
 30
0.0
  9
$PUCSYDIR
 10
0.0
 20
1.0
 30
0.0
  9
$PUCSORTHOREF
  2

  9
$PUCSORTHOVIEW
 70
     0
  9
$PUCSORGTOP
 10
0.0
 20
0.0
 30
0.0
  9
$PUCSORGBOTTOM
 10
0.0
 20
0.0
 30
0.0
  9
$PUCSORGLEFT
 10
0.0
 20
0.0
 30
0.0
  9
$PUCSORGRIGHT
 10
0.0
 20
0.0
 30
0.0
  9
$PUCSORGFRONT
 10
0.0
 20
0.0
 30
0.0
  9
$PUCSORGBACK
 10
0.0
 20
0.0
 30
0.0
  9
$USERI1
 70
     0
  9
$USERI2
 70
     0
  9
$USERI3
 70
     0
  9
$USERI4
 70
     0
  9
$USERI5
 70
     0
  9
$USERR1
 40
0.0
  9
$USERR2
 40
0.0
  9
$USERR3
 40
0.0
  9
$USERR4
 40
0.0
  9
$USERR5
 40
0.0
  9
$WORLDVIEW
 70
     1
  9
$SHADEDGE
 70
     3
  9
$SHADEDIF
 70
    70
  9
$TILEMODE
 70
     0
  9
$MAXACTVP
 70
    64
  9
$PINSBASE
 10
0.0
 20
0.0
 30
0.0
  9
$PLIMCHECK
 70
     0
  9
$PEXTMIN
 10
-4.391850629656119
 20
-3.455038652015446
 30
0.0
  9
$PEXTMAX
 10
278.8458837249377
 20
202.387980773708
 30
0.0
  9
$PLIMMIN
 10
-3.757080078125
 20
-3.757083177566528
  9
$PLIMMAX
 10
293.2112426757812
 20
206.2162444591522
  9
$UNITMODE
 70
     0
  9
$VISRETAIN
 70
     1
  9
$PLINEGEN
 70
     0
  9
$PSLTSCALE
 70
     1
  9
$TREEDEPTH
 70
  3020
  9
$CMLSTYLE
  2
Standard
  9
$CMLJUST
 70
     0
  9
$CMLSCALE
 40
20.0
  9
$PROXYGRAPHICS
 70
     1
  9
$MEASUREMENT
 70
     1
  9
$CELWEIGHT
370
    -1
  9
$ENDCAPS
280
     0
  9
$JOINSTYLE
280
     0
  9
$LWDISPLAY
290
     0
  9
$INSUNITS
 70
     4
  9
$HYPERLINKBASE
  1

  9
$STYLESHEET
  1

  9
$XEDIT
290
     1
  9
$CEPSNTYPE
380
     0
  9
$PSTYLEMODE
290
     1
  9
$FINGERPRINTGUID
  2
{FF7F33C3-4233-11D6-AEE0-0000F45FD7F4}
  9
$VERSIONGUID
  2
{A44A3E16-A958-4F08-8EB4-41FB5B7EFFC7}
  9
$EXTNAMES
290
     1
  9
$PSVPSCALE
 40
0.0
  9
$OLESTARTUP
290
     0
  0
ENDSEC
  0
SECTION
  2
CLASSES
  0
CLASS
  1
ACDBDICTIONARYWDFLT
  2
AcDbDictionaryWithDefault
  3
AutoCAD 2000
 90
        0
280
     0
281
     0
  0
CLASS
  1
ACDBPLACEHOLDER
  2
AcDbPlaceHolder
  3
AutoCAD 2000
 90
        0
280
     0
281
     0
  0
CLASS
  1
LAYOUT
  2
AcDbLayout
  3
AutoCAD 2000
 90
        0
280
     0
281
     0
  0
CLASS
  1
DICTIONARYVAR
  2
AcDbDictionaryVar
  3
AutoCAD 2000
 90
        0
280
     0
281
     0
  0
ENDSEC
  0
SECTION
  2
TABLES
  0
TABLE
  2
VPORT
  5
8
330
0
100
AcDbSymbolTable
 70
     2
  0
VPORT
  5
3CE0
330
8
100
AcDbSymbolTableRecord
100
AcDbViewportTableRecord
  2
*Active
 70
     0
 10
0.0
 20
0.0
 11
1.0
 21
1.0
 12
505.3093133138147
 22
-128.2818183430708
 13
0.0
 23
0.0
 14
5.0
 24
5.0
 15
10.0
 25
10.0
 16
0.0
 26
0.0
 36
1.0
 17
0.0
 27
0.0
 37
0.0
 40
864.2753222147025
 41
1.968879668049792
 42
50.0
 43
0.0
 44
0.0
 50
0.0
 51
0.0
 71
     0
 72
   100
 73
     1
 74
     3
 75
     0
 76
     0
 77
     0
 78
     0
281
     0
 65
     1
110
0.0
120
0.0
130
0.0
111
1.0
121
0.0
131
0.0
112
0.0
122
1.0
132
0.0
 79
     0
146
0.0
  0
ENDTAB
  0
TABLE
  2
LTYPE
  5
5
330
0
100
AcDbSymbolTable
 70
     5
  0
LTYPE
  5
14
330
5
100
AcDbSymbolTableRecord
100
AcDbLinetypeTableRecord
  2
ByBlock
 70
     0
  3

 72
    65
 73
     0
 40
0.0
  0
LTYPE
  5
15
330
5
100
AcDbSymbolTableRecord
100
AcDbLinetypeTableRecord
  2
ByLayer
 70
     0
  3

 72
    65
 73
     0
 40
0.0
  0
LTYPE
  5
16
330
5
100
AcDbSymbolTableRecord
100
AcDbLinetypeTableRecord
  2
Continuous
 70
     0
  3
Solid line
 72
    65
 73
     0
 40
0.0
  0
LTYPE
  5
33
330
5
100
AcDbSymbolTableRecord
100
AcDbLinetypeTableRecord
  2
DASHED2
 70
     0
  3
Dashed (.5x) _ _ _ _ _ _ _ _ _ _ _ _ _ _ _ _ _
 72
    65
 73
     2
 40
9.524999999999998
 49
6.349999999999999
 74
     0
 49
-3.174999999999999
 74
     0
  0
LTYPE
  5
34
330
5
100
AcDbSymbolTableRecord
100
AcDbLinetypeTableRecord
  2
CENTER2
 70
     0
  3
Center (.5x) ___ _ ___ _ ___ _ ___ _ ___ _ ___
 72
    65
 73
     4
 40
28.57499999999999
 49
19.05
 74
     0
 49
-3.174999999999999
 74
     0
 49
3.174999999999999
 74
     0
 49
-3.174999999999999
 74
     0
  0
LTYPE
  5
35
330
5
100
AcDbSymbolTableRecord
100
AcDbLinetypeTableRecord
  2
PHANTOM2
 70
     0
  3
Phantom (.5x) ___ _ _ ___ _ _ ___ _ _ ___ _ _
 72
    65
 73
     6
 40
31.75
 49
15.875
 74
     0
 49
-3.174999999999999
 74
     0
 49
3.174999999999999
 74
     0
 49
-3.174999999999999
 74
     0
 49
3.174999999999999
 74
     0
 49
-3.174999999999999
 74
     0
  0
LTYPE
  5
36
330
5
100
AcDbSymbolTableRecord
100
AcDbLinetypeTableRecord
  2
HIDDEN2
 70
     0
  3
Hidden (.5x) _ _ _ _ _ _ _ _ _ _ _ _ _ _ _ _ _
 72
    65
 73
     2
 40
4.762499999999999
 49
3.174999999999999
 74
     0
 49
-1.587499999999999
 74
     0
  0
ENDTAB
  0
TABLE
  2
LAYER
  5
2
330
0
100
AcDbSymbolTable
 70
    13
  0
LAYER
  5
10
330
2
100
AcDbSymbolTableRecord
100
AcDbLayerTableRecord
  2
0
 70
     0
 62
     7
  6
Continuous
370
    -3
390
F
  0
LAYER
  5
40
330
2
100
AcDbSymbolTableRecord
100
AcDbLayerTableRecord
  2
50-0-CON
 70
     0
 62
     4
  6
Continuous
370
    50
390
F
  0
LAYER
  5
41
330
2
100
AcDbSymbolTableRecord
100
AcDbLayerTableRecord
  2
70-0-CON
 70
     0
 62
   202
  6
Continuous
370
    70
390
F
  0
LAYER
  5
4E
330
2
100
AcDbSymbolTableRecord
100
AcDbLayerTableRecord
  2
極太線
 70
     0
 62
     7
  6
Continuous
370
    70
390
F
  0
LAYER
  5
4F
330
2
100
AcDbSymbolTableRecord
100
AcDbLayerTableRecord
  2
細線
 70
     0
 62
     8
  6
Continuous
370
    18
390
F
  0
LAYER
  5
AB
330
2
100
AcDbSymbolTableRecord
100
AcDbLayerTableRecord
  2
構築線
 70
     0
 62
    -2
  6
Continuous
370
    18
390
F
  0
LAYER
  5
B8
330
2
100
AcDbSymbolTableRecord
100
AcDbLayerTableRecord
  2
太線
 70
     0
 62
     7
  6
Continuous
370
    35
390
F
  0
LAYER
  5
B9
330
2
100
AcDbSymbolTableRecord
100
AcDbLayerTableRecord
  2
寸法線
 70
     0
 62
     5
  6
Continuous
370
    18
390
F
  0
LAYER
  5
BA
330
2
100
AcDbSymbolTableRecord
100
AcDbLayerTableRecord
  2
破線
 70
     0
 62
     8
  6
HIDDEN2
370
    18
390
F
  0
LAYER
  5
BB
330
2
100
AcDbSymbolTableRecord
100
AcDbLayerTableRecord
  2
中心線
 70
     0
 62
     1
  6
CENTER2
370
    18
390
F
  0
LAYER
  5
BC
330
2
100
AcDbSymbolTableRecord
100
AcDbLayerTableRecord
  2
想像線
 70
     0
 62
     8
  6
PHANTOM2
370
    18
390
F
  0
LAYER
  5
BD
330
2
100
AcDbSymbolTableRecord
100
AcDbLayerTableRecord
  2
文字
 70
     0
 62
     7
  6
Continuous
370
    18
390
F
  0
LAYER
  5
180
330
2
100
AcDbSymbolTableRecord
100
AcDbLayerTableRecord
  2
Defpoints
 70
     0
 62
     7
  6
Continuous
290
     0
370
    -3
390
F
  0
ENDTAB
  0
TABLE
  2
STYLE
  5
3
330
0
100
AcDbSymbolTable
 70
     3
  0
STYLE
  5
11
330
3
100
AcDbSymbolTableRecord
100
AcDbTextStyleTableRecord
  2
Standard
 70
     0
 40
0.0
 41
1.0
 50
0.0
 71
     0
 42
3.0
  3
txt
  4

  0
STYLE
  5
32
330
3
100
AcDbSymbolTableRecord
100
AcDbTextStyleTableRecord
  2

 70
     1
 40
0.0
 41
1.0
 50
0.0
 71
     0
 42
2.5
  3
ltypeshp.shx
  4

  0
STYLE
  5
50
330
3
100
AcDbSymbolTableRecord
100
AcDbTextStyleTableRecord
  2
OKANO
 70
     0
 40
0.0
 41
1.0
 50
15.0
 71
     0
 42
5.0
  3
isocp.shx
  4
bigfont.shx
  0
ENDTAB
  0
TABLE
  2
VIEW
  5
6
330
0
100
AcDbSymbolTable
 70
     0
  0
ENDTAB
  0
TABLE
  2
UCS
  5
7
330
0
100
AcDbSymbolTable
 70
     0
  0
ENDTAB
  0
TABLE
  2
APPID
  5
9
330
0
100
AcDbSymbolTable
 70
     1
  0
APPID
  5
12
330
9
100
AcDbSymbolTableRecord
100
AcDbRegAppTableRecord
  2
ACAD
 70
     0
  0
ENDTAB
  0
TABLE
  2
DIMSTYLE
  5
A
330
0
100
AcDbSymbolTable
 70
     2
100
AcDbDimStyleTable
 71
     2
340
A2
340
27
  0
DIMSTYLE
105
27
330
A
100
AcDbSymbolTableRecord
100
AcDbDimStyleTableRecord
  2
ISO-25
 70
     0
 41
2.5
 42
0.625
 43
3.75
 44
1.25
 73
     0
 74
     0
 77
     1
 78
     8
140
2.5
141
2.5
143
0.03937007874016
147
0.625
171
     3
172
     1
271
     2
272
     2
274
     3
283
     0
284
     8
340
11
  0
DIMSTYLE
105
A2
102
{ACAD_REACTORS
330
3520
330
38A6
330
38F8
330
38F7
330
3956
330
3963
330
3970
330
398F
330
3A56
330
3A63
330
3A70
330
3A9C
330
3AA9
330
3AB6
330
3AC3
330
3AD2
330
3B0C
330
3B19
330
3C50
102
}
330
A
100
AcDbSymbolTableRecord
100
AcDbDimStyleTableRecord
  2
sunpo
 70
     0
 40
0.0
 41
3.0
 42
2.0
 43
8.0
 44
3.0
 73
     0
 74
     0
 77
     1
 78
     8
140
5.0
141
2.5
143
0.03937007874016
147
1.0
171
     3
172
     1
271
     2
272
     2
274
     3
283
     0
284
     8
340
50
341
9B
342
9B
  0
ENDTAB
  0
TABLE
  2
BLOCK_RECORD
  5
1
330
0
100
AcDbSymbolTable
 70
    21
  0
BLOCK_RECORD
  5
1F
330
1
100
AcDbSymbolTableRecord
100
AcDbBlockTableRecord
  2
*Model_Space
340
22
  0
BLOCK_RECORD
  5
1B
330
1
100
AcDbSymbolTableRecord
100
AcDbBlockTableRecord
  2
*Paper_Space
340
1E
  0
BLOCK_RECORD
  5
9B
330
1
100
AcDbSymbolTableRecord
100
AcDbBlockTableRecord
  2
_Closed
340
0
102
{BLKREFS
331
392C
331
392D
331
3935
331
3936
331
3975
331
3976
331
3980
331
3981
331
3989
331
398A
331
3994
331
3995
331
3B75
331
3B76
331
3B7E
331
3B7F
331
3B87
331
3B88
331
3B90
331
3B91
331
3B99
331
3B9A
331
3BA4
331
3BA5
331
3BBC
331
3BBD
331
3BC4
331
3BC5
331
3BCF
331
3BD0
331
3BE1
331
3BE2
331
3C0A
331
3C0B
331
3C13
331
3C14
331
3C69
331
3C6A
102
}
  0
BLOCK_RECORD
  5
1510
330
1
100
AcDbSymbolTableRecord
100
AcDbBlockTableRecord
  2
A$C10A573AC
340
0
  0
BLOCK_RECORD
  5
3521
330
1
100
AcDbSymbolTableRecord
100
AcDbBlockTableRecord
  2
*D2
340
0
  0
BLOCK_RECORD
  5
38A7
330
1
100
AcDbSymbolTableRecord
100
AcDbBlockTableRecord
  2
*D3
340
0
  0
BLOCK_RECORD
  5
3911
330
1
100
AcDbSymbolTableRecord
100
AcDbBlockTableRecord
  2
*D4
340
0
  0
BLOCK_RECORD
  5
391D
330
1
100
AcDbSymbolTableRecord
100
AcDbBlockTableRecord
  2
*D5
340
0
  0
BLOCK_RECORD
  5
3957
330
1
100
AcDbSymbolTableRecord
100
AcDbBlockTableRecord
  2
*D6
340
0
  0
BLOCK_RECORD
  5
3964
330
1
100
AcDbSymbolTableRecord
100
AcDbBlockTableRecord
  2
*D7
340
0
  0
BLOCK_RECORD
  5
3971
330
1
100
AcDbSymbolTableRecord
100
AcDbBlockTableRecord
  2
*D8
340
0
  0
BLOCK_RECORD
  5
3990
330
1
100
AcDbSymbolTableRecord
100
AcDbBlockTableRecord
  2
*D9
340
0
  0
BLOCK_RECORD
  5
3A57
330
1
100
AcDbSymbolTableRecord
100
AcDbBlockTableRecord
  2
*D10
340
0
  0
BLOCK_RECORD
  5
3A64
330
1
100
AcDbSymbolTableRecord
100
AcDbBlockTableRecord
  2
*D11
340
0
  0
BLOCK_RECORD
  5
3A71
330
1
100
AcDbSymbolTableRecord
100
AcDbBlockTableRecord
  2
*D12
340
0
  0
BLOCK_RECORD
  5
3A9D
330
1
100
AcDbSymbolTableRecord
100
AcDbBlockTableRecord
  2
*D13
340
0
  0
BLOCK_RECORD
  5
3AAA
330
1
100
AcDbSymbolTableRecord
100
AcDbBlockTableRecord
  2
*D14
340
0
  0
BLOCK_RECORD
  5
3AB7
330
1
100
AcDbSymbolTableRecord
100
AcDbBlockTableRecord
  2
*D15
340
0
  0
BLOCK_RECORD
  5
3AC4
330
1
100
AcDbSymbolTableRecord
100
AcDbBlockTableRecord
  2
*D16
340
0
  0
BLOCK_RECORD
  5
3AD3
330
1
100
AcDbSymbolTableRecord
100
AcDbBlockTableRecord
  2
*D17
340
0
  0
BLOCK_RECORD
  5
3B0D
330
1
100
AcDbSymbolTableRecord
100
AcDbBlockTableRecord
  2
*D18
340
0
  0
BLOCK_RECORD
  5
3B1A
330
1
100
AcDbSymbolTableRecord
100
AcDbBlockTableRecord
  2
*D19
340
0
  0
BLOCK_RECORD
  5
3C51
330
1
100
AcDbSymbolTableRecord
100
AcDbBlockTableRecord
  2
*D20
340
0
  0
ENDTAB
  0
ENDSEC
  0
SECTION
  2
BLOCKS
  0
BLOCK
  5
20
330
1F
100
AcDbEntity
  8
0
100
AcDbBlockBegin
  2
*Model_Space
 70
     0
 10
0.0
 20
0.0
 30
0.0
  3
*Model_Space
  1

  0
ENDBLK
  5
21
330
1F
100
AcDbEntity
  8
0
100
AcDbBlockEnd
  0
BLOCK
  5
1C
330
1B
100
AcDbEntity
 67
     1
  8
0
100
AcDbBlockBegin
  2
*Paper_Space
 70
     0
 10
0.0
 20
0.0
 30
0.0
  3
*Paper_Space
  1

  0
ENDBLK
  5
1D
330
1B
100
AcDbEntity
 67
     1
  8
0
100
AcDbBlockEnd
  0
BLOCK
  5
A0
330
9B
100
AcDbEntity
  8
0
100
AcDbBlockBegin
  2
_Closed
 70
     0
 10
0.0
 20
0.0
 30
0.0
  3
_Closed
  1

  0
LINE
  5
9C
330
9B
100
AcDbEntity
  8
0
 62
     0
370
    -2
100
AcDbLine
 10
-1.0
 20
0.1666666666666666
 30
0.0
 11
0.0
 21
0.0
 31
0.0
  0
LINE
  5
9D
330
9B
100
AcDbEntity
  8
0
 62
     0
370
    -2
100
AcDbLine
 10
0.0
 20
0.0
 30
0.0
 11
-1.0
 21
-0.1666666666666666
 31
0.0
  0
LINE
  5
9E
330
9B
100
AcDbEntity
  8
0
 62
     0
370
    -2
100
AcDbLine
 10
-1.0
 20
0.1666666666666666
 30
0.0
 11
-1.0
 21
-0.1666666666666666
 31
0.0
  0
LINE
  5
9F
330
9B
100
AcDbEntity
  8
0
 62
     0
370
    -2
100
AcDbLine
 10
0.0
 20
0.0
 30
0.0
 11
-1.0
 21
0.0
 31
0.0
  0
ENDBLK
  5
A1
330
9B
100
AcDbEntity
  8
0
100
AcDbBlockEnd
  0
BLOCK
  5
155B
330
1510
100
AcDbEntity
  8
0
100
AcDbBlockBegin
  2
A$C10A573AC
 70
     0
 10
0.0
 20
0.0
 30
0.0
  3
A$C10A573AC
  1

  0
TEXT
  5
1511
330
1510
100
AcDbEntity
  8
文字
100
AcDbText
 10
0.9844302777919438
 20
5.224957122252135
 30
0.0
 40
3.0
  1
Materal : Steel.
 51
15.0
  7
OKANO
100
AcDbText
  0
TEXT
  5
1512
330
1510
100
AcDbEntity
  8
文字
100
AcDbText
 10
-0.1141909619694843
 20
0.7500001922403499
 30
0.0
 40
3.0
  1
Surface treatment : Electro galvanized.
 51
15.0
  7
OKANO
100
AcDbText
  0
TEXT
  5
1513
330
1510
100
AcDbEntity
  8
文字
100
AcDbText
 10
-0.4901926332574931
 20
9.159967445193728
 30
0.0
 40
3.0
  1
5 TORGUE SCREW  M5-6
 51
15.0
  7
OKANO
100
AcDbText
  0
TEXT
  5
1514
330
1510
100
AcDbEntity
  8
文字
100
AcDbText
 10
1.364713526390005
 20
78.88822913323082
 30
0.0
 40
3.0
  1
Special standard,
 51
15.0
  7
OKANO
100
AcDbText
  0
TEXT
  5
1515
330
1510
100
AcDbEntity
  8
文字
100
AcDbText
 10
92.88160823408942
 20
89.92753849837379
 30
0.0
 40
3.0
  1
Screw Type
 51
15.0
  7
OKANO
100
AcDbText
  0
LINE
  5
1516
330
1510
100
AcDbEntity
  8
太線
100
AcDbLine
 10
113.9464587597784
 20
81.93930390144641
 30
0.0
 11
112.4464587597784
 21
81.93930390144641
 31
0.0
  0
LINE
  5
1517
330
1510
100
AcDbEntity
  8
太線
100
AcDbLine
 10
112.4464587597784
 20
76.9393039014464
 30
0.0
 11
121.4644995438761
 21
76.9393039014464
 31
0.0
  0
TEXT
  5
1518
330
1510
100
AcDbEntity
  8
文字
100
AcDbText
 10
93.46068240437217
 20
77.96976862235396
 30
0.0
 40
2.0
  1
17-30
 51
15.0
  7
OKANO
100
AcDbText
  0
LINE
  5
1519
330
1510
100
AcDbEntity
  8
太線
100
AcDbLine
 10
111.9464587597784
 20
81.43930390144641
 30
0.0
 11
111.9464587597784
 21
77.4393039014464
 31
0.0
  0
LINE
  5
151A
330
1510
100
AcDbEntity
  8
太線
100
AcDbLine
 10
91.94645875977846
 20
81.43930390144641
 30
0.0
 11
91.94645875977846
 21
77.43930390144639
 31
0.0
  0
LINE
  5
151B
330
1510
100
AcDbEntity
  8
太線
100
AcDbLine
 10
101.9644995438761
 20
77.4393039014464
 30
0.0
 11
101.9644995438761
 21
81.43930390144641
 31
0.0
  0
LINE
  5
151C
330
1510
100
AcDbEntity
  8
太線
100
AcDbLine
 10
92.44645875977846
 20
76.9393039014464
 30
0.0
 11
101.4644995438761
 21
76.9393039014464
 31
0.0
  0
ARC
  5
151D
330
1510
100
AcDbEntity
  8
太線
100
AcDbCircle
 10
92.44645875977846
 20
77.43930390144639
 30
0.0
 40
0.5
100
AcDbArc
 50
180.0
 51
270.0
  0
ARC
  5
151E
330
1510
100
AcDbEntity
  8
太線
100
AcDbCircle
 10
101.4644995438761
 20
77.4393039014464
 30
0.0
 40
0.5
100
AcDbArc
 50
270.0
 51
0.0
  0
ARC
  5
151F
330
1510
100
AcDbEntity
  8
太線
100
AcDbCircle
 10
112.4464587597784
 20
77.4393039014464
 30
0.0
 40
0.5
100
AcDbArc
 50
180.0
 51
270.0
  0
LINE
  5
1520
330
1510
100
AcDbEntity
  8
想像線
100
AcDbLine
 10
93.94645875977847
 20
81.93930390144641
 30
0.0
 11
99.96449954387617
 21
81.93930390144641
 31
0.0
  0
LINE
  5
1521
330
1510
100
AcDbEntity
  8
極太線
100
AcDbLine
 10
96.38762957111168
 20
85.43930390144641
 30
0.0
 11
97.50528794844525
 21
85.43930390144641
 31
0.0
  0
CIRCLE
  5
1522
330
1510
100
AcDbEntity
  8
太線
100
AcDbCircle
 10
96.94645875977847
 20
85.43930390144641
 30
0.0
 40
0.5588291886667776
  0
LINE
  5
1523
330
1510
100
AcDbEntity
  8
太線
100
AcDbLine
 10
99.46449954387617
 20
86.93930390144641
 30
0.0
 11
94.44645875977846
 21
86.93930390144641
 31
0.0
  0
LINE
  5
1524
330
1510
100
AcDbEntity
  8
太線
100
AcDbLine
 10
93.94645875977847
 20
86.43930390144641
 30
0.0
 11
93.94645875977847
 21
81.93930390144641
 31
0.0
  0
ARC
  5
1525
330
1510
100
AcDbEntity
  8
太線
100
AcDbCircle
 10
92.44645875977846
 20
81.43930390144641
 30
0.0
 40
0.5
100
AcDbArc
 50
90.0
 51
180.0
  0
LINE
  5
1526
330
1510
100
AcDbEntity
  8
太線
100
AcDbLine
 10
93.94645875977847
 20
81.93930390144641
 30
0.0
 11
92.44645875977846
 21
81.93930390144641
 31
0.0
  0
ARC
  5
1527
330
1510
100
AcDbEntity
  8
太線
100
AcDbCircle
 10
94.44645875977846
 20
86.43930390144641
 30
0.0
 40
0.5
100
AcDbArc
 50
90.0
 51
180.0
  0
LINE
  5
1528
330
1510
100
AcDbEntity
  8
太線
100
AcDbLine
 10
99.96449954387617
 20
81.93930390144641
 30
0.0
 11
99.96449954387617
 21
86.43930390144641
 31
0.0
  0
LINE
  5
1529
330
1510
100
AcDbEntity
  8
太線
100
AcDbLine
 10
101.4644995438761
 20
81.93930390144641
 30
0.0
 11
99.96449954387617
 21
81.93930390144641
 31
0.0
  0
ARC
  5
152A
330
1510
100
AcDbEntity
  8
太線
100
AcDbCircle
 10
101.4644995438761
 20
81.43930390144641
 30
0.0
 40
0.5
100
AcDbArc
 50
0.0
 51
90.0
  0
ARC
  5
152B
330
1510
100
AcDbEntity
  8
太線
100
AcDbCircle
 10
99.46449954387617
 20
86.43930390144641
 30
0.0
 40
0.5
100
AcDbArc
 50
0.0
 51
90.0
  0
LINE
  5
152C
330
1510
100
AcDbEntity
  8
極太線
100
AcDbLine
 10
96.94645875977847
 20
85.99813309011318
 30
0.0
 11
96.94645875977847
 21
84.88047471277964
 31
0.0
  0
ARC
  5
152D
330
1510
100
AcDbEntity
  8
太線
100
AcDbCircle
 10
112.4464587597784
 20
81.43930390144641
 30
0.0
 40
0.5
100
AcDbArc
 50
90.0
 51
180.0
  0
TEXT
  5
152E
330
1510
100
AcDbEntity
  8
文字
100
AcDbText
 10
134.3819212586066
 20
78.16263579228063
 30
0.0
 40
2.0
  1
101
 51
15.0
  7
OKANO
100
AcDbText
  0
TEXT
  5
152F
330
1510
100
AcDbEntity
  8
文字
100
AcDbText
 10
113.3422276612066
 20
77.96976862235396
 30
0.0
 40
2.0
  1
38-83
 51
15.0
  7
OKANO
100
AcDbText
  0
LINE
  5
1530
330
1510
100
AcDbEntity
  8
太線
100
AcDbLine
 10
141.9825403279738
 20
77.4393039014464
 30
0.0
 11
141.9825403279738
 21
81.43930390144641
 31
0.0
  0
LINE
  5
1531
330
1510
100
AcDbEntity
  8
太線
100
AcDbLine
 10
131.9644995438761
 20
81.43930390144641
 30
0.0
 11
131.9644995438761
 21
77.4393039014464
 31
0.0
  0
LINE
  5
1532
330
1510
100
AcDbEntity
  8
太線
100
AcDbLine
 10
121.9644995438761
 20
77.4393039014464
 30
0.0
 11
121.9644995438761
 21
81.43930390144641
 31
0.0
  0
ARC
  5
1533
330
1510
100
AcDbEntity
  8
太線
100
AcDbCircle
 10
121.4644995438761
 20
77.4393039014464
 30
0.0
 40
0.5
100
AcDbArc
 50
270.0
 51
0.0
  0
LINE
  5
1534
330
1510
100
AcDbEntity
  8
太線
100
AcDbLine
 10
132.4644995438761
 20
76.9393039014464
 30
0.0
 11
141.4825403279738
 21
76.9393039014464
 31
0.0
  0
ARC
  5
1535
330
1510
100
AcDbEntity
  8
太線
100
AcDbCircle
 10
132.4644995438761
 20
77.4393039014464
 30
0.0
 40
0.5
100
AcDbArc
 50
180.0
 51
270.0
  0
ARC
  5
1536
330
1510
100
AcDbEntity
  8
太線
100
AcDbCircle
 10
141.4825403279738
 20
77.4393039014464
 30
0.0
 40
0.5
100
AcDbArc
 50
270.0
 51
0.0
  0
ARC
  5
1537
330
1510
100
AcDbEntity
  8
太線
100
AcDbCircle
 10
121.4644995438761
 20
81.43930390144641
 30
0.0
 40
0.5
100
AcDbArc
 50
0.0
 51
90.0
  0
LINE
  5
1538
330
1510
100
AcDbEntity
  8
太線
100
AcDbLine
 10
119.9644995438761
 20
81.93930390144641
 30
0.0
 11
119.9644995438761
 21
86.43930390144641
 31
0.0
  0
LINE
  5
1539
330
1510
100
AcDbEntity
  8
太線
100
AcDbLine
 10
113.9464587597784
 20
86.43930390144641
 30
0.0
 11
113.9464587597784
 21
81.93930390144641
 31
0.0
  0
LINE
  5
153A
330
1510
100
AcDbEntity
  8
想像線
100
AcDbLine
 10
113.9464587597784
 20
81.93930390144641
 30
0.0
 11
119.9644995438761
 21
81.93930390144641
 31
0.0
  0
LINE
  5
153B
330
1510
100
AcDbEntity
  8
太線
100
AcDbLine
 10
121.4644995438761
 20
81.93930390144641
 30
0.0
 11
119.9644995438761
 21
81.93930390144641
 31
0.0
  0
LINE
  5
153C
330
1510
100
AcDbEntity
  8
太線
100
AcDbLine
 10
119.4644995438761
 20
86.93930390144641
 30
0.0
 11
114.4464587597784
 21
86.93930390144641
 31
0.0
  0
ARC
  5
153D
330
1510
100
AcDbEntity
  8
太線
100
AcDbCircle
 10
114.4464587597784
 20
86.43930390144641
 30
0.0
 40
0.5
100
AcDbArc
 50
90.0
 51
180.0
  0
CIRCLE
  5
153E
330
1510
100
AcDbEntity
  8
太線
100
AcDbCircle
 10
115.4464587597784
 20
85.43930390144641
 30
0.0
 40
0.5588291886667776
  0
LINE
  5
153F
330
1510
100
AcDbEntity
  8
極太線
100
AcDbLine
 10
115.4464587597784
 20
85.99813309011318
 30
0.0
 11
115.4464587597784
 21
84.88047471277964
 31
0.0
  0
LINE
  5
1540
330
1510
100
AcDbEntity
  8
極太線
100
AcDbLine
 10
114.8876295711116
 20
85.43930390144641
 30
0.0
 11
116.0052879484452
 21
85.43930390144641
 31
0.0
  0
ARC
  5
1541
330
1510
100
AcDbEntity
  8
太線
100
AcDbCircle
 10
119.4644995438761
 20
86.43930390144641
 30
0.0
 40
0.5
100
AcDbArc
 50
0.0
 51
90.0
  0
LINE
  5
1542
330
1510
100
AcDbEntity
  8
極太線
100
AcDbLine
 10
117.9056703552094
 20
85.43930390144641
 30
0.0
 11
119.0233287325429
 21
85.43930390144641
 31
0.0
  0
LINE
  5
1543
330
1510
100
AcDbEntity
  8
極太線
100
AcDbLine
 10
118.4644995438761
 20
85.99813309011318
 30
0.0
 11
118.4644995438761
 21
84.88047471277964
 31
0.0
  0
CIRCLE
  5
1544
330
1510
100
AcDbEntity
  8
太線
100
AcDbCircle
 10
118.4644995438761
 20
85.43930390144641
 30
0.0
 40
0.5588291886667776
  0
LINE
  5
1545
330
1510
100
AcDbEntity
  8
想像線
100
AcDbLine
 10
133.9644995438761
 20
81.93930390144641
 30
0.0
 11
139.9825403279738
 21
81.93930390144641
 31
0.0
  0
LINE
  5
1546
330
1510
100
AcDbEntity
  8
極太線
100
AcDbLine
 10
137.9237111393071
 20
85.43930390144641
 30
0.0
 11
139.0413695166406
 21
85.43930390144641
 31
0.0
  0
CIRCLE
  5
1547
330
1510
100
AcDbEntity
  8
太線
100
AcDbCircle
 10
138.4825403279738
 20
85.43930390144641
 30
0.0
 40
0.5588291886667776
  0
CIRCLE
  5
1548
330
1510
100
AcDbEntity
  8
太線
100
AcDbCircle
 10
138.4825403279738
 20
83.26342923362075
 30
0.0
 40
0.5588291886667776
  0
LINE
  5
1549
330
1510
100
AcDbEntity
  8
極太線
100
AcDbLine
 10
137.9237111393071
 20
83.26342923362075
 30
0.0
 11
139.0413695166406
 21
83.26342923362075
 31
0.0
  0
LINE
  5
154A
330
1510
100
AcDbEntity
  8
太線
100
AcDbLine
 10
139.4825403279738
 20
86.93930390144641
 30
0.0
 11
134.4644995438761
 21
86.93930390144641
 31
0.0
  0
LINE
  5
154B
330
1510
100
AcDbEntity
  8
太線
100
AcDbLine
 10
133.9644995438761
 20
86.43930390144641
 30
0.0
 11
133.9644995438761
 21
81.93930390144641
 31
0.0
  0
ARC
  5
154C
330
1510
100
AcDbEntity
  8
太線
100
AcDbCircle
 10
132.4644995438761
 20
81.43930390144641
 30
0.0
 40
0.5
100
AcDbArc
 50
90.0
 51
180.0
  0
LINE
  5
154D
330
1510
100
AcDbEntity
  8
太線
100
AcDbLine
 10
133.9644995438761
 20
81.93930390144641
 30
0.0
 11
132.4644995438761
 21
81.93930390144641
 31
0.0
  0
LINE
  5
154E
330
1510
100
AcDbEntity
  8
極太線
100
AcDbLine
 10
134.9056703552093
 20
83.26342923362075
 30
0.0
 11
136.0233287325429
 21
83.26342923362075
 31
0.0
  0
LINE
  5
154F
330
1510
100
AcDbEntity
  8
極太線
100
AcDbLine
 10
135.4644995438761
 20
83.82225842228752
 30
0.0
 11
135.4644995438761
 21
82.70460004495395
 31
0.0
  0
CIRCLE
  5
1550
330
1510
100
AcDbEntity
  8
太線
100
AcDbCircle
 10
135.4644995438761
 20
83.26342923362075
 30
0.0
 40
0.5588291886667776
  0
ARC
  5
1551
330
1510
100
AcDbEntity
  8
太線
100
AcDbCircle
 10
134.4644995438761
 20
86.43930390144641
 30
0.0
 40
0.5
100
AcDbArc
 50
90.0
 51
180.0
  0
CIRCLE
  5
1552
330
1510
100
AcDbEntity
  8
太線
100
AcDbCircle
 10
135.4644995438761
 20
85.43930390144641
 30
0.0
 40
0.5588291886667776
  0
LINE
  5
1553
330
1510
100
AcDbEntity
  8
極太線
100
AcDbLine
 10
135.4644995438761
 20
85.99813309011318
 30
0.0
 11
135.4644995438761
 21
84.88047471277964
 31
0.0
  0
LINE
  5
1554
330
1510
100
AcDbEntity
  8
極太線
100
AcDbLine
 10
134.9056703552093
 20
85.43930390144641
 30
0.0
 11
136.0233287325429
 21
85.43930390144641
 31
0.0
  0
LINE
  5
1555
330
1510
100
AcDbEntity
  8
太線
100
AcDbLine
 10
139.9825403279738
 20
81.93930390144641
 30
0.0
 11
139.9825403279738
 21
86.43930390144641
 31
0.0
  0
ARC
  5
1556
330
1510
100
AcDbEntity
  8
太線
100
AcDbCircle
 10
141.4825403279738
 20
81.43930390144641
 30
0.0
 40
0.5
100
AcDbArc
 50
0.0
 51
90.0
  0
LINE
  5
1557
330
1510
100
AcDbEntity
  8
極太線
100
AcDbLine
 10
138.4825403279738
 20
83.82225842228752
 30
0.0
 11
138.4825403279738
 21
82.70460004495395
 31
0.0
  0
LINE
  5
1558
330
1510
100
AcDbEntity
  8
太線
100
AcDbLine
 10
141.4825403279738
 20
81.93930390144641
 30
0.0
 11
139.9825403279738
 21
81.93930390144641
 31
0.0
  0
ARC
  5
1559
330
1510
100
AcDbEntity
  8
太線
100
AcDbCircle
 10
139.4825403279738
 20
86.43930390144641
 30
0.0
 40
0.5
100
AcDbArc
 50
0.0
 51
90.0
  0
LINE
  5
155A
330
1510
100
AcDbEntity
  8
極太線
100
AcDbLine
 10
138.4825403279738
 20
85.99813309011318
 30
0.0
 11
138.4825403279738
 21
84.88047471277964
 31
0.0
  0
ENDBLK
  5
155C
330
1510
100
AcDbEntity
  8
0
100
AcDbBlockEnd
  0
BLOCK
  5
352B
330
3521
100
AcDbEntity
  8
0
100
AcDbBlockBegin
  2
*D2
 70
     1
 10
0.0
 20
0.0
 30
0.0
  3
*D2
  1

  0
LINE
  5
3BDE
330
3521
100
AcDbEntity
  8
寸法線
 62
     0
370
    -2
100
AcDbLine
 10
258.9589092219364
 20
-31.81799061392178
 30
0.0
 11
258.9589092219364
 21
-38.33238612507296
 31
0.0
  0
LINE
  5
3BDF
330
3521
100
AcDbEntity
  8
寸法線
 62
     0
370
    -2
100
AcDbLine
 10
308.1751488403599
 20
-31.81799061392178
 30
0.0
 11
308.1751488403599
 21
-38.33238612507296
 31
0.0
  0
LINE
  5
3BE0
330
3521
100
AcDbEntity
  8
寸法線
 62
     0
370
    -2
100
AcDbLine
 10
261.9589092219364
 20
-35.33238612507295
 30
0.0
 11
305.1751488403599
 21
-35.33238612507295
 31
0.0
  0
INSERT
  5
3BE1
330
3521
100
AcDbEntity
  8
寸法線
 62
     0
370
    -2
100
AcDbBlockReference
  2
_Closed
 10
258.9589092219364
 20
-35.33238612507295
 30
0.0
 41
3.0
 42
3.0
 43
3.0
 50
180.0
  0
INSERT
  5
3BE2
330
3521
100
AcDbEntity
  8
寸法線
 62
     0
370
    -2
100
AcDbBlockReference
  2
_Closed
 10
308.1751488403599
 20
-35.33238612507295
 30
0.0
 41
3.0
 42
3.0
 43
3.0
  0
MTEXT
  5
3BE3
330
3521
100
AcDbEntity
  8
寸法線
 62
     0
100
AcDbMText
 10
283.5670290311481
 20
-31.83238612507295
 30
0.0
 40
5.0
 41
0.0
 71
     5
 72
     1
  1
48.6
  7
OKANO
 73
     1
 44
1.0
  0
POINT
  5
3BE4
330
3521
100
AcDbEntity
  8
Defpoints
 62
     0
100
AcDbPoint
 10
258.9589092219364
 20
-29.81799061392178
 30
0.0
  0
POINT
  5
3BE5
330
3521
100
AcDbEntity
  8
Defpoints
 62
     0
100
AcDbPoint
 10
308.1751488403599
 20
-29.81799061392178
 30
0.0
  0
POINT
  5
3BE6
330
3521
100
AcDbEntity
  8
Defpoints
 62
     0
100
AcDbPoint
 10
308.1751488403599
 20
-35.33238612507295
 30
0.0
  0
ENDBLK
  5
352C
330
3521
100
AcDbEntity
  8
0
100
AcDbBlockEnd
  0
BLOCK
  5
38B1
330
38A7
100
AcDbEntity
  8
0
100
AcDbBlockBegin
  2
*D3
 70
     1
 10
0.0
 20
0.0
 30
0.0
  3
*D3
  1

  0
LINE
  5
3B84
330
38A7
100
AcDbEntity
  8
寸法線
 62
     0
370
    -2
100
AcDbLine
 10
153.8221946321462
 20
-140.6036443505362
 30
0.0
 11
112.7288546179138
 21
-140.6036443505362
 31
0.0
  0
LINE
  5
3B85
330
38A7
100
AcDbEntity
  8
寸法線
 62
     0
370
    -2
100
AcDbLine
 10
127.5221946321462
 20
-130.6036443505362
 30
0.0
 11
112.7288546179138
 21
-130.6036443505362
 31
0.0
  0
LINE
  5
3B86
330
38A7
100
AcDbEntity
  8
寸法線
 62
     0
370
    -2
100
AcDbLine
 10
115.7288546179138
 20
-137.6036443505362
 30
0.0
 11
115.7288546179138
 21
-133.6036443505362
 31
0.0
  0
INSERT
  5
3B87
330
38A7
100
AcDbEntity
  8
寸法線
 62
     0
370
    -2
100
AcDbBlockReference
  2
_Closed
 10
115.7288546179138
 20
-140.6036443505362
 30
0.0
 41
3.0
 42
3.0
 43
3.0
 50
270.0
  0
INSERT
  5
3B88
330
38A7
100
AcDbEntity
  8
寸法線
 62
     0
370
    -2
100
AcDbBlockReference
  2
_Closed
 10
115.7288546179138
 20
-130.6036443505362
 30
0.0
 41
3.0
 42
3.0
 43
3.0
 50
90.0
  0
MTEXT
  5
3B89
330
38A7
100
AcDbEntity
  8
寸法線
 62
     0
100
AcDbMText
 10
112.2288546179138
 20
-135.6036443505362
 30
0.0
 40
5.0
 41
0.0
 71
     5
 72
     1
  1
10
  7
OKANO
 11
0.0000000000000001
 21
1.0
 31
0.0
 73
     1
 44
1.0
  0
POINT
  5
3B8A
330
38A7
100
AcDbEntity
  8
Defpoints
 62
     0
100
AcDbPoint
 10
155.8221946321462
 20
-140.6036443505362
 30
0.0
  0
POINT
  5
3B8B
330
38A7
100
AcDbEntity
  8
Defpoints
 62
     0
100
AcDbPoint
 10
129.5221946321462
 20
-130.6036443505362
 30
0.0
  0
POINT
  5
3B8C
330
38A7
100
AcDbEntity
  8
Defpoints
 62
     0
100
AcDbPoint
 10
115.7288546179138
 20
-130.6036443505362
 30
0.0
  0
ENDBLK
  5
38B2
330
38A7
100
AcDbEntity
  8
0
100
AcDbBlockEnd
  0
BLOCK
  5
391B
330
3911
100
AcDbEntity
  8
0
100
AcDbBlockBegin
  2
*D4
 70
     1
 10
0.0
 20
0.0
 30
0.0
  3
*D4
  1

  0
LINE
  5
3929
330
3911
100
AcDbEntity
  8
寸法線
 62
     0
370
    -2
100
AcDbLine
 10
106.963738871777
 20
-358.6458257646234
 30
0.0
 11
65.8703988575446
 21
-358.6458257646234
 31
0.0
  0
LINE
  5
392A
330
3911
100
AcDbEntity
  8
寸法線
 62
     0
370
    -2
100
AcDbLine
 10
106.963738871777
 20
-301.6458257646234
 30
0.0
 11
65.87039885754461
 21
-301.6458257646234
 31
0.0
  0
LINE
  5
392B
330
3911
100
AcDbEntity
  8
寸法線
 62
     0
370
    -2
100
AcDbLine
 10
68.8703988575446
 20
-355.6458257646234
 30
0.0
 11
68.87039885754461
 21
-304.6458257646234
 31
0.0
  0
INSERT
  5
392C
330
3911
100
AcDbEntity
  8
寸法線
 62
     0
370
    -2
100
AcDbBlockReference
  2
_Closed
 10
68.8703988575446
 20
-358.6458257646234
 30
0.0
 41
3.0
 42
3.0
 43
3.0
 50
270.0
  0
INSERT
  5
392D
330
3911
100
AcDbEntity
  8
寸法線
 62
     0
370
    -2
100
AcDbBlockReference
  2
_Closed
 10
68.87039885754461
 20
-301.6458257646234
 30
0.0
 41
3.0
 42
3.0
 43
3.0
 50
90.0
  0
MTEXT
  5
392E
330
3911
100
AcDbEntity
  8
寸法線
 62
     0
100
AcDbMText
 10
65.37039885754467
 20
-330.1458257646233
 30
0.0
 40
5.0
 41
0.0
 71
     5
 72
     1
  1
57
  7
OKANO
 11
0.0000000000000001
 21
1.0
 31
0.0
 73
     1
 44
1.0
  0
POINT
  5
392F
330
3911
100
AcDbEntity
  8
Defpoints
 62
     0
100
AcDbPoint
 10
108.963738871777
 20
-358.6458257646234
 30
0.0
  0
POINT
  5
3930
330
3911
100
AcDbEntity
  8
Defpoints
 62
     0
100
AcDbPoint
 10
108.963738871777
 20
-301.6458257646234
 30
0.0
  0
POINT
  5
3931
330
3911
100
AcDbEntity
  8
Defpoints
 62
     0
100
AcDbPoint
 10
68.87039885754461
 20
-301.6458257646234
 30
0.0
  0
ENDBLK
  5
391C
330
3911
100
AcDbEntity
  8
0
100
AcDbBlockEnd
  0
BLOCK
  5
3927
330
391D
100
AcDbEntity
  8
0
100
AcDbBlockBegin
  2
*D5
 70
     1
 10
0.0
 20
0.0
 30
0.0
  3
*D5
  1

  0
LINE
  5
3932
330
391D
100
AcDbEntity
  8
寸法線
 62
     0
370
    -2
100
AcDbLine
 10
106.963738871777
 20
-301.6458257646234
 30
0.0
 11
65.87039885754461
 21
-301.6458257646234
 31
0.0
  0
LINE
  5
3933
330
391D
100
AcDbEntity
  8
寸法線
 62
     0
370
    -2
100
AcDbLine
 10
80.66373887177705
 20
-291.6458257646234
 30
0.0
 11
65.87039885754461
 21
-291.6458257646234
 31
0.0
  0
LINE
  5
3934
330
391D
100
AcDbEntity
  8
寸法線
 62
     0
370
    -2
100
AcDbLine
 10
68.87039885754461
 20
-298.6458257646233
 30
0.0
 11
68.87039885754461
 21
-294.6458257646233
 31
0.0
  0
INSERT
  5
3935
330
391D
100
AcDbEntity
  8
寸法線
 62
     0
370
    -2
100
AcDbBlockReference
  2
_Closed
 10
68.87039885754461
 20
-301.6458257646234
 30
0.0
 41
3.0
 42
3.0
 43
3.0
 50
270.0
  0
INSERT
  5
3936
330
391D
100
AcDbEntity
  8
寸法線
 62
     0
370
    -2
100
AcDbBlockReference
  2
_Closed
 10
68.87039885754461
 20
-291.6458257646234
 30
0.0
 41
3.0
 42
3.0
 43
3.0
 50
90.0
  0
MTEXT
  5
3937
330
391D
100
AcDbEntity
  8
寸法線
 62
     0
100
AcDbMText
 10
65.37039885754467
 20
-296.6458257646234
 30
0.0
 40
5.0
 41
0.0
 71
     5
 72
     1
  1
10
  7
OKANO
 11
0.0000000000000001
 21
1.0
 31
0.0
 73
     1
 44
1.0
  0
POINT
  5
3938
330
391D
100
AcDbEntity
  8
Defpoints
 62
     0
100
AcDbPoint
 10
108.963738871777
 20
-301.6458257646234
 30
0.0
  0
POINT
  5
3939
330
391D
100
AcDbEntity
  8
Defpoints
 62
     0
100
AcDbPoint
 10
82.66373887177705
 20
-291.6458257646234
 30
0.0
  0
POINT
  5
393A
330
391D
100
AcDbEntity
  8
Defpoints
 62
     0
100
AcDbPoint
 10
68.87039885754461
 20
-291.6458257646234
 30
0.0
  0
ENDBLK
  5
3928
330
391D
100
AcDbEntity
  8
0
100
AcDbBlockEnd
  0
BLOCK
  5
3961
330
3957
100
AcDbEntity
  8
0
100
AcDbBlockBegin
  2
*D6
 70
     1
 10
0.0
 20
0.0
 30
0.0
  3
*D6
  1

  0
LINE
  5
397D
330
3957
100
AcDbEntity
  8
寸法線
 62
     0
370
    -2
100
AcDbLine
 10
85.31490183100641
 20
-299.5251617324238
 30
0.0
 11
85.31490183100641
 21
-277.8407879413414
 31
0.0
  0
LINE
  5
397E
330
3957
100
AcDbEntity
  8
寸法線
 62
     0
370
    -2
100
AcDbLine
 10
132.2191174740669
 20
-299.5251617324238
 30
0.0
 11
132.2191174740669
 21
-277.8407879413414
 31
0.0
  0
LINE
  5
397F
330
3957
100
AcDbEntity
  8
寸法線
 62
     0
370
    -2
100
AcDbLine
 10
88.3149018310064
 20
-280.8407879413414
 30
0.0
 11
129.2191174740669
 21
-280.8407879413414
 31
0.0
  0
INSERT
  5
3980
330
3957
100
AcDbEntity
  8
寸法線
 62
     0
370
    -2
100
AcDbBlockReference
  2
_Closed
 10
85.31490183100641
 20
-280.8407879413414
 30
0.0
 41
3.0
 42
3.0
 43
3.0
 50
180.0
  0
INSERT
  5
3981
330
3957
100
AcDbEntity
  8
寸法線
 62
     0
370
    -2
100
AcDbBlockReference
  2
_Closed
 10
132.2191174740669
 20
-280.8407879413414
 30
0.0
 41
3.0
 42
3.0
 43
3.0
  0
MTEXT
  5
3982
330
3957
100
AcDbEntity
  8
寸法線
 62
     0
100
AcDbMText
 10
108.7670096525366
 20
-277.3407879413414
 30
0.0
 40
5.0
 41
0.0
 71
     5
 72
     1
  1
48.3
  7
OKANO
 73
     1
 44
1.0
  0
POINT
  5
3983
330
3957
100
AcDbEntity
  8
Defpoints
 62
     0
100
AcDbPoint
 10
85.31490183100641
 20
-301.5251617324238
 30
0.0
  0
POINT
  5
3984
330
3957
100
AcDbEntity
  8
Defpoints
 62
     0
100
AcDbPoint
 10
132.2191174740669
 20
-301.5251617324238
 30
0.0
  0
POINT
  5
3985
330
3957
100
AcDbEntity
  8
Defpoints
 62
     0
100
AcDbPoint
 10
132.2191174740669
 20
-280.8407879413414
 30
0.0
  0
ENDBLK
  5
3962
330
3957
100
AcDbEntity
  8
0
100
AcDbBlockEnd
  0
BLOCK
  5
396E
330
3964
100
AcDbEntity
  8
0
100
AcDbBlockBegin
  2
*D7
 70
     1
 10
0.0
 20
0.0
 30
0.0
  3
*D7
  1

  0
LINE
  5
3986
330
3964
100
AcDbEntity
  8
寸法線
 62
     0
370
    -2
100
AcDbLine
 10
84.21558495046292
 20
-289.6405935974848
 30
0.0
 11
84.21558495046292
 21
-271.2510751062714
 31
0.0
  0
LINE
  5
3987
330
3964
100
AcDbEntity
  8
寸法線
 62
     0
370
    -2
100
AcDbLine
 10
133.5016531337282
 20
-289.6405935974848
 30
0.0
 11
133.5016531337282
 21
-271.2510751062714
 31
0.0
  0
LINE
  5
3988
330
3964
100
AcDbEntity
  8
寸法線
 62
     0
370
    -2
100
AcDbLine
 10
87.21558495046293
 20
-274.2510751062714
 30
0.0
 11
130.5016531337282
 21
-274.2510751062714
 31
0.0
  0
INSERT
  5
3989
330
3964
100
AcDbEntity
  8
寸法線
 62
     0
370
    -2
100
AcDbBlockReference
  2
_Closed
 10
84.21558495046292
 20
-274.2510751062714
 30
0.0
 41
3.0
 42
3.0
 43
3.0
 50
180.0
  0
INSERT
  5
398A
330
3964
100
AcDbEntity
  8
寸法線
 62
     0
370
    -2
100
AcDbBlockReference
  2
_Closed
 10
133.5016531337282
 20
-274.2510751062714
 30
0.0
 41
3.0
 42
3.0
 43
3.0
  0
MTEXT
  5
398B
330
3964
100
AcDbEntity
  8
寸法線
 62
     0
100
AcDbMText
 10
108.8586190420955
 20
-270.7510751062713
 30
0.0
 40
5.0
 41
0.0
 71
     5
 72
     1
  1
49..0
  7
OKANO
 73
     1
 44
1.0
  0
POINT
  5
398C
330
3964
100
AcDbEntity
  8
Defpoints
 62
     0
100
AcDbPoint
 10
84.21558495046292
 20
-291.6405935974848
 30
0.0
  0
POINT
  5
398D
330
3964
100
AcDbEntity
  8
Defpoints
 62
     0
100
AcDbPoint
 10
133.5016531337282
 20
-291.6405935974848
 30
0.0
  0
POINT
  5
398E
330
3964
100
AcDbEntity
  8
Defpoints
 62
     0
100
AcDbPoint
 10
133.5016531337282
 20
-274.2510751062714
 30
0.0
  0
ENDBLK
  5
396F
330
3964
100
AcDbEntity
  8
0
100
AcDbBlockEnd
  0
BLOCK
  5
397B
330
3971
100
AcDbEntity
  8
0
100
AcDbBlockBegin
  2
*D8
 70
     1
 10
0.0
 20
0.0
 30
0.0
  3
*D8
  1

  0
LINE
  5
3972
330
3971
100
AcDbEntity
  8
寸法線
 62
     0
370
    -2
100
AcDbLine
 10
82.66373887177705
 20
-289.6458257646234
 30
0.0
 11
82.66373887177705
 21
-263.0139351800999
 31
0.0
  0
LINE
  5
3973
330
3971
100
AcDbEntity
  8
寸法線
 62
     0
370
    -2
100
AcDbLine
 10
135.263738871777
 20
-289.6458257646234
 30
0.0
 11
135.263738871777
 21
-263.0139351800999
 31
0.0
  0
LINE
  5
3974
330
3971
100
AcDbEntity
  8
寸法線
 62
     0
370
    -2
100
AcDbLine
 10
85.66373887177705
 20
-266.0139351800999
 30
0.0
 11
132.263738871777
 21
-266.0139351800999
 31
0.0
  0
INSERT
  5
3975
330
3971
100
AcDbEntity
  8
寸法線
 62
     0
370
    -2
100
AcDbBlockReference
  2
_Closed
 10
82.66373887177705
 20
-266.0139351800999
 30
0.0
 41
3.0
 42
3.0
 43
3.0
 50
180.0
  0
INSERT
  5
3976
330
3971
100
AcDbEntity
  8
寸法線
 62
     0
370
    -2
100
AcDbBlockReference
  2
_Closed
 10
135.263738871777
 20
-266.0139351800999
 30
0.0
 41
3.0
 42
3.0
 43
3.0
  0
MTEXT
  5
3977
330
3971
100
AcDbEntity
  8
寸法線
 62
     0
100
AcDbMText
 10
108.963738871777
 20
-262.5134430541156
 30
0.0
 40
5.0
 41
0.0
 71
     5
 72
     1
  1
52.6
  7
OKANO
 73
     1
 44
1.0
  0
POINT
  5
3978
330
3971
100
AcDbEntity
  8
Defpoints
 62
     0
100
AcDbPoint
 10
82.66373887177705
 20
-291.6458257646234
 30
0.0
  0
POINT
  5
3979
330
3971
100
AcDbEntity
  8
Defpoints
 62
     0
100
AcDbPoint
 10
135.263738871777
 20
-291.6458257646234
 30
0.0
  0
POINT
  5
397A
330
3971
100
AcDbEntity
  8
Defpoints
 62
     0
100
AcDbPoint
 10
135.263738871777
 20
-266.0139351800999
 30
0.0
  0
ENDBLK
  5
397C
330
3971
100
AcDbEntity
  8
0
100
AcDbBlockEnd
  0
BLOCK
  5
399A
330
3990
100
AcDbEntity
  8
0
100
AcDbBlockBegin
  2
*D9
 70
     1
 10
0.0
 20
0.0
 30
0.0
  3
*D9
  1

  0
LINE
  5
3991
330
3990
100
AcDbEntity
  8
寸法線
 62
     0
370
    -2
100
AcDbLine
 10
85.96373887177705
 20
-308.4110381078817
 30
0.0
 11
85.96373887177705
 21
-334.5633845251944
 31
0.0
  0
LINE
  5
3992
330
3990
100
AcDbEntity
  8
寸法線
 62
     0
370
    -2
100
AcDbLine
 10
131.963738871777
 20
-308.4110381078818
 30
0.0
 11
131.963738871777
 21
-334.5633845251944
 31
0.0
  0
LINE
  5
3993
330
3990
100
AcDbEntity
  8
寸法線
 62
     0
370
    -2
100
AcDbLine
 10
88.96373887177706
 20
-331.5633845251944
 30
0.0
 11
128.963738871777
 21
-331.5633845251944
 31
0.0
  0
INSERT
  5
3994
330
3990
100
AcDbEntity
  8
寸法線
 62
     0
370
    -2
100
AcDbBlockReference
  2
_Closed
 10
85.96373887177705
 20
-331.5633845251944
 30
0.0
 41
3.0
 42
3.0
 43
3.0
 50
180.0
  0
INSERT
  5
3995
330
3990
100
AcDbEntity
  8
寸法線
 62
     0
370
    -2
100
AcDbBlockReference
  2
_Closed
 10
131.963738871777
 20
-331.5633845251944
 30
0.0
 41
3.0
 42
3.0
 43
3.0
  0
MTEXT
  5
3996
330
3990
100
AcDbEntity
  8
寸法線
 62
     0
100
AcDbMText
 10
108.963738871777
 20
-328.0633845251944
 30
0.0
 40
5.0
 41
0.0
 71
     5
 72
     1
  1
46
  7
OKANO
 73
     1
 44
1.0
  0
POINT
  5
3997
330
3990
100
AcDbEntity
  8
Defpoints
 62
     0
100
AcDbPoint
 10
85.96373887177705
 20
-306.4110381078817
 30
0.0
  0
POINT
  5
3998
330
3990
100
AcDbEntity
  8
Defpoints
 62
     0
100
AcDbPoint
 10
131.963738871777
 20
-306.4110381078818
 30
0.0
  0
POINT
  5
3999
330
3990
100
AcDbEntity
  8
Defpoints
 62
     0
100
AcDbPoint
 10
131.963738871777
 20
-331.5633845251944
 30
0.0
  0
ENDBLK
  5
399B
330
3990
100
AcDbEntity
  8
0
100
AcDbBlockEnd
  0
BLOCK
  5
3A61
330
3A57
100
AcDbEntity
  8
0
100
AcDbBlockBegin
  2
*D10
 70
     1
 10
0.0
 20
0.0
 30
0.0
  3
*D10
  1

  0
LINE
  5
3B72
330
3A57
100
AcDbEntity
  8
寸法線
 62
     0
370
    -2
100
AcDbLine
 10
132.8221946321462
 20
-138.6036443505362
 30
0.0
 11
132.8221946321462
 21
-114.6691168001096
 31
0.0
  0
LINE
  5
3B73
330
3A57
100
AcDbEntity
  8
寸法線
 62
     0
370
    -2
100
AcDbLine
 10
178.8221946321462
 20
-138.6036443505362
 30
0.0
 11
178.8221946321462
 21
-114.6691168001096
 31
0.0
  0
LINE
  5
3B74
330
3A57
100
AcDbEntity
  8
寸法線
 62
     0
370
    -2
100
AcDbLine
 10
135.8221946321462
 20
-117.6691168001096
 30
0.0
 11
175.8221946321462
 21
-117.6691168001096
 31
0.0
  0
INSERT
  5
3B75
330
3A57
100
AcDbEntity
  8
寸法線
 62
     0
370
    -2
100
AcDbBlockReference
  2
_Closed
 10
132.8221946321462
 20
-117.6691168001096
 30
0.0
 41
3.0
 42
3.0
 43
3.0
 50
180.0
  0
INSERT
  5
3B76
330
3A57
100
AcDbEntity
  8
寸法線
 62
     0
370
    -2
100
AcDbBlockReference
  2
_Closed
 10
178.8221946321462
 20
-117.6691168001096
 30
0.0
 41
3.0
 42
3.0
 43
3.0
  0
MTEXT
  5
3B77
330
3A57
100
AcDbEntity
  8
寸法線
 62
     0
100
AcDbMText
 10
155.8221946321462
 20
-114.1691168001097
 30
0.0
 40
5.0
 41
0.0
 71
     5
 72
     1
  1
48.3
  7
OKANO
 73
     1
 44
1.0
  0
POINT
  5
3B78
330
3A57
100
AcDbEntity
  8
Defpoints
 62
     0
100
AcDbPoint
 10
132.8221946321462
 20
-140.6036443505362
 30
0.0
  0
POINT
  5
3B79
330
3A57
100
AcDbEntity
  8
Defpoints
 62
     0
100
AcDbPoint
 10
178.8221946321462
 20
-140.6036443505362
 30
0.0
  0
POINT
  5
3B7A
330
3A57
100
AcDbEntity
  8
Defpoints
 62
     0
100
AcDbPoint
 10
178.8221946321462
 20
-117.6691168001096
 30
0.0
  0
ENDBLK
  5
3A62
330
3A57
100
AcDbEntity
  8
0
100
AcDbBlockEnd
  0
BLOCK
  5
3A6E
330
3A64
100
AcDbEntity
  8
0
100
AcDbBlockBegin
  2
*D11
 70
     1
 10
0.0
 20
0.0
 30
0.0
  3
*D11
  1

  0
LINE
  5
3C10
330
3A64
100
AcDbEntity
  8
寸法線
 62
     0
370
    -2
100
AcDbLine
 10
131.2221946321462
 20
-128.6036443505362
 30
0.0
 11
131.2221946321462
 21
-102.9067940441042
 31
0.0
  0
LINE
  5
3C11
330
3A64
100
AcDbEntity
  8
寸法線
 62
     0
370
    -2
100
AcDbLine
 10
180.4221946321463
 20
-128.6036443505362
 30
0.0
 11
180.4221946321463
 21
-102.9067940441042
 31
0.0
  0
LINE
  5
3C12
330
3A64
100
AcDbEntity
  8
寸法線
 62
     0
370
    -2
100
AcDbLine
 10
134.2221946321462
 20
-105.9067940441042
 30
0.0
 11
177.4221946321462
 21
-105.9067940441042
 31
0.0
  0
INSERT
  5
3C13
330
3A64
100
AcDbEntity
  8
寸法線
 62
     0
370
    -2
100
AcDbBlockReference
  2
_Closed
 10
131.2221946321462
 20
-105.9067940441042
 30
0.0
 41
3.0
 42
3.0
 43
3.0
 50
180.0
  0
INSERT
  5
3C14
330
3A64
100
AcDbEntity
  8
寸法線
 62
     0
370
    -2
100
AcDbBlockReference
  2
_Closed
 10
180.4221946321463
 20
-105.9067940441042
 30
0.0
 41
3.0
 42
3.0
 43
3.0
  0
MTEXT
  5
3C15
330
3A64
100
AcDbEntity
  8
寸法線
 62
     0
100
AcDbMText
 10
155.8221946321463
 20
-102.4067940441042
 30
0.0
 40
5.0
 41
0.0
 71
     5
 72
     1
  1
49.3
  7
OKANO
 73
     1
 44
1.0
  0
POINT
  5
3C16
330
3A64
100
AcDbEntity
  8
Defpoints
 62
     0
100
AcDbPoint
 10
131.2221946321462
 20
-130.6036443505362
 30
0.0
  0
POINT
  5
3C17
330
3A64
100
AcDbEntity
  8
Defpoints
 62
     0
100
AcDbPoint
 10
180.4221946321463
 20
-130.6036443505362
 30
0.0
  0
POINT
  5
3C18
330
3A64
100
AcDbEntity
  8
Defpoints
 62
     0
100
AcDbPoint
 10
180.4221946321463
 20
-105.9067940441042
 30
0.0
  0
ENDBLK
  5
3A6F
330
3A64
100
AcDbEntity
  8
0
100
AcDbBlockEnd
  0
BLOCK
  5
3A7B
330
3A71
100
AcDbEntity
  8
0
100
AcDbBlockBegin
  2
*D12
 70
     1
 10
0.0
 20
0.0
 30
0.0
  3
*D12
  1

  0
LINE
  5
3B7B
330
3A71
100
AcDbEntity
  8
寸法線
 62
     0
370
    -2
100
AcDbLine
 10
129.5221946321462
 20
-128.6036443505362
 30
0.0
 11
129.5221946321462
 21
-88.20388992822392
 31
0.0
  0
LINE
  5
3B7C
330
3A71
100
AcDbEntity
  8
寸法線
 62
     0
370
    -2
100
AcDbLine
 10
182.1221946321463
 20
-128.6036443505362
 30
0.0
 11
182.1221946321463
 21
-88.20388992822392
 31
0.0
  0
LINE
  5
3B7D
330
3A71
100
AcDbEntity
  8
寸法線
 62
     0
370
    -2
100
AcDbLine
 10
132.5221946321462
 20
-91.20388992822393
 30
0.0
 11
179.1221946321462
 21
-91.20388992822393
 31
0.0
  0
INSERT
  5
3B7E
330
3A71
100
AcDbEntity
  8
寸法線
 62
     0
370
    -2
100
AcDbBlockReference
  2
_Closed
 10
129.5221946321462
 20
-91.20388992822393
 30
0.0
 41
3.0
 42
3.0
 43
3.0
 50
180.0
  0
INSERT
  5
3B7F
330
3A71
100
AcDbEntity
  8
寸法線
 62
     0
370
    -2
100
AcDbBlockReference
  2
_Closed
 10
182.1221946321463
 20
-91.20388992822393
 30
0.0
 41
3.0
 42
3.0
 43
3.0
  0
MTEXT
  5
3B80
330
3A71
100
AcDbEntity
  8
寸法線
 62
     0
100
AcDbMText
 10
155.8221946321463
 20
-87.70339780223968
 30
0.0
 40
5.0
 41
0.0
 71
     5
 72
     1
  1
52.6
  7
OKANO
 73
     1
 44
1.0
  0
POINT
  5
3B81
330
3A71
100
AcDbEntity
  8
Defpoints
 62
     0
100
AcDbPoint
 10
129.5221946321462
 20
-130.6036443505362
 30
0.0
  0
POINT
  5
3B82
330
3A71
100
AcDbEntity
  8
Defpoints
 62
     0
100
AcDbPoint
 10
182.1221946321463
 20
-130.6036443505362
 30
0.0
  0
POINT
  5
3B83
330
3A71
100
AcDbEntity
  8
Defpoints
 62
     0
100
AcDbPoint
 10
182.1221946321463
 20
-91.20388992822393
 30
0.0
  0
ENDBLK
  5
3A7C
330
3A71
100
AcDbEntity
  8
0
100
AcDbBlockEnd
  0
BLOCK
  5
3AA7
330
3A9D
100
AcDbEntity
  8
0
100
AcDbBlockBegin
  2
*D13
 70
     1
 10
0.0
 20
0.0
 30
0.0
  3
*D13
  1

  0
LINE
  5
3B8D
330
3A9D
100
AcDbEntity
  8
寸法線
 62
     0
370
    -2
100
AcDbLine
 10
129.3819190274026
 20
51.26794962386862
 30
0.0
 11
109.211135458805
 21
51.26794962386862
 31
0.0
  0
LINE
  5
3B8E
330
3A9D
100
AcDbEntity
  8
寸法線
 62
     0
370
    -2
100
AcDbLine
 10
129.3819190274026
 20
30.62037842996903
 30
0.0
 11
109.211135458805
 21
30.62037842996904
 31
0.0
  0
LINE
  5
3B8F
330
3A9D
100
AcDbEntity
  8
寸法線
 62
     0
370
    -2
100
AcDbLine
 10
112.2111354588051
 20
48.26794962386862
 30
0.0
 11
112.2111354588051
 21
33.62037842996903
 31
0.0
  0
INSERT
  5
3B90
330
3A9D
100
AcDbEntity
  8
寸法線
 62
     0
370
    -2
100
AcDbBlockReference
  2
_Closed
 10
112.2111354588051
 20
51.26794962386862
 30
0.0
 41
3.0
 42
3.0
 43
3.0
 50
90.0
  0
INSERT
  5
3B91
330
3A9D
100
AcDbEntity
  8
寸法線
 62
     0
370
    -2
100
AcDbBlockReference
  2
_Closed
 10
112.211135458805
 20
30.62037842996904
 30
0.0
 41
3.0
 42
3.0
 43
3.0
 50
270.0
  0
MTEXT
  5
3B92
330
3A9D
100
AcDbEntity
  8
寸法線
 62
     0
100
AcDbMText
 10
108.7106433328208
 20
40.94416402691885
 30
0.0
 40
5.0
 41
0.0
 71
     5
 72
     1
  1
20
  7
OKANO
 11
0.0000000000000001
 21
1.0
 31
0.0
 73
     1
 44
1.0
  0
POINT
  5
3B93
330
3A9D
100
AcDbEntity
  8
Defpoints
 62
     0
100
AcDbPoint
 10
131.3819190274026
 20
51.26794962386862
 30
0.0
  0
POINT
  5
3B94
330
3A9D
100
AcDbEntity
  8
Defpoints
 62
     0
100
AcDbPoint
 10
131.3819190274026
 20
30.62037842996903
 30
0.0
  0
POINT
  5
3B95
330
3A9D
100
AcDbEntity
  8
Defpoints
 62
     0
100
AcDbPoint
 10
112.211135458805
 20
30.62037842996904
 30
0.0
  0
ENDBLK
  5
3AA8
330
3A9D
100
AcDbEntity
  8
0
100
AcDbBlockEnd
  0
BLOCK
  5
3AB4
330
3AAA
100
AcDbEntity
  8
0
100
AcDbBlockBegin
  2
*D14
 70
     1
 10
0.0
 20
0.0
 30
0.0
  3
*D14
  1

  0
LINE
  5
3B96
330
3AAA
100
AcDbEntity
  8
寸法線
 62
     0
370
    -2
100
AcDbLine
 10
125.3819190274025
 20
30.62037842996903
 30
0.0
 11
94.48705862452468
 21
30.62037842996904
 31
0.0
  0
LINE
  5
3B97
330
3AAA
100
AcDbEntity
  8
寸法線
 62
     0
370
    -2
100
AcDbLine
 10
138.4622871490701
 20
64.21996923980691
 30
0.0
 11
94.4870586245247
 21
64.21996923980692
 31
0.0
  0
LINE
  5
3B98
330
3AAA
100
AcDbEntity
  8
寸法線
 62
     0
370
    -2
100
AcDbLine
 10
97.48705862452471
 20
33.62037842996904
 30
0.0
 11
97.48705862452471
 21
61.21996923980692
 31
0.0
  0
INSERT
  5
3B99
330
3AAA
100
AcDbEntity
  8
寸法線
 62
     0
370
    -2
100
AcDbBlockReference
  2
_Closed
 10
97.48705862452469
 20
30.62037842996904
 30
0.0
 41
3.0
 42
3.0
 43
3.0
 50
270.0
  0
INSERT
  5
3B9A
330
3AAA
100
AcDbEntity
  8
寸法線
 62
     0
370
    -2
100
AcDbBlockReference
  2
_Closed
 10
97.48705862452471
 20
64.21996923980691
 30
0.0
 41
3.0
 42
3.0
 43
3.0
 50
90.0
  0
MTEXT
  5
3B9B
330
3AAA
100
AcDbEntity
  8
寸法線
 62
     0
100
AcDbMText
 10
93.98705862452469
 20
47.42017383488799
 30
0.0
 40
5.0
 41
0.0
 71
     5
 72
     1
  1
34
  7
OKANO
 11
0.0000000000000001
 21
1.0
 31
0.0
 73
     1
 44
1.0
  0
POINT
  5
3B9C
330
3AAA
100
AcDbEntity
  8
Defpoints
 62
     0
100
AcDbPoint
 10
127.3819190274025
 20
30.62037842996903
 30
0.0
  0
POINT
  5
3B9D
330
3AAA
100
AcDbEntity
  8
Defpoints
 62
     0
100
AcDbPoint
 10
140.4622871490701
 20
64.21996923980691
 30
0.0
  0
POINT
  5
3B9E
330
3AAA
100
AcDbEntity
  8
Defpoints
 62
     0
100
AcDbPoint
 10
97.48705862452471
 20
64.21996923980691
 30
0.0
  0
ENDBLK
  5
3AB5
330
3AAA
100
AcDbEntity
  8
0
100
AcDbBlockEnd
  0
BLOCK
  5
3AC1
330
3AB7
100
AcDbEntity
  8
0
100
AcDbBlockBegin
  2
*D15
 70
     1
 10
0.0
 20
0.0
 30
0.0
  3
*D15
  1

  0
LINE
  5
3BC1
330
3AB7
100
AcDbEntity
  8
寸法線
 62
     0
370
    -2
100
AcDbLine
 10
138.4622871490701
 20
66.21996923980692
 30
0.0
 11
138.4622871490701
 21
76.08431198629148
 31
0.0
  0
LINE
  5
3BC2
330
3AB7
100
AcDbEntity
  8
寸法線
 62
     0
370
    -2
100
AcDbLine
 10
171.3570038391254
 20
66.21996923980688
 30
0.0
 11
171.3570038391254
 21
76.08431198629148
 31
0.0
  0
LINE
  5
3BC3
330
3AB7
100
AcDbEntity
  8
寸法線
 62
     0
370
    -2
100
AcDbLine
 10
141.4622871490701
 20
73.08431198629148
 30
0.0
 11
168.3570038391254
 21
73.08431198629148
 31
0.0
  0
INSERT
  5
3BC4
330
3AB7
100
AcDbEntity
  8
寸法線
 62
     0
370
    -2
100
AcDbBlockReference
  2
_Closed
 10
138.4622871490701
 20
73.08431198629148
 30
0.0
 41
3.0
 42
3.0
 43
3.0
 50
180.0
  0
INSERT
  5
3BC5
330
3AB7
100
AcDbEntity
  8
寸法線
 62
     0
370
    -2
100
AcDbBlockReference
  2
_Closed
 10
171.3570038391254
 20
73.08431198629148
 30
0.0
 41
3.0
 42
3.0
 43
3.0
  0
MTEXT
  5
3BC6
330
3AB7
100
AcDbEntity
  8
寸法線
 62
     0
100
AcDbMText
 10
154.9096454940977
 20
76.58431198629148
 30
0.0
 40
5.0
 41
0.0
 71
     5
 72
     1
  1
35
  7
OKANO
 73
     1
 44
1.0
  0
POINT
  5
3BC7
330
3AB7
100
AcDbEntity
  8
Defpoints
 62
     0
100
AcDbPoint
 10
138.4622871490701
 20
64.21996923980691
 30
0.0
  0
POINT
  5
3BC8
330
3AB7
100
AcDbEntity
  8
Defpoints
 62
     0
100
AcDbPoint
 10
171.3570038391254
 20
64.21996923980689
 30
0.0
  0
POINT
  5
3BC9
330
3AB7
100
AcDbEntity
  8
Defpoints
 62
     0
100
AcDbPoint
 10
171.3570038391254
 20
73.08431198629148
 30
0.0
  0
ENDBLK
  5
3AC2
330
3AB7
100
AcDbEntity
  8
0
100
AcDbBlockEnd
  0
BLOCK
  5
3AD0
330
3AC4
100
AcDbEntity
  8
0
100
AcDbBlockBegin
  2
*D16
 70
     1
 10
0.0
 20
0.0
 30
0.0
  3
*D16
  1

  0
LINE
  5
3BCA
330
3AC4
100
AcDbEntity
  8
寸法線
 62
     0
370
    -2
100
AcDbLine
 10
177.6819190274025
 20
53.26794962386862
 30
0.0
 11
177.6819190274025
 21
69.87263129538075
 31
0.0
  0
LINE
  5
3BCB
330
3AC4
100
AcDbEntity
  8
寸法線
 62
     0
370
    -2
100
AcDbLine
 10
180.6819190274025
 20
53.26794962386862
 30
0.0
 11
180.6819190274025
 21
69.87263129538075
 31
0.0
  0
LINE
  5
3BCC
330
3AC4
100
AcDbEntity
  8
寸法線
 62
     0
370
    -2
100
AcDbLine
 10
174.6819190274026
 20
66.87263129538076
 30
0.0
 11
171.6819190274025
 21
66.87263129538076
 31
0.0
  0
LINE
  5
3BCD
330
3AC4
100
AcDbEntity
  8
寸法線
 62
     0
370
    -2
100
AcDbLine
 10
183.6819190274025
 20
66.87263129538076
 30
0.0
 11
191.8876903933426
 21
66.87263129538076
 31
0.0
  0
LINE
  5
3BCE
330
3AC4
100
AcDbEntity
  8
寸法線
 62
     0
370
    -2
100
AcDbLine
 10
177.6819190274025
 20
66.87263129538076
 30
0.0
 11
180.6819190274025
 21
66.87263129538076
 31
0.0
  0
INSERT
  5
3BCF
330
3AC4
100
AcDbEntity
  8
寸法線
 62
     0
370
    -2
100
AcDbBlockReference
  2
_Closed
 10
177.6819190274025
 20
66.87263129538076
 30
0.0
 41
3.0
 42
3.0
 43
3.0
  0
INSERT
  5
3BD0
330
3AC4
100
AcDbEntity
  8
寸法線
 62
     0
370
    -2
100
AcDbBlockReference
  2
_Closed
 10
180.6819190274025
 20
66.87263129538076
 30
0.0
 41
3.0
 42
3.0
 43
3.0
 50
180.0
  0
MTEXT
  5
3BD1
330
3AC4
100
AcDbEntity
  8
寸法線
 62
     0
100
AcDbMText
 10
189.2848047103726
 20
70.37263129538075
 30
0.0
 40
5.0
 41
0.0
 71
     5
 72
     1
  1
3
  7
OKANO
 73
     1
 44
1.0
  0
POINT
  5
3BD2
330
3AC4
100
AcDbEntity
  8
Defpoints
 62
     0
100
AcDbPoint
 10
177.6819190274025
 20
51.26794962386862
 30
0.0
  0
POINT
  5
3BD3
330
3AC4
100
AcDbEntity
  8
Defpoints
 62
     0
100
AcDbPoint
 10
180.6819190274025
 20
51.26794962386862
 30
0.0
  0
POINT
  5
3BD4
330
3AC4
100
AcDbEntity
  8
Defpoints
 62
     0
100
AcDbPoint
 10
180.6819190274025
 20
66.87263129538076
 30
0.0
  0
ENDBLK
  5
3AD1
330
3AC4
100
AcDbEntity
  8
0
100
AcDbBlockEnd
  0
BLOCK
  5
3ADF
330
3AD3
100
AcDbEntity
  8
0
100
AcDbBlockBegin
  2
*D17
 70
     1
 10
0.0
 20
0.0
 30
0.0
  3
*D17
  1

  0
LINE
  5
3B9F
330
3AD3
100
AcDbEntity
  8
寸法線
 62
     0
370
    -2
100
AcDbLine
 10
186.6819190274025
 20
30.62037842996903
 30
0.0
 11
214.0260375837342
 21
30.62037842996903
 31
0.0
  0
LINE
  5
3BA0
330
3AD3
100
AcDbEntity
  8
寸法線
 62
     0
370
    -2
100
AcDbLine
 10
186.6819190274025
 20
36.14116468853387
 30
0.0
 11
214.0260375837342
 21
36.14116468853387
 31
0.0
  0
LINE
  5
3BA1
330
3AD3
100
AcDbEntity
  8
寸法線
 62
     0
370
    -2
100
AcDbLine
 10
211.0260375837342
 20
27.62037842996903
 30
0.0
 11
211.0260375837342
 21
24.62037842996903
 31
0.0
  0
LINE
  5
3BA2
330
3AD3
100
AcDbEntity
  8
寸法線
 62
     0
370
    -2
100
AcDbLine
 10
211.0260375837342
 20
39.14116468853387
 30
0.0
 11
211.0260375837342
 21
42.14116468853386
 31
0.0
  0
LINE
  5
3BA3
330
3AD3
100
AcDbEntity
  8
寸法線
 62
     0
370
    -2
100
AcDbLine
 10
211.0260375837342
 20
30.62037842996903
 30
0.0
 11
211.0260375837342
 21
36.14116468853387
 31
0.0
  0
INSERT
  5
3BA4
330
3AD3
100
AcDbEntity
  8
寸法線
 62
     0
370
    -2
100
AcDbBlockReference
  2
_Closed
 10
211.0260375837342
 20
30.62037842996903
 30
0.0
 41
3.0
 42
3.0
 43
3.0
 50
90.0
  0
INSERT
  5
3BA5
330
3AD3
100
AcDbEntity
  8
寸法線
 62
     0
370
    -2
100
AcDbBlockReference
  2
_Closed
 10
211.0260375837342
 20
36.14116468853387
 30
0.0
 41
3.0
 42
3.0
 43
3.0
 50
270.0
  0
MTEXT
  5
3BA6
330
3AD3
100
AcDbEntity
  8
寸法線
 62
     0
100
AcDbMText
 10
207.5260375837342
 20
33.38077155925148
 30
0.0
 40
5.0
 41
0.0
 71
     5
 72
     1
  1
6
  7
OKANO
 11
0.0000000000000001
 21
1.0
 31
0.0
 73
     1
 44
1.0
  0
POINT
  5
3BA7
330
3AD3
100
AcDbEntity
  8
Defpoints
 62
     0
100
AcDbPoint
 10
184.6819190274025
 20
30.62037842996903
 30
0.0
  0
POINT
  5
3BA8
330
3AD3
100
AcDbEntity
  8
Defpoints
 62
     0
100
AcDbPoint
 10
184.6819190274025
 20
36.14116468853387
 30
0.0
  0
POINT
  5
3BA9
330
3AD3
100
AcDbEntity
  8
Defpoints
 62
     0
100
AcDbPoint
 10
211.0260375837342
 20
36.14116468853387
 30
0.0
  0
ENDBLK
  5
3AE0
330
3AD3
100
AcDbEntity
  8
0
100
AcDbBlockEnd
  0
BLOCK
  5
3B17
330
3B0D
100
AcDbEntity
  8
0
100
AcDbBlockBegin
  2
*D18
 70
     1
 10
0.0
 20
0.0
 30
0.0
  3
*D18
  1

  0
LINE
  5
3C07
330
3B0D
100
AcDbEntity
  8
寸法線
 62
     0
370
    -2
100
AcDbLine
 10
180.6819190274025
 20
28.62037842996903
 30
0.0
 11
180.6819190274025
 21
11.89068150404352
 31
0.0
  0
LINE
  5
3C08
330
3B0D
100
AcDbEntity
  8
寸法線
 62
     0
370
    -2
100
AcDbLine
 10
131.3819190274026
 20
28.62037842996903
 30
0.0
 11
131.3819190274026
 21
11.89068150404352
 31
0.0
  0
LINE
  5
3C09
330
3B0D
100
AcDbEntity
  8
寸法線
 62
     0
370
    -2
100
AcDbLine
 10
177.6819190274025
 20
14.89068150404352
 30
0.0
 11
134.3819190274025
 21
14.89068150404352
 31
0.0
  0
INSERT
  5
3C0A
330
3B0D
100
AcDbEntity
  8
寸法線
 62
     0
370
    -2
100
AcDbBlockReference
  2
_Closed
 10
180.6819190274025
 20
14.89068150404352
 30
0.0
 41
3.0
 42
3.0
 43
3.0
  0
INSERT
  5
3C0B
330
3B0D
100
AcDbEntity
  8
寸法線
 62
     0
370
    -2
100
AcDbBlockReference
  2
_Closed
 10
131.3819190274026
 20
14.89068150404352
 30
0.0
 41
3.0
 42
3.0
 43
3.0
 50
180.0
  0
MTEXT
  5
3C0C
330
3B0D
100
AcDbEntity
  8
寸法線
 62
     0
100
AcDbMText
 10
156.0319190274025
 20
18.39068150404352
 30
0.0
 40
5.0
 41
0.0
 71
     5
 72
     1
  1
49.6
  7
OKANO
 73
     1
 44
1.0
  0
POINT
  5
3C0D
330
3B0D
100
AcDbEntity
  8
Defpoints
 62
     0
100
AcDbPoint
 10
180.6819190274025
 20
30.62037842996903
 30
0.0
  0
POINT
  5
3C0E
330
3B0D
100
AcDbEntity
  8
Defpoints
 62
     0
100
AcDbPoint
 10
131.3819190274026
 20
30.62037842996903
 30
0.0
  0
POINT
  5
3C0F
330
3B0D
100
AcDbEntity
  8
Defpoints
 62
     0
100
AcDbPoint
 10
131.3819190274026
 20
14.89068150404352
 30
0.0
  0
ENDBLK
  5
3B18
330
3B0D
100
AcDbEntity
  8
0
100
AcDbBlockEnd
  0
BLOCK
  5
3B29
330
3B1A
100
AcDbEntity
  8
0
100
AcDbBlockBegin
  2
*D19
 70
     1
 10
0.0
 20
0.0
 30
0.0
  3
*D19
  1

  0
LINE
  5
3BB3
330
3B1A
100
AcDbEntity
  8
寸法線
 62
     0
370
    -2
100
AcDbLine
 10
131.3819190274026
 20
28.62037842996903
 30
0.0
 11
131.3819190274026
 21
11.89068150404352
 31
0.0
  0
LINE
  5
3BB4
330
3B1A
100
AcDbEntity
  8
寸法線
 62
     0
370
    -2
100
AcDbLine
 10
127.3819190274025
 20
28.62037842996903
 30
0.0
 11
127.3819190274025
 21
11.89068150404352
 31
0.0
  0
LINE
  5
3BB5
330
3B1A
100
AcDbEntity
  8
寸法線
 62
     0
370
    -2
100
AcDbLine
 10
134.3819190274025
 20
14.89068150404352
 30
0.0
 11
137.3819190274025
 21
14.89068150404352
 31
0.0
  0
LINE
  5
3BB6
330
3B1A
100
AcDbEntity
  8
寸法線
 62
     0
370
    -2
100
AcDbLine
 10
124.3819190274025
 20
14.89068150404352
 30
0.0
 11
121.3819190274025
 21
14.89068150404352
 31
0.0
  0
LINE
  5
3BB7
330
3B1A
100
AcDbEntity
  8
寸法線
 62
     0
370
    -2
100
AcDbLine
 10
129.3819190274026
 20
14.89068150404352
 30
0.0
 11
132.9819190274025
 21
2.890681504043527
 31
0.0
  0
LINE
  5
3BB8
330
3B1A
100
AcDbEntity
  8
寸法線
 62
     0
370
    -2
100
AcDbLine
 10
132.9819190274025
 20
2.890681504043527
 30
0.0
 11
137.4819190274026
 21
2.890681504043527
 31
0.0
  0
MTEXT
  5
3BB9
330
3B1A
100
AcDbEntity
  8
寸法線
 62
     0
100
AcDbMText
 10
135.2319190274025
 20
6.390681504043527
 30
0.0
 40
5.0
 41
0.0
 71
     5
 72
     1
  1
4
  7
OKANO
 73
     1
 44
1.0
  0
LINE
  5
3BBA
330
3B1A
100
AcDbEntity
  8
寸法線
 62
     0
370
    -2
100
AcDbLine
 10
131.3819190274026
 20
14.89068150404352
 30
0.0
 11
127.3819190274025
 21
14.89068150404352
 31
0.0
  0
LINE
  5
3BBB
330
3B1A
100
AcDbEntity
  8
寸法線
 62
     0
370
    -2
100
AcDbLine
 10
131.3819190274026
 20
14.89068150404352
 30
0.0
 11
127.3819190274025
 21
14.89068150404352
 31
0.0
  0
INSERT
  5
3BBC
330
3B1A
100
AcDbEntity
  8
寸法線
 62
     0
370
    -2
100
AcDbBlockReference
  2
_Closed
 10
131.3819190274026
 20
14.89068150404352
 30
0.0
 41
3.0
 42
3.0
 43
3.0
 50
180.0
  0
INSERT
  5
3BBD
330
3B1A
100
AcDbEntity
  8
寸法線
 62
     0
370
    -2
100
AcDbBlockReference
  2
_Closed
 10
127.3819190274025
 20
14.89068150404352
 30
0.0
 41
3.0
 42
3.0
 43
3.0
  0
POINT
  5
3BBE
330
3B1A
100
AcDbEntity
  8
Defpoints
 62
     0
100
AcDbPoint
 10
131.3819190274026
 20
30.62037842996903
 30
0.0
  0
POINT
  5
3BBF
330
3B1A
100
AcDbEntity
  8
Defpoints
 62
     0
100
AcDbPoint
 10
127.3819190274025
 20
30.62037842996903
 30
0.0
  0
POINT
  5
3BC0
330
3B1A
100
AcDbEntity
  8
Defpoints
 62
     0
100
AcDbPoint
 10
127.3819190274025
 20
14.89068150404352
 30
0.0
  0
ENDBLK
  5
3B2A
330
3B1A
100
AcDbEntity
  8
0
100
AcDbBlockEnd
  0
BLOCK
  5
3C5B
330
3C51
100
AcDbEntity
  8
0
100
AcDbBlockBegin
  2
*D20
 70
     1
 10
0.0
 20
0.0
 30
0.0
  3
*D20
  1

  0
LINE
  5
3C66
330
3C51
100
AcDbEntity
  8
寸法線
 62
     0
370
    -2
100
AcDbLine
 10
157.8221946321463
 20
-203.6036443505362
 30
0.0
 11
208.3449140120394
 21
-203.6036443505362
 31
0.0
  0
LINE
  5
3C67
330
3C51
100
AcDbEntity
  8
寸法線
 62
     0
370
    -2
100
AcDbLine
 10
181.8221946321462
 20
-140.6036443505362
 30
0.0
 11
208.3449140120394
 21
-140.6036443505362
 31
0.0
  0
LINE
  5
3C68
330
3C51
100
AcDbEntity
  8
寸法線
 62
     0
370
    -2
100
AcDbLine
 10
205.3449140120394
 20
-200.6036443505362
 30
0.0
 11
205.3449140120394
 21
-143.6036443505362
 31
0.0
  0
INSERT
  5
3C69
330
3C51
100
AcDbEntity
  8
寸法線
 62
     0
370
    -2
100
AcDbBlockReference
  2
_Closed
 10
205.3449140120394
 20
-203.6036443505362
 30
0.0
 41
3.0
 42
3.0
 43
3.0
 50
270.0
  0
INSERT
  5
3C6A
330
3C51
100
AcDbEntity
  8
寸法線
 62
     0
370
    -2
100
AcDbBlockReference
  2
_Closed
 10
205.3449140120394
 20
-140.6036443505362
 30
0.0
 41
3.0
 42
3.0
 43
3.0
 50
90.0
  0
MTEXT
  5
3C6B
330
3C51
100
AcDbEntity
  8
寸法線
 62
     0
100
AcDbMText
 10
201.8449140120394
 20
-172.1036443505362
 30
0.0
 40
5.0
 41
0.0
 71
     5
 72
     1
  1
57
  7
OKANO
 11
0.0000000000000001
 21
1.0
 31
0.0
 73
     1
 44
1.0
  0
POINT
  5
3C6C
330
3C51
100
AcDbEntity
  8
Defpoints
 62
     0
100
AcDbPoint
 10
155.8221946321463
 20
-203.6036443505362
 30
0.0
  0
POINT
  5
3C6D
330
3C51
100
AcDbEntity
  8
Defpoints
 62
     0
100
AcDbPoint
 10
179.8221946321462
 20
-140.6036443505362
 30
0.0
  0
POINT
  5
3C6E
330
3C51
100
AcDbEntity
  8
Defpoints
 62
     0
100
AcDbPoint
 10
205.3449140120394
 20
-140.6036443505362
 30
0.0
  0
ENDBLK
  5
3C5C
330
3C51
100
AcDbEntity
  8
0
100
AcDbBlockEnd
  0
ENDSEC
  0
SECTION
  2
ENTITIES
  0
TEXT
  5
29C2
330
1F
100
AcDbEntity
  8
文字
100
AcDbText
 10
314.1094287713507
 20
-192.2063725193977
 30
0.0
 40
5.015816703995143
  1
joint kogyo T.okano
 51
15.0
  7
OKANO
100
AcDbText
  0
TEXT
  5
29C3
330
1F
100
AcDbEntity
  8
文字
100
AcDbText
 10
306.2844276277434
 20
-176.7907076381901
 30
0.0
 40
5.015816703995143
  1
F-999-20040824 Auto CAD
 51
15.0
  7
OKANO
100
AcDbText
  0
LINE
  5
29C4
330
1F
100
AcDbEntity
  8
太線
100
AcDbLine
 10
277.6292463414715
 20
-177.7529164703141
 30
0.0
 11
390.4851221813622
 21
-177.7529164703141
 31
0.0
  0
LWPOLYLINE
  5
29C5
330
1F
100
AcDbEntity
  8
太線
100
AcDbPolyline
 90
        4
 70
     1
 43
0.0
 10
277.6292463414715
 20
-168.9752372383226
 10
390.4851221813623
 20
-168.9752372383226
 10
390.4851221813623
 20
-195.3082749342971
 10
277.6292463414715
 20
-195.3082749342971
  0
TEXT
  5
29C6
330
1F
100
AcDbEntity
  8
文字
100
AcDbText
 10
281.6757392945772
 20
-186.3148234172009
 30
0.0
 40
2.507908351997571
  1
CHECK
 51
15.0
  7
OKANO
100
AcDbText
  0
LINE
  5
29C7
330
1F
100
AcDbEntity
  8
太線
100
AcDbLine
 10
302.7083298614474
 20
-168.9752372383226
 30
0.0
 11
302.7083298614474
 21
-195.3082749342971
 31
0.0
  0
TEXT
  5
29C8
330
1F
100
AcDbEntity
  8
文字
100
AcDbText
 10
281.6757392945772
 20
-193.5453610358139
 30
0.0
 40
2.507908351997571
  1
ISSUED
 51
15.0
  7
OKANO
100
AcDbText
  0
TEXT
  5
29C9
330
1F
100
AcDbEntity
  8
文字
100
AcDbText
 10
281.943787081527
 20
-190.0639911398215
 30
0.0
 40
2.507908351997571
  1
APPR
 51
15.0
  7
OKANO
100
AcDbText
  0
TEXT
  5
29CA
330
1F
100
AcDbEntity
  8
文字
100
AcDbText
 10
279.7994105108764
 20
-175.8707143459482
 30
0.0
 40
2.507908351997571
  1
FILM NAME
 51
15.0
  7
OKANO
100
AcDbText
  0
TEXT
  5
29CB
330
1F
100
AcDbEntity
  8
文字
100
AcDbText
 10
281.1396460106568
 20
-182.5656563113049
 30
0.0
 40
2.507908351997571
  1
DRAWN
 51
15.0
  7
OKANO
100
AcDbText
  0
TEXT
  5
29CC
330
1F
100
AcDbEntity
  8
文字
100
AcDbText
 10
305.9570335422627
 20
-185.5916280867732
 30
0.0
 40
5.015816703995143
  1
T-1H  T-1V
 51
15.0
  7
OKANO
100
AcDbText
  0
LINE
  5
30A5
102
{ACAD_REACTORS
330
3A3F
102
}
330
1F
100
AcDbEntity
  8
太線
100
AcDbLine
 10
127.3819190274026
 20
30.62037842996903
 30
0.0
 11
127.3819190274026
 21
50.64202843802601
 31
0.0
  0
LINE
  5
30A6
102
{ACAD_REACTORS
330
3A3F
102
}
330
1F
100
AcDbEntity
  8
太線
100
AcDbLine
 10
127.3819190274026
 20
30.62037842996903
 30
0.0
 11
184.6819190274025
 21
30.62037842996903
 31
0.0
  0
LINE
  5
30A7
102
{ACAD_REACTORS
330
3A3F
102
}
330
1F
100
AcDbEntity
  8
太線
100
AcDbLine
 10
184.6819190274025
 20
30.62037842996903
 30
0.0
 11
184.6819190274025
 21
50.64202843802599
 31
0.0
  0
LINE
  5
30AB
330
1F
100
AcDbEntity
  8
想像線
100
AcDbLine
 10
131.3819190274026
 20
30.62037842996903
 30
0.0
 11
131.3819190274026
 21
51.26794962386864
 31
0.0
  0
LINE
  5
30AC
330
1F
100
AcDbEntity
  8
想像線
100
AcDbLine
 10
180.6819190274025
 20
30.62037842996903
 30
0.0
 11
180.6819190274025
 21
51.26794962386862
 31
0.0
  0
ARC
  5
30B1
102
{ACAD_REACTORS
330
3A3F
102
}
330
1F
100
AcDbEntity
  8
太線
100
AcDbCircle
 10
182.6819190274025
 20
50.64202843802599
 30
0.0
 40
2.0
100
AcDbArc
 50
0.0
 51
52.76279306230224
  0
ARC
  5
30B2
102
{ACAD_REACTORS
330
3A3F
102
}
330
1F
100
AcDbEntity
  8
太線
100
AcDbCircle
 10
129.3819190274025
 20
50.64202843802601
 30
0.0
 40
2.0
100
AcDbArc
 50
127.2372069376976
 51
180.0
  0
LINE
  5
317A
102
{ACAD_REACTORS
330
3A3F
102
}
330
1F
100
AcDbEntity
  8
想像線
100
AcDbLine
 10
180.6819190274025
 20
30.62037842996903
 30
0.0
 11
180.6819190274025
 21
51.26794962386862
 31
0.0
  0
LINE
  5
317B
102
{ACAD_REACTORS
330
3A3F
102
}
330
1F
100
AcDbEntity
  8
想像線
100
AcDbLine
 10
180.6819190274025
 20
51.26794962386862
 30
0.0
 11
177.6819190274025
 21
51.26794962386862
 31
0.0
  0
LINE
  5
3183
102
{ACAD_REACTORS
330
3A3F
102
}
330
1F
100
AcDbEntity
  8
想像線
100
AcDbLine
 10
134.3819190274025
 20
51.26794962386862
 30
0.0
 11
131.3819190274026
 21
51.26794962386862
 31
0.0
  0
LINE
  5
3184
102
{ACAD_REACTORS
330
3A3F
102
}
330
1F
100
AcDbEntity
  8
想像線
100
AcDbLine
 10
131.3819190274026
 20
51.26794962386862
 30
0.0
 11
131.3819190274026
 21
30.62037842996903
 31
0.0
  0
LINE
  5
318E
102
{ACAD_REACTORS
330
3A3F
102
}
330
1F
100
AcDbEntity
  8
太線
100
AcDbLine
 10
128.1716865458299
 20
52.2343027047736
 30
0.0
 11
138.4622871490701
 21
61.33315565930979
 31
0.0
  0
LINE
  5
3192
102
{ACAD_REACTORS
330
3A3F
102
}
330
1F
100
AcDbEntity
  8
太線
100
AcDbLine
 10
173.3570038391254
 20
61.33315565930977
 30
0.0
 11
183.8921515089752
 21
52.23430270477357
 31
0.0
  0
LINE
  5
3194
330
1F
100
AcDbEntity
  8
太線
100
AcDbLine
 10
200.5374019565351
 20
58.38970696878186
 30
0.0
 11
200.5374019565351
 21
58.38970696878186
 31
0.0
  0
LINE
  5
31A1
330
1F
100
AcDbEntity
  8
太線
100
AcDbLine
 10
558.5533649454768
 20
111.0993779243956
 30
0.0
 11
559.9533649454768
 21
91.09937792439565
 31
0.0
  0
LINE
  5
31A2
330
1F
100
AcDbEntity
  8
太線
100
AcDbLine
 10
514.0533649454767
 20
111.0993779243956
 30
0.0
 11
512.6533649454768
 21
91.09937792439565
 31
0.0
  0
LINE
  5
31A3
330
1F
100
AcDbEntity
  8
太線
100
AcDbLine
 10
514.0533649454767
 20
111.0993779243956
 30
0.0
 11
558.5533649454768
 21
111.0993779243956
 31
0.0
  0
LINE
  5
31A4
330
1F
100
AcDbEntity
  8
太線
100
AcDbLine
 10
511.6533649454768
 20
91.09937792439565
 30
0.0
 11
560.9533649454768
 21
91.09937792439565
 31
0.0
  0
LINE
  5
31A6
330
1F
100
AcDbEntity
  8
太線
100
AcDbLine
 10
560.9533649454768
 20
91.09937792439565
 30
0.0
 11
536.0936405502204
 21
21.09937792439564
 31
0.0
  0
LINE
  5
31A7
330
1F
100
AcDbEntity
  8
太線
100
AcDbLine
 10
511.6533649454768
 20
91.09937792439565
 30
0.0
 11
536.0936405502204
 21
21.09937792439564
 31
0.0
  0
LINE
  5
31A8
330
1F
100
AcDbEntity
  8
太線
100
AcDbLine
 10
536.0936405502204
 20
91.09937792439565
 30
0.0
 11
536.0936405502204
 21
21.09937792439564
 31
0.0
  0
LINE
  5
31BB
330
1F
100
AcDbEntity
  8
太線
100
AcDbLine
 10
187.8206235492891
 20
38.89894765976441
 30
0.0
 11
181.8507992289457
 21
38.89894765976441
 31
0.0
  0
LINE
  5
31BF
330
1F
100
AcDbEntity
  8
太線
100
AcDbLine
 10
181.8507992289457
 20
33.89894765976441
 30
0.0
 11
187.8206235492891
 21
33.89894765976441
 31
0.0
  0
ARC
  5
31CE
330
1F
100
AcDbEntity
  8
太線
100
AcDbCircle
 10
200.9547651227761
 20
35.23992428771896
 30
0.0
 40
14.09023055362918
100
AcDbArc
 50
103.8239467526575
 51
154.0801743295834
  0
LINE
  5
31CF
330
1F
100
AcDbEntity
  8
太線
100
AcDbLine
 10
199.9902115070428
 20
47.52507420878248
 30
0.0
 11
201.0806610704064
 21
43.67577120673263
 31
0.0
  0
LINE
  5
31D1
330
1F
100
AcDbEntity
  8
太線
100
AcDbLine
 10
188.2819190274025
 20
38.89894765976441
 30
0.0
 11
188.2819190274025
 21
41.39894765976442
 31
0.0
  0
LINE
  5
31D5
330
1F
100
AcDbEntity
  8
太線
100
AcDbLine
 10
188.2819190274025
 20
41.39894765976442
 30
0.0
 11
195.2819190274025
 21
40.45118459174728
 31
0.0
  0
LINE
  5
31D6
330
1F
100
AcDbEntity
  8
太線
100
AcDbLine
 10
195.2819190274025
 20
40.45118459174728
 30
0.0
 11
201.0806610704064
 21
43.67577120673263
 31
0.0
  0
LINE
  5
31D9
330
1F
100
AcDbEntity
  8
太線
100
AcDbLine
 10
195.2819190274025
 20
40.45118459174728
 30
0.0
 11
195.2819190274025
 21
39.94950958161643
 31
0.0
  0
LINE
  5
31DA
330
1F
100
AcDbEntity
  8
太線
100
AcDbLine
 10
195.2819190274025
 20
39.94950958161643
 30
0.0
 11
196.0505563244016
 21
39.94950958161643
 31
0.0
  0
LINE
  5
31DB
330
1F
100
AcDbEntity
  8
太線
100
AcDbLine
 10
196.0505563244016
 20
39.94950958161643
 30
0.0
 11
196.0505563244016
 21
38.89894765976441
 31
0.0
  0
LINE
  5
31DC
330
1F
100
AcDbEntity
  8
太線
100
AcDbLine
 10
195.2819190274025
 20
32.34671072778155
 30
0.0
 11
201.0806610704064
 21
29.1221241127962
 31
0.0
  0
ARC
  5
31DD
330
1F
100
AcDbEntity
  8
太線
100
AcDbCircle
 10
200.9547651227761
 20
37.55797103180987
 30
0.0
 40
14.09023055362918
100
AcDbArc
 50
205.9198256704164
 51
256.1760532473422
  0
LINE
  5
31DE
330
1F
100
AcDbEntity
  8
太線
100
AcDbLine
 10
188.2819190274025
 20
31.39894765976441
 30
0.0
 11
195.2819190274025
 21
32.34671072778155
 31
0.0
  0
LINE
  5
31DF
330
1F
100
AcDbEntity
  8
太線
100
AcDbLine
 10
188.2819190274025
 20
33.89894765976441
 30
0.0
 11
188.2819190274025
 21
31.39894765976441
 31
0.0
  0
LINE
  5
31E0
330
1F
100
AcDbEntity
  8
太線
100
AcDbLine
 10
196.0505563244016
 20
32.84838573791239
 30
0.0
 11
196.0505563244016
 21
33.89894765976441
 31
0.0
  0
LINE
  5
31E1
330
1F
100
AcDbEntity
  8
太線
100
AcDbLine
 10
195.2819190274025
 20
32.84838573791239
 30
0.0
 11
196.0505563244016
 21
32.84838573791239
 31
0.0
  0
LINE
  5
31E2
330
1F
100
AcDbEntity
  8
太線
100
AcDbLine
 10
195.2819190274025
 20
32.34671072778155
 30
0.0
 11
195.2819190274025
 21
32.84838573791239
 31
0.0
  0
LINE
  5
31E3
330
1F
100
AcDbEntity
  8
太線
100
AcDbLine
 10
199.9902115070428
 20
25.27282111074632
 30
0.0
 11
201.0806610704064
 21
29.1221241127962
 31
0.0
  0
LINE
  5
31E5
330
1F
100
AcDbEntity
  8
太線
100
AcDbLine
 10
188.2819190274025
 20
39.94950958161643
 30
0.0
 11
187.8206235492891
 21
39.94950958161643
 31
0.0
  0
LINE
  5
31E6
330
1F
100
AcDbEntity
  8
太線
100
AcDbLine
 10
187.8206235492891
 20
39.94950958161643
 30
0.0
 11
187.8206235492891
 21
38.89894765976441
 31
0.0
  0
LINE
  5
31E7
330
1F
100
AcDbEntity
  8
太線
100
AcDbLine
 10
196.0505563244016
 20
38.89894765976441
 30
0.0
 11
196.0505563244016
 21
33.89894765976441
 31
0.0
  0
LINE
  5
31E8
330
1F
100
AcDbEntity
  8
太線
100
AcDbLine
 10
195.2819190274025
 20
39.94950958161643
 30
0.0
 11
195.2819190274025
 21
32.84838573791239
 31
0.0
  0
LINE
  5
31E9
330
1F
100
AcDbEntity
  8
太線
100
AcDbLine
 10
188.2819190274025
 20
38.89894765976441
 30
0.0
 11
188.2819190274025
 21
33.89894765976441
 31
0.0
  0
LINE
  5
31EC
330
1F
100
AcDbEntity
  8
太線
100
AcDbLine
 10
187.8206235492891
 20
33.89894765976441
 30
0.0
 11
187.8206235492891
 21
32.84838573791239
 31
0.0
  0
LINE
  5
31ED
330
1F
100
AcDbEntity
  8
太線
100
AcDbLine
 10
187.8206235492891
 20
32.84838573791239
 30
0.0
 11
188.2819190274025
 21
32.84838573791239
 31
0.0
  0
LINE
  5
31EE
330
1F
100
AcDbEntity
  8
太線
100
AcDbLine
 10
187.8206235492891
 20
38.89894765976441
 30
0.0
 11
187.8206235492891
 21
33.89894765976441
 31
0.0
  0
ARC
  5
31F2
330
1F
100
AcDbEntity
  8
太線
100
AcDbCircle
 10
198.0659336315455
 20
46.97995526958524
 30
0.0
 40
2.0
100
AcDbArc
 50
15.81662713787578
 51
103.8239467526575
  0
ARC
  5
31F3
330
1F
100
AcDbEntity
  8
太線
100
AcDbCircle
 10
198.0659336315454
 20
25.81794004994359
 30
0.0
 40
2.0
100
AcDbArc
 50
256.1760532473424
 51
344.1833728621241
  0
ARC
  5
31FF
102
{ACAD_REACTORS
330
3A3F
102
}
330
1F
100
AcDbEntity
  8
想像線
100
AcDbCircle
 10
155.8221946321462
 20
30.62037842996903
 30
0.0
 40
26.6143545212587
100
AcDbArc
 50
48.08694857736212
 51
131.4501149232536
  0
LINE
  5
3200
102
{ACAD_REACTORS
330
3A3F
102
}
330
1F
100
AcDbEntity
  8
想像線
100
AcDbLine
 10
177.6819190274025
 20
51.26794962386862
 30
0.0
 11
175.9941993201846
 21
50.21649914131939
 31
0.0
  0
LINE
  5
3201
102
{ACAD_REACTORS
330
3A3F
102
}
330
1F
100
AcDbEntity
  8
想像線
100
AcDbLine
 10
134.3819190274025
 20
51.26794962386862
 30
0.0
 11
135.8228596283948
 21
50.37024268606462
 31
0.0
  0
LINE
  5
3209
102
{ACAD_REACTORS
330
3A3F
102
}
330
1F
100
AcDbEntity
  8
太線
100
AcDbLine
 10
138.4622871490701
 20
61.33315565930979
 30
0.0
 11
138.4622871490701
 21
62.21996923980691
 31
0.0
  0
LINE
  5
320A
102
{ACAD_REACTORS
330
3A3F
102
}
330
1F
100
AcDbEntity
  8
太線
100
AcDbLine
 10
140.4622871490701
 20
64.21996923980691
 30
0.0
 11
171.3570038391254
 21
64.21996923980689
 31
0.0
  0
LINE
  5
320B
102
{ACAD_REACTORS
330
3A3F
102
}
330
1F
100
AcDbEntity
  8
太線
100
AcDbLine
 10
173.3570038391254
 20
62.21996923980689
 30
0.0
 11
173.3570038391254
 21
61.33315565930979
 31
0.0
  0
ARC
  5
320C
102
{ACAD_REACTORS
330
3A3F
102
}
330
1F
100
AcDbEntity
  8
太線
100
AcDbCircle
 10
140.4622871490701
 20
62.21996923980691
 30
0.0
 40
2.0
100
AcDbArc
 50
90.0
 51
180.0
  0
ARC
  5
320D
102
{ACAD_REACTORS
330
3A3F
102
}
330
1F
100
AcDbEntity
  8
太線
100
AcDbCircle
 10
171.3570038391254
 20
62.21996923980689
 30
0.0
 40
2.0
100
AcDbArc
 50
0.0
 51
90.0
  0
LINE
  5
32A9
330
1F
100
AcDbEntity
  8
太線
100
AcDbLine
 10
181.8507992289457
 20
38.89894765976441
 30
0.0
 11
181.3507992289457
 21
37.89894765976441
 31
0.0
  0
LINE
  5
32AA
330
1F
100
AcDbEntity
  8
太線
100
AcDbLine
 10
181.3507992289457
 20
34.89894765976441
 30
0.0
 11
181.8507992289457
 21
33.89894765976441
 31
0.0
  0
LINE
  5
32AB
330
1F
100
AcDbEntity
  8
太線
100
AcDbLine
 10
181.3507992289457
 20
37.89894765976441
 30
0.0
 11
181.3507992289457
 21
34.89894765976441
 31
0.0
  0
LINE
  5
32AC
102
{ACAD_REACTORS
330
3A3F
102
}
330
1F
100
AcDbEntity
  8
太線
100
AcDbLine
 10
180.7694661408005
 20
39.1009656735655
 30
0.0
 11
184.7521106613539
 21
39.1009656735655
 31
0.0
  0
LINE
  5
32AD
102
{ACAD_REACTORS
330
3A3F
102
}
330
1F
100
AcDbEntity
  8
太線
100
AcDbLine
 10
180.7100236620566
 20
33.81555410927052
 30
0.0
 11
184.7521106613539
 21
33.81555410927052
 31
0.0
  0
ARC
  5
32AE
102
{ACAD_REACTORS
330
3A3F
102
}
330
1F
100
AcDbEntity
  8
想像線
100
AcDbCircle
 10
174.9366431158928
 20
51.91401935467886
 30
0.0
 40
2.0
100
AcDbArc
 50
228.0869485773624
 51
301.9229332326703
  0
ARC
  5
32AF
102
{ACAD_REACTORS
330
3A3F
102
}
330
1F
100
AcDbEntity
  8
想像線
100
AcDbCircle
 10
136.8804158326866
 20
52.06776289942408
 30
0.0
 40
2.0
100
AcDbArc
 50
238.0770667673295
 51
311.4501149232534
  0
TEXT
  5
3363
330
1F
100
AcDbEntity
  8
文字
100
AcDbText
 10
347.782291904529
 20
-185.4837662731597
 30
0.0
 40
5.015816703995143
  1
とんちんかん
 51
15.0
  7
OKANO
100
AcDbText
  0
LINE
  5
33DA
330
1F
100
AcDbEntity
  8
太線
100
AcDbLine
 10
519.8364177682337
 20
-31.47733570929485
 30
0.0
 11
550.7311344582891
 21
-31.47733570929486
 31
0.0
  0
LINE
  5
33DE
330
1F
100
AcDbEntity
  8
太線
100
AcDbLine
 10
507.5458171649936
 20
-43.46300224432813
 30
0.0
 11
517.8364177682338
 21
-34.36414928979195
 31
0.0
  0
LINE
  5
33DF
330
1F
100
AcDbEntity
  8
想像線
100
AcDbLine
 10
513.7560496465663
 20
-44.42935532523313
 30
0.0
 11
510.7560496465663
 21
-44.42935532523313
 31
0.0
  0
LINE
  5
33E1
330
1F
100
AcDbEntity
  8
想像線
100
AcDbLine
 10
510.7560496465663
 20
-44.42935532523313
 30
0.0
 11
510.7560496465663
 21
-45.37942667749812
 31
0.0
  0
LINE
  5
33E3
330
1F
100
AcDbEntity
  8
太線
100
AcDbLine
 10
506.7560496465663
 20
-47.37942667749813
 30
0.0
 11
506.7560496465663
 21
-45.05527651107573
 31
0.0
  0
ARC
  5
33E4
330
1F
100
AcDbEntity
  8
太線
100
AcDbCircle
 10
508.7560496465663
 20
-45.05527651107573
 30
0.0
 40
2.0
100
AcDbArc
 50
127.2372069376976
 51
180.0
  0
ARC
  5
33E7
330
1F
100
AcDbEntity
  8
太線
100
AcDbCircle
 10
519.8364177682337
 20
-33.47733570929484
 30
0.0
 40
2.0
100
AcDbArc
 50
90.0
 51
180.0
  0
LINE
  5
33E8
330
1F
100
AcDbEntity
  8
太線
100
AcDbLine
 10
517.8364177682338
 20
-34.36414928979195
 30
0.0
 11
517.8364177682338
 21
-33.47733570929484
 31
0.0
  0
LINE
  5
33EA
330
1F
100
AcDbEntity
  8
太線
100
AcDbLine
 10
552.7311344582891
 20
-34.36414928979198
 30
0.0
 11
563.266282128139
 21
-43.46300224432818
 31
0.0
  0
LINE
  5
33F5
330
1F
100
AcDbEntity
  8
想像線
100
AcDbLine
 10
560.0560496465663
 20
-45.37942667749812
 30
0.0
 11
560.0560496465663
 21
-44.42935532523313
 31
0.0
  0
LINE
  5
33F7
330
1F
100
AcDbEntity
  8
太線
100
AcDbLine
 10
564.0560496465663
 20
-47.37942667749814
 30
0.0
 11
564.0560496465663
 21
-45.05527651107576
 31
0.0
  0
LINE
  5
3407
330
1F
100
AcDbEntity
  8
想像線
100
AcDbLine
 10
560.0560496465663
 20
-44.42935532523313
 30
0.0
 11
557.0560496465662
 21
-44.42935532523313
 31
0.0
  0
ARC
  5
3411
330
1F
100
AcDbEntity
  8
太線
100
AcDbCircle
 10
562.0560496465663
 20
-45.05527651107576
 30
0.0
 40
2.0
100
AcDbArc
 50
0.0
 51
52.76279306230224
  0
LINE
  5
3414
330
1F
100
AcDbEntity
  8
太線
100
AcDbLine
 10
579.9115325756988
 20
-37.30759798031988
 30
0.0
 11
579.9115325756988
 21
-37.30759798031988
 31
0.0
  0
ARC
  5
3415
330
1F
100
AcDbEntity
  8
太線
100
AcDbCircle
 10
550.7311344582891
 20
-33.47733570929486
 30
0.0
 40
2.0
100
AcDbArc
 50
0.0
 51
90.0
  0
LINE
  5
3416
330
1F
100
AcDbEntity
  8
太線
100
AcDbLine
 10
552.7311344582891
 20
-33.47733570929486
 30
0.0
 11
552.7311344582891
 21
-34.36414928979195
 31
0.0
  0
LINE
  5
34C6
330
1F
100
AcDbEntity
  8
太線
100
AcDbLine
 10
562.0560496465663
 20
-47.37942667749813
 30
0.0
 11
564.0560496465663
 21
-47.37942667749814
 31
0.0
  0
LINE
  5
34C8
330
1F
100
AcDbEntity
  8
太線
100
AcDbLine
 10
516.6462296216018
 20
-65.07692651913271
 30
0.0
 11
554.1658696715308
 21
-65.07692651913271
 31
0.0
  0
ARC
  5
34CF
330
1F
100
AcDbEntity
  8
想像線
100
AcDbCircle
 10
535.4060496465662
 20
-60.38671605446693
 30
0.0
 40
21.9251471360218
100
AcDbArc
 50
36.38861459190458
 51
143.6113854080954
  0
LINE
  5
34D2
330
1F
100
AcDbEntity
  8
太線
100
AcDbLine
 10
556.1626844641578
 20
-63.18975685169355
 30
0.0
 11
557.0560496465662
 21
-47.37942667749814
 31
0.0
  0
LINE
  5
34D3
330
1F
100
AcDbEntity
  8
想像線
100
AcDbLine
 10
516.7560496465663
 20
-65.07692651913271
 30
0.0
 11
517.7560496465663
 21
-47.37942667749813
 31
0.0
  0
LINE
  5
34D4
330
1F
100
AcDbEntity
  8
太線
100
AcDbLine
 10
513.7560496465663
 20
-47.37942667749814
 30
0.0
 11
514.6494148289748
 21
-63.18975685169355
 31
0.0
  0
LINE
  5
34D5
330
1F
100
AcDbEntity
  8
想像線
100
AcDbLine
 10
513.7560496465663
 20
-44.42935532523313
 30
0.0
 11
513.7560496465663
 21
-47.37942667749814
 31
0.0
  0
LINE
  5
34D6
330
1F
100
AcDbEntity
  8
想像線
100
AcDbLine
 10
557.0560496465662
 20
-47.37942667749814
 30
0.0
 11
557.0560496465662
 21
-44.42935532523313
 31
0.0
  0
LINE
  5
34D7
330
1F
100
AcDbEntity
  8
想像線
100
AcDbLine
 10
553.0560496465662
 20
-47.37942667749814
 30
0.0
 11
554.0560496465663
 21
-65.07692651913271
 31
0.0
  0
ARC
  5
34D8
330
1F
100
AcDbEntity
  8
太線
100
AcDbCircle
 10
562.0560496465663
 20
-45.37942667749812
 30
0.0
 40
2.0
100
AcDbArc
 50
180.0
 51
270.0
  0
LINE
  5
34D9
330
1F
100
AcDbEntity
  8
太線
100
AcDbLine
 10
508.7560496465663
 20
-47.37942667749813
 30
0.0
 11
506.7560496465663
 21
-47.37942667749813
 31
0.0
  0
ARC
  5
34DA
330
1F
100
AcDbEntity
  8
太線
100
AcDbCircle
 10
508.7560496465663
 20
-45.37942667749812
 30
0.0
 40
2.0
100
AcDbArc
 50
270.0
 51
0.0
  0
LINE
  5
34DB
330
1F
100
AcDbEntity
  8
太線
100
AcDbLine
 10
508.7560496465663
 20
-47.37942667749813
 30
0.0
 11
562.0560496465663
 21
-47.37942667749813
 31
0.0
  0
ARC
  5
34DC
330
1F
100
AcDbEntity
  8
太線
100
AcDbCircle
 10
554.1658696715308
 20
-63.07692651913271
 30
0.0
 40
2.0
100
AcDbArc
 50
270.0
 51
356.7659320263894
  0
ARC
  5
34DD
330
1F
100
AcDbEntity
  8
太線
100
AcDbCircle
 10
516.6462296216018
 20
-63.07692651913272
 30
0.0
 40
2.0
100
AcDbArc
 50
183.2340679736105
 51
270.0
  0
LINE
  5
34E8
330
1F
100
AcDbEntity
  8
太線
100
AcDbLine
 10
259.5717979577982
 20
-66.63406902769082
 30
0.0
 11
259.5717979577982
 21
3.365930972309172
 31
0.0
  0
LINE
  5
34E9
330
1F
100
AcDbEntity
  8
太線
100
AcDbLine
 10
259.5717979577982
 20
3.365930972309172
 30
0.0
 11
307.8522433248316
 21
3.365930972309172
 31
0.0
  0
LINE
  5
34EA
330
1F
100
AcDbEntity
  8
太線
100
AcDbLine
 10
307.8522433248316
 20
3.365930972309172
 30
0.0
 11
307.8522433248316
 21
-66.63406902769082
 31
0.0
  0
ARC
  5
34EB
330
1F
100
AcDbEntity
  8
太線
100
AcDbCircle
 10
271.8258583535269
 20
-73.67262565233231
 30
0.0
 40
14.13164093587336
100
AcDbArc
 50
30.27378989265089
 51
150.1275580347417
  0
ARC
  5
34EC
330
1F
100
AcDbEntity
  8
太線
100
AcDbCircle
 10
295.825878869536
 20
-58.7954618071494
 30
0.0
 40
14.11536257845872
100
AcDbArc
 50
213.3159633506251
 51
325.2707269817099
  0
ARC
  5
34ED
330
1F
100
AcDbEntity
  8
太線
100
AcDbCircle
 10
276.9361100212855
 20
-52.715450279422
 30
0.0
 40
22.25415200131945
100
AcDbArc
 50
218.7144299193085
 51
302.6448033666312
  0
ARC
  5
34EE
330
1F
100
AcDbEntity
  8
太線
100
AcDbCircle
 10
277.3079920932522
 20
-53.95440150650031
 30
0.0
 40
19.10956744061564
100
AcDbArc
 50
215.6997110181594
 51
301.2011498179324
  0
LINE
  5
34F7
330
1F
100
AcDbEntity
  8
太線
100
AcDbLine
 10
305.7315046217957
 20
-86.16895057549198
 30
0.0
 11
305.7315046217957
 21
-116.3484579273947
 31
0.0
  0
LINE
  5
34F8
330
1F
100
AcDbEntity
  8
太線
100
AcDbLine
 10
259.207001923395
 20
-86.16895057549198
 30
0.0
 11
259.207001923395
 21
-116.3484579273947
 31
0.0
  0
ARC
  5
34F9
330
1F
100
AcDbEntity
  8
太線
100
AcDbCircle
 10
294.4955007910871
 20
-82.08441981846062
 30
0.0
 40
11.95538261992612
100
AcDbArc
 50
204.5205372187239
 51
340.0226982220948
  0
ARC
  5
34FA
330
1F
100
AcDbEntity
  8
太線
100
AcDbCircle
 10
270.8094769946063
 20
-92.94507111345522
 30
0.0
 40
14.16337648181543
100
AcDbArc
 50
21.0204619519147
 51
149.821504583846
  0
ARC
  5
34FB
330
1F
100
AcDbEntity
  8
太線
100
AcDbCircle
 10
291.3900491715677
 20
-102.8434999415963
 30
0.0
 40
21.99358863381611
100
AcDbArc
 50
49.30181633248479
 51
114.1374798517716
  0
ARC
  5
34FC
330
1F
100
AcDbEntity
  8
太線
100
AcDbCircle
 10
291.1302895709121
 20
-105.3596288321689
 30
0.0
 40
21.15600637187609
100
AcDbArc
 50
51.17588533351921
 51
112.5789722346015
  0
LINE
  5
3506
330
1F
100
AcDbEntity
  8
想像線
100
AcDbLine
 10
262.0894825778426
 20
3.294952834477726
 30
0.0
 11
261.6808690663193
 21
-64.67511919962134
 31
0.0
  0
LINE
  5
3508
330
1F
100
AcDbEntity
  8
想像線
100
AcDbLine
 10
305.4638153027534
 20
3.470343681044369
 30
0.0
 11
305.4638153027534
 21
-68.11953867235286
 31
0.0
  0
DIMENSION
  5
3520
330
1F
100
AcDbEntity
  8
寸法線
100
AcDbDimension
  2
*D2
 10
308.1751488403599
 20
-35.33238612507295
 30
0.0
 11
283.5670290311481
 21
-31.83238612507295
 31
0.0
 70
    32
  1
48.6
 71
     5
 42
49.21623961842351
  3
sunpo
100
AcDbAlignedDimension
 13
258.9589092219364
 23
-29.81799061392178
 33
0.0
 14
308.1751488403599
 24
-29.81799061392178
 34
0.0
100
AcDbRotatedDimension
1001
ACAD
1000
DSTYLE
1002
{
1070
    40
1040
1.0
1002
}
  0
LINE
  5
3869
102
{ACAD_REACTORS
330
3CD2
102
}
330
1F
100
AcDbEntity
  8
太線
100
AcDbLine
 10
180.4221946321463
 20
-130.6036443505362
 30
0.0
 11
182.1221946321463
 21
-130.6036443505362
 31
0.0
  0
LINE
  5
386A
102
{ACAD_REACTORS
330
3CD2
102
}
330
1F
100
AcDbEntity
  8
太線
100
AcDbLine
 10
182.1221946321463
 20
-130.6036443505362
 30
0.0
 11
182.1221946321463
 21
-140.6036443505362
 31
0.0
  0
LINE
  5
386D
330
1F
100
AcDbEntity
  8
太線
100
AcDbLine
 10
129.5221946321462
 20
-140.6036443505362
 30
0.0
 11
129.5221946321462
 21
-130.6036443505362
 31
0.0
  0
LINE
  5
386E
330
1F
100
AcDbEntity
  8
太線
100
AcDbLine
 10
129.5221946321462
 20
-130.6036443505362
 30
0.0
 11
131.2221946321462
 21
-130.6036443505362
 31
0.0
  0
LINE
  5
3871
330
1F
100
AcDbEntity
  8
太線
100
AcDbLine
 10
131.2221946321462
 20
-130.6036443505362
 30
0.0
 11
155.8221946321462
 21
-130.6036443505362
 31
0.0
  0
LINE
  5
3872
102
{ACAD_REACTORS
330
3CD2
102
}
330
1F
100
AcDbEntity
  8
太線
100
AcDbLine
 10
180.4221946321463
 20
-130.6036443505362
 30
0.0
 11
179.8221946321462
 21
-140.6036443505362
 31
0.0
  0
LINE
  5
3873
102
{ACAD_REACTORS
330
3CD2
102
}
330
1F
100
AcDbEntity
  8
太線
100
AcDbLine
 10
179.8221946321462
 20
-140.6036443505362
 30
0.0
 11
178.8221946321462
 21
-140.6036443505362
 31
0.0
  0
LINE
  5
3874
102
{ACAD_REACTORS
330
3CD2
102
}
330
1F
100
AcDbEntity
  8
太線
100
AcDbLine
 10
178.8221946321462
 20
-140.6036443505362
 30
0.0
 11
178.8221946321462
 21
-145.3688566937946
 31
0.0
  0
LINE
  5
3875
102
{ACAD_REACTORS
330
3CD2
102
}
330
1F
100
AcDbEntity
  8
太線
100
AcDbLine
 10
178.8221946321462
 20
-145.3688566937946
 30
0.0
 11
159.3349154150882
 21
-187.6036443505362
 31
0.0
  0
ARC
  5
3878
330
1F
100
AcDbEntity
  8
太線
100
AcDbCircle
 10
155.8221946321462
 20
-187.2054622118457
 30
0.0
 40
1.551950068646553
100
AcDbArc
 50
270.0000000000005
 51
345.1334296091841
  0
LINE
  5
3879
102
{ACAD_REACTORS
330
3CD2
102
}
330
1F
100
AcDbEntity
  8
太線
100
AcDbLine
 10
157.3221946321462
 20
-187.6036443505362
 30
0.0
 11
159.3349154150882
 21
-187.6036443505362
 31
0.0
  0
LINE
  5
387A
330
1F
100
AcDbEntity
  8
太線
100
AcDbLine
 10
155.8221946321462
 20
-130.6036443505362
 30
0.0
 11
180.4221946321463
 21
-130.6036443505362
 31
0.0
  0
LINE
  5
387C
330
1F
100
AcDbEntity
  8
太線
100
AcDbLine
 10
129.5221946321462
 20
-140.6036443505362
 30
0.0
 11
155.8221946321462
 21
-140.6036443505362
 31
0.0
  0
LINE
  5
387F
330
1F
100
AcDbEntity
  8
太線
100
AcDbLine
 10
155.8221946321463
 20
-193.2994683154567
 30
0.0
 11
155.8221946321462
 21
-130.6036443505362
 31
0.0
  0
LINE
  5
3881
330
1F
100
AcDbEntity
  8
太線
100
AcDbLine
 10
155.8221946321462
 20
-140.6036443505362
 30
0.0
 11
178.8221946321462
 21
-140.6036443505362
 31
0.0
  0
LINE
  5
3882
330
1F
100
AcDbEntity
  8
太線
100
AcDbLine
 10
155.8221946321462
 20
-145.3688566937946
 30
0.0
 11
178.8221946321462
 21
-145.3688566937946
 31
0.0
  0
DIMENSION
  5
38A6
330
1F
100
AcDbEntity
  8
寸法線
100
AcDbDimension
  2
*D3
 10
115.7288546179138
 20
-130.6036443505362
 30
0.0
 11
112.2288546179138
 21
-135.6036443505362
 31
0.0
 70
    32
 71
     5
 42
10.0
  3
sunpo
100
AcDbAlignedDimension
 13
155.8221946321462
 23
-140.6036443505362
 33
0.0
 14
129.5221946321462
 24
-130.6036443505362
 34
0.0
 50
90.0
100
AcDbRotatedDimension
1001
ACAD
1000
DSTYLE
1002
{
1070
    40
1040
1.0
1070
   279
1070
     1
1002
}
  0
ARC
  5
38F0
102
{ACAD_REACTORS
330
3CD2
102
}
330
1F
100
AcDbEntity
  8
破線
100
AcDbCircle
 10
155.8221946321462
 20
-187.2054622118457
 30
0.0
 40
1.551950068646581
100
AcDbArc
 50
194.866570390818
 51
345.1334296091819
  0
LINE
  5
38F1
330
1F
100
AcDbEntity
  8
破線
100
AcDbLine
 10
154.3221946321462
 20
-187.6036443505362
 30
0.0
 11
152.3094738492042
 21
-187.6036443505362
 31
0.0
  0
LINE
  5
38F2
330
1F
100
AcDbEntity
  8
破線
100
AcDbLine
 10
152.3094738492042
 20
-187.6036443505362
 30
0.0
 11
132.8221946321462
 21
-145.3688566937946
 31
0.0
  0
LINE
  5
38F3
330
1F
100
AcDbEntity
  8
破線
100
AcDbLine
 10
132.8221946321462
 20
-145.3688566937946
 30
0.0
 11
132.8221946321462
 21
-140.6036443505362
 31
0.0
  0
LINE
  5
38F4
330
1F
100
AcDbEntity
  8
破線
100
AcDbLine
 10
132.8221946321462
 20
-140.6036443505362
 30
0.0
 11
131.8221946321462
 21
-140.6036443505362
 31
0.0
  0
LINE
  5
38F5
330
1F
100
AcDbEntity
  8
破線
100
AcDbLine
 10
131.8221946321462
 20
-140.6036443505362
 30
0.0
 11
131.2221946321462
 21
-130.6036443505362
 31
0.0
  0
LINE
  5
38F6
330
1F
100
AcDbEntity
  8
破線
100
AcDbLine
 10
105.451018088835
 20
-348.6458257646233
 30
0.0
 11
85.96373887177705
 21
-306.4110381078817
 31
0.0
  0
DIMENSION
  5
38F7
330
1F
100
AcDbEntity
  8
寸法線
100
AcDbDimension
  2
*D5
 10
68.87039885754461
 20
-291.6458257646234
 30
0.0
 11
65.37039885754467
 21
-296.6458257646234
 31
0.0
 70
    32
 71
     5
 42
10.0
  3
sunpo
100
AcDbAlignedDimension
 13
108.963738871777
 23
-301.6458257646234
 33
0.0
 14
82.66373887177705
 24
-291.6458257646234
 34
0.0
 50
90.0
100
AcDbRotatedDimension
1001
ACAD
1000
DSTYLE
1002
{
1070
    40
1040
1.0
1070
   279
1070
     1
1002
}
  0
DIMENSION
  5
38F8
330
1F
100
AcDbEntity
  8
寸法線
100
AcDbDimension
  2
*D4
 10
68.87039885754461
 20
-301.6458257646234
 30
0.0
 11
65.37039885754467
 21
-330.1458257646233
 31
0.0
 70
    32
 71
     5
 42
57.0
  3
sunpo
100
AcDbAlignedDimension
 13
108.963738871777
 23
-358.6458257646234
 33
0.0
 14
108.963738871777
 24
-301.6458257646234
 34
0.0
 50
90.0
100
AcDbRotatedDimension
1001
ACAD
1000
DSTYLE
1002
{
1070
    40
1040
1.0
1002
}
  0
LINE
  5
38F9
330
1F
100
AcDbEntity
  8
太線
100
AcDbLine
 10
82.66373887177705
 20
-301.6458257646234
 30
0.0
 11
108.963738871777
 21
-301.6458257646234
 31
0.0
  0
LINE
  5
38FA
330
1F
100
AcDbEntity
  8
太線
100
AcDbLine
 10
84.36373887177706
 20
-291.6458257646234
 30
0.0
 11
108.963738871777
 21
-291.6458257646234
 31
0.0
  0
LINE
  5
38FB
330
1F
100
AcDbEntity
  8
太線
100
AcDbLine
 10
107.6800071945628
 20
-355.8635936124862
 30
0.0
 11
82.66373887177705
 21
-301.6458257646234
 31
0.0
  0
LINE
  5
38FC
330
1F
100
AcDbEntity
  8
太線
100
AcDbLine
 10
82.66373887177705
 20
-291.6458257646234
 30
0.0
 11
84.36373887177706
 21
-291.6458257646234
 31
0.0
  0
LINE
  5
38FD
330
1F
100
AcDbEntity
  8
太線
100
AcDbLine
 10
82.66373887177705
 20
-301.6458257646234
 30
0.0
 11
82.66373887177705
 21
-291.6458257646234
 31
0.0
  0
LINE
  5
38FE
330
1F
100
AcDbEntity
  8
破線
100
AcDbLine
 10
84.96373887177705
 20
-301.6458257646234
 30
0.0
 11
84.36373887177706
 21
-291.6458257646234
 31
0.0
  0
LINE
  5
38FF
330
1F
100
AcDbEntity
  8
破線
100
AcDbLine
 10
85.96373887177705
 20
-301.6458257646234
 30
0.0
 11
84.96373887177705
 21
-301.6458257646234
 31
0.0
  0
LINE
  5
3900
330
1F
100
AcDbEntity
  8
破線
100
AcDbLine
 10
85.96373887177705
 20
-306.4110381078817
 30
0.0
 11
85.96373887177705
 21
-301.6458257646234
 31
0.0
  0
LINE
  5
3902
102
{ACAD_REACTORS
330
39B5
102
}
330
1F
100
AcDbEntity
  8
太線
100
AcDbLine
 10
131.963738871777
 20
-306.4110381078818
 30
0.0
 11
112.476459654719
 21
-348.6458257646233
 31
0.0
  0
LINE
  5
3903
102
{ACAD_REACTORS
330
39B5
102
}
330
1F
100
AcDbEntity
  8
太線
100
AcDbLine
 10
108.963738871777
 20
-358.6458257646234
 30
0.0
 11
108.963738871777
 21
-291.6458257646234
 31
0.0
  0
LINE
  5
3904
102
{ACAD_REACTORS
330
39B5
102
}
330
1F
100
AcDbEntity
  8
太線
100
AcDbLine
 10
135.263738871777
 20
-301.6458257646234
 30
0.0
 11
110.2448093772267
 21
-355.8693611710632
 31
0.0
  0
LINE
  5
3905
102
{ACAD_REACTORS
330
39B5
102
}
330
1F
100
AcDbEntity
  8
太線
100
AcDbLine
 10
110.463738871777
 20
-348.6458257646233
 30
0.0
 11
112.476459654719
 21
-348.6458257646233
 31
0.0
  0
ARC
  5
3906
330
1F
100
AcDbEntity
  8
太線
100
AcDbCircle
 10
108.963738871777
 20
-348.2476436259329
 30
0.0
 40
1.551950068646553
100
AcDbArc
 50
270.0000000000005
 51
345.1334296091841
  0
LINE
  5
3907
330
1F
100
AcDbEntity
  8
破線
100
AcDbLine
 10
107.463738871777
 20
-348.6458257646233
 30
0.0
 11
105.451018088835
 21
-348.6458257646233
 31
0.0
  0
ARC
  5
3908
102
{ACAD_REACTORS
330
39B5
102
}
330
1F
100
AcDbEntity
  8
破線
100
AcDbCircle
 10
108.963738871777
 20
-348.2476436259329
 30
0.0
 40
1.551950068646581
100
AcDbArc
 50
194.866570390818
 51
345.1334296091819
  0
LINE
  5
3909
330
1F
100
AcDbEntity
  8
太線
100
AcDbLine
 10
108.963738871777
 20
-306.4110381078818
 30
0.0
 11
131.963738871777
 21
-306.4110381078818
 31
0.0
  0
LINE
  5
390A
330
1F
100
AcDbEntity
  8
太線
100
AcDbLine
 10
108.963738871777
 20
-301.6458257646234
 30
0.0
 11
131.963738871777
 21
-301.6458257646234
 31
0.0
  0
LINE
  5
390B
330
1F
100
AcDbEntity
  8
太線
100
AcDbLine
 10
108.963738871777
 20
-291.6458257646234
 30
0.0
 11
133.563738871777
 21
-291.6458257646234
 31
0.0
  0
LINE
  5
390C
102
{ACAD_REACTORS
330
39B5
102
}
330
1F
100
AcDbEntity
  8
太線
100
AcDbLine
 10
135.263738871777
 20
-291.6458257646234
 30
0.0
 11
135.263738871777
 21
-301.6458257646234
 31
0.0
  0
LINE
  5
390D
102
{ACAD_REACTORS
330
39B5
102
}
330
1F
100
AcDbEntity
  8
太線
100
AcDbLine
 10
133.563738871777
 20
-291.6458257646234
 30
0.0
 11
132.963738871777
 21
-301.6458257646234
 31
0.0
  0
LINE
  5
390E
102
{ACAD_REACTORS
330
39B5
102
}
330
1F
100
AcDbEntity
  8
太線
100
AcDbLine
 10
132.963738871777
 20
-301.6458257646234
 30
0.0
 11
131.963738871777
 21
-301.6458257646234
 31
0.0
  0
LINE
  5
390F
102
{ACAD_REACTORS
330
39B5
102
}
330
1F
100
AcDbEntity
  8
太線
100
AcDbLine
 10
131.963738871777
 20
-301.6458257646234
 30
0.0
 11
131.963738871777
 21
-306.4110381078818
 31
0.0
  0
LINE
  5
3910
102
{ACAD_REACTORS
330
39B5
102
}
330
1F
100
AcDbEntity
  8
太線
100
AcDbLine
 10
133.563738871777
 20
-291.6458257646234
 30
0.0
 11
135.263738871777
 21
-291.6458257646234
 31
0.0
  0
DIMENSION
  5
3956
330
1F
100
AcDbEntity
  8
寸法線
100
AcDbDimension
  2
*D6
 10
132.2191174740669
 20
-280.8407879413414
 30
0.0
 11
108.7670096525366
 21
-277.3407879413414
 31
0.0
 70
    32
  1
48.3
 71
     5
 42
46.90421564306052
  3
sunpo
100
AcDbAlignedDimension
 13
85.31490183100641
 23
-301.5251617324238
 33
0.0
 14
132.2191174740669
 24
-301.5251617324238
 34
0.0
100
AcDbRotatedDimension
1001
ACAD
1000
DSTYLE
1002
{
1070
    40
1040
1.0
1002
}
  0
DIMENSION
  5
3963
330
1F
100
AcDbEntity
  8
寸法線
100
AcDbDimension
  2
*D7
 10
133.5016531337282
 20
-274.2510751062714
 30
0.0
 11
108.8586190420955
 21
-270.7510751062713
 31
0.0
 70
    32
  1
49..0
 71
     5
 42
49.28606818326534
  3
sunpo
100
AcDbAlignedDimension
 13
84.21558495046292
 23
-291.6405935974848
 33
0.0
 14
133.5016531337282
 24
-291.6405935974848
 34
0.0
100
AcDbRotatedDimension
1001
ACAD
1000
DSTYLE
1002
{
1070
    40
1040
1.0
1002
}
  0
DIMENSION
  5
3970
330
1F
100
AcDbEntity
  8
寸法線
100
AcDbDimension
  2
*D8
 10
135.263738871777
 20
-266.0139351800999
 30
0.0
 11
108.963738871777
 21
-262.5134430541156
 31
0.0
 70
    32
 71
     5
 42
52.60000000000001
  3
sunpo
100
AcDbAlignedDimension
 13
82.66373887177705
 23
-291.6458257646234
 33
0.0
 14
135.263738871777
 24
-291.6458257646234
 34
0.0
100
AcDbRotatedDimension
1001
ACAD
1000
DSTYLE
1002
{
1070
    40
1040
1.0
1002
}
  0
DIMENSION
  5
398F
330
1F
100
AcDbEntity
  8
寸法線
100
AcDbDimension
  2
*D9
 10
131.963738871777
 20
-331.5633845251944
 30
0.0
 11
108.963738871777
 21
-328.0633845251944
 31
0.0
 70
    32
 71
     5
 42
46.0
  3
sunpo
100
AcDbAlignedDimension
 13
85.96373887177705
 23
-306.4110381078817
 33
0.0
 14
131.963738871777
 24
-306.4110381078818
 34
0.0
100
AcDbRotatedDimension
1001
ACAD
1000
DSTYLE
1002
{
1070
    40
1040
1.0
1002
}
  0
ARC
  5
39A3
102
{ACAD_REACTORS
330
39B5
102
}
330
1F
100
AcDbEntity
  8
太線
100
AcDbCircle
 10
108.9687080953717
 20
-353.0649861054685
 30
0.0
 40
3.081063775724477
100
AcDbArc
 50
245.2749068436578
 51
294.4674076242775
  0
HATCH
  5
39B5
330
1F
100
AcDbEntity
  8
太線
100
AcDbHatch
 10
0.0
 20
0.0
 30
0.0
210
0.0
220
0.0
230
1.0
  2
SOLID
 70
     1
 71
     1
 91
        1
 92
        7
 72
     1
 73
     1
 93
       11
 10
135.263738871777
 20
-301.6458257646234
 42
0.0
 10
135.263738871777
 20
-291.6458257646234
 42
0.0
 10
133.563738871777
 20
-291.6458257646234
 42
0.0
 10
132.963738871777
 20
-301.6458257646234
 42
0.0
 10
131.963738871777
 20
-301.6458257646234
 42
0.0
 10
131.963738871777
 20
-306.4110381078818
 42
0.0
 10
112.476459654719
 20
-348.6458257646233
 42
0.0
 10
110.463738871777
 20
-348.6458257646233
 42
-0.3401036698125719
 10
108.963738871777
 20
-349.7995936945795
 42
0.0
 10
108.963738871777
 20
-356.1460458739408
 42
0.1075745156601074
 10
110.2448093772267
 20
-355.8693611710632
 42
0.0
 97
       11
330
390C
330
3910
330
390D
330
390E
330
390F
330
3902
330
3905
330
3908
330
3903
330
39A3
330
3904
 75
     0
 76
     1
 47
0.1566360599733224
 98
        1
 10
111.2357710560104
 20
-350.5447741509303
  0
TEXT
  5
39B6
330
1F
100
AcDbEntity
  8
文字
100
AcDbText
 10
148.767004035606
 20
-359.0029691258491
 30
0.0
 40
1.253954175998785
  1
DRAWN
 51
15.0
  7
OKANO
100
AcDbText
  0
TEXT
  5
39B7
330
1F
100
AcDbEntity
  8
文字
100
AcDbText
 10
148.0968862857158
 20
-355.6554981431708
 30
0.0
 40
1.253954175998785
  1
FILM NAME
 51
15.0
  7
OKANO
100
AcDbText
  0
TEXT
  5
39B8
330
1F
100
AcDbEntity
  8
文字
100
AcDbText
 10
149.0350506775662
 20
-364.4928214881037
 30
0.0
 40
1.253954175998785
  1
ISSUED
 51
15.0
  7
OKANO
100
AcDbText
  0
LWPOLYLINE
  5
39B9
330
1F
100
AcDbEntity
  8
太線
100
AcDbPolyline
 90
        4
 70
     1
 43
0.0
 10
147.0118042010134
 20
-352.207759589358
 10
203.4397421209588
 20
-352.207759589358
 10
203.4397421209588
 20
-365.3742784373452
 10
147.0118042010134
 20
-365.3742784373452
  0
LINE
  5
39BA
330
1F
100
AcDbEntity
  8
太線
100
AcDbLine
 10
147.0118042010134
 20
-356.5965992053537
 30
0.0
 11
203.4397421209587
 21
-356.5965992053537
 31
0.0
  0
TEXT
  5
39BB
330
1F
100
AcDbEntity
  8
文字
100
AcDbText
 10
149.1690745710412
 20
-362.7521365401074
 30
0.0
 40
1.253954175998785
  1
APPR
 51
15.0
  7
OKANO
100
AcDbText
  0
TEXT
  5
39BC
330
1F
100
AcDbEntity
  8
文字
100
AcDbText
 10
149.0350506775662
 20
-360.8775526787971
 30
0.0
 40
1.253954175998785
  1
CHECK
 51
15.0
  7
OKANO
100
AcDbText
  0
TEXT
  5
39BD
330
1F
100
AcDbEntity
  8
文字
100
AcDbText
 10
161.3393948441493
 20
-356.1154947892917
 30
0.0
 40
2.507908351997571
  1
F-999-20040415 Auto CAD
 51
15.0
  7
OKANO
100
AcDbText
  0
TEXT
  5
39BE
330
1F
100
AcDbEntity
  8
文字
100
AcDbText
 10
175.5998053513462
 20
-359.7462489226531
 30
0.0
 40
2.507908351997571
  1
とんちんかん
 51
15.0
  7
OKANO
100
AcDbText
  0
TEXT
  5
39BF
330
1F
100
AcDbEntity
  8
文字
100
AcDbText
 10
165.251895415953
 20
-363.8233272298955
 30
0.0
 40
2.507908351997571
  1
joint kogyo T.okano
 51
15.0
  7
OKANO
100
AcDbText
  0
TEXT
  5
39C0
330
1F
100
AcDbEntity
  8
文字
100
AcDbText
 10
161.175697801409
 20
-360.5159550135832
 30
0.0
 40
2.507908351997571
  1
T-1Y
 51
15.0
  7
OKANO
100
AcDbText
  0
LINE
  5
39C1
330
1F
100
AcDbEntity
  8
太線
100
AcDbLine
 10
159.5513459610013
 20
-352.207759589358
 30
0.0
 11
159.5513459610013
 21
-365.3742784373452
 31
0.0
  0
LINE
  5
39C4
330
1F
100
AcDbEntity
  8
太線
100
AcDbLine
 10
259.207001923395
 20
-116.3484579273947
 30
0.0
 11
305.7315046217957
 21
-116.3484579273947
 31
0.0
  0
HATCH
  5
3A3F
330
1F
100
AcDbEntity
  8
太線
100
AcDbHatch
 10
0.0
 20
0.0
 30
0.0
210
0.0
220
0.0
230
1.0
  2
SOLID
 70
     1
 71
     1
 91
        2
 92
        7
 72
     1
 73
     1
 93
       22
 10
173.6006389457099
 20
50.42570055238752
 42
0.3337997378061366
 10
175.9941993201846
 20
50.2164991413194
 42
0.0
 10
177.6819190274025
 20
51.26794962386862
 42
0.0
 10
180.6819190274025
 20
51.26794962386862
 42
0.0
 10
180.6819190274025
 20
39.10096567356549
 42
0.0
 10
184.6819190274025
 20
39.10096567356549
 42
0.0
 10
184.6819190274025
 20
50.64202843802599
 42
0.2016583837626266
 10
184.0811192975536
 20
52.0710975770145
 42
0.0
 10
173.3570038391254
 20
61.33315565930981
 42
0.0
 10
173.3570038391254
 20
62.21996923980689
 42
0.4142135623730951
 10
171.3570038391254
 20
64.21996923980689
 42
0.0
 10
140.4622871490701
 20
64.21996923980691
 42
0.4142135623730951
 10
138.4622871490701
 20
62.21996923980691
 42
0.0
 10
138.4622871490701
 20
61.33315565930978
 42
0.0
 10
127.9498408638018
 20
52.03814882443185
 42
0.1956103553156868
 10
127.3819190274026
 20
50.64202843802601
 42
0.0
 10
127.3819190274026
 20
30.62037842996903
 42
0.0
 10
131.3819190274026
 20
30.62037842996903
 42
0.0
 10
131.3819190274026
 20
51.26794962386862
 42
0.0
 10
134.3819190274025
 20
51.26794962386861
 42
0.0
 10
135.8228596283948
 20
50.37024268606463
 42
0.3315562394505359
 10
138.2043512571525
 20
50.56869819373441
 42
-0.3806792653449933
 97
       22
330
320B
330
320D
330
320A
330
320C
330
3209
330
318E
330
30B2
330
30A5
330
30A6
330
3184
330
3183
330
3201
330
32AF
330
31FF
330
32AE
330
3200
330
317B
330
317A
330
32AC
330
30A7
330
30B1
330
3192
 92
       23
 72
     0
 73
     1
 93
        4
 10
184.6819190274025
 20
30.62037842996903
 10
184.6819190274025
 20
33.81555410927052
 10
180.6819190274025
 20
33.81555410927052
 10
180.6819190274026
 20
30.62037842996903
 97
        4
330
32AD
330
317A
330
30A6
330
30A7
 75
     0
 76
     1
 47
0.498182379235433
 98
        2
 10
165.9793326081253
 20
59.6271383608281
 10
182.4329872236658
 20
31.72892406650964
  0
DIMENSION
  5
3A56
330
1F
100
AcDbEntity
  8
寸法線
100
AcDbDimension
  2
*D10
 10
178.8221946321462
 20
-117.6691168001096
 30
0.0
 11
155.8221946321462
 21
-114.1691168001097
 31
0.0
 70
    32
  1
48.3
 71
     5
 42
46.0
  3
sunpo
100
AcDbAlignedDimension
 13
132.8221946321462
 23
-140.6036443505362
 33
0.0
 14
178.8221946321462
 24
-140.6036443505362
 34
0.0
100
AcDbRotatedDimension
1001
ACAD
1000
DSTYLE
1002
{
1070
    40
1040
1.0
1002
}
  0
DIMENSION
  5
3A63
330
1F
100
AcDbEntity
  8
寸法線
100
AcDbDimension
  2
*D11
 10
180.4221946321463
 20
-105.9067940441042
 30
0.0
 11
155.8221946321463
 21
-102.4067940441042
 31
0.0
 70
    32
  1
49.3
 71
     5
 42
49.20000000000001
  3
sunpo
100
AcDbAlignedDimension
 13
131.2221946321462
 23
-130.6036443505362
 33
0.0
 14
180.4221946321463
 24
-130.6036443505362
 34
0.0
100
AcDbRotatedDimension
1001
ACAD
1000
DSTYLE
1002
{
1070
    40
1040
1.0
1002
}
  0
DIMENSION
  5
3A70
330
1F
100
AcDbEntity
  8
寸法線
100
AcDbDimension
  2
*D12
 10
182.1221946321463
 20
-91.20388992822393
 30
0.0
 11
155.8221946321463
 21
-87.70339780223968
 31
0.0
 70
    32
 71
     5
 42
52.59999999999999
  3
sunpo
100
AcDbAlignedDimension
 13
129.5221946321462
 23
-130.6036443505362
 33
0.0
 14
182.1221946321463
 24
-130.6036443505362
 34
0.0
100
AcDbRotatedDimension
1001
ACAD
1000
DSTYLE
1002
{
1070
    40
1040
1.0
1002
}
  0
DIMENSION
  5
3A9C
330
1F
100
AcDbEntity
  8
寸法線
100
AcDbDimension
  2
*D13
 10
112.211135458805
 20
30.62037842996904
 30
0.0
 11
108.7106433328208
 21
40.94416402691885
 31
0.0
 70
    32
  1
20
 71
     5
 42
20.64757119389958
  3
sunpo
100
AcDbAlignedDimension
 13
131.3819190274026
 23
51.26794962386862
 33
0.0
 14
131.3819190274026
 24
30.62037842996903
 34
0.0
 50
90.0
100
AcDbRotatedDimension
1001
ACAD
1000
DSTYLE
1002
{
1070
    40
1040
1.0
1002
}
  0
DIMENSION
  5
3AA9
330
1F
100
AcDbEntity
  8
寸法線
100
AcDbDimension
  2
*D14
 10
97.48705862452471
 20
64.21996923980691
 30
0.0
 11
93.98705862452469
 21
47.42017383488799
 31
0.0
 70
    32
  1
34
 71
     5
 42
33.59959080983788
  3
sunpo
100
AcDbAlignedDimension
 13
127.3819190274025
 23
30.62037842996903
 33
0.0
 14
140.4622871490701
 24
64.21996923980691
 34
0.0
 50
90.0
100
AcDbRotatedDimension
1001
ACAD
1000
DSTYLE
1002
{
1070
    40
1040
1.0
1002
}
  0
DIMENSION
  5
3AB6
330
1F
100
AcDbEntity
  8
寸法線
100
AcDbDimension
  2
*D15
 10
171.3570038391254
 20
73.08431198629148
 30
0.0
 11
154.9096454940977
 21
76.58431198629148
 31
0.0
 70
    32
  1
35
 71
     5
 42
32.8947166900553
  3
sunpo
100
AcDbAlignedDimension
 13
138.4622871490701
 23
64.21996923980691
 33
0.0
 14
171.3570038391254
 24
64.21996923980689
 34
0.0
100
AcDbRotatedDimension
1001
ACAD
1000
DSTYLE
1002
{
1070
    40
1040
1.0
1002
}
  0
DIMENSION
  5
3AC3
330
1F
100
AcDbEntity
  8
寸法線
100
AcDbDimension
  2
*D16
 10
180.6819190274025
 20
66.87263129538076
 30
0.0
 11
189.2848047103726
 21
70.37263129538075
 31
0.0
 70
    32
 71
     5
 42
3.0
  3
sunpo
100
AcDbAlignedDimension
 13
177.6819190274025
 23
51.26794962386862
 33
0.0
 14
180.6819190274025
 24
51.26794962386862
 34
0.0
100
AcDbRotatedDimension
1001
ACAD
1000
DSTYLE
1002
{
1070
    40
1040
1.0
1002
}
  0
DIMENSION
  5
3AD2
330
1F
100
AcDbEntity
  8
寸法線
100
AcDbDimension
  2
*D17
 10
211.0260375837342
 20
36.14116468853387
 30
0.0
 11
207.5260375837342
 21
33.38077155925148
 31
0.0
 70
    32
  1
6
 71
     5
 42
5.520786258564839
  3
sunpo
100
AcDbAlignedDimension
 13
184.6819190274025
 23
30.62037842996903
 33
0.0
 14
184.6819190274025
 24
36.14116468853387
 34
0.0
 50
90.0
100
AcDbRotatedDimension
1001
ACAD
1000
DSTYLE
1002
{
1070
    40
1040
1.0
1002
}
  0
DIMENSION
  5
3B0C
330
1F
100
AcDbEntity
  8
寸法線
100
AcDbDimension
  2
*D18
 10
131.3819190274026
 20
14.89068150404352
 30
0.0
 11
156.0319190274025
 21
18.39068150404352
 31
0.0
 70
    32
  1
49.6
 71
     5
 42
49.29999999999998
  3
sunpo
100
AcDbAlignedDimension
 13
180.6819190274025
 23
30.62037842996903
 33
0.0
 14
131.3819190274026
 24
30.62037842996903
 34
0.0
100
AcDbRotatedDimension
1001
ACAD
1000
DSTYLE
1002
{
1070
    40
1040
1.0
1002
}
  0
DIMENSION
  5
3B19
330
1F
100
AcDbEntity
  8
寸法線
100
AcDbDimension
  2
*D19
 10
127.3819190274025
 20
14.89068150404352
 30
0.0
 11
133.9819190274025
 21
6.390681504043527
 31
0.0
 70
    32
 71
     5
 42
4.000000000000014
  3
sunpo
100
AcDbAlignedDimension
 13
131.3819190274026
 23
30.62037842996903
 33
0.0
 14
127.3819190274025
 24
30.62037842996903
 34
0.0
100
AcDbRotatedDimension
1001
ACAD
1000
DSTYLE
1002
{
1070
    40
1040
1.0
1070
   279
1070
     1
1002
}
  0
TEXT
  5
3B5B
330
1F
100
AcDbEntity
  8
文字
100
AcDbText
 10
219.7805411169876
 20
43.94004440250808
 30
0.0
 40
5.015816703995143
  1
蝶ボルト　M5-6
 51
15.0
  7
OKANO
100
AcDbText
  0
TEXT
  5
3B5C
330
1F
100
AcDbEntity
  8
文字
100
AcDbText
 10
112.1413167721632
 20
-33.69258728449972
 30
0.0
 40
5.015816703995143
  1
単管　t 1.8mm  2.4mm　兼用　　
 51
15.0
  7
OKANO
100
AcDbText
  0
TEXT
  5
3B5D
330
1F
100
AcDbEntity
  8
文字
100
AcDbText
 10
118.2058002643832
 20
-80.03285983104161
 30
0.0
 40
5.015816703995143
  1
T-1V　ダクタイル（FCD450）
 51
15.0
  7
OKANO
100
AcDbText
  0
TEXT
  5
3B5E
330
1F
100
AcDbEntity
  8
文字
100
AcDbText
 10
229.3160482436001
 20
22.80545609067292
 30
0.0
 40
5.015816703995143
  1
頭部は繰り返し使用
 51
15.0
  7
OKANO
100
AcDbText
  0
TEXT
  5
3BE7
330
1F
100
AcDbEntity
  8
文字
100
AcDbText
 10
20.7631906580375
 20
86.9962012960018
 30
0.0
 40
10.0
  1
管打ち金具(とんちんかん)
 51
15.0
  7
OKANO
100
AcDbText
  0
LINE
  5
3BF5
330
1F
100
AcDbEntity
  8
太線
100
AcDbLine
 10
188.8522523623046
 20
11.33347663064159
 30
0.0
 11
193.8522523623046
 21
11.33347663064159
 31
0.0
  0
LINE
  5
3BF6
330
1F
100
AcDbEntity
  8
太線
100
AcDbLine
 10
193.8522523623046
 20
11.33347663064159
 30
0.0
 11
193.8522523623046
 21
5.333476630641598
 31
0.0
  0
LINE
  5
3BF7
330
1F
100
AcDbEntity
  8
太線
100
AcDbLine
 10
193.8522523623046
 20
5.333476630641598
 30
0.0
 11
188.8522523623046
 21
5.333476630641598
 31
0.0
  0
LINE
  5
3BF8
330
1F
100
AcDbEntity
  8
太線
100
AcDbLine
 10
188.8522523623046
 20
5.333476630641598
 30
0.0
 11
188.8522523623046
 21
11.33347663064159
 31
0.0
  0
LINE
  5
3BF9
330
1F
100
AcDbEntity
  8
細線
100
AcDbLine
 10
193.8522523623046
 20
10.33347663064159
 30
0.0
 11
188.8522523623046
 21
10.33347663064159
 31
0.0
  0
LINE
  5
3BFA
330
1F
100
AcDbEntity
  8
細線
100
AcDbLine
 10
193.8522523623046
 20
6.333476630641598
 30
0.0
 11
188.8522523623046
 21
6.333476630641598
 31
0.0
  0
LEADER
  5
3BFB
330
1F
100
AcDbEntity
  8
寸法線
100
AcDbLeader
  3
sunpo
 76
     2
 10
185.9480985575414
 20
32.919046640141
 30
0.0
 10
191.2381540982505
 20
12.32566886498966
 30
0.0
1001
ACAD
1000
DSTYLE
1002
{
1070
   147
1040
1.0
1070
    77
1070
     0
1002
}
  0
TEXT
  5
3BFC
330
1F
100
AcDbEntity
  8
文字
100
AcDbText
 10
193.5126703072648
 20
11.86540383126668
 30
0.0
 40
5.015816703995143
  1

 51
15.0
  7
OKANO
100
AcDbText
  0
TEXT
  5
3BFD
330
1F
100
AcDbEntity
  8
文字
100
AcDbText
 10
442.9414550163811
 20
89.43380737653535
 30
0.0
 40
5.015816703995143
  1
蝶ボルト　M5-6
 51
15.0
  7
OKANO
100
AcDbText
  0
TEXT
  5
3BFE
330
1F
100
AcDbEntity
  8
文字
100
AcDbText
 10
194.6071657436306
 20
12.95885607060824
 30
0.0
 40
3.0
  1
蝶ボルト落下防止パッキング
 51
15.0
  7
OKANO
100
AcDbText
  0
TEXT
  5
3BFF
330
1F
100
AcDbEntity
  8
文字
100
AcDbText
 10
196.4313231656521
 20
7.127103003390743
 30
0.0
 40
3.0
  1
シリコンパッキング
 51
15.0
  7
OKANO
100
AcDbText
  0
TEXT
  5
3C1E
330
1F
100
AcDbEntity
  8
文字
100
AcDbText
 10
22.04121198985933
 20
-64.08769909798533
 30
0.0
 40
4.799999999999999
  1
注記　内面バリは最小限にする
 51
15.0
  7
OKANO
100
AcDbText
  0
TEXT
  5
3C1F
330
1F
100
AcDbEntity
  8
文字
100
AcDbText
 10
633.2373946657096
 20
-261.8540770896804
 30
0.0
 40
5.015816703995143
  1
T-1H  T-1V
 51
15.0
  7
OKANO
100
AcDbText
  0
TEXT
  5
3C20
330
1F
100
AcDbEntity
  8
文字
100
AcDbText
 10
315.2096085751952
 20
-42.76446922916306
 30
0.0
 40
5.015816703995143
  1
±0.25　外径許容範囲
 51
15.0
  7
OKANO
100
AcDbText
  0
TEXT
  5
3C2D
330
1F
100
AcDbEntity
  8
文字
100
AcDbText
 10
117.0317239418968
 20
-16.08862528824625
 30
0.0
 40
5.015816703995143
  1
T-1H   可鍛鋳鉄(ﾏﾆｴﾌﾞﾙ) FCMD 270
 51
15.0
  7
OKANO
100
AcDbText
  0
XLINE
  5
3C37
330
1F
100
AcDbEntity
  8
構築線
100
AcDbXline
 10
155.8221946321463
 20
-193.2994683154567
 30
0.0
 11
0.0
 21
-1.0
 31
0.0
  0
LINE
  5
3C4E
330
1F
100
AcDbEntity
  8
太線
100
AcDbLine
 10
129.5221946321462
 20
-140.6036443505362
 30
0.0
 11
155.8221946321463
 21
-203.6036443505362
 31
0.0
  0
LINE
  5
3C4F
102
{ACAD_REACTORS
330
3CD2
102
}
330
1F
100
AcDbEntity
  8
太線
100
AcDbLine
 10
155.8221946321463
 20
-203.6036443505362
 30
0.0
 11
182.1221946321463
 21
-140.6036443505362
 31
0.0
  0
DIMENSION
  5
3C50
330
1F
100
AcDbEntity
  8
寸法線
100
AcDbDimension
  2
*D20
 10
205.3449140120394
 20
-140.6036443505362
 30
0.0
 11
201.8449140120394
 21
-172.1036443505362
 31
0.0
 70
    32
  1
57
 71
     5
 42
63.0
  3
sunpo
100
AcDbAlignedDimension
 13
155.8221946321463
 23
-203.6036443505362
 33
0.0
 14
179.8221946321462
 24
-140.6036443505362
 34
0.0
 50
90.0
100
AcDbRotatedDimension
1001
ACAD
1000
DSTYLE
1002
{
1070
    40
1040
1.0
1002
}
  0
LINE
  5
3C84
102
{ACAD_REACTORS
330
3CD2
102
}
330
1F
100
AcDbEntity
  8
太線
100
AcDbLine
 10
155.8221946321463
 20
-130.6036443505362
 30
0.0
 11
155.8221946321463
 21
-203.6036443505362
 31
0.0
  0
HATCH
  5
3CD2
330
1F
100
AcDbEntity
  8
太線
100
AcDbHatch
 10
0.0
 20
0.0
 30
0.0
210
0.0
220
0.0
230
1.0
  2
ANSI33
 70
     0
 71
     1
 91
        1
 92
        7
 72
     1
 73
     1
 93
       10
 10
182.1221946321463
 20
-140.6036443505362
 42
0.0
 10
182.1221946321463
 20
-130.6036443505362
 42
0.0
 10
180.4221946321463
 20
-130.6036443505362
 42
0.0
 10
179.8221946321462
 20
-140.6036443505362
 42
0.0
 10
178.8221946321462
 20
-140.6036443505362
 42
0.0
 10
178.8221946321462
 20
-145.3688566937946
 42
0.0
 10
159.3349154150882
 20
-187.6036443505362
 42
0.0
 10
157.3221946321462
 20
-187.6036443505362
 42
-0.3401036698125628
 10
155.8221946321463
 20
-188.7574122804923
 42
0.0
 10
155.8221946321463
 20
-203.6036443505361
 42
0.0
 97
       10
330
386A
330
3869
330
3872
330
3873
330
3874
330
3875
330
3879
330
38F0
330
3C84
330
3C4F
 75
     0
 76
     1
 52
0.0
 41
1.0
 77
     0
 78
     2
 53
45.0
 43
0.0
 44
0.0
 45
-4.490128060534575
 46
4.490128060534576
 79
     0
 53
45.0
 43
4.49013
 44
0.0
 45
-4.490128060534575
 46
4.490128060534576
 79
     2
 49
3.174999999999999
 49
-1.587499999999999
 47
0.2779933226941509
 98
        1
 10
165.2560767960844
 20
-177.0701835322963
  0
VIEWPORT
  5
2E
330
1B
100
AcDbEntity
 67
     1
  8
0
100
AcDbViewport
 10
236.5102896291895
 20
111.4080367912391
 30
0.0
 40
636.4818327614253
 41
323.2710678514299
 68
     2
 69
     1
 12
236.5102896291895
 22
111.4080367912391
 13
0.0
 23
0.0
 14
10.0
 24
10.0
 15
10.0
 25
10.0
 16
0.0
 26
0.0
 36
1.0
 17
0.0
 27
0.0
 37
0.0
 42
50.0
 43
0.0
 44
0.0
 45
323.2710678514299
 50
0.0
 51
0.0
 72
   100
 90
    32800
  1

281
     0
 71
     1
 74
     0
110
0.0
120
0.0
130
0.0
111
1.0
121
0.0
131
0.0
112
0.0
122
1.0
132
0.0
 79
     0
146
0.0
  0
VIEWPORT
  5
30
330
1B
100
AcDbEntity
 67
     1
  8
70-0-CON
100
AcDbViewport
 10
141.8594093064315
 20
100.3480256368386
 30
0.0
 40
261.6199023344245
 41
192.6196987113174
 68
     1
 69
     2
 12
194.4307491614326
 22
-47.28800810706718
 13
0.0
 23
0.0
 14
5.0
 24
5.0
 15
10.0
 25
10.0
 16
0.0
 26
0.0
 36
1.0
 17
0.0
 27
0.0
 37
0.0
 42
50.0
 43
0.0
 44
0.0
 45
327.0799124188981
 50
0.0
 51
0.0
 72
   100
 90
    32864
  1

281
     0
 71
     1
 74
     0
110
0.0
120
0.0
130
0.0
111
1.0
121
0.0
131
0.0
112
0.0
122
1.0
132
0.0
 79
     0
146
0.0
  0
LWPOLYLINE
  5
45
330
1B
100
AcDbEntity
 67
     1
  8
50-0-CON
100
AcDbPolyline
 90
        4
 70
     1
 43
0.0
 10
11.04945813921926
 20
4.038176281179858
 10
272.2125713060605
 20
4.033520706629644
 10
273.4987754093466
 20
195.9297862125246
 10
11.04945813921926
 20
196.6578749924973
  0
LINE
  5
4A
330
1B
100
AcDbEntity
 67
     1
  8
50-0-CON
100
AcDbLine
 10
10.38768783662635
 20
100.3480256368386
 30
0.0
 11
-4.391850629656119
 21
100.3480256368386
 31
0.0
  0
LINE
  5
4B
330
1B
100
AcDbEntity
 67
     1
  8
50-0-CON
100
AcDbLine
 10
141.8594093064315
 20
197.098652626247
 30
0.0
 11
141.8594093064315
 21
202.387980773708
 31
0.0
  0
LINE
  5
4C
330
1B
100
AcDbEntity
 67
     1
  8
50-0-CON
100
AcDbLine
 10
272.4487699456857
 20
100.7888032705883
 30
0.0
 11
278.8458837249377
 21
100.7888032705883
 31
0.0
  0
LINE
  5
4D
330
1B
100
AcDbEntity
 67
     1
  8
50-0-CON
100
AcDbLine
 10
140.9770484758805
 20
4.038176281179858
 30
0.0
 11
140.9770484758805
 21
-3.455038652015446
 31
0.0
  0
ENDSEC
  0
SECTION
  2
OBJECTS
  0
DICTIONARY
  5
C
330
0
100
AcDbDictionary
281
     1
  3
ACAD_GROUP
350
D
  3
ACAD_LAYOUT
350
1A
  3
ACAD_MLINESTYLE
350
17
  3
ACAD_PLOTSETTINGS
350
19
  3
ACAD_PLOTSTYLENAME
350
E
  3
AcadDim
350
38DD
  3
AcDbVariableDictionary
350
6AD
  3
DWGPROPS
350
30F
  0
DICTIONARY
  5
D
102
{ACAD_REACTORS
330
C
102
}
330
C
100
AcDbDictionary
281
     1
  0
DICTIONARY
  5
1A
102
{ACAD_REACTORS
330
C
102
}
330
C
100
AcDbDictionary
281
     1
  3
A4
350
1E
  3
Model
350
22
  0
DICTIONARY
  5
17
102
{ACAD_REACTORS
330
C
102
}
330
C
100
AcDbDictionary
281
     1
  3
Standard
350
18
  0
DICTIONARY
  5
19
102
{ACAD_REACTORS
330
C
102
}
330
C
100
AcDbDictionary
281
     1
  0
ACDBDICTIONARYWDFLT
  5
E
102
{ACAD_REACTORS
330
C
102
}
330
C
100
AcDbDictionary
281
     1
  3
Normal
350
F
100
AcDbDictionaryWithDefault
340
F
  0
XRECORD
  5
38DD
102
{ACAD_REACTORS
330
C
102
}
330
C
100
AcDbXrecord
280
     1
 90
   990106
  3

 60
     0
 61
     0
 62
     1
 63
     3
 64
     0
 65
     0
 66
     0
 67
     3
 68
     1
 69
     0
 70
     0
 71
     0
 72
     0
 40
0.6216174107621555
170
     0
  0
DICTIONARY
  5
6AD
102
{ACAD_REACTORS
330
C
102
}
330
C
100
AcDbDictionary
281
     1
  3
SORTENTS
350
6AE
  0
XRECORD
  5
30F
102
{ACAD_REACTORS
330
C
102
}
330
C
100
AcDbXrecord
280
     1
  1
DWGPROPS COOKIE
  2

  3

  4

  6

  7

  8

  9

300
=
301
=
302
=
303
=
304
=
305
=
306
=
307
=
308
=
309
=
 40
0.3303803125
 41
2452362.482225463
 42
2452370.969861285
  1

 90
        0
  0
LAYOUT
  5
1E
102
{ACAD_REACTORS
330
1A
102
}
330
1A
100
AcDbPlotSettings
  1

  2
EPSON PM-920C
  4
A4
  6

 40
3.757083177566528
 41
14.7637300491333
 42
3.757080078125
 43
3.757080078125
 44
209.9733276367187
 45
296.9683227539062
 46
0.0
 47
0.0
 48
0.0
 49
0.0
140
0.0
141
0.0
142
1.0
143
1.0
 70
   688
 72
     1
 73
     1
 74
     5
  7
joint.ctb
 75
    16
147
1.0
148
0.0
149
0.0
100
AcDbLayout
  1
A4
 70
     1
 71
     1
 10
-3.757080078125
 20
-3.757083177566528
 11
293.2112426757812
 21
206.2162444591522
 12
0.0
 22
0.0
 32
0.0
 14
-4.391850629656119
 24
-3.455038652015446
 34
0.0
 15
278.8458837249377
 25
202.387980773708
 35
0.0
146
0.0
 13
0.0
 23
0.0
 33
0.0
 16
1.0
 26
0.0
 36
0.0
 17
0.0
 27
1.0
 37
0.0
 76
     0
330
1B
331
30
  0
LAYOUT
  5
22
102
{ACAD_REACTORS
330
1A
102
}
330
1A
100
AcDbPlotSettings
  1

  2
EPSON PM-920C
  4
A4
  6

 40
3.757083177566528
 41
14.7637300491333
 42
3.757080078125
 43
3.757080078125
 44
209.9733276367187
 45
296.9683227539062
 46
0.0
 47
0.0
 48
0.0
 49
0.0
140
0.0
141
0.0
142
1.0
143
1.0
 70
 11952
 72
     1
 73
     1
 74
     0
  7

 75
     0
147
1.0
148
-45.64199848979289
149
-84.48806419330498
100
AcDbLayout
  1
Model
 70
     1
 71
     0
 10
0.0
 20
0.0
 11
12.0
 21
9.0
 12
0.0
 22
0.0
 32
0.0
 14
0.0
 24
0.0
 34
0.0
 15
0.0
 25
0.0
 35
0.0
146
0.0
 13
0.0
 23
0.0
 33
0.0
 16
1.0
 26
0.0
 36
0.0
 17
0.0
 27
1.0
 37
0.0
 76
     0
330
1F
  0
MLINESTYLE
  5
18
102
{ACAD_REACTORS
330
17
102
}
330
17
100
AcDbMlineStyle
  2
STANDARD
 70
     0
  3

 62
   256
 51
90.0
 52
90.0
 71
     2
 49
0.5
 62
   256
  6
BYLAYER
 49
-0.5
 62
   256
  6
BYLAYER
  0
ACDBPLACEHOLDER
  5
F
102
{ACAD_REACTORS
330
E
102
}
330
E
  0
DICTIONARYVAR
  5
6AE
102
{ACAD_REACTORS
330
6AD
102
}
330
6AD
100
DictionaryVariables
280
     0
  1
96
  0
ENDSEC
  0
EOF
