  0
SECTION
  2
HEADER
  9
$ACADVER
  1
AC1015
  9
$ACADMAINTVER
 70
     6
  9
$DWGCODEPAGE
  3
ANSI_932
  9
$INSBASE
 10
0.0
 20
0.0
 30
0.0
  9
$EXTMIN
 10
-16.90203936518895
 20
-32.85815736126585
 30
0.0
  9
$EXTMAX
 10
422.9323749039752
 20
306.1585282942916
 30
0.0
  9
$LIMMIN
 10
0.0
 20
0.0
  9
$LIMMAX
 10
420.0
 20
297.0
  9
$ORTHOMODE
 70
     1
  9
$REGENMODE
 70
     1
  9
$FILLMODE
 70
     1
  9
$QTEXTMODE
 70
     0
  9
$MIRRTEXT
 70
     1
  9
$LTSCALE
 40
1.0
  9
$ATTMODE
 70
     1
  9
$TEXTSIZE
 40
5.0
  9
$TRACEWID
 40
1.0
  9
$TEXTSTYLE
  7
OKANO
  9
$CLAYER
  8
太線
  9
$CELTYPE
  6
ByLayer
  9
$CECOLOR
 62
   256
  9
$CELTSCALE
 40
1.0
  9
$DISPSILH
 70
     0
  9
$DIMSCALE
 40
0.0
  9
$DIMASZ
 40
3.0
  9
$DIMEXO
 40
2.0
  9
$DIMDLI
 40
8.0
  9
$DIMRND
 40
0.0
  9
$DIMDLE
 40
0.0
  9
$DIMEXE
 40
3.0
  9
$DIMTP
 40
0.0
  9
$DIMTM
 40
0.0
  9
$DIMTXT
 40
5.0
  9
$DIMCEN
 40
2.5
  9
$DIMTSZ
 40
0.0
  9
$DIMTOL
 70
     0
  9
$DIMLIM
 70
     0
  9
$DIMTIH
 70
     0
  9
$DIMTOH
 70
     0
  9
$DIMSE1
 70
     0
  9
$DIMSE2
 70
     0
  9
$DIMTAD
 70
     1
  9
$DIMZIN
 70
     8
  9
$DIMBLK
  1
Closed
  9
$DIMASO
 70
     1
  9
$DIMSHO
 70
     1
  9
$DIMPOST
  1

  9
$DIMAPOST
  1

  9
$DIMALT
 70
     0
  9
$DIMALTD
 70
     3
  9
$DIMALTF
 40
0.03937007874016
  9
$DIMLFAC
 40
1.0
  9
$DIMTOFL
 70
     1
  9
$DIMTVP
 40
0.0
  9
$DIMTIX
 70
     0
  9
$DIMSOXD
 70
     0
  9
$DIMSAH
 70
     0
  9
$DIMBLK1
  1

  9
$DIMBLK2
  1

  9
$DIMSTYLE
  2
sunpo
  9
$DIMCLRD
 70
     0
  9
$DIMCLRE
 70
     0
  9
$DIMCLRT
 70
     0
  9
$DIMTFAC
 40
1.0
  9
$DIMGAP
 40
1.0
  9
$DIMJUST
 70
     0
  9
$DIMSD1
 70
     0
  9
$DIMSD2
 70
     0
  9
$DIMTOLJ
 70
     0
  9
$DIMTZIN
 70
     8
  9
$DIMALTZ
 70
     0
  9
$DIMALTTZ
 70
     0
  9
$DIMUPT
 70
     0
  9
$DIMDEC
 70
     2
  9
$DIMTDEC
 70
     2
  9
$DIMALTU
 70
     2
  9
$DIMALTTD
 70
     3
  9
$DIMTXSTY
  7
OKANO
  9
$DIMAUNIT
 70
     0
  9
$DIMADEC
 70
     0
  9
$DIMALTRND
 40
0.0
  9
$DIMAZIN
 70
     0
  9
$DIMDSEP
 70
    46
  9
$DIMATFIT
 70
     3
  9
$DIMFRAC
 70
     0
  9
$DIMLDRBLK
  1
Closed
  9
$DIMLUNIT
 70
     2
  9
$DIMLWD
 70
    -2
  9
$DIMLWE
 70
    -2
  9
$DIMTMOVE
 70
     0
  9
$LUNITS
 70
     2
  9
$LUPREC
 70
     2
  9
$SKETCHINC
 40
1.0
  9
$FILLETRAD
 40
0.5
  9
$AUNITS
 70
     0
  9
$AUPREC
 70
     0
  9
$MENU
  1
.
  9
$ELEVATION
 40
0.0
  9
$PELEVATION
 40
0.0
  9
$THICKNESS
 40
0.0
  9
$LIMCHECK
 70
     0
  9
$CHAMFERA
 40
10.0
  9
$CHAMFERB
 40
10.0
  9
$CHAMFERC
 40
20.0
  9
$CHAMFERD
 40
0.0
  9
$SKPOLY
 70
     0
  9
$TDCREATE
 40
2452362.482225463
  9
$TDUCREATE
 40
2452362.107225463
  9
$TDUPDATE
 40
2455964.435433888
  9
$TDUUPDATE
 40
2455964.060433888
  9
$TDINDWG
 40
2.1638082060
  9
$TDUSRTIMER
 40
2.1638082060
  9
$USRTIMER
 70
     1
  9
$ANGBASE
 50
0.0
  9
$ANGDIR
 70
     0
  9
$PDMODE
 70
     0
  9
$PDSIZE
 40
0.0
  9
$PLINEWID
 40
0.0
  9
$SPLFRAME
 70
     0
  9
$SPLINETYPE
 70
     6
  9
$SPLINESEGS
 70
     8
  9
$HANDSEED
  5
315B
  9
$SURFTAB1
 70
     6
  9
$SURFTAB2
 70
     6
  9
$SURFTYPE
 70
     6
  9
$SURFU
 70
     6
  9
$SURFV
 70
     6
  9
$UCSBASE
  2

  9
$UCSNAME
  2

  9
$UCSORG
 10
0.0
 20
0.0
 30
0.0
  9
$UCSXDIR
 10
1.0
 20
0.0
 30
0.0
  9
$UCSYDIR
 10
0.0
 20
1.0
 30
0.0
  9
$UCSORTHOREF
  2

  9
$UCSORTHOVIEW
 70
     0
  9
$UCSORGTOP
 10
0.0
 20
0.0
 30
0.0
  9
$UCSORGBOTTOM
 10
0.0
 20
0.0
 30
0.0
  9
$UCSORGLEFT
 10
0.0
 20
0.0
 30
0.0
  9
$UCSORGRIGHT
 10
0.0
 20
0.0
 30
0.0
  9
$UCSORGFRONT
 10
0.0
 20
0.0
 30
0.0
  9
$UCSORGBACK
 10
0.0
 20
0.0
 30
0.0
  9
$PUCSBASE
  2

  9
$PUCSNAME
  2

  9
$PUCSORG
 10
0.0
 20
0.0
 30
0.0
  9
$PUCSXDIR
 10
1.0
 20
0.0
 30
0.0
  9
$PUCSYDIR
 10
0.0
 20
1.0
 30
0.0
  9
$PUCSORTHOREF
  2

  9
$PUCSORTHOVIEW
 70
     0
  9
$PUCSORGTOP
 10
0.0
 20
0.0
 30
0.0
  9
$PUCSORGBOTTOM
 10
0.0
 20
0.0
 30
0.0
  9
$PUCSORGLEFT
 10
0.0
 20
0.0
 30
0.0
  9
$PUCSORGRIGHT
 10
0.0
 20
0.0
 30
0.0
  9
$PUCSORGFRONT
 10
0.0
 20
0.0
 30
0.0
  9
$PUCSORGBACK
 10
0.0
 20
0.0
 30
0.0
  9
$USERI1
 70
     0
  9
$USERI2
 70
     0
  9
$USERI3
 70
     0
  9
$USERI4
 70
     0
  9
$USERI5
 70
     0
  9
$USERR1
 40
0.0
  9
$USERR2
 40
0.0
  9
$USERR3
 40
0.0
  9
$USERR4
 40
0.0
  9
$USERR5
 40
0.0
  9
$WORLDVIEW
 70
     1
  9
$SHADEDGE
 70
     3
  9
$SHADEDIF
 70
    70
  9
$TILEMODE
 70
     0
  9
$MAXACTVP
 70
    64
  9
$PINSBASE
 10
0.0
 20
0.0
 30
0.0
  9
$PLIMCHECK
 70
     0
  9
$PEXTMIN
 10
-4.391850629656119
 20
-3.455038652015446
 30
0.0
  9
$PEXTMAX
 10
278.8458837249377
 20
202.387980773708
 30
0.0
  9
$PLIMMIN
 10
-3.757080078125
 20
-3.757083177566528
  9
$PLIMMAX
 10
293.2112426757812
 20
206.2162444591522
  9
$UNITMODE
 70
     0
  9
$VISRETAIN
 70
     1
  9
$PLINEGEN
 70
     0
  9
$PSLTSCALE
 70
     1
  9
$TREEDEPTH
 70
  3020
  9
$CMLSTYLE
  2
Standard
  9
$CMLJUST
 70
     0
  9
$CMLSCALE
 40
20.0
  9
$PROXYGRAPHICS
 70
     1
  9
$MEASUREMENT
 70
     1
  9
$CELWEIGHT
370
    -1
  9
$ENDCAPS
280
     0
  9
$JOINSTYLE
280
     0
  9
$LWDISPLAY
290
     0
  9
$INSUNITS
 70
     4
  9
$HYPERLINKBASE
  1

  9
$STYLESHEET
  1

  9
$XEDIT
290
     1
  9
$CEPSNTYPE
380
     0
  9
$PSTYLEMODE
290
     1
  9
$FINGERPRINTGUID
  2
{FF7F33C3-4233-11D6-AEE0-0000F45FD7F4}
  9
$VERSIONGUID
  2
{282E91B4-E9FB-42F3-870B-198042A5AE90}
  9
$EXTNAMES
290
     1
  9
$PSVPSCALE
 40
0.0
  9
$OLESTARTUP
290
     0
  0
ENDSEC
  0
SECTION
  2
CLASSES
  0
CLASS
  1
ACDBDICTIONARYWDFLT
  2
AcDbDictionaryWithDefault
  3
AutoCAD 2000
 90
        0
280
     0
281
     0
  0
CLASS
  1
ACDBPLACEHOLDER
  2
AcDbPlaceHolder
  3
AutoCAD 2000
 90
        0
280
     0
281
     0
  0
CLASS
  1
LAYOUT
  2
AcDbLayout
  3
AutoCAD 2000
 90
        0
280
     0
281
     0
  0
CLASS
  1
DICTIONARYVAR
  2
AcDbDictionaryVar
  3
AutoCAD 2000
 90
        0
280
     0
281
     0
  0
ENDSEC
  0
SECTION
  2
TABLES
  0
TABLE
  2
VPORT
  5
8
330
0
100
AcDbSymbolTable
 70
     3
  0
VPORT
  5
315A
330
8
100
AcDbSymbolTableRecord
100
AcDbViewportTableRecord
  2
*Active
 70
     0
 10
0.0
 20
0.0
 11
1.0
 21
1.0
 12
-44.09604765217625
 22
66.54961820700612
 13
0.0
 23
0.0
 14
5.0
 24
5.0
 15
10.0
 25
10.0
 16
0.0
 26
0.0
 36
1.0
 17
0.0
 27
0.0
 37
0.0
 40
457.654266995418
 41
1.968879668049792
 42
50.0
 43
0.0
 44
0.0
 50
0.0
 51
0.0
 71
     0
 72
   100
 73
     1
 74
     3
 75
     0
 76
     0
 77
     0
 78
     0
281
     0
 65
     1
110
0.0
120
0.0
130
0.0
111
1.0
121
0.0
131
0.0
112
0.0
122
1.0
132
0.0
 79
     0
146
0.0
  0
ENDTAB
  0
TABLE
  2
LTYPE
  5
5
330
0
100
AcDbSymbolTable
 70
     5
  0
LTYPE
  5
14
330
5
100
AcDbSymbolTableRecord
100
AcDbLinetypeTableRecord
  2
ByBlock
 70
     0
  3

 72
    65
 73
     0
 40
0.0
  0
LTYPE
  5
15
330
5
100
AcDbSymbolTableRecord
100
AcDbLinetypeTableRecord
  2
ByLayer
 70
     0
  3

 72
    65
 73
     0
 40
0.0
  0
LTYPE
  5
16
330
5
100
AcDbSymbolTableRecord
100
AcDbLinetypeTableRecord
  2
Continuous
 70
     0
  3
Solid line
 72
    65
 73
     0
 40
0.0
  0
LTYPE
  5
33
330
5
100
AcDbSymbolTableRecord
100
AcDbLinetypeTableRecord
  2
DASHED2
 70
     0
  3
Dashed (.5x) _ _ _ _ _ _ _ _ _ _ _ _ _ _ _ _ _
 72
    65
 73
     2
 40
9.524999999999998
 49
6.349999999999999
 74
     0
 49
-3.174999999999999
 74
     0
  0
LTYPE
  5
34
330
5
100
AcDbSymbolTableRecord
100
AcDbLinetypeTableRecord
  2
CENTER2
 70
     0
  3
Center (.5x) ___ _ ___ _ ___ _ ___ _ ___ _ ___
 72
    65
 73
     4
 40
28.57499999999999
 49
19.05
 74
     0
 49
-3.174999999999999
 74
     0
 49
3.174999999999999
 74
     0
 49
-3.174999999999999
 74
     0
  0
LTYPE
  5
35
330
5
100
AcDbSymbolTableRecord
100
AcDbLinetypeTableRecord
  2
PHANTOM2
 70
     0
  3
Phantom (.5x) ___ _ _ ___ _ _ ___ _ _ ___ _ _
 72
    65
 73
     6
 40
31.75
 49
15.875
 74
     0
 49
-3.174999999999999
 74
     0
 49
3.174999999999999
 74
     0
 49
-3.174999999999999
 74
     0
 49
3.174999999999999
 74
     0
 49
-3.174999999999999
 74
     0
  0
LTYPE
  5
36
330
5
100
AcDbSymbolTableRecord
100
AcDbLinetypeTableRecord
  2
HIDDEN2
 70
     0
  3
Hidden (.5x) _ _ _ _ _ _ _ _ _ _ _ _ _ _ _ _ _
 72
    65
 73
     2
 40
4.762499999999999
 49
3.174999999999999
 74
     0
 49
-1.587499999999999
 74
     0
  0
ENDTAB
  0
TABLE
  2
LAYER
  5
2
330
0
100
AcDbSymbolTable
 70
    13
  0
LAYER
  5
10
330
2
100
AcDbSymbolTableRecord
100
AcDbLayerTableRecord
  2
0
 70
     0
 62
     7
  6
Continuous
370
    -3
390
F
  0
LAYER
  5
40
330
2
100
AcDbSymbolTableRecord
100
AcDbLayerTableRecord
  2
50-0-CON
 70
     0
 62
     4
  6
Continuous
370
    50
390
F
  0
LAYER
  5
41
330
2
100
AcDbSymbolTableRecord
100
AcDbLayerTableRecord
  2
70-0-CON
 70
     0
 62
   202
  6
Continuous
370
    70
390
F
  0
LAYER
  5
4E
330
2
100
AcDbSymbolTableRecord
100
AcDbLayerTableRecord
  2
極太線
 70
     0
 62
     7
  6
Continuous
370
    70
390
F
  0
LAYER
  5
4F
330
2
100
AcDbSymbolTableRecord
100
AcDbLayerTableRecord
  2
細線
 70
     0
 62
     8
  6
Continuous
370
    18
390
F
  0
LAYER
  5
AB
330
2
100
AcDbSymbolTableRecord
100
AcDbLayerTableRecord
  2
構築線
 70
     0
 62
    -2
  6
Continuous
290
     0
370
    18
390
F
  0
LAYER
  5
B8
330
2
100
AcDbSymbolTableRecord
100
AcDbLayerTableRecord
  2
太線
 70
     0
 62
     7
  6
Continuous
370
    35
390
F
  0
LAYER
  5
B9
330
2
100
AcDbSymbolTableRecord
100
AcDbLayerTableRecord
  2
寸法線
 70
     0
 62
     5
  6
Continuous
370
    18
390
F
  0
LAYER
  5
BA
330
2
100
AcDbSymbolTableRecord
100
AcDbLayerTableRecord
  2
破線
 70
     0
 62
     8
  6
HIDDEN2
370
    18
390
F
  0
LAYER
  5
BB
330
2
100
AcDbSymbolTableRecord
100
AcDbLayerTableRecord
  2
中心線
 70
     0
 62
     1
  6
CENTER2
370
    18
390
F
  0
LAYER
  5
BC
330
2
100
AcDbSymbolTableRecord
100
AcDbLayerTableRecord
  2
想像線
 70
     0
 62
     8
  6
PHANTOM2
370
    18
390
F
  0
LAYER
  5
BD
330
2
100
AcDbSymbolTableRecord
100
AcDbLayerTableRecord
  2
文字
 70
     0
 62
     7
  6
Continuous
370
    18
390
F
  0
LAYER
  5
180
330
2
100
AcDbSymbolTableRecord
100
AcDbLayerTableRecord
  2
Defpoints
 70
     0
 62
     7
  6
Continuous
290
     0
370
    -3
390
F
  0
ENDTAB
  0
TABLE
  2
STYLE
  5
3
330
0
100
AcDbSymbolTable
 70
     3
  0
STYLE
  5
11
330
3
100
AcDbSymbolTableRecord
100
AcDbTextStyleTableRecord
  2
Standard
 70
     0
 40
0.0
 41
1.0
 50
0.0
 71
     0
 42
3.0
  3
txt
  4

  0
STYLE
  5
32
330
3
100
AcDbSymbolTableRecord
100
AcDbTextStyleTableRecord
  2

 70
     1
 40
0.0
 41
1.0
 50
0.0
 71
     0
 42
2.5
  3
ltypeshp.shx
  4

  0
STYLE
  5
50
330
3
100
AcDbSymbolTableRecord
100
AcDbTextStyleTableRecord
  2
OKANO
 70
     0
 40
0.0
 41
1.0
 50
15.0
 71
     0
 42
5.0
  3
isocp.shx
  4
bigfont.shx
  0
ENDTAB
  0
TABLE
  2
VIEW
  5
6
330
0
100
AcDbSymbolTable
 70
     0
  0
ENDTAB
  0
TABLE
  2
UCS
  5
7
330
0
100
AcDbSymbolTable
 70
     0
  0
ENDTAB
  0
TABLE
  2
APPID
  5
9
330
0
100
AcDbSymbolTable
 70
     1
  0
APPID
  5
12
330
9
100
AcDbSymbolTableRecord
100
AcDbRegAppTableRecord
  2
ACAD
 70
     0
  0
ENDTAB
  0
TABLE
  2
DIMSTYLE
  5
A
330
0
100
AcDbSymbolTable
 70
     2
100
AcDbDimStyleTable
 71
     2
340
A2
340
27
  0
DIMSTYLE
105
27
330
A
100
AcDbSymbolTableRecord
100
AcDbDimStyleTableRecord
  2
ISO-25
 70
     0
 41
2.5
 42
0.625
 43
3.75
 44
1.25
 73
     0
 74
     0
 77
     1
 78
     8
140
2.5
141
2.5
143
0.03937007874016
147
0.625
171
     3
172
     1
271
     2
272
     2
274
     3
283
     0
284
     8
340
11
  0
DIMSTYLE
105
A2
102
{ACAD_REACTORS
330
2A44
330
2A5A
330
2AA4
330
2AB1
330
2AD3
330
2B10
330
2B1D
330
2B6B
330
2B78
330
2B8E
330
2B9B
330
2C3E
330
2C54
330
2C70
330
2D11
330
2BEA
330
2DAC
330
2FF3
330
3009
330
301F
330
3035
330
3063
330
3099
330
30A7
330
30D0
330
30E6
330
3100
102
}
330
A
100
AcDbSymbolTableRecord
100
AcDbDimStyleTableRecord
  2
sunpo
 70
     0
 40
0.0
 41
3.0
 42
2.0
 43
8.0
 44
3.0
 73
     0
 74
     0
 77
     1
 78
     8
140
5.0
141
2.5
143
0.03937007874016
147
1.0
171
     3
172
     1
271
     2
272
     2
274
     3
283
     0
284
     8
340
50
341
9B
342
9B
  0
ENDTAB
  0
TABLE
  2
BLOCK_RECORD
  5
1
330
0
100
AcDbSymbolTable
 70
    30
  0
BLOCK_RECORD
  5
1F
330
1
100
AcDbSymbolTableRecord
100
AcDbBlockTableRecord
  2
*Model_Space
340
22
  0
BLOCK_RECORD
  5
1B
330
1
100
AcDbSymbolTableRecord
100
AcDbBlockTableRecord
  2
*Paper_Space
340
1E
  0
BLOCK_RECORD
  5
9B
330
1
100
AcDbSymbolTableRecord
100
AcDbBlockTableRecord
  2
_Closed
340
0
102
{BLKREFS
331
2AA9
331
2AAA
331
2AC1
331
2AC2
331
2AD9
331
2ADA
331
2B7D
331
2B7E
331
2B88
331
2B89
331
2C84
331
2C85
331
2D21
331
2D22
331
2D2A
331
2D2B
331
2DBC
331
2DBD
331
2FA5
331
2FA6
331
2FAE
331
2FAF
331
2FB7
331
2FB8
331
2FC0
331
2FC1
331
2FC9
331
2FCA
331
2FD2
331
2FD3
331
2FDB
331
2FDC
331
2FE4
331
2FE5
331
3003
331
3004
331
3019
331
301A
331
302F
331
3030
331
3045
331
3046
331
3093
331
3094
331
30B7
331
30B8
331
30C0
331
30C1
331
30E0
331
30E1
331
30FA
331
30FB
331
3117
331
3118
102
}
  0
BLOCK_RECORD
  5
1510
330
1
100
AcDbSymbolTableRecord
100
AcDbBlockTableRecord
  2
A$C10A573AC
340
0
  0
BLOCK_RECORD
  5
2A45
330
1
100
AcDbSymbolTableRecord
100
AcDbBlockTableRecord
  2
*D2
340
0
  0
BLOCK_RECORD
  5
2A5B
330
1
100
AcDbSymbolTableRecord
100
AcDbBlockTableRecord
  2
*D3
340
0
  0
BLOCK_RECORD
  5
2AA5
330
1
100
AcDbSymbolTableRecord
100
AcDbBlockTableRecord
  2
*D4
340
0
  0
BLOCK_RECORD
  5
2AB2
330
1
100
AcDbSymbolTableRecord
100
AcDbBlockTableRecord
  2
*D5
340
0
  0
BLOCK_RECORD
  5
2AD4
330
1
100
AcDbSymbolTableRecord
100
AcDbBlockTableRecord
  2
*D6
340
0
  0
BLOCK_RECORD
  5
2B11
330
1
100
AcDbSymbolTableRecord
100
AcDbBlockTableRecord
  2
*D7
340
0
  0
BLOCK_RECORD
  5
2B1E
330
1
100
AcDbSymbolTableRecord
100
AcDbBlockTableRecord
  2
*D8
340
0
  0
BLOCK_RECORD
  5
2B6C
330
1
100
AcDbSymbolTableRecord
100
AcDbBlockTableRecord
  2
*D9
340
0
  0
BLOCK_RECORD
  5
2B79
330
1
100
AcDbSymbolTableRecord
100
AcDbBlockTableRecord
  2
*D10
340
0
  0
BLOCK_RECORD
  5
2B8F
330
1
100
AcDbSymbolTableRecord
100
AcDbBlockTableRecord
  2
*D11
340
0
  0
BLOCK_RECORD
  5
2B9C
330
1
100
AcDbSymbolTableRecord
100
AcDbBlockTableRecord
  2
*D12
340
0
  0
BLOCK_RECORD
  5
2BEB
330
1
100
AcDbSymbolTableRecord
100
AcDbBlockTableRecord
  2
*D13
340
0
  0
BLOCK_RECORD
  5
2C3F
330
1
100
AcDbSymbolTableRecord
100
AcDbBlockTableRecord
  2
*D14
340
0
  0
BLOCK_RECORD
  5
2C55
330
1
100
AcDbSymbolTableRecord
100
AcDbBlockTableRecord
  2
*D15
340
0
  0
BLOCK_RECORD
  5
2C71
330
1
100
AcDbSymbolTableRecord
100
AcDbBlockTableRecord
  2
*D16
340
0
  0
BLOCK_RECORD
  5
2D12
330
1
100
AcDbSymbolTableRecord
100
AcDbBlockTableRecord
  2
*D17
340
0
  0
BLOCK_RECORD
  5
2DAD
330
1
100
AcDbSymbolTableRecord
100
AcDbBlockTableRecord
  2
*D18
340
0
  0
BLOCK_RECORD
  5
2FF4
330
1
100
AcDbSymbolTableRecord
100
AcDbBlockTableRecord
  2
*D19
340
0
  0
BLOCK_RECORD
  5
300A
330
1
100
AcDbSymbolTableRecord
100
AcDbBlockTableRecord
  2
*D20
340
0
  0
BLOCK_RECORD
  5
3020
330
1
100
AcDbSymbolTableRecord
100
AcDbBlockTableRecord
  2
*D21
340
0
  0
BLOCK_RECORD
  5
3036
330
1
100
AcDbSymbolTableRecord
100
AcDbBlockTableRecord
  2
*D22
340
0
  0
BLOCK_RECORD
  5
3064
330
1
100
AcDbSymbolTableRecord
100
AcDbBlockTableRecord
  2
*D23
340
0
  0
BLOCK_RECORD
  5
309A
330
1
100
AcDbSymbolTableRecord
100
AcDbBlockTableRecord
  2
*D24
340
0
  0
BLOCK_RECORD
  5
30A8
330
1
100
AcDbSymbolTableRecord
100
AcDbBlockTableRecord
  2
*D25
340
0
  0
BLOCK_RECORD
  5
30D1
330
1
100
AcDbSymbolTableRecord
100
AcDbBlockTableRecord
  2
*D26
340
0
  0
BLOCK_RECORD
  5
30E7
330
1
100
AcDbSymbolTableRecord
100
AcDbBlockTableRecord
  2
*D27
340
0
  0
BLOCK_RECORD
  5
3101
330
1
100
AcDbSymbolTableRecord
100
AcDbBlockTableRecord
  2
*D28
340
0
  0
BLOCK_RECORD
  5
3137
330
1
100
AcDbSymbolTableRecord
100
AcDbBlockTableRecord
  2
A$C4C1B5A4B
340
0
  0
ENDTAB
  0
ENDSEC
  0
SECTION
  2
BLOCKS
  0
BLOCK
  5
20
330
1F
100
AcDbEntity
  8
0
100
AcDbBlockBegin
  2
*Model_Space
 70
     0
 10
0.0
 20
0.0
 30
0.0
  3
*Model_Space
  1

  0
ENDBLK
  5
21
330
1F
100
AcDbEntity
  8
0
100
AcDbBlockEnd
  0
BLOCK
  5
1C
330
1B
100
AcDbEntity
 67
     1
  8
0
100
AcDbBlockBegin
  2
*Paper_Space
 70
     0
 10
0.0
 20
0.0
 30
0.0
  3
*Paper_Space
  1

  0
ENDBLK
  5
1D
330
1B
100
AcDbEntity
 67
     1
  8
0
100
AcDbBlockEnd
  0
BLOCK
  5
A0
330
9B
100
AcDbEntity
  8
0
100
AcDbBlockBegin
  2
_Closed
 70
     0
 10
0.0
 20
0.0
 30
0.0
  3
_Closed
  1

  0
LINE
  5
9C
330
9B
100
AcDbEntity
  8
0
 62
     0
370
    -2
100
AcDbLine
 10
-1.0
 20
0.1666666666666666
 30
0.0
 11
0.0
 21
0.0
 31
0.0
  0
LINE
  5
9D
330
9B
100
AcDbEntity
  8
0
 62
     0
370
    -2
100
AcDbLine
 10
0.0
 20
0.0
 30
0.0
 11
-1.0
 21
-0.1666666666666666
 31
0.0
  0
LINE
  5
9E
330
9B
100
AcDbEntity
  8
0
 62
     0
370
    -2
100
AcDbLine
 10
-1.0
 20
0.1666666666666666
 30
0.0
 11
-1.0
 21
-0.1666666666666666
 31
0.0
  0
LINE
  5
9F
330
9B
100
AcDbEntity
  8
0
 62
     0
370
    -2
100
AcDbLine
 10
0.0
 20
0.0
 30
0.0
 11
-1.0
 21
0.0
 31
0.0
  0
ENDBLK
  5
A1
330
9B
100
AcDbEntity
  8
0
100
AcDbBlockEnd
  0
BLOCK
  5
155B
330
1510
100
AcDbEntity
  8
0
100
AcDbBlockBegin
  2
A$C10A573AC
 70
     0
 10
0.0
 20
0.0
 30
0.0
  3
A$C10A573AC
  1

  0
TEXT
  5
1511
330
1510
100
AcDbEntity
  8
文字
100
AcDbText
 10
0.9844302777919438
 20
5.224957122252135
 30
0.0
 40
3.0
  1
Materal : Steel.
 51
15.0
  7
OKANO
100
AcDbText
  0
TEXT
  5
1512
330
1510
100
AcDbEntity
  8
文字
100
AcDbText
 10
-0.1141909619694843
 20
0.7500001922403499
 30
0.0
 40
3.0
  1
Surface treatment : Electro galvanized.
 51
15.0
  7
OKANO
100
AcDbText
  0
TEXT
  5
1513
330
1510
100
AcDbEntity
  8
文字
100
AcDbText
 10
-0.4901926332574931
 20
9.159967445193728
 30
0.0
 40
3.0
  1
5 TORGUE SCREW  M5-6
 51
15.0
  7
OKANO
100
AcDbText
  0
TEXT
  5
1514
330
1510
100
AcDbEntity
  8
文字
100
AcDbText
 10
1.364713526390005
 20
78.88822913323082
 30
0.0
 40
3.0
  1
Special standard,
 51
15.0
  7
OKANO
100
AcDbText
  0
TEXT
  5
1515
330
1510
100
AcDbEntity
  8
文字
100
AcDbText
 10
92.88160823408942
 20
89.92753849837379
 30
0.0
 40
3.0
  1
Screw Type
 51
15.0
  7
OKANO
100
AcDbText
  0
LINE
  5
1516
330
1510
100
AcDbEntity
  8
太線
100
AcDbLine
 10
113.9464587597784
 20
81.93930390144641
 30
0.0
 11
112.4464587597784
 21
81.93930390144641
 31
0.0
  0
LINE
  5
1517
330
1510
100
AcDbEntity
  8
太線
100
AcDbLine
 10
112.4464587597784
 20
76.9393039014464
 30
0.0
 11
121.4644995438761
 21
76.9393039014464
 31
0.0
  0
TEXT
  5
1518
330
1510
100
AcDbEntity
  8
文字
100
AcDbText
 10
93.46068240437217
 20
77.96976862235396
 30
0.0
 40
2.0
  1
17-30
 51
15.0
  7
OKANO
100
AcDbText
  0
LINE
  5
1519
330
1510
100
AcDbEntity
  8
太線
100
AcDbLine
 10
111.9464587597784
 20
81.43930390144641
 30
0.0
 11
111.9464587597784
 21
77.4393039014464
 31
0.0
  0
LINE
  5
151A
330
1510
100
AcDbEntity
  8
太線
100
AcDbLine
 10
91.94645875977846
 20
81.43930390144641
 30
0.0
 11
91.94645875977846
 21
77.43930390144639
 31
0.0
  0
LINE
  5
151B
330
1510
100
AcDbEntity
  8
太線
100
AcDbLine
 10
101.9644995438761
 20
77.4393039014464
 30
0.0
 11
101.9644995438761
 21
81.43930390144641
 31
0.0
  0
LINE
  5
151C
330
1510
100
AcDbEntity
  8
太線
100
AcDbLine
 10
92.44645875977846
 20
76.9393039014464
 30
0.0
 11
101.4644995438761
 21
76.9393039014464
 31
0.0
  0
ARC
  5
151D
330
1510
100
AcDbEntity
  8
太線
100
AcDbCircle
 10
92.44645875977846
 20
77.43930390144639
 30
0.0
 40
0.5
100
AcDbArc
 50
180.0
 51
270.0
  0
ARC
  5
151E
330
1510
100
AcDbEntity
  8
太線
100
AcDbCircle
 10
101.4644995438761
 20
77.4393039014464
 30
0.0
 40
0.5
100
AcDbArc
 50
270.0
 51
0.0
  0
ARC
  5
151F
330
1510
100
AcDbEntity
  8
太線
100
AcDbCircle
 10
112.4464587597784
 20
77.4393039014464
 30
0.0
 40
0.5
100
AcDbArc
 50
180.0
 51
270.0
  0
LINE
  5
1520
330
1510
100
AcDbEntity
  8
想像線
100
AcDbLine
 10
93.94645875977847
 20
81.93930390144641
 30
0.0
 11
99.96449954387617
 21
81.93930390144641
 31
0.0
  0
LINE
  5
1521
330
1510
100
AcDbEntity
  8
極太線
100
AcDbLine
 10
96.38762957111168
 20
85.43930390144641
 30
0.0
 11
97.50528794844525
 21
85.43930390144641
 31
0.0
  0
CIRCLE
  5
1522
330
1510
100
AcDbEntity
  8
太線
100
AcDbCircle
 10
96.94645875977847
 20
85.43930390144641
 30
0.0
 40
0.5588291886667776
  0
LINE
  5
1523
330
1510
100
AcDbEntity
  8
太線
100
AcDbLine
 10
99.46449954387617
 20
86.93930390144641
 30
0.0
 11
94.44645875977846
 21
86.93930390144641
 31
0.0
  0
LINE
  5
1524
330
1510
100
AcDbEntity
  8
太線
100
AcDbLine
 10
93.94645875977847
 20
86.43930390144641
 30
0.0
 11
93.94645875977847
 21
81.93930390144641
 31
0.0
  0
ARC
  5
1525
330
1510
100
AcDbEntity
  8
太線
100
AcDbCircle
 10
92.44645875977846
 20
81.43930390144641
 30
0.0
 40
0.5
100
AcDbArc
 50
90.0
 51
180.0
  0
LINE
  5
1526
330
1510
100
AcDbEntity
  8
太線
100
AcDbLine
 10
93.94645875977847
 20
81.93930390144641
 30
0.0
 11
92.44645875977846
 21
81.93930390144641
 31
0.0
  0
ARC
  5
1527
330
1510
100
AcDbEntity
  8
太線
100
AcDbCircle
 10
94.44645875977846
 20
86.43930390144641
 30
0.0
 40
0.5
100
AcDbArc
 50
90.0
 51
180.0
  0
LINE
  5
1528
330
1510
100
AcDbEntity
  8
太線
100
AcDbLine
 10
99.96449954387617
 20
81.93930390144641
 30
0.0
 11
99.96449954387617
 21
86.43930390144641
 31
0.0
  0
LINE
  5
1529
330
1510
100
AcDbEntity
  8
太線
100
AcDbLine
 10
101.4644995438761
 20
81.93930390144641
 30
0.0
 11
99.96449954387617
 21
81.93930390144641
 31
0.0
  0
ARC
  5
152A
330
1510
100
AcDbEntity
  8
太線
100
AcDbCircle
 10
101.4644995438761
 20
81.43930390144641
 30
0.0
 40
0.5
100
AcDbArc
 50
0.0
 51
90.0
  0
ARC
  5
152B
330
1510
100
AcDbEntity
  8
太線
100
AcDbCircle
 10
99.46449954387617
 20
86.43930390144641
 30
0.0
 40
0.5
100
AcDbArc
 50
0.0
 51
90.0
  0
LINE
  5
152C
330
1510
100
AcDbEntity
  8
極太線
100
AcDbLine
 10
96.94645875977847
 20
85.99813309011318
 30
0.0
 11
96.94645875977847
 21
84.88047471277964
 31
0.0
  0
ARC
  5
152D
330
1510
100
AcDbEntity
  8
太線
100
AcDbCircle
 10
112.4464587597784
 20
81.43930390144641
 30
0.0
 40
0.5
100
AcDbArc
 50
90.0
 51
180.0
  0
TEXT
  5
152E
330
1510
100
AcDbEntity
  8
文字
100
AcDbText
 10
134.3819212586066
 20
78.16263579228063
 30
0.0
 40
2.0
  1
101
 51
15.0
  7
OKANO
100
AcDbText
  0
TEXT
  5
152F
330
1510
100
AcDbEntity
  8
文字
100
AcDbText
 10
113.3422276612066
 20
77.96976862235396
 30
0.0
 40
2.0
  1
38-83
 51
15.0
  7
OKANO
100
AcDbText
  0
LINE
  5
1530
330
1510
100
AcDbEntity
  8
太線
100
AcDbLine
 10
141.9825403279738
 20
77.4393039014464
 30
0.0
 11
141.9825403279738
 21
81.43930390144641
 31
0.0
  0
LINE
  5
1531
330
1510
100
AcDbEntity
  8
太線
100
AcDbLine
 10
131.9644995438761
 20
81.43930390144641
 30
0.0
 11
131.9644995438761
 21
77.4393039014464
 31
0.0
  0
LINE
  5
1532
330
1510
100
AcDbEntity
  8
太線
100
AcDbLine
 10
121.9644995438761
 20
77.4393039014464
 30
0.0
 11
121.9644995438761
 21
81.43930390144641
 31
0.0
  0
ARC
  5
1533
330
1510
100
AcDbEntity
  8
太線
100
AcDbCircle
 10
121.4644995438761
 20
77.4393039014464
 30
0.0
 40
0.5
100
AcDbArc
 50
270.0
 51
0.0
  0
LINE
  5
1534
330
1510
100
AcDbEntity
  8
太線
100
AcDbLine
 10
132.4644995438761
 20
76.9393039014464
 30
0.0
 11
141.4825403279738
 21
76.9393039014464
 31
0.0
  0
ARC
  5
1535
330
1510
100
AcDbEntity
  8
太線
100
AcDbCircle
 10
132.4644995438761
 20
77.4393039014464
 30
0.0
 40
0.5
100
AcDbArc
 50
180.0
 51
270.0
  0
ARC
  5
1536
330
1510
100
AcDbEntity
  8
太線
100
AcDbCircle
 10
141.4825403279738
 20
77.4393039014464
 30
0.0
 40
0.5
100
AcDbArc
 50
270.0
 51
0.0
  0
ARC
  5
1537
330
1510
100
AcDbEntity
  8
太線
100
AcDbCircle
 10
121.4644995438761
 20
81.43930390144641
 30
0.0
 40
0.5
100
AcDbArc
 50
0.0
 51
90.0
  0
LINE
  5
1538
330
1510
100
AcDbEntity
  8
太線
100
AcDbLine
 10
119.9644995438761
 20
81.93930390144641
 30
0.0
 11
119.9644995438761
 21
86.43930390144641
 31
0.0
  0
LINE
  5
1539
330
1510
100
AcDbEntity
  8
太線
100
AcDbLine
 10
113.9464587597784
 20
86.43930390144641
 30
0.0
 11
113.9464587597784
 21
81.93930390144641
 31
0.0
  0
LINE
  5
153A
330
1510
100
AcDbEntity
  8
想像線
100
AcDbLine
 10
113.9464587597784
 20
81.93930390144641
 30
0.0
 11
119.9644995438761
 21
81.93930390144641
 31
0.0
  0
LINE
  5
153B
330
1510
100
AcDbEntity
  8
太線
100
AcDbLine
 10
121.4644995438761
 20
81.93930390144641
 30
0.0
 11
119.9644995438761
 21
81.93930390144641
 31
0.0
  0
LINE
  5
153C
330
1510
100
AcDbEntity
  8
太線
100
AcDbLine
 10
119.4644995438761
 20
86.93930390144641
 30
0.0
 11
114.4464587597784
 21
86.93930390144641
 31
0.0
  0
ARC
  5
153D
330
1510
100
AcDbEntity
  8
太線
100
AcDbCircle
 10
114.4464587597784
 20
86.43930390144641
 30
0.0
 40
0.5
100
AcDbArc
 50
90.0
 51
180.0
  0
CIRCLE
  5
153E
330
1510
100
AcDbEntity
  8
太線
100
AcDbCircle
 10
115.4464587597784
 20
85.43930390144641
 30
0.0
 40
0.5588291886667776
  0
LINE
  5
153F
330
1510
100
AcDbEntity
  8
極太線
100
AcDbLine
 10
115.4464587597784
 20
85.99813309011318
 30
0.0
 11
115.4464587597784
 21
84.88047471277964
 31
0.0
  0
LINE
  5
1540
330
1510
100
AcDbEntity
  8
極太線
100
AcDbLine
 10
114.8876295711116
 20
85.43930390144641
 30
0.0
 11
116.0052879484452
 21
85.43930390144641
 31
0.0
  0
ARC
  5
1541
330
1510
100
AcDbEntity
  8
太線
100
AcDbCircle
 10
119.4644995438761
 20
86.43930390144641
 30
0.0
 40
0.5
100
AcDbArc
 50
0.0
 51
90.0
  0
LINE
  5
1542
330
1510
100
AcDbEntity
  8
極太線
100
AcDbLine
 10
117.9056703552094
 20
85.43930390144641
 30
0.0
 11
119.0233287325429
 21
85.43930390144641
 31
0.0
  0
LINE
  5
1543
330
1510
100
AcDbEntity
  8
極太線
100
AcDbLine
 10
118.4644995438761
 20
85.99813309011318
 30
0.0
 11
118.4644995438761
 21
84.88047471277964
 31
0.0
  0
CIRCLE
  5
1544
330
1510
100
AcDbEntity
  8
太線
100
AcDbCircle
 10
118.4644995438761
 20
85.43930390144641
 30
0.0
 40
0.5588291886667776
  0
LINE
  5
1545
330
1510
100
AcDbEntity
  8
想像線
100
AcDbLine
 10
133.9644995438761
 20
81.93930390144641
 30
0.0
 11
139.9825403279738
 21
81.93930390144641
 31
0.0
  0
LINE
  5
1546
330
1510
100
AcDbEntity
  8
極太線
100
AcDbLine
 10
137.9237111393071
 20
85.43930390144641
 30
0.0
 11
139.0413695166406
 21
85.43930390144641
 31
0.0
  0
CIRCLE
  5
1547
330
1510
100
AcDbEntity
  8
太線
100
AcDbCircle
 10
138.4825403279738
 20
85.43930390144641
 30
0.0
 40
0.5588291886667776
  0
CIRCLE
  5
1548
330
1510
100
AcDbEntity
  8
太線
100
AcDbCircle
 10
138.4825403279738
 20
83.26342923362075
 30
0.0
 40
0.5588291886667776
  0
LINE
  5
1549
330
1510
100
AcDbEntity
  8
極太線
100
AcDbLine
 10
137.9237111393071
 20
83.26342923362075
 30
0.0
 11
139.0413695166406
 21
83.26342923362075
 31
0.0
  0
LINE
  5
154A
330
1510
100
AcDbEntity
  8
太線
100
AcDbLine
 10
139.4825403279738
 20
86.93930390144641
 30
0.0
 11
134.4644995438761
 21
86.93930390144641
 31
0.0
  0
LINE
  5
154B
330
1510
100
AcDbEntity
  8
太線
100
AcDbLine
 10
133.9644995438761
 20
86.43930390144641
 30
0.0
 11
133.9644995438761
 21
81.93930390144641
 31
0.0
  0
ARC
  5
154C
330
1510
100
AcDbEntity
  8
太線
100
AcDbCircle
 10
132.4644995438761
 20
81.43930390144641
 30
0.0
 40
0.5
100
AcDbArc
 50
90.0
 51
180.0
  0
LINE
  5
154D
330
1510
100
AcDbEntity
  8
太線
100
AcDbLine
 10
133.9644995438761
 20
81.93930390144641
 30
0.0
 11
132.4644995438761
 21
81.93930390144641
 31
0.0
  0
LINE
  5
154E
330
1510
100
AcDbEntity
  8
極太線
100
AcDbLine
 10
134.9056703552093
 20
83.26342923362075
 30
0.0
 11
136.0233287325429
 21
83.26342923362075
 31
0.0
  0
LINE
  5
154F
330
1510
100
AcDbEntity
  8
極太線
100
AcDbLine
 10
135.4644995438761
 20
83.82225842228752
 30
0.0
 11
135.4644995438761
 21
82.70460004495395
 31
0.0
  0
CIRCLE
  5
1550
330
1510
100
AcDbEntity
  8
太線
100
AcDbCircle
 10
135.4644995438761
 20
83.26342923362075
 30
0.0
 40
0.5588291886667776
  0
ARC
  5
1551
330
1510
100
AcDbEntity
  8
太線
100
AcDbCircle
 10
134.4644995438761
 20
86.43930390144641
 30
0.0
 40
0.5
100
AcDbArc
 50
90.0
 51
180.0
  0
CIRCLE
  5
1552
330
1510
100
AcDbEntity
  8
太線
100
AcDbCircle
 10
135.4644995438761
 20
85.43930390144641
 30
0.0
 40
0.5588291886667776
  0
LINE
  5
1553
330
1510
100
AcDbEntity
  8
極太線
100
AcDbLine
 10
135.4644995438761
 20
85.99813309011318
 30
0.0
 11
135.4644995438761
 21
84.88047471277964
 31
0.0
  0
LINE
  5
1554
330
1510
100
AcDbEntity
  8
極太線
100
AcDbLine
 10
134.9056703552093
 20
85.43930390144641
 30
0.0
 11
136.0233287325429
 21
85.43930390144641
 31
0.0
  0
LINE
  5
1555
330
1510
100
AcDbEntity
  8
太線
100
AcDbLine
 10
139.9825403279738
 20
81.93930390144641
 30
0.0
 11
139.9825403279738
 21
86.43930390144641
 31
0.0
  0
ARC
  5
1556
330
1510
100
AcDbEntity
  8
太線
100
AcDbCircle
 10
141.4825403279738
 20
81.43930390144641
 30
0.0
 40
0.5
100
AcDbArc
 50
0.0
 51
90.0
  0
LINE
  5
1557
330
1510
100
AcDbEntity
  8
極太線
100
AcDbLine
 10
138.4825403279738
 20
83.82225842228752
 30
0.0
 11
138.4825403279738
 21
82.70460004495395
 31
0.0
  0
LINE
  5
1558
330
1510
100
AcDbEntity
  8
太線
100
AcDbLine
 10
141.4825403279738
 20
81.93930390144641
 30
0.0
 11
139.9825403279738
 21
81.93930390144641
 31
0.0
  0
ARC
  5
1559
330
1510
100
AcDbEntity
  8
太線
100
AcDbCircle
 10
139.4825403279738
 20
86.43930390144641
 30
0.0
 40
0.5
100
AcDbArc
 50
0.0
 51
90.0
  0
LINE
  5
155A
330
1510
100
AcDbEntity
  8
極太線
100
AcDbLine
 10
138.4825403279738
 20
85.99813309011318
 30
0.0
 11
138.4825403279738
 21
84.88047471277964
 31
0.0
  0
ENDBLK
  5
155C
330
1510
100
AcDbEntity
  8
0
100
AcDbBlockEnd
  0
BLOCK
  5
2A4F
330
2A45
100
AcDbEntity
  8
0
100
AcDbBlockBegin
  2
*D2
 70
     1
 10
0.0
 20
0.0
 30
0.0
  3
*D2
  1

  0
LINE
  5
2FA2
330
2A45
100
AcDbEntity
  8
寸法線
 62
     0
370
    -2
100
AcDbLine
 10
351.0551478994752
 20
150.4711488256961
 30
0.0
 11
382.1767356872935
 21
150.4711488256961
 31
0.0
  0
LINE
  5
2FA3
330
2A45
100
AcDbEntity
  8
寸法線
 62
     0
370
    -2
100
AcDbLine
 10
361.0551478994752
 20
210.4711488256961
 30
0.0
 11
382.1767356872935
 21
210.4711488256961
 31
0.0
  0
LINE
  5
2FA4
330
2A45
100
AcDbEntity
  8
寸法線
 62
     0
370
    -2
100
AcDbLine
 10
379.1767356872935
 20
153.4711488256961
 30
0.0
 11
379.1767356872935
 21
207.4711488256961
 31
0.0
  0
INSERT
  5
2FA5
330
2A45
100
AcDbEntity
  8
寸法線
 62
     0
370
    -2
100
AcDbBlockReference
  2
_Closed
 10
379.1767356872935
 20
150.4711488256961
 30
0.0
 41
3.0
 42
3.0
 43
3.0
 50
270.0
  0
INSERT
  5
2FA6
330
2A45
100
AcDbEntity
  8
寸法線
 62
     0
370
    -2
100
AcDbBlockReference
  2
_Closed
 10
379.1767356872935
 20
210.4711488256961
 30
0.0
 41
3.0
 42
3.0
 43
3.0
 50
90.0
  0
MTEXT
  5
2FA7
330
2A45
100
AcDbEntity
  8
寸法線
 62
     0
100
AcDbMText
 10
375.6767356872935
 20
180.4711488256962
 30
0.0
 40
5.0
 41
0.0
 71
     5
 72
     1
  1
57.3
  7
OKANO
 11
0.0000000000000001
 21
1.0
 31
0.0
 73
     1
 44
1.0
  0
POINT
  5
2FA8
330
2A45
100
AcDbEntity
  8
Defpoints
 62
     0
100
AcDbPoint
 10
349.0551478994753
 20
150.4711488256961
 30
0.0
  0
POINT
  5
2FA9
330
2A45
100
AcDbEntity
  8
Defpoints
 62
     0
100
AcDbPoint
 10
359.0551478994752
 20
210.4711488256961
 30
0.0
  0
POINT
  5
2FAA
330
2A45
100
AcDbEntity
  8
Defpoints
 62
     0
100
AcDbPoint
 10
379.1767356872935
 20
210.4711488256961
 30
0.0
  0
ENDBLK
  5
2A50
330
2A45
100
AcDbEntity
  8
0
100
AcDbBlockEnd
  0
BLOCK
  5
2A65
330
2A5B
100
AcDbEntity
  8
0
100
AcDbBlockBegin
  2
*D3
 70
     1
 10
0.0
 20
0.0
 30
0.0
  3
*D3
  1

  0
LINE
  5
2FD8
330
2A5B
100
AcDbEntity
  8
寸法線
 62
     0
370
    -2
100
AcDbLine
 10
277.0551478994752
 20
150.4711488256961
 30
0.0
 11
267.6449625080611
 21
150.4711488256961
 31
0.0
  0
LINE
  5
2FD9
330
2A5B
100
AcDbEntity
  8
寸法線
 62
     0
370
    -2
100
AcDbLine
 10
287.0551478994753
 20
125.4711488256961
 30
0.0
 11
267.6449625080611
 21
125.4711488256961
 31
0.0
  0
LINE
  5
2FDA
330
2A5B
100
AcDbEntity
  8
寸法線
 62
     0
370
    -2
100
AcDbLine
 10
270.6449625080611
 20
147.4711488256961
 30
0.0
 11
270.6449625080611
 21
128.4711488256961
 31
0.0
  0
INSERT
  5
2FDB
330
2A5B
100
AcDbEntity
  8
寸法線
 62
     0
370
    -2
100
AcDbBlockReference
  2
_Closed
 10
270.6449625080611
 20
150.4711488256961
 30
0.0
 41
3.0
 42
3.0
 43
3.0
 50
90.0
  0
INSERT
  5
2FDC
330
2A5B
100
AcDbEntity
  8
寸法線
 62
     0
370
    -2
100
AcDbBlockReference
  2
_Closed
 10
270.644962508061
 20
125.4711488256961
 30
0.0
 41
3.0
 42
3.0
 43
3.0
 50
270.0
  0
MTEXT
  5
2FDD
330
2A5B
100
AcDbEntity
  8
寸法線
 62
     0
100
AcDbMText
 10
267.1444703820768
 20
137.9711488256961
 30
0.0
 40
5.0
 41
0.0
 71
     5
 72
     1
  1
25
  7
OKANO
 11
0.0000000000000001
 21
1.0
 31
0.0
 73
     1
 44
1.0
  0
POINT
  5
2FDE
330
2A5B
100
AcDbEntity
  8
Defpoints
 62
     0
100
AcDbPoint
 10
279.0551478994752
 20
150.4711488256961
 30
0.0
  0
POINT
  5
2FDF
330
2A5B
100
AcDbEntity
  8
Defpoints
 62
     0
100
AcDbPoint
 10
289.0551478994753
 20
125.4711488256961
 30
0.0
  0
POINT
  5
2FE0
330
2A5B
100
AcDbEntity
  8
Defpoints
 62
     0
100
AcDbPoint
 10
270.644962508061
 20
125.4711488256961
 30
0.0
  0
ENDBLK
  5
2A66
330
2A5B
100
AcDbEntity
  8
0
100
AcDbBlockEnd
  0
BLOCK
  5
2AAF
330
2AA5
100
AcDbEntity
  8
0
100
AcDbBlockBegin
  2
*D4
 70
     1
 10
0.0
 20
0.0
 30
0.0
  3
*D4
  1

  0
LINE
  5
2AA6
330
2AA5
100
AcDbEntity
  8
寸法線
 62
     0
370
    -2
100
AcDbLine
 10
102.2015140254043
 20
123.4711488256961
 30
0.0
 11
102.2015140254043
 21
114.3903612439743
 31
0.0
  0
LINE
  5
2AA7
330
2AA5
100
AcDbEntity
  8
寸法線
 62
     0
370
    -2
100
AcDbLine
 10
127.2015140254043
 20
148.4711488256961
 30
0.0
 11
127.2015140254043
 21
114.3903612439743
 31
0.0
  0
LINE
  5
2AA8
330
2AA5
100
AcDbEntity
  8
寸法線
 62
     0
370
    -2
100
AcDbLine
 10
105.2015140254043
 20
117.3903612439743
 30
0.0
 11
124.2015140254043
 21
117.3903612439743
 31
0.0
  0
INSERT
  5
2AA9
330
2AA5
100
AcDbEntity
  8
寸法線
 62
     0
370
    -2
100
AcDbBlockReference
  2
_Closed
 10
102.2015140254043
 20
117.3903612439743
 30
0.0
 41
3.0
 42
3.0
 43
3.0
 50
180.0
  0
INSERT
  5
2AAA
330
2AA5
100
AcDbEntity
  8
寸法線
 62
     0
370
    -2
100
AcDbBlockReference
  2
_Closed
 10
127.2015140254043
 20
117.3903612439743
 30
0.0
 41
3.0
 42
3.0
 43
3.0
  0
MTEXT
  5
2AAB
330
2AA5
100
AcDbEntity
  8
寸法線
 62
     0
100
AcDbMText
 10
114.7015140254043
 20
120.8908533699585
 30
0.0
 40
5.0
 41
0.0
 71
     5
 72
     1
  1
25
  7
OKANO
 73
     1
 44
1.0
  0
POINT
  5
2AAC
330
2AA5
100
AcDbEntity
  8
Defpoints
 62
     0
100
AcDbPoint
 10
102.2015140254043
 20
125.4711488256961
 30
0.0
  0
POINT
  5
2AAD
330
2AA5
100
AcDbEntity
  8
Defpoints
 62
     0
100
AcDbPoint
 10
127.2015140254043
 20
150.4711488256961
 30
0.0
  0
POINT
  5
2AAE
330
2AA5
100
AcDbEntity
  8
Defpoints
 62
     0
100
AcDbPoint
 10
127.2015140254043
 20
117.3903612439743
 30
0.0
  0
ENDBLK
  5
2AB0
330
2AA5
100
AcDbEntity
  8
0
100
AcDbBlockEnd
  0
BLOCK
  5
2ABC
330
2AB2
100
AcDbEntity
  8
0
100
AcDbBlockBegin
  2
*D5
 70
     1
 10
0.0
 20
0.0
 30
0.0
  3
*D5
  1

  0
LINE
  5
2ABE
330
2AB2
100
AcDbEntity
  8
寸法線
 62
     0
370
    -2
100
AcDbLine
 10
129.2015140254043
 20
148.4711488256961
 30
0.0
 11
145.7646083528009
 21
148.4711488256961
 31
0.0
  0
LINE
  5
2ABF
330
2AB2
100
AcDbEntity
  8
寸法線
 62
     0
370
    -2
100
AcDbLine
 10
104.2015140254043
 20
125.4711488256961
 30
0.0
 11
145.7646083528009
 21
125.4711488256961
 31
0.0
  0
LINE
  5
2AC0
330
2AB2
100
AcDbEntity
  8
寸法線
 62
     0
370
    -2
100
AcDbLine
 10
142.7646083528009
 20
145.4711488256961
 30
0.0
 11
142.7646083528009
 21
128.4711488256961
 31
0.0
  0
INSERT
  5
2AC1
330
2AB2
100
AcDbEntity
  8
寸法線
 62
     0
370
    -2
100
AcDbBlockReference
  2
_Closed
 10
142.7646083528009
 20
148.4711488256961
 30
0.0
 41
3.0
 42
3.0
 43
3.0
 50
90.0
  0
INSERT
  5
2AC2
330
2AB2
100
AcDbEntity
  8
寸法線
 62
     0
370
    -2
100
AcDbBlockReference
  2
_Closed
 10
142.7646083528009
 20
125.4711488256961
 30
0.0
 41
3.0
 42
3.0
 43
3.0
 50
270.0
  0
MTEXT
  5
2AC3
330
2AB2
100
AcDbEntity
  8
寸法線
 62
     0
100
AcDbMText
 10
139.2641162268166
 20
136.9711488256961
 30
0.0
 40
5.0
 41
0.0
 71
     5
 72
     1
  1
25.0
  7
OKANO
 11
0.0000000000000001
 21
1.0
 31
0.0
 73
     1
 44
1.0
  0
POINT
  5
2AC4
330
2AB2
100
AcDbEntity
  8
Defpoints
 62
     0
100
AcDbPoint
 10
127.2015140254043
 20
148.4711488256961
 30
0.0
  0
POINT
  5
2AC5
330
2AB2
100
AcDbEntity
  8
Defpoints
 62
     0
100
AcDbPoint
 10
102.2015140254043
 20
125.4711488256961
 30
0.0
  0
POINT
  5
2AC6
330
2AB2
100
AcDbEntity
  8
Defpoints
 62
     0
100
AcDbPoint
 10
142.7646083528009
 20
125.4711488256961
 30
0.0
  0
ENDBLK
  5
2ABD
330
2AB2
100
AcDbEntity
  8
0
100
AcDbBlockEnd
  0
BLOCK
  5
2ADD
330
2AD4
100
AcDbEntity
  8
0
100
AcDbBlockBegin
  2
*D6
 70
     1
 10
0.0
 20
0.0
 30
0.0
  3
*D6
  1

  0
LINE
  5
2AD5
330
2AD4
100
AcDbEntity
  8
寸法線
 62
     0
370
    -2
100
AcDbLine
 10
125.1383580206678
 20
167.0658368538297
 30
0.0
 11
110.463612831823
 21
150.6825142146499
 31
0.0
  0
LINE
  5
2AD6
330
2AD4
100
AcDbEntity
  8
寸法線
 62
     0
370
    -2
100
AcDbLine
 10
102.457232706837
 20
141.7439529604977
 30
0.0
 11
100.4556376755906
 21
139.5093126469597
 31
0.0
  0
MTEXT
  5
2AD7
330
2AD4
100
AcDbEntity
  8
寸法線
 62
     0
100
AcDbMText
 10
119.5237299234551
 20
166.0433151850583
 30
0.0
 40
5.0
 41
0.0
 71
     5
 72
     1
  1
\U+22056
  7
OKANO
 11
0.6671983437488325
 21
0.7448801045126759
 31
0.0
 73
     1
 44
1.0
  0
LINE
  5
2AD8
330
2AD4
100
AcDbEntity
  8
寸法線
 62
     0
370
    -2
100
AcDbLine
 10
104.4588277380835
 20
143.9785932740358
 30
0.0
 11
108.4620178005765
 21
148.4478739011118
 31
0.0
  0
INSERT
  5
2AD9
330
2AD4
100
AcDbEntity
  8
寸法線
 62
     0
370
    -2
100
AcDbBlockReference
  2
_Closed
 10
104.4588277380835
 20
143.9785932740358
 30
0.0
 41
3.0
 42
3.0
 43
3.0
 50
48.14880184868833
  0
INSERT
  5
2ADA
330
2AD4
100
AcDbEntity
  8
寸法線
 62
     0
370
    -2
100
AcDbBlockReference
  2
_Closed
 10
108.4620178005765
 20
148.4478739011118
 30
0.0
 41
3.0
 42
3.0
 43
3.0
 50
228.1488018486883
  0
POINT
  5
2ADB
330
2AD4
100
AcDbEntity
  8
Defpoints
 62
     0
100
AcDbPoint
 10
108.4620178005765
 20
148.4478739011118
 30
0.0
  0
POINT
  5
2ADC
330
2AD4
100
AcDbEntity
  8
Defpoints
 62
     0
100
AcDbPoint
 10
104.4588277380835
 20
143.9785932740358
 30
0.0
  0
ENDBLK
  5
2ADE
330
2AD4
100
AcDbEntity
  8
0
100
AcDbBlockEnd
  0
BLOCK
  5
2B1B
330
2B11
100
AcDbEntity
  8
0
100
AcDbBlockBegin
  2
*D7
 70
     1
 10
0.0
 20
0.0
 30
0.0
  3
*D7
  1

  0
LINE
  5
2FC6
330
2B11
100
AcDbEntity
  8
寸法線
 62
     0
370
    -2
100
AcDbLine
 10
289.0551478994753
 20
113.4711488256961
 30
0.0
 11
289.0551478994753
 21
82.72067086330276
 31
0.0
  0
LINE
  5
2FC7
330
2B11
100
AcDbEntity
  8
寸法線
 62
     0
370
    -2
100
AcDbLine
 10
349.0551478994753
 20
113.4711488256961
 30
0.0
 11
349.0551478994753
 21
82.72067086330276
 31
0.0
  0
LINE
  5
2FC8
330
2B11
100
AcDbEntity
  8
寸法線
 62
     0
370
    -2
100
AcDbLine
 10
292.0551478994752
 20
85.72067086330276
 30
0.0
 11
346.0551478994752
 21
85.72067086330276
 31
0.0
  0
INSERT
  5
2FC9
330
2B11
100
AcDbEntity
  8
寸法線
 62
     0
370
    -2
100
AcDbBlockReference
  2
_Closed
 10
289.0551478994753
 20
85.72067086330276
 30
0.0
 41
3.0
 42
3.0
 43
3.0
 50
180.0
  0
INSERT
  5
2FCA
330
2B11
100
AcDbEntity
  8
寸法線
 62
     0
370
    -2
100
AcDbBlockReference
  2
_Closed
 10
349.0551478994753
 20
85.72067086330276
 30
0.0
 41
3.0
 42
3.0
 43
3.0
  0
MTEXT
  5
2FCB
330
2B11
100
AcDbEntity
  8
寸法線
 62
     0
100
AcDbMText
 10
319.0551478994752
 20
89.22067086330276
 30
0.0
 40
5.0
 41
0.0
 71
     5
 72
     1
  1
57.3
  7
OKANO
 73
     1
 44
1.0
  0
POINT
  5
2FCC
330
2B11
100
AcDbEntity
  8
Defpoints
 62
     0
100
AcDbPoint
 10
289.0551478994753
 20
115.4711488256961
 30
0.0
  0
POINT
  5
2FCD
330
2B11
100
AcDbEntity
  8
Defpoints
 62
     0
100
AcDbPoint
 10
349.0551478994753
 20
115.4711488256961
 30
0.0
  0
POINT
  5
2FCE
330
2B11
100
AcDbEntity
  8
Defpoints
 62
     0
100
AcDbPoint
 10
349.0551478994753
 20
85.72067086330276
 30
0.0
  0
ENDBLK
  5
2B1C
330
2B11
100
AcDbEntity
  8
0
100
AcDbBlockEnd
  0
BLOCK
  5
2B28
330
2B1E
100
AcDbEntity
  8
0
100
AcDbBlockBegin
  2
*D8
 70
     1
 10
0.0
 20
0.0
 30
0.0
  3
*D8
  1

  0
LINE
  5
2FBD
330
2B1E
100
AcDbEntity
  8
寸法線
 62
     0
370
    -2
100
AcDbLine
 10
294.0551478994752
 20
113.4711488256961
 30
0.0
 11
294.0551478994752
 21
95.09590984449946
 31
0.0
  0
LINE
  5
2FBE
330
2B1E
100
AcDbEntity
  8
寸法線
 62
     0
370
    -2
100
AcDbLine
 10
344.0551478994752
 20
113.4711488256961
 30
0.0
 11
344.0551478994752
 21
95.09590984449946
 31
0.0
  0
LINE
  5
2FBF
330
2B1E
100
AcDbEntity
  8
寸法線
 62
     0
370
    -2
100
AcDbLine
 10
297.0551478994753
 20
98.09590984449947
 30
0.0
 11
341.0551478994753
 21
98.09590984449947
 31
0.0
  0
INSERT
  5
2FC0
330
2B1E
100
AcDbEntity
  8
寸法線
 62
     0
370
    -2
100
AcDbBlockReference
  2
_Closed
 10
294.0551478994752
 20
98.09590984449947
 30
0.0
 41
3.0
 42
3.0
 43
3.0
 50
180.0
  0
INSERT
  5
2FC1
330
2B1E
100
AcDbEntity
  8
寸法線
 62
     0
370
    -2
100
AcDbBlockReference
  2
_Closed
 10
344.0551478994752
 20
98.09590984449947
 30
0.0
 41
3.0
 42
3.0
 43
3.0
  0
MTEXT
  5
2FC2
330
2B1E
100
AcDbEntity
  8
寸法線
 62
     0
100
AcDbMText
 10
319.0551478994752
 20
101.5959098444994
 30
0.0
 40
5.0
 41
0.0
 71
     5
 72
     1
  1
49.3
  7
OKANO
 73
     1
 44
1.0
  0
POINT
  5
2FC3
330
2B1E
100
AcDbEntity
  8
Defpoints
 62
     0
100
AcDbPoint
 10
294.0551478994752
 20
115.4711488256961
 30
0.0
  0
POINT
  5
2FC4
330
2B1E
100
AcDbEntity
  8
Defpoints
 62
     0
100
AcDbPoint
 10
344.0551478994752
 20
115.4711488256961
 30
0.0
  0
POINT
  5
2FC5
330
2B1E
100
AcDbEntity
  8
Defpoints
 62
     0
100
AcDbPoint
 10
344.0551478994752
 20
98.09590984449947
 30
0.0
  0
ENDBLK
  5
2B29
330
2B1E
100
AcDbEntity
  8
0
100
AcDbBlockEnd
  0
BLOCK
  5
2B76
330
2B6C
100
AcDbEntity
  8
0
100
AcDbBlockBegin
  2
*D9
 70
     1
 10
0.0
 20
0.0
 30
0.0
  3
*D9
  1

  0
LINE
  5
2B85
330
2B6C
100
AcDbEntity
  8
寸法線
 62
     0
370
    -2
100
AcDbLine
 10
70.20151402540432
 20
210.4711488256961
 30
0.0
 11
21.38574414206847
 21
210.4711488256961
 31
0.0
  0
LINE
  5
2B86
330
2B6C
100
AcDbEntity
  8
寸法線
 62
     0
370
    -2
100
AcDbLine
 10
70.20151402540432
 20
150.4711488256961
 30
0.0
 11
21.38574414206845
 21
150.4711488256962
 31
0.0
  0
LINE
  5
2B87
330
2B6C
100
AcDbEntity
  8
寸法線
 62
     0
370
    -2
100
AcDbLine
 10
24.38574414206847
 20
207.4711488256961
 30
0.0
 11
24.38574414206846
 21
153.4711488256962
 31
0.0
  0
INSERT
  5
2B88
330
2B6C
100
AcDbEntity
  8
寸法線
 62
     0
370
    -2
100
AcDbBlockReference
  2
_Closed
 10
24.38574414206847
 20
210.4711488256961
 30
0.0
 41
3.0
 42
3.0
 43
3.0
 50
90.0
  0
INSERT
  5
2B89
330
2B6C
100
AcDbEntity
  8
寸法線
 62
     0
370
    -2
100
AcDbBlockReference
  2
_Closed
 10
24.38574414206845
 20
150.4711488256962
 30
0.0
 41
3.0
 42
3.0
 43
3.0
 50
270.0
  0
MTEXT
  5
2B8A
330
2B6C
100
AcDbEntity
  8
寸法線
 62
     0
100
AcDbMText
 10
20.88574414206843
 20
180.4711488256962
 30
0.0
 40
5.0
 41
0.0
 71
     5
 72
     1
  1
57.3
  7
OKANO
 11
0.0000000000000001
 21
1.0
 31
0.0
 73
     1
 44
1.0
  0
POINT
  5
2B8B
330
2B6C
100
AcDbEntity
  8
Defpoints
 62
     0
100
AcDbPoint
 10
72.20151402540432
 20
210.4711488256961
 30
0.0
  0
POINT
  5
2B8C
330
2B6C
100
AcDbEntity
  8
Defpoints
 62
     0
100
AcDbPoint
 10
72.20151402540432
 20
150.4711488256961
 30
0.0
  0
POINT
  5
2B8D
330
2B6C
100
AcDbEntity
  8
Defpoints
 62
     0
100
AcDbPoint
 10
24.38574414206845
 20
150.4711488256962
 30
0.0
  0
ENDBLK
  5
2B77
330
2B6C
100
AcDbEntity
  8
0
100
AcDbBlockEnd
  0
BLOCK
  5
2B83
330
2B79
100
AcDbEntity
  8
0
100
AcDbBlockBegin
  2
*D10
 70
     1
 10
0.0
 20
0.0
 30
0.0
  3
*D10
  1

  0
LINE
  5
2B7A
330
2B79
100
AcDbEntity
  8
寸法線
 62
     0
370
    -2
100
AcDbLine
 10
70.20151402540432
 20
150.4711488256961
 30
0.0
 11
21.38574414206845
 21
150.4711488256962
 31
0.0
  0
LINE
  5
2B7B
330
2B79
100
AcDbEntity
  8
寸法線
 62
     0
370
    -2
100
AcDbLine
 10
40.20151402540432
 20
115.4711488256961
 30
0.0
 11
21.38574414206845
 21
115.4711488256961
 31
0.0
  0
LINE
  5
2B7C
330
2B79
100
AcDbEntity
  8
寸法線
 62
     0
370
    -2
100
AcDbLine
 10
24.38574414206845
 20
147.4711488256962
 30
0.0
 11
24.38574414206845
 21
118.4711488256961
 31
0.0
  0
INSERT
  5
2B7D
330
2B79
100
AcDbEntity
  8
寸法線
 62
     0
370
    -2
100
AcDbBlockReference
  2
_Closed
 10
24.38574414206845
 20
150.4711488256962
 30
0.0
 41
3.0
 42
3.0
 43
3.0
 50
90.0
  0
INSERT
  5
2B7E
330
2B79
100
AcDbEntity
  8
寸法線
 62
     0
370
    -2
100
AcDbBlockReference
  2
_Closed
 10
24.38574414206845
 20
115.4711488256961
 30
0.0
 41
3.0
 42
3.0
 43
3.0
 50
270.0
  0
MTEXT
  5
2B7F
330
2B79
100
AcDbEntity
  8
寸法線
 62
     0
100
AcDbMText
 10
20.88574414206843
 20
132.9711488256961
 30
0.0
 40
5.0
 41
0.0
 71
     5
 72
     1
  1
35
  7
OKANO
 11
0.0000000000000001
 21
1.0
 31
0.0
 73
     1
 44
1.0
  0
POINT
  5
2B80
330
2B79
100
AcDbEntity
  8
Defpoints
 62
     0
100
AcDbPoint
 10
72.20151402540432
 20
150.4711488256961
 30
0.0
  0
POINT
  5
2B81
330
2B79
100
AcDbEntity
  8
Defpoints
 62
     0
100
AcDbPoint
 10
42.20151402540432
 20
115.4711488256961
 30
0.0
  0
POINT
  5
2B82
330
2B79
100
AcDbEntity
  8
Defpoints
 62
     0
100
AcDbPoint
 10
24.38574414206845
 20
115.4711488256961
 30
0.0
  0
ENDBLK
  5
2B84
330
2B79
100
AcDbEntity
  8
0
100
AcDbBlockEnd
  0
BLOCK
  5
2B99
330
2B8F
100
AcDbEntity
  8
0
100
AcDbBlockBegin
  2
*D11
 70
     1
 10
0.0
 20
0.0
 30
0.0
  3
*D11
  1

  0
LINE
  5
2D27
330
2B8F
100
AcDbEntity
  8
寸法線
 62
     0
370
    -2
100
AcDbLine
 10
100.2015140254043
 20
56.53560202454525
 30
0.0
 11
84.14285052731363
 21
56.53560202454525
 31
0.0
  0
LINE
  5
2D28
330
2B8F
100
AcDbEntity
  8
寸法線
 62
     0
370
    -2
100
AcDbLine
 10
100.2015140254043
 20
6.535602024545256
 30
0.0
 11
84.14285052731361
 21
6.53560202454526
 31
0.0
  0
LINE
  5
2D29
330
2B8F
100
AcDbEntity
  8
寸法線
 62
     0
370
    -2
100
AcDbLine
 10
87.14285052731362
 20
53.53560202454525
 30
0.0
 11
87.1428505273136
 21
9.53560202454526
 31
0.0
  0
INSERT
  5
2D2A
330
2B8F
100
AcDbEntity
  8
寸法線
 62
     0
370
    -2
100
AcDbBlockReference
  2
_Closed
 10
87.14285052731362
 20
56.53560202454525
 30
0.0
 41
3.0
 42
3.0
 43
3.0
 50
90.0
  0
INSERT
  5
2D2B
330
2B8F
100
AcDbEntity
  8
寸法線
 62
     0
370
    -2
100
AcDbBlockReference
  2
_Closed
 10
87.1428505273136
 20
6.535602024545259
 30
0.0
 41
3.0
 42
3.0
 43
3.0
 50
270.0
  0
MTEXT
  5
2D2C
330
2B8F
100
AcDbEntity
  8
寸法線
 62
     0
100
AcDbMText
 10
83.64285052731361
 20
31.53560202454527
 30
0.0
 40
5.0
 41
0.0
 71
     5
 72
     1
  1
49.0
  7
OKANO
 11
0.0000000000000001
 21
1.0
 31
0.0
 73
     1
 44
1.0
  0
POINT
  5
2D2D
330
2B8F
100
AcDbEntity
  8
Defpoints
 62
     0
100
AcDbPoint
 10
102.2015140254043
 20
56.53560202454525
 30
0.0
  0
POINT
  5
2D2E
330
2B8F
100
AcDbEntity
  8
Defpoints
 62
     0
100
AcDbPoint
 10
102.2015140254043
 20
6.535602024545255
 30
0.0
  0
POINT
  5
2D2F
330
2B8F
100
AcDbEntity
  8
Defpoints
 62
     0
100
AcDbPoint
 10
87.1428505273136
 20
6.535602024545259
 30
0.0
  0
ENDBLK
  5
2B9A
330
2B8F
100
AcDbEntity
  8
0
100
AcDbBlockEnd
  0
BLOCK
  5
2BA6
330
2B9C
100
AcDbEntity
  8
0
100
AcDbBlockBegin
  2
*D12
 70
     1
 10
0.0
 20
0.0
 30
0.0
  3
*D12
  1

  0
LINE
  5
2D1E
330
2B9C
100
AcDbEntity
  8
寸法線
 62
     0
370
    -2
100
AcDbLine
 10
139.2015140254043
 20
56.53560202454526
 30
0.0
 11
162.1351610243002
 21
56.53560202454525
 31
0.0
  0
LINE
  5
2D1F
330
2B9C
100
AcDbEntity
  8
寸法線
 62
     0
370
    -2
100
AcDbLine
 10
139.2015140254043
 20
6.535602024545255
 30
0.0
 11
162.1351610243002
 21
6.535602024545248
 31
0.0
  0
LINE
  5
2D20
330
2B9C
100
AcDbEntity
  8
寸法線
 62
     0
370
    -2
100
AcDbLine
 10
159.1351610243002
 20
53.53560202454525
 30
0.0
 11
159.1351610243002
 21
9.535602024545248
 31
0.0
  0
INSERT
  5
2D21
330
2B9C
100
AcDbEntity
  8
寸法線
 62
     0
370
    -2
100
AcDbBlockReference
  2
_Closed
 10
159.1351610243002
 20
56.53560202454525
 30
0.0
 41
3.0
 42
3.0
 43
3.0
 50
90.0
  0
INSERT
  5
2D22
330
2B9C
100
AcDbEntity
  8
寸法線
 62
     0
370
    -2
100
AcDbBlockReference
  2
_Closed
 10
159.1351610243002
 20
6.535602024545249
 30
0.0
 41
3.0
 42
3.0
 43
3.0
 50
270.0
  0
MTEXT
  5
2D23
330
2B9C
100
AcDbEntity
  8
寸法線
 62
     0
100
AcDbMText
 10
155.6351610243002
 20
31.53560202454527
 30
0.0
 40
5.0
 41
0.0
 71
     5
 72
     1
  1
49.3
  7
OKANO
 11
0.0000000000000001
 21
1.0
 31
0.0
 73
     1
 44
1.0
  0
POINT
  5
2D24
330
2B9C
100
AcDbEntity
  8
Defpoints
 62
     0
100
AcDbPoint
 10
137.2015140254043
 20
56.53560202454526
 30
0.0
  0
POINT
  5
2D25
330
2B9C
100
AcDbEntity
  8
Defpoints
 62
     0
100
AcDbPoint
 10
137.2015140254043
 20
6.535602024545256
 30
0.0
  0
POINT
  5
2D26
330
2B9C
100
AcDbEntity
  8
Defpoints
 62
     0
100
AcDbPoint
 10
159.1351610243002
 20
6.535602024545249
 30
0.0
  0
ENDBLK
  5
2BA7
330
2B9C
100
AcDbEntity
  8
0
100
AcDbBlockEnd
  0
BLOCK
  5
2BF5
330
2BEB
100
AcDbEntity
  8
0
100
AcDbBlockBegin
  2
*D13
 70
     1
 10
0.0
 20
0.0
 30
0.0
  3
*D13
  1

  0
LINE
  5
2FAB
330
2BEB
100
AcDbEntity
  8
寸法線
 62
     0
370
    -2
100
AcDbLine
 10
361.1391159272225
 20
205.2274049756115
 30
0.0
 11
372.4153453910175
 21
205.2274049756115
 31
0.0
  0
LINE
  5
2FAC
330
2BEB
100
AcDbEntity
  8
寸法線
 62
     0
370
    -2
100
AcDbLine
 10
361.0551478994752
 20
155.4711488256961
 30
0.0
 11
372.4153453910175
 21
155.4711488256961
 31
0.0
  0
LINE
  5
2FAD
330
2BEB
100
AcDbEntity
  8
寸法線
 62
     0
370
    -2
100
AcDbLine
 10
369.4153453910175
 20
202.2274049756115
 30
0.0
 11
369.4153453910175
 21
158.4711488256961
 31
0.0
  0
INSERT
  5
2FAE
330
2BEB
100
AcDbEntity
  8
寸法線
 62
     0
370
    -2
100
AcDbBlockReference
  2
_Closed
 10
369.4153453910175
 20
205.2274049756115
 30
0.0
 41
3.0
 42
3.0
 43
3.0
 50
90.0
  0
INSERT
  5
2FAF
330
2BEB
100
AcDbEntity
  8
寸法線
 62
     0
370
    -2
100
AcDbBlockReference
  2
_Closed
 10
369.4153453910175
 20
155.4711488256961
 30
0.0
 41
3.0
 42
3.0
 43
3.0
 50
270.0
  0
MTEXT
  5
2FB0
330
2BEB
100
AcDbEntity
  8
寸法線
 62
     0
100
AcDbMText
 10
365.9153453910175
 20
180.3492769006538
 30
0.0
 40
5.0
 41
0.0
 71
     5
 72
     1
  1
49.6
  7
OKANO
 11
0.0000000000000001
 21
1.0
 31
0.0
 73
     1
 44
1.0
  0
POINT
  5
2FB1
330
2BEB
100
AcDbEntity
  8
Defpoints
 62
     0
100
AcDbPoint
 10
359.1391159272225
 20
205.2274049756115
 30
0.0
  0
POINT
  5
2FB2
330
2BEB
100
AcDbEntity
  8
Defpoints
 62
     0
100
AcDbPoint
 10
359.0551478994752
 20
155.4711488256961
 30
0.0
  0
POINT
  5
2FB3
330
2BEB
100
AcDbEntity
  8
Defpoints
 62
     0
100
AcDbPoint
 10
369.4153453910175
 20
155.4711488256961
 30
0.0
  0
ENDBLK
  5
2BF6
330
2BEB
100
AcDbEntity
  8
0
100
AcDbBlockEnd
  0
BLOCK
  5
2C49
330
2C3F
100
AcDbEntity
  8
0
100
AcDbBlockBegin
  2
*D14
 70
     1
 10
0.0
 20
0.0
 30
0.0
  3
*D14
  1

  0
LINE
  5
2FB4
330
2C3F
100
AcDbEntity
  8
寸法線
 62
     0
370
    -2
100
AcDbLine
 10
277.0551478994752
 20
205.4711488256961
 30
0.0
 11
267.7981244397933
 21
205.4711488256961
 31
0.0
  0
LINE
  5
2FB5
330
2C3F
100
AcDbEntity
  8
寸法線
 62
     0
370
    -2
100
AcDbLine
 10
277.0551478994752
 20
155.4711488256961
 30
0.0
 11
267.7981244397933
 21
155.4711488256961
 31
0.0
  0
LINE
  5
2FB6
330
2C3F
100
AcDbEntity
  8
寸法線
 62
     0
370
    -2
100
AcDbLine
 10
270.7981244397933
 20
202.4711488256961
 30
0.0
 11
270.7981244397933
 21
158.4711488256961
 31
0.0
  0
INSERT
  5
2FB7
330
2C3F
100
AcDbEntity
  8
寸法線
 62
     0
370
    -2
100
AcDbBlockReference
  2
_Closed
 10
270.7981244397933
 20
205.4711488256961
 30
0.0
 41
3.0
 42
3.0
 43
3.0
 50
90.0
  0
INSERT
  5
2FB8
330
2C3F
100
AcDbEntity
  8
寸法線
 62
     0
370
    -2
100
AcDbBlockReference
  2
_Closed
 10
270.7981244397933
 20
155.4711488256961
 30
0.0
 41
3.0
 42
3.0
 43
3.0
 50
270.0
  0
MTEXT
  5
2FB9
330
2C3F
100
AcDbEntity
  8
寸法線
 62
     0
100
AcDbMText
 10
267.2981244397933
 20
180.4711488256961
 30
0.0
 40
5.0
 41
0.0
 71
     5
 72
     1
  1
49.3
  7
OKANO
 11
0.0000000000000001
 21
1.0
 31
0.0
 73
     1
 44
1.0
  0
POINT
  5
2FBA
330
2C3F
100
AcDbEntity
  8
Defpoints
 62
     0
100
AcDbPoint
 10
279.0551478994752
 20
205.4711488256961
 30
0.0
  0
POINT
  5
2FBB
330
2C3F
100
AcDbEntity
  8
Defpoints
 62
     0
100
AcDbPoint
 10
279.0551478994752
 20
155.4711488256961
 30
0.0
  0
POINT
  5
2FBC
330
2C3F
100
AcDbEntity
  8
Defpoints
 62
     0
100
AcDbPoint
 10
270.7981244397933
 20
155.4711488256961
 30
0.0
  0
ENDBLK
  5
2C4A
330
2C3F
100
AcDbEntity
  8
0
100
AcDbBlockEnd
  0
BLOCK
  5
2C5F
330
2C55
100
AcDbEntity
  8
0
100
AcDbBlockBegin
  2
*D15
 70
     1
 10
0.0
 20
0.0
 30
0.0
  3
*D15
  1

  0
LINE
  5
2FE1
330
2C55
100
AcDbEntity
  8
寸法線
 62
     0
370
    -2
100
AcDbLine
 10
361.0551478994752
 20
150.4711488256961
 30
0.0
 11
382.3747634978522
 21
150.4711488256961
 31
0.0
  0
LINE
  5
2FE2
330
2C55
100
AcDbEntity
  8
寸法線
 62
     0
370
    -2
100
AcDbLine
 10
351.0551478994752
 20
115.4711488256961
 30
0.0
 11
382.3747634978522
 21
115.4711488256961
 31
0.0
  0
LINE
  5
2FE3
330
2C55
100
AcDbEntity
  8
寸法線
 62
     0
370
    -2
100
AcDbLine
 10
379.3747634978522
 20
147.4711488256961
 30
0.0
 11
379.3747634978521
 21
118.4711488256961
 31
0.0
  0
INSERT
  5
2FE4
330
2C55
100
AcDbEntity
  8
寸法線
 62
     0
370
    -2
100
AcDbBlockReference
  2
_Closed
 10
379.3747634978522
 20
150.4711488256961
 30
0.0
 41
3.0
 42
3.0
 43
3.0
 50
90.0
  0
INSERT
  5
2FE5
330
2C55
100
AcDbEntity
  8
寸法線
 62
     0
370
    -2
100
AcDbBlockReference
  2
_Closed
 10
379.3747634978521
 20
115.4711488256961
 30
0.0
 41
3.0
 42
3.0
 43
3.0
 50
270.0
  0
MTEXT
  5
2FE6
330
2C55
100
AcDbEntity
  8
寸法線
 62
     0
100
AcDbMText
 10
375.8747634978522
 20
132.9711488256962
 30
0.0
 40
5.0
 41
0.0
 71
     5
 72
     1
  1
35
  7
OKANO
 11
0.0000000000000001
 21
1.0
 31
0.0
 73
     1
 44
1.0
  0
POINT
  5
2FE7
330
2C55
100
AcDbEntity
  8
Defpoints
 62
     0
100
AcDbPoint
 10
359.0551478994752
 20
150.4711488256961
 30
0.0
  0
POINT
  5
2FE8
330
2C55
100
AcDbEntity
  8
Defpoints
 62
     0
100
AcDbPoint
 10
349.0551478994753
 20
115.4711488256961
 30
0.0
  0
POINT
  5
2FE9
330
2C55
100
AcDbEntity
  8
Defpoints
 62
     0
100
AcDbPoint
 10
379.3747634978521
 20
115.4711488256961
 30
0.0
  0
ENDBLK
  5
2C60
330
2C55
100
AcDbEntity
  8
0
100
AcDbBlockEnd
  0
BLOCK
  5
2C7D
330
2C71
100
AcDbEntity
  8
0
100
AcDbBlockBegin
  2
*D16
 70
     1
 10
0.0
 20
0.0
 30
0.0
  3
*D16
  1

  0
LINE
  5
2C7F
330
2C71
100
AcDbEntity
  8
寸法線
 62
     0
370
    -2
100
AcDbLine
 10
69.70151402540432
 20
123.4711488256961
 30
0.0
 11
69.70151402540432
 21
99.25148029533113
 31
0.0
  0
LINE
  5
2C80
330
2C71
100
AcDbEntity
  8
寸法線
 62
     0
370
    -2
100
AcDbLine
 10
74.70151402540432
 20
123.4711488256961
 30
0.0
 11
74.70151402540432
 21
99.25148029533113
 31
0.0
  0
LINE
  5
2C81
330
2C71
100
AcDbEntity
  8
寸法線
 62
     0
370
    -2
100
AcDbLine
 10
66.70151402540432
 20
102.2514802953311
 30
0.0
 11
63.70151402540432
 21
102.2514802953311
 31
0.0
  0
LINE
  5
2C82
330
2C71
100
AcDbEntity
  8
寸法線
 62
     0
370
    -2
100
AcDbLine
 10
77.70151402540432
 20
102.2514802953311
 30
0.0
 11
80.70151402540432
 21
102.2514802953311
 31
0.0
  0
LINE
  5
2C83
330
2C71
100
AcDbEntity
  8
寸法線
 62
     0
370
    -2
100
AcDbLine
 10
69.70151402540432
 20
102.2514802953311
 30
0.0
 11
74.70151402540432
 21
102.2514802953311
 31
0.0
  0
INSERT
  5
2C84
330
2C71
100
AcDbEntity
  8
寸法線
 62
     0
370
    -2
100
AcDbBlockReference
  2
_Closed
 10
69.70151402540432
 20
102.2514802953311
 30
0.0
 41
3.0
 42
3.0
 43
3.0
  0
INSERT
  5
2C85
330
2C71
100
AcDbEntity
  8
寸法線
 62
     0
370
    -2
100
AcDbBlockReference
  2
_Closed
 10
74.70151402540432
 20
102.2514802953311
 30
0.0
 41
3.0
 42
3.0
 43
3.0
 50
180.0
  0
MTEXT
  5
2C86
330
2C71
100
AcDbEntity
  8
寸法線
 62
     0
100
AcDbMText
 10
72.20151402540432
 20
105.7514802953311
 30
0.0
 40
5.0
 41
0.0
 71
     5
 72
     1
  1
4
  7
OKANO
 73
     1
 44
1.0
  0
POINT
  5
2C87
330
2C71
100
AcDbEntity
  8
Defpoints
 62
     0
100
AcDbPoint
 10
69.70151402540432
 20
125.4711488256961
 30
0.0
  0
POINT
  5
2C88
330
2C71
100
AcDbEntity
  8
Defpoints
 62
     0
100
AcDbPoint
 10
74.70151402540432
 20
125.4711488256961
 30
0.0
  0
POINT
  5
2C89
330
2C71
100
AcDbEntity
  8
Defpoints
 62
     0
100
AcDbPoint
 10
74.70151402540432
 20
102.2514802953311
 30
0.0
  0
ENDBLK
  5
2C7E
330
2C71
100
AcDbEntity
  8
0
100
AcDbBlockEnd
  0
BLOCK
  5
2D1C
330
2D12
100
AcDbEntity
  8
0
100
AcDbBlockBegin
  2
*D17
 70
     1
 10
0.0
 20
0.0
 30
0.0
  3
*D17
  1

  0
LINE
  5
2FCF
330
2D12
100
AcDbEntity
  8
寸法線
 62
     0
370
    -2
100
AcDbLine
 10
277.0551478994752
 20
152.4711488256961
 30
0.0
 11
277.0551478994752
 21
161.7058699698575
 31
0.0
  0
LINE
  5
2FD0
330
2D12
100
AcDbEntity
  8
寸法線
 62
     0
370
    -2
100
AcDbLine
 10
289.0551478994753
 20
152.4711488256961
 30
0.0
 11
289.0551478994753
 21
161.7058699698575
 31
0.0
  0
LINE
  5
2FD1
330
2D12
100
AcDbEntity
  8
寸法線
 62
     0
370
    -2
100
AcDbLine
 10
280.0551478994752
 20
158.7058699698575
 30
0.0
 11
286.0551478994752
 21
158.7058699698575
 31
0.0
  0
INSERT
  5
2FD2
330
2D12
100
AcDbEntity
  8
寸法線
 62
     0
370
    -2
100
AcDbBlockReference
  2
_Closed
 10
277.0551478994752
 20
158.7058699698575
 30
0.0
 41
3.0
 42
3.0
 43
3.0
 50
180.0
  0
INSERT
  5
2FD3
330
2D12
100
AcDbEntity
  8
寸法線
 62
     0
370
    -2
100
AcDbBlockReference
  2
_Closed
 10
289.0551478994753
 20
158.7058699698575
 30
0.0
 41
3.0
 42
3.0
 43
3.0
  0
MTEXT
  5
2FD4
330
2D12
100
AcDbEntity
  8
寸法線
 62
     0
100
AcDbMText
 10
283.0551478994753
 20
162.2063620958417
 30
0.0
 40
5.0
 41
0.0
 71
     5
 72
     1
  1
12
  7
OKANO
 73
     1
 44
1.0
  0
POINT
  5
2FD5
330
2D12
100
AcDbEntity
  8
Defpoints
 62
     0
100
AcDbPoint
 10
277.0551478994752
 20
150.4711488256961
 30
0.0
  0
POINT
  5
2FD6
330
2D12
100
AcDbEntity
  8
Defpoints
 62
     0
100
AcDbPoint
 10
289.0551478994753
 20
150.4711488256961
 30
0.0
  0
POINT
  5
2FD7
330
2D12
100
AcDbEntity
  8
Defpoints
 62
     0
100
AcDbPoint
 10
289.0551478994753
 20
158.7058699698575
 30
0.0
  0
ENDBLK
  5
2D1D
330
2D12
100
AcDbEntity
  8
0
100
AcDbBlockEnd
  0
BLOCK
  5
2DB7
330
2DAD
100
AcDbEntity
  8
0
100
AcDbBlockBegin
  2
*D18
 70
     1
 10
0.0
 20
0.0
 30
0.0
  3
*D18
  1

  0
LINE
  5
2DB9
330
2DAD
100
AcDbEntity
  8
寸法線
 62
     0
370
    -2
100
AcDbLine
 10
42.19884061646382
 20
111.3405522996323
 30
0.0
 11
42.19884061646382
 21
86.36887035454742
 31
0.0
  0
LINE
  5
2DBA
330
2DAD
100
AcDbEntity
  8
寸法線
 62
     0
370
    -2
100
AcDbLine
 10
137.7558902392596
 20
146.2466855630364
 30
0.0
 11
137.7558902392596
 21
86.36887035454742
 31
0.0
  0
LINE
  5
2DBB
330
2DAD
100
AcDbEntity
  8
寸法線
 62
     0
370
    -2
100
AcDbLine
 10
45.19884061646382
 20
89.36887035454743
 30
0.0
 11
134.7558902392596
 21
89.36887035454743
 31
0.0
  0
INSERT
  5
2DBC
330
2DAD
100
AcDbEntity
  8
寸法線
 62
     0
370
    -2
100
AcDbBlockReference
  2
_Closed
 10
42.19884061646382
 20
89.36887035454743
 30
0.0
 41
3.0
 42
3.0
 43
3.0
 50
180.0
  0
INSERT
  5
2DBD
330
2DAD
100
AcDbEntity
  8
寸法線
 62
     0
370
    -2
100
AcDbBlockReference
  2
_Closed
 10
137.7558902392596
 20
89.36887035454743
 30
0.0
 41
3.0
 42
3.0
 43
3.0
  0
MTEXT
  5
2DBE
330
2DAD
100
AcDbEntity
  8
寸法線
 62
     0
100
AcDbMText
 10
89.97736542786174
 20
92.87057087808092
 30
0.0
 40
5.0
 41
0.0
 71
     5
 72
     1
  1
92.3
  7
OKANO
 73
     1
 44
1.0
  0
POINT
  5
2DBF
330
2DAD
100
AcDbEntity
  8
Defpoints
 62
     0
100
AcDbPoint
 10
42.19884061646382
 20
113.3405522996323
 30
0.0
  0
POINT
  5
2DC0
330
2DAD
100
AcDbEntity
  8
Defpoints
 62
     0
100
AcDbPoint
 10
137.7558902392596
 20
148.2466855630364
 30
0.0
  0
POINT
  5
2DC1
330
2DAD
100
AcDbEntity
  8
Defpoints
 62
     0
100
AcDbPoint
 10
137.7558902392596
 20
89.36887035454743
 30
0.0
  0
ENDBLK
  5
2DB8
330
2DAD
100
AcDbEntity
  8
0
100
AcDbBlockEnd
  0
BLOCK
  5
2FFE
330
2FF4
100
AcDbEntity
  8
0
100
AcDbBlockBegin
  2
*D19
 70
     1
 10
0.0
 20
0.0
 30
0.0
  3
*D19
  1

  0
LINE
  5
3000
330
2FF4
100
AcDbEntity
  8
寸法線
 62
     0
370
    -2
100
AcDbLine
 10
103.9502808941479
 20
76.32047178866343
 30
0.0
 11
103.9502808941479
 21
80.67891269187976
 31
0.0
  0
LINE
  5
3001
330
2FF4
100
AcDbEntity
  8
寸法線
 62
     0
370
    -2
100
AcDbLine
 10
137.5666539052899
 20
76.32047178866343
 30
0.0
 11
137.5666539052899
 21
80.67891269187976
 31
0.0
  0
LINE
  5
3002
330
2FF4
100
AcDbEntity
  8
寸法線
 62
     0
370
    -2
100
AcDbLine
 10
106.9502808941479
 20
77.67891269187976
 30
0.0
 11
134.5666539052899
 21
77.67891269187976
 31
0.0
  0
INSERT
  5
3003
330
2FF4
100
AcDbEntity
  8
寸法線
 62
     0
370
    -2
100
AcDbBlockReference
  2
_Closed
 10
103.9502808941479
 20
77.67891269187976
 30
0.0
 41
3.0
 42
3.0
 43
3.0
 50
180.0
  0
INSERT
  5
3004
330
2FF4
100
AcDbEntity
  8
寸法線
 62
     0
370
    -2
100
AcDbBlockReference
  2
_Closed
 10
137.5666539052899
 20
77.67891269187976
 30
0.0
 41
3.0
 42
3.0
 43
3.0
  0
MTEXT
  5
3005
330
2FF4
100
AcDbEntity
  8
寸法線
 62
     0
100
AcDbMText
 10
120.7584673997189
 20
81.17891269187976
 30
0.0
 40
5.0
 41
0.0
 71
     5
 72
     1
  1
35
  7
OKANO
 73
     1
 44
1.0
  0
POINT
  5
3006
330
2FF4
100
AcDbEntity
  8
Defpoints
 62
     0
100
AcDbPoint
 10
103.9502808941479
 20
74.32047178866344
 30
0.0
  0
POINT
  5
3007
330
2FF4
100
AcDbEntity
  8
Defpoints
 62
     0
100
AcDbPoint
 10
137.5666539052899
 20
74.32047178866344
 30
0.0
  0
POINT
  5
3008
330
2FF4
100
AcDbEntity
  8
Defpoints
 62
     0
100
AcDbPoint
 10
137.5666539052899
 20
77.67891269187976
 30
0.0
  0
ENDBLK
  5
2FFF
330
2FF4
100
AcDbEntity
  8
0
100
AcDbBlockEnd
  0
BLOCK
  5
3014
330
300A
100
AcDbEntity
  8
0
100
AcDbBlockBegin
  2
*D20
 70
     1
 10
0.0
 20
0.0
 30
0.0
  3
*D20
  1

  0
LINE
  5
3016
330
300A
100
AcDbEntity
  8
寸法線
 62
     0
370
    -2
100
AcDbLine
 10
188.5926315376541
 20
210.1568794762181
 30
0.0
 11
239.3752105207479
 21
210.1568794762181
 31
0.0
  0
LINE
  5
3017
330
300A
100
AcDbEntity
  8
寸法線
 62
     0
370
    -2
100
AcDbLine
 10
188.5926315376541
 20
269.9735788821509
 30
0.0
 11
239.3752105207479
 21
269.9735788821509
 31
0.0
  0
LINE
  5
3018
330
300A
100
AcDbEntity
  8
寸法線
 62
     0
370
    -2
100
AcDbLine
 10
236.3752105207479
 20
213.1568794762181
 30
0.0
 11
236.3752105207479
 21
266.9735788821509
 31
0.0
  0
INSERT
  5
3019
330
300A
100
AcDbEntity
  8
寸法線
 62
     0
370
    -2
100
AcDbBlockReference
  2
_Closed
 10
236.3752105207479
 20
210.1568794762181
 30
0.0
 41
3.0
 42
3.0
 43
3.0
 50
270.0
  0
INSERT
  5
301A
330
300A
100
AcDbEntity
  8
寸法線
 62
     0
370
    -2
100
AcDbBlockReference
  2
_Closed
 10
236.3752105207479
 20
269.9735788821509
 30
0.0
 41
3.0
 42
3.0
 43
3.0
 50
90.0
  0
MTEXT
  5
301B
330
300A
100
AcDbEntity
  8
寸法線
 62
     0
100
AcDbMText
 10
232.8752105207479
 20
240.0652291791845
 30
0.0
 40
5.0
 41
0.0
 71
     5
 72
     1
  1
60
  7
OKANO
 11
0.0000000000000001
 21
1.0
 31
0.0
 73
     1
 44
1.0
  0
POINT
  5
301C
330
300A
100
AcDbEntity
  8
Defpoints
 62
     0
100
AcDbPoint
 10
186.5926315376541
 20
210.1568794762181
 30
0.0
  0
POINT
  5
301D
330
300A
100
AcDbEntity
  8
Defpoints
 62
     0
100
AcDbPoint
 10
186.5926315376541
 20
269.9735788821509
 30
0.0
  0
POINT
  5
301E
330
300A
100
AcDbEntity
  8
Defpoints
 62
     0
100
AcDbPoint
 10
236.3752105207479
 20
269.9735788821509
 30
0.0
  0
ENDBLK
  5
3015
330
300A
100
AcDbEntity
  8
0
100
AcDbBlockEnd
  0
BLOCK
  5
302A
330
3020
100
AcDbEntity
  8
0
100
AcDbBlockBegin
  2
*D21
 70
     1
 10
0.0
 20
0.0
 30
0.0
  3
*D21
  1

  0
LINE
  5
302C
330
3020
100
AcDbEntity
  8
寸法線
 62
     0
370
    -2
100
AcDbLine
 10
41.8118709053258
 20
191.3392721689583
 30
0.0
 11
41.8118709053258
 21
293.2154286409941
 31
0.0
  0
LINE
  5
302D
330
3020
100
AcDbEntity
  8
寸法線
 62
     0
370
    -2
100
AcDbLine
 10
206.0599602113027
 20
191.3392721689583
 30
0.0
 11
206.0599602113027
 21
293.2154286409941
 31
0.0
  0
LINE
  5
302E
330
3020
100
AcDbEntity
  8
寸法線
 62
     0
370
    -2
100
AcDbLine
 10
44.81187090532581
 20
290.215428640994
 30
0.0
 11
203.0599602113027
 21
290.215428640994
 31
0.0
  0
INSERT
  5
302F
330
3020
100
AcDbEntity
  8
寸法線
 62
     0
370
    -2
100
AcDbBlockReference
  2
_Closed
 10
41.8118709053258
 20
290.215428640994
 30
0.0
 41
3.0
 42
3.0
 43
3.0
 50
180.0
  0
INSERT
  5
3030
330
3020
100
AcDbEntity
  8
寸法線
 62
     0
370
    -2
100
AcDbBlockReference
  2
_Closed
 10
206.0599602113027
 20
290.215428640994
 30
0.0
 41
3.0
 42
3.0
 43
3.0
  0
MTEXT
  5
3031
330
3020
100
AcDbEntity
  8
寸法線
 62
     0
100
AcDbMText
 10
123.9359155583142
 20
293.7154286409941
 30
0.0
 40
5.0
 41
0.0
 71
     5
 72
     1
  1
165
  7
OKANO
 73
     1
 44
1.0
  0
POINT
  5
3032
330
3020
100
AcDbEntity
  8
Defpoints
 62
     0
100
AcDbPoint
 10
41.8118709053258
 20
189.3392721689583
 30
0.0
  0
POINT
  5
3033
330
3020
100
AcDbEntity
  8
Defpoints
 62
     0
100
AcDbPoint
 10
206.0599602113027
 20
189.3392721689583
 30
0.0
  0
POINT
  5
3034
330
3020
100
AcDbEntity
  8
Defpoints
 62
     0
100
AcDbPoint
 10
206.0599602113027
 20
290.215428640994
 30
0.0
  0
ENDBLK
  5
302B
330
3020
100
AcDbEntity
  8
0
100
AcDbBlockEnd
  0
BLOCK
  5
3041
330
3036
100
AcDbEntity
  8
0
100
AcDbBlockBegin
  2
*D22
 70
     1
 10
0.0
 20
0.0
 30
0.0
  3
*D22
  1

  0
LINE
  5
3043
330
3036
100
AcDbEntity
  8
寸法線
 62
     0
370
    -2
100
AcDbLine
 10
42.20151402540434
 20
200.3966354068496
 30
0.0
 11
42.20151402540435
 21
265.8441352664099
 31
0.0
  0
ARC
  5
3044
330
3036
100
AcDbEntity
  8
寸法線
 62
     0
370
    -2
100
AcDbCircle
 10
42.20151402540433
 20
198.3966354068496
 30
0.0
 40
64.44749985956028
100
AcDbArc
 50
32.08016558802484
 51
87.33266826995334
  0
INSERT
  5
3045
330
3036
100
AcDbEntity
  8
寸法線
 62
     0
370
    -2
100
AcDbBlockReference
  2
_Closed
 10
98.34197800135981
 20
230.046730868198
 30
0.0
 41
3.0
 42
3.0
 43
3.0
 50
300.7464997230015
  0
INSERT
  5
3046
330
3036
100
AcDbEntity
  8
寸法線
 62
     0
370
    -2
100
AcDbBlockReference
  2
_Closed
 10
42.20151402540436
 20
262.8441352664099
 30
0.0
 41
3.0
 42
3.0
 43
3.0
 50
178.6663341349766
  0
MTEXT
  5
3047
330
3036
100
AcDbEntity
  8
寸法線
 62
     0
100
AcDbMText
 10
76.47633411805738
 20
257.0660434896077
 30
0.0
 40
5.0
 41
0.0
 71
     5
 72
     1
  1
60
  7
OKANO
 11
0.8634520505393306
 21
-0.5044309233377998
 31
0.0
 73
     1
 44
1.0
  0
POINT
  5
3048
330
3036
100
AcDbEntity
  8
Defpoints
 62
     0
100
AcDbPoint
 10
83.96389185246352
 20
247.4821122444843
 30
0.0
  0
POINT
  5
3049
330
3036
100
AcDbEntity
  8
Defpoints
 62
     0
100
AcDbPoint
 10
42.20151402540433
 20
180.4711488256961
 30
0.0
  0
POINT
  5
304A
330
3036
100
AcDbEntity
  8
Defpoints
 62
     0
100
AcDbPoint
 10
165.7745785230468
 20
268.0629511230297
 30
0.0
  0
POINT
  5
304B
330
3036
100
AcDbEntity
  8
Defpoints
 62
     0
100
AcDbPoint
 10
63.61910458040808
 20
210.4711488256961
 30
0.0
  0
POINT
  5
304C
330
3036
100
AcDbEntity
  8
Defpoints
 62
     0
100
AcDbPoint
 10
42.2015140254043
 20
115.9711488256961
 30
0.0
  0
ENDBLK
  5
3042
330
3036
100
AcDbEntity
  8
0
100
AcDbBlockEnd
  0
BLOCK
  5
306F
330
3064
100
AcDbEntity
  8
0
100
AcDbBlockBegin
  2
*D23
 70
     1
 10
0.0
 20
0.0
 30
0.0
  3
*D23
  1

  0
LINE
  5
3090
330
3064
100
AcDbEntity
  8
寸法線
 62
     0
370
    -2
100
AcDbLine
 10
169.8289602358733
 20
242.9380479711584
 30
0.0
 11
153.7066470458743
 21
233.2554496565316
 31
0.0
  0
LINE
  5
3091
330
3064
100
AcDbEntity
  8
寸法線
 62
     0
370
    -2
100
AcDbLine
 10
175.8983852015512
 20
232.831962083857
 30
0.0
 11
159.7760720115522
 21
223.1493637692303
 31
0.0
  0
LINE
  5
3092
330
3064
100
AcDbEntity
  8
寸法線
 62
     0
370
    -2
100
AcDbLine
 10
157.8230448564944
 20
232.2281867570155
 30
0.0
 11
160.8033349110683
 21
227.2657615798503
 31
0.0
  0
INSERT
  5
3093
330
3064
100
AcDbEntity
  8
寸法線
 62
     0
370
    -2
100
AcDbBlockReference
  2
_Closed
 10
156.2784774009424
 20
234.8000171120836
 30
0.0
 41
3.0
 42
3.0
 43
3.0
 50
120.9878181830009
  0
INSERT
  5
3094
330
3064
100
AcDbEntity
  8
寸法線
 62
     0
370
    -2
100
AcDbBlockReference
  2
_Closed
 10
162.3479023666203
 20
224.6939312247822
 30
0.0
 41
3.0
 42
3.0
 43
3.0
 50
300.9878181830009
  0
MTEXT
  5
3095
330
3064
100
AcDbEntity
  8
寸法線
 62
     0
100
AcDbMText
 10
162.3140805195425
 20
231.54922290717
 30
0.0
 40
5.0
 41
0.0
 71
     5
 72
     1
  1
12
  7
OKANO
 11
0.5148558185173178
 21
-0.8572767850227036
 31
0.0
 73
     1
 44
1.0
  0
POINT
  5
3096
330
3064
100
AcDbEntity
  8
Defpoints
 62
     0
100
AcDbPoint
 10
171.5435138059187
 20
243.967759608193
 30
0.0
  0
POINT
  5
3097
330
3064
100
AcDbEntity
  8
Defpoints
 62
     0
100
AcDbPoint
 10
177.6129387715966
 20
233.8616737208917
 30
0.0
  0
POINT
  5
3098
330
3064
100
AcDbEntity
  8
Defpoints
 62
     0
100
AcDbPoint
 10
162.3479023666203
 20
224.6939312247822
 30
0.0
  0
ENDBLK
  5
3070
330
3064
100
AcDbEntity
  8
0
100
AcDbBlockEnd
  0
BLOCK
  5
30A5
330
309A
100
AcDbEntity
  8
0
100
AcDbBlockBegin
  2
*D24
 70
     1
 10
0.0
 20
0.0
 30
0.0
  3
*D24
  1

  0
LINE
  5
30BD
330
309A
100
AcDbEntity
  8
寸法線
 62
     0
370
    -2
100
AcDbLine
 10
191.297732522938
 20
252.5153822592889
 30
0.0
 11
162.0436518843474
 21
300.0985194874749
 31
0.0
  0
LINE
  5
30BE
330
309A
100
AcDbEntity
  8
寸法線
 62
     0
370
    -2
100
AcDbLine
 10
200.0753771360188
 20
257.9118722405306
 30
0.0
 11
170.8212964974282
 21
305.4950094687166
 31
0.0
  0
LINE
  5
30BF
330
309A
100
AcDbEntity
  8
寸法線
 62
     0
370
    -2
100
AcDbLine
 10
166.1705014579074
 20
299.1140843208909
 30
0.0
 11
169.8368613308442
 21
301.3681598951565
 31
0.0
  0
INSERT
  5
30C0
330
309A
100
AcDbEntity
  8
寸法線
 62
     0
370
    -2
100
AcDbBlockReference
  2
_Closed
 10
163.6148590878354
 20
297.5428771174028
 30
0.0
 41
3.0
 42
3.0
 43
3.0
 50
211.5831724530098
  0
INSERT
  5
30C1
330
309A
100
AcDbEntity
  8
寸法線
 62
     0
370
    -2
100
AcDbBlockReference
  2
_Closed
 10
172.3925037009162
 20
302.9393670986446
 30
0.0
 41
3.0
 42
3.0
 43
3.0
 50
31.58317245300988
  0
MTEXT
  5
30C2
330
309A
100
AcDbEntity
  8
寸法線
 62
     0
100
AcDbMText
 10
166.1706063236398
 20
303.2227048731077
 30
0.0
 40
5.0
 41
0.0
 71
     5
 72
     1
  1
10
  7
OKANO
 11
0.851880790024005
 21
0.5237357344960122
 31
0.0
 73
     1
 44
1.0
  0
POINT
  5
30C3
330
309A
100
AcDbEntity
  8
Defpoints
 62
     0
100
AcDbPoint
 10
192.34520399193
 20
250.8116206792409
 30
0.0
  0
POINT
  5
30C4
330
309A
100
AcDbEntity
  8
Defpoints
 62
     0
100
AcDbPoint
 10
201.1228486050108
 20
256.2081106604827
 30
0.0
  0
POINT
  5
30C5
330
309A
100
AcDbEntity
  8
Defpoints
 62
     0
100
AcDbPoint
 10
172.3925037009162
 20
302.9393670986446
 30
0.0
  0
ENDBLK
  5
30A6
330
309A
100
AcDbEntity
  8
0
100
AcDbBlockEnd
  0
BLOCK
  5
30B2
330
30A8
100
AcDbEntity
  8
0
100
AcDbBlockBegin
  2
*D25
 70
     1
 10
0.0
 20
0.0
 30
0.0
  3
*D25
  1

  0
LINE
  5
30B4
330
30A8
100
AcDbEntity
  8
寸法線
 62
     0
370
    -2
100
AcDbLine
 10
194.1290766051713
 20
248.4724718048477
 30
0.0
 11
203.9163289341776
 21
233.7776180008933
 31
0.0
  0
LINE
  5
30B5
330
30A8
100
AcDbEntity
  8
寸法線
 62
     0
370
    -2
100
AcDbLine
 10
171.8473650508092
 20
233.6321245503557
 30
0.0
 11
181.6346173798155
 21
218.9372707464013
 31
0.0
  0
LINE
  5
30B6
330
30A8
100
AcDbEntity
  8
寸法線
 62
     0
370
    -2
100
AcDbLine
 10
199.756443189623
 20
234.6114948456679
 30
0.0
 11
182.4684942245902
 21
223.0971564909558
 31
0.0
  0
INSERT
  5
30B7
330
30A8
100
AcDbEntity
  8
寸法線
 62
     0
370
    -2
100
AcDbBlockReference
  2
_Closed
 10
202.2533244842876
 20
236.2744992955579
 30
0.0
 41
3.0
 42
3.0
 43
3.0
 50
33.66491081841676
  0
INSERT
  5
30B8
330
30A8
100
AcDbEntity
  8
寸法線
 62
     0
370
    -2
100
AcDbBlockReference
  2
_Closed
 10
179.9716129299255
 20
221.4341520410659
 30
0.0
 41
3.0
 42
3.0
 43
3.0
 50
213.6649108184167
  0
MTEXT
  5
30B9
330
30A8
100
AcDbEntity
  8
寸法線
 62
     0
100
AcDbMText
 10
189.1722968489016
 20
231.7673538454207
 30
0.0
 40
5.0
 41
0.0
 71
     5
 72
     1
  1
30
  7
OKANO
 11
0.8322937648882131
 21
0.5543348166299893
 31
0.0
 73
     1
 44
1.0
  0
POINT
  5
30BA
330
30A8
100
AcDbEntity
  8
Defpoints
 62
     0
100
AcDbPoint
 10
193.0204069719114
 20
250.1370593346241
 30
0.0
  0
POINT
  5
30BB
330
30A8
100
AcDbEntity
  8
Defpoints
 62
     0
100
AcDbPoint
 10
170.7386954175493
 20
235.2967120801321
 30
0.0
  0
POINT
  5
30BC
330
30A8
100
AcDbEntity
  8
Defpoints
 62
     0
100
AcDbPoint
 10
179.9716129299255
 20
221.4341520410659
 30
0.0
  0
ENDBLK
  5
30B3
330
30A8
100
AcDbEntity
  8
0
100
AcDbBlockEnd
  0
BLOCK
  5
30DB
330
30D1
100
AcDbEntity
  8
0
100
AcDbBlockBegin
  2
*D26
 70
     1
 10
0.0
 20
0.0
 30
0.0
  3
*D26
  1

  0
LINE
  5
30DD
330
30D1
100
AcDbEntity
  8
寸法線
 62
     0
370
    -2
100
AcDbLine
 10
277.7544957570248
 20
212.2835182119499
 30
0.0
 11
277.7544957570248
 21
283.6244962448505
 31
0.0
  0
LINE
  5
30DE
330
30D1
100
AcDbEntity
  8
寸法線
 62
     0
370
    -2
100
AcDbLine
 10
360.4270426176901
 20
212.7373307382427
 30
0.0
 11
360.4270426176901
 21
283.6244962448505
 31
0.0
  0
LINE
  5
30DF
330
30D1
100
AcDbEntity
  8
寸法線
 62
     0
370
    -2
100
AcDbLine
 10
280.7544957570248
 20
280.6244962448505
 30
0.0
 11
357.4270426176902
 21
280.6244962448505
 31
0.0
  0
INSERT
  5
30E0
330
30D1
100
AcDbEntity
  8
寸法線
 62
     0
370
    -2
100
AcDbBlockReference
  2
_Closed
 10
277.7544957570248
 20
280.6244962448505
 30
0.0
 41
3.0
 42
3.0
 43
3.0
 50
180.0
  0
INSERT
  5
30E1
330
30D1
100
AcDbEntity
  8
寸法線
 62
     0
370
    -2
100
AcDbBlockReference
  2
_Closed
 10
360.4270426176901
 20
280.6244962448505
 30
0.0
 41
3.0
 42
3.0
 43
3.0
  0
MTEXT
  5
30E2
330
30D1
100
AcDbEntity
  8
寸法線
 62
     0
100
AcDbMText
 10
319.0907691873575
 20
284.1244962448505
 30
0.0
 40
5.0
 41
0.0
 71
     5
 72
     1
  1
81.3
  7
OKANO
 73
     1
 44
1.0
  0
POINT
  5
30E3
330
30D1
100
AcDbEntity
  8
Defpoints
 62
     0
100
AcDbPoint
 10
277.7544957570248
 20
210.2835182119499
 30
0.0
  0
POINT
  5
30E4
330
30D1
100
AcDbEntity
  8
Defpoints
 62
     0
100
AcDbPoint
 10
360.4270426176901
 20
210.7373307382427
 30
0.0
  0
POINT
  5
30E5
330
30D1
100
AcDbEntity
  8
Defpoints
 62
     0
100
AcDbPoint
 10
360.4270426176901
 20
280.6244962448505
 30
0.0
  0
ENDBLK
  5
30DC
330
30D1
100
AcDbEntity
  8
0
100
AcDbBlockEnd
  0
BLOCK
  5
30F3
330
30E7
100
AcDbEntity
  8
0
100
AcDbBlockBegin
  2
*D27
 70
     1
 10
0.0
 20
0.0
 30
0.0
  3
*D27
  1

  0
LINE
  5
30F5
330
30E7
100
AcDbEntity
  8
寸法線
 62
     0
370
    -2
100
AcDbLine
 10
317.2791929141001
 20
266.8717298066178
 30
0.0
 11
317.2791929141001
 21
254.9735807175974
 31
0.0
  0
LINE
  5
30F6
330
30E7
100
AcDbEntity
  8
寸法線
 62
     0
370
    -2
100
AcDbLine
 10
321.8244115093966
 20
266.8717298066178
 30
0.0
 11
321.8244115093966
 21
254.9735807175974
 31
0.0
  0
LINE
  5
30F7
330
30E7
100
AcDbEntity
  8
寸法線
 62
     0
370
    -2
100
AcDbLine
 10
314.2791929141001
 20
257.9735807175974
 30
0.0
 11
311.2791929141001
 21
257.9735807175974
 31
0.0
  0
LINE
  5
30F8
330
30E7
100
AcDbEntity
  8
寸法線
 62
     0
370
    -2
100
AcDbLine
 10
324.8244115093966
 20
257.9735807175974
 30
0.0
 11
327.8244115093966
 21
257.9735807175974
 31
0.0
  0
LINE
  5
30F9
330
30E7
100
AcDbEntity
  8
寸法線
 62
     0
370
    -2
100
AcDbLine
 10
317.2791929141001
 20
257.9735807175974
 30
0.0
 11
321.8244115093966
 21
257.9735807175974
 31
0.0
  0
INSERT
  5
30FA
330
30E7
100
AcDbEntity
  8
寸法線
 62
     0
370
    -2
100
AcDbBlockReference
  2
_Closed
 10
317.2791929141001
 20
257.9735807175974
 30
0.0
 41
3.0
 42
3.0
 43
3.0
  0
INSERT
  5
30FB
330
30E7
100
AcDbEntity
  8
寸法線
 62
     0
370
    -2
100
AcDbBlockReference
  2
_Closed
 10
321.8244115093966
 20
257.9735807175974
 30
0.0
 41
3.0
 42
3.0
 43
3.0
 50
180.0
  0
MTEXT
  5
30FC
330
30E7
100
AcDbEntity
  8
寸法線
 62
     0
100
AcDbMText
 10
319.5518022117484
 20
261.4735807175974
 30
0.0
 40
5.0
 41
0.0
 71
     5
 72
     1
  1
4
  7
OKANO
 73
     1
 44
1.0
  0
POINT
  5
30FD
330
30E7
100
AcDbEntity
  8
Defpoints
 62
     0
100
AcDbPoint
 10
317.2791929141001
 20
268.8717298066178
 30
0.0
  0
POINT
  5
30FE
330
30E7
100
AcDbEntity
  8
Defpoints
 62
     0
100
AcDbPoint
 10
321.8244115093966
 20
268.8717298066178
 30
0.0
  0
POINT
  5
30FF
330
30E7
100
AcDbEntity
  8
Defpoints
 62
     0
100
AcDbPoint
 10
321.8244115093966
 20
257.9735807175974
 30
0.0
  0
ENDBLK
  5
30F4
330
30E7
100
AcDbEntity
  8
0
100
AcDbBlockEnd
  0
BLOCK
  5
310B
330
3101
100
AcDbEntity
  8
0
100
AcDbBlockBegin
  2
*D28
 70
     1
 10
0.0
 20
0.0
 30
0.0
  3
*D28
  1

  0
LINE
  5
3114
330
3101
100
AcDbEntity
  8
寸法線
 62
     0
370
    -2
100
AcDbLine
 10
104.0131239721054
 20
197.5487904079216
 30
0.0
 11
104.0131239721054
 21
186.9847303172679
 31
0.0
  0
LINE
  5
3115
330
3101
100
AcDbEntity
  8
寸法線
 62
     0
370
    -2
100
AcDbLine
 10
186.1827881860429
 20
197.5487904079216
 30
0.0
 11
186.1827881860429
 21
186.9847303172679
 31
0.0
  0
LINE
  5
3116
330
3101
100
AcDbEntity
  8
寸法線
 62
     0
370
    -2
100
AcDbLine
 10
107.0131239721054
 20
189.9847303172679
 30
0.0
 11
183.1827881860428
 21
189.9847303172679
 31
0.0
  0
INSERT
  5
3117
330
3101
100
AcDbEntity
  8
寸法線
 62
     0
370
    -2
100
AcDbBlockReference
  2
_Closed
 10
104.0131239721054
 20
189.9847303172679
 30
0.0
 41
3.0
 42
3.0
 43
3.0
 50
180.0
  0
INSERT
  5
3118
330
3101
100
AcDbEntity
  8
寸法線
 62
     0
370
    -2
100
AcDbBlockReference
  2
_Closed
 10
186.1827881860429
 20
189.9847303172679
 30
0.0
 41
3.0
 42
3.0
 43
3.0
  0
MTEXT
  5
3119
330
3101
100
AcDbEntity
  8
寸法線
 62
     0
100
AcDbMText
 10
145.0979560790741
 20
193.4852224432521
 30
0.0
 40
5.0
 41
0.0
 71
     5
 72
     1
  1
82
  7
OKANO
 73
     1
 44
1.0
  0
POINT
  5
311A
330
3101
100
AcDbEntity
  8
Defpoints
 62
     0
100
AcDbPoint
 10
104.0131239721054
 20
199.5487904079216
 30
0.0
  0
POINT
  5
311B
330
3101
100
AcDbEntity
  8
Defpoints
 62
     0
100
AcDbPoint
 10
186.1827881860429
 20
199.5487904079216
 30
0.0
  0
POINT
  5
311C
330
3101
100
AcDbEntity
  8
Defpoints
 62
     0
100
AcDbPoint
 10
186.1827881860429
 20
189.9847303172679
 30
0.0
  0
ENDBLK
  5
310C
330
3101
100
AcDbEntity
  8
0
100
AcDbBlockEnd
  0
BLOCK
  5
313B
330
3137
100
AcDbEntity
  8
0
100
AcDbBlockBegin
  2
A$C4C1B5A4B
 70
     0
 10
0.0
 20
0.0
 30
0.0
  3
A$C4C1B5A4B
  1

  0
TEXT
  5
3138
330
3137
100
AcDbEntity
  8
文字
100
AcDbText
 10
-0.0000004439175427
 20
65.72498445497195
 30
0.0
 40
20.0
  1
勾配は、柄(ﾂｶ）の長さと
 51
15.0
  7
OKANO
100
AcDbText
  0
TEXT
  5
3139
330
3137
100
AcDbEntity
  8
文字
100
AcDbText
 10
-0.0000004439175427
 20
32.86249345254782
 30
0.0
 40
20.0
  1
梁(ﾊﾘ）の長さにより自由
 51
15.0
  7
OKANO
100
AcDbText
  0
TEXT
  5
313A
330
3137
100
AcDbEntity
  8
文字
100
AcDbText
 10
-0.0000004439175427
 20
0.0000000303039087
 30
0.0
 40
20.0
  1
設定出来ます。
 51
15.0
  7
OKANO
100
AcDbText
  0
ENDBLK
  5
313C
330
3137
100
AcDbEntity
  8
0
100
AcDbBlockEnd
  0
ENDSEC
  0
SECTION
  2
ENTITIES
  0
XLINE
  5
22CA
330
1F
100
AcDbEntity
  8
構築線
370
     5
100
AcDbXline
 10
72.20151402540432
 20
178.0193172078315
 30
0.0
 11
0.0
 21
-1.0
 31
0.0
  0
XLINE
  5
28DD
330
1F
100
AcDbEntity
  8
構築線
370
     5
100
AcDbXline
 10
40.70151402540432
 20
180.4711488256961
 30
0.0
 11
1.0
 21
0.0
 31
0.0
  0
CIRCLE
  5
28DE
330
1F
100
AcDbEntity
  8
太線
100
AcDbCircle
 10
72.20151402540432
 20
180.4711488256961
 30
0.0
 40
30.0
  0
LINE
  5
28E0
330
1F
100
AcDbEntity
  8
太線
100
AcDbLine
 10
42.20151402540432
 20
180.4711488256961
 30
0.0
 11
42.20151402540431
 21
115.9711488256961
 31
0.0
  0
LINE
  5
28E2
330
1F
100
AcDbEntity
  8
太線
100
AcDbLine
 10
102.2015140254043
 20
115.9711488256961
 30
0.0
 11
102.2015140254043
 21
150.4711488256961
 31
0.0
  0
LINE
  5
28E3
330
1F
100
AcDbEntity
  8
太線
100
AcDbLine
 10
102.2015140254043
 20
150.4711488256961
 30
0.0
 11
136.7015140254043
 21
150.4711488256961
 31
0.0
  0
LINE
  5
28E5
330
1F
100
AcDbEntity
  8
太線
100
AcDbLine
 10
137.2015140254043
 20
210.4711488256961
 30
0.0
 11
72.20151402540432
 21
210.4711488256961
 31
0.0
  0
XLINE
  5
28E8
330
1F
100
AcDbEntity
  8
構築線
370
     5
100
AcDbXline
 10
40.70151402540432
 20
205.4711488256961
 30
0.0
 11
1.0
 21
0.0
 31
0.0
  0
CIRCLE
  5
28EA
330
1F
100
AcDbEntity
  8
太線
100
AcDbCircle
 10
72.20151402540432
 20
180.4711488256961
 30
0.0
 40
25.0
  0
CIRCLE
  5
28F0
330
1F
100
AcDbEntity
  8
太線
100
AcDbCircle
 10
319.0551478994752
 20
180.4711488256961
 30
0.0
 40
25.0
  0
CIRCLE
  5
28F1
330
1F
100
AcDbEntity
  8
太線
100
AcDbCircle
 10
319.0551478994752
 20
180.4711488256961
 30
0.0
 40
30.0
  0
LINE
  5
28F6
330
1F
100
AcDbEntity
  8
太線
100
AcDbLine
 10
289.0551478994753
 20
210.4711488256961
 30
0.0
 11
316.0772287239682
 21
210.4711488256961
 31
0.0
  0
LINE
  5
28F8
330
1F
100
AcDbEntity
  8
想像線
100
AcDbLine
 10
47.20151402540432
 20
115.4711488256961
 30
0.0
 11
47.20151402540432
 21
150.4711488256961
 31
0.0
  0
LINE
  5
28F9
330
1F
100
AcDbEntity
  8
想像線
100
AcDbLine
 10
47.20151402540432
 20
150.4711488256961
 30
0.0
 11
97.20151402540432
 21
150.4711488256961
 31
0.0
  0
LINE
  5
28FA
330
1F
100
AcDbEntity
  8
想像線
100
AcDbLine
 10
97.20151402540432
 20
150.4711488256961
 30
0.0
 11
97.20151402540434
 21
115.4711488256961
 31
0.0
  0
LINE
  5
28FB
330
1F
100
AcDbEntity
  8
想像線
100
AcDbLine
 10
137.2015140254043
 20
155.4711488256961
 30
0.0
 11
102.2015140254043
 21
155.4711488256961
 31
0.0
  0
LINE
  5
28FC
330
1F
100
AcDbEntity
  8
想像線
100
AcDbLine
 10
102.2015140254043
 20
155.4711488256961
 30
0.0
 11
102.2015140254043
 21
205.4711488256961
 31
0.0
  0
LINE
  5
28FD
330
1F
100
AcDbEntity
  8
想像線
100
AcDbLine
 10
102.2015140254043
 20
205.4711488256961
 30
0.0
 11
137.2015140254043
 21
205.4711488256961
 31
0.0
  0
LINE
  5
28FE
330
1F
100
AcDbEntity
  8
想像線
100
AcDbLine
 10
294.0551478994752
 20
115.4711488256961
 30
0.0
 11
294.0551478994752
 21
150.4711488256961
 31
0.0
  0
LINE
  5
28FF
330
1F
100
AcDbEntity
  8
想像線
100
AcDbLine
 10
294.0551478994752
 20
150.4711488256961
 30
0.0
 11
344.0551478994752
 21
150.4711488256961
 31
0.0
  0
LINE
  5
2900
330
1F
100
AcDbEntity
  8
想像線
100
AcDbLine
 10
344.0551478994752
 20
150.4711488256961
 30
0.0
 11
344.0551478994752
 21
115.4711488256961
 31
0.0
  0
XLINE
  5
2905
330
1F
100
AcDbEntity
  8
構築線
100
AcDbXline
 10
102.7912907694046
 20
31.53560202454525
 30
0.0
 11
1.0
 21
0.0
 31
0.0
  0
TEXT
  5
29C1
330
1F
100
AcDbEntity
  8
文字
100
AcDbText
 10
347.6097850463563
 20
-17.37022193354414
 30
0.0
 40
5.434662261028452
  1
SET SCREW COUP
 51
15.0
  7
OKANO
100
AcDbText
  0
TEXT
  5
29C2
330
1F
100
AcDbEntity
  8
文字
100
AcDbText
 10
312.5944517219851
 20
-28.37692183865202
 30
0.0
 40
7.246216348037937
  1
joint kogyo T.okano
 51
15.0
  7
OKANO
100
AcDbText
  0
TEXT
  5
29C3
330
1F
100
AcDbEntity
  8
文字
100
AcDbText
 10
301.289881687546
 20
-6.106322757727468
 30
0.0
 40
7.246216348037937
  1
F-999-20050127 Auto CAD
 51
15.0
  7
OKANO
100
AcDbText
  0
LINE
  5
29C4
330
1F
100
AcDbEntity
  8
太線
100
AcDbLine
 10
259.8925070731216
 20
-7.496400143133065
 30
0.0
 11
422.9323749039752
 21
-7.496400143133065
 31
0.0
  0
LWPOLYLINE
  5
29C5
330
1F
100
AcDbEntity
  8
太線
100
AcDbPolyline
 90
        4
 70
     1
 43
0.0
 10
259.8925070731216
 20
5.184478465933324
 10
422.9323749039752
 20
5.184478465933324
 10
422.9323749039752
 20
-32.85815736126585
 10
259.8925070731216
 20
-32.85815736126585
  0
TEXT
  5
29C6
330
1F
100
AcDbEntity
  8
文字
100
AcDbText
 10
265.7383673027549
 20
-19.86555829827338
 30
0.0
 40
3.623108174018968
  1
CHECK
 51
15.0
  7
OKANO
100
AcDbText
  0
LINE
  5
29C7
330
1F
100
AcDbEntity
  8
太線
100
AcDbLine
 10
296.1235888133113
 20
5.184478465933324
 30
0.0
 11
296.1235888133113
 21
-32.85815736126584
 31
0.0
  0
TEXT
  5
29C8
330
1F
100
AcDbEntity
  8
文字
100
AcDbText
 10
265.7383673027549
 20
-30.31132276477882
 30
0.0
 40
3.623108174018968
  1
ISSUED
 51
15.0
  7
OKANO
100
AcDbText
  0
TEXT
  5
29C9
330
1F
100
AcDbEntity
  8
文字
100
AcDbText
 10
266.1256087771699
 20
-25.28188071323533
 30
0.0
 40
3.623108174018968
  1
APPR
 51
15.0
  7
OKANO
100
AcDbText
  0
TEXT
  5
29CA
330
1F
100
AcDbEntity
  8
文字
100
AcDbText
 10
263.0276852525279
 20
-4.777233034608372
 30
0.0
 40
3.623108174018968
  1
FILM NAME
 51
15.0
  7
OKANO
100
AcDbText
  0
TEXT
  5
29CB
330
1F
100
AcDbEntity
  8
文字
100
AcDbText
 10
264.9638876621962
 20
-14.44923677427697
 30
0.0
 40
3.623108174018968
  1
DRAWN
 51
15.0
  7
OKANO
100
AcDbText
  0
TEXT
  5
29CC
330
1F
100
AcDbEntity
  8
文字
100
AcDbText
 10
303.4274815277301
 20
-18.21920534065111
 30
0.0
 40
7.246216348037937
  1
W-1-3K
 51
15.0
  7
OKANO
100
AcDbText
  0
LINE
  5
29E3
330
1F
100
AcDbEntity
  8
太線
100
AcDbLine
 10
349.0551478994753
 20
115.9711488256961
 30
0.0
 11
349.0551478994753
 21
150.4711488256961
 31
0.0
  0
LINE
  5
29E4
330
1F
100
AcDbEntity
  8
太線
100
AcDbLine
 10
349.0551478994753
 20
150.4711488256961
 30
0.0
 11
359.0551478994752
 21
150.4711488256961
 31
0.0
  0
LINE
  5
29E6
330
1F
100
AcDbEntity
  8
太線
100
AcDbLine
 10
360.5555354524394
 20
210.4699858660597
 30
0.0
 11
349.0551478994753
 21
210.4788998873083
 31
0.0
  0
LINE
  5
29E7
330
1F
100
AcDbEntity
  8
太線
100
AcDbLine
 10
289.0551478994753
 20
210.4711488256961
 30
0.0
 11
277.5551478994752
 21
210.4711488256961
 31
0.0
  0
LINE
  5
29ED
330
1F
100
AcDbEntity
  8
太線
100
AcDbLine
 10
289.0551478994753
 20
125.4711488256961
 30
0.0
 11
289.0551478994753
 21
115.9711488256961
 31
0.0
  0
LINE
  5
29EE
330
1F
100
AcDbEntity
  8
太線
100
AcDbLine
 10
289.0551478994753
 20
125.4711488256962
 30
0.0
 11
289.0551478994753
 21
150.4711488256961
 31
0.0
  0
LINE
  5
29EF
330
1F
100
AcDbEntity
  8
太線
100
AcDbLine
 10
289.0551478994753
 20
150.4711488256961
 30
0.0
 11
279.0551478994752
 21
150.4711488256961
 31
0.0
  0
CIRCLE
  5
29F0
330
1F
100
AcDbEntity
  8
太線
100
AcDbCircle
 10
352.0551478994752
 20
147.4711488256961
 30
0.0
 40
3.0
  0
CIRCLE
  5
29F1
330
1F
100
AcDbEntity
  8
太線
100
AcDbCircle
 10
286.0551478994752
 20
147.4711488256961
 30
0.0
 40
3.0
  0
LINE
  5
29FC
330
1F
100
AcDbEntity
  8
太線
100
AcDbLine
 10
316.5551478994752
 20
150.4711488256961
 30
0.0
 11
316.5551478994752
 21
125.9711488256961
 31
0.0
  0
LINE
  5
29FD
330
1F
100
AcDbEntity
  8
太線
100
AcDbLine
 10
317.0551478994752
 20
125.4711488256961
 30
0.0
 11
321.0551478994752
 21
125.4711488256961
 31
0.0
  0
LINE
  5
29FE
330
1F
100
AcDbEntity
  8
太線
100
AcDbLine
 10
321.5551478994752
 20
125.9711488256961
 30
0.0
 11
321.5551478994752
 21
150.4711488256961
 31
0.0
  0
LINE
  5
29FF
330
1F
100
AcDbEntity
  8
太線
100
AcDbLine
 10
69.70151402540432
 20
150.5754969679426
 30
0.0
 11
69.70151402540432
 21
125.9711488256961
 31
0.0
  0
LINE
  5
2A00
330
1F
100
AcDbEntity
  8
太線
100
AcDbLine
 10
70.20151402540432
 20
125.4711488256961
 30
0.0
 11
74.20151402540432
 21
125.4711488256961
 31
0.0
  0
LINE
  5
2A01
330
1F
100
AcDbEntity
  8
太線
100
AcDbLine
 10
74.70151402540432
 20
125.9711488256961
 30
0.0
 11
74.70151402540432
 21
150.4711488256961
 31
0.0
  0
LINE
  5
2A02
330
1F
100
AcDbEntity
  8
太線
100
AcDbLine
 10
102.2015140254043
 20
182.9711488256961
 30
0.0
 11
126.7015140254043
 21
182.9711488256961
 31
0.0
  0
LINE
  5
2A03
330
1F
100
AcDbEntity
  8
太線
100
AcDbLine
 10
127.2015140254043
 20
182.4711488256961
 30
0.0
 11
127.2015140254043
 21
178.5193172078315
 31
0.0
  0
LINE
  5
2A04
330
1F
100
AcDbEntity
  8
太線
100
AcDbLine
 10
126.7015140254043
 20
178.0193172078315
 30
0.0
 11
102.2015140254043
 21
178.0193172078315
 31
0.0
  0
LINE
  5
2A05
330
1F
100
AcDbEntity
  8
太線
100
AcDbLine
 10
127.2015140254043
 20
150.4711488256961
 30
0.0
 11
102.2015140254043
 21
125.4711488256961
 31
0.0
  0
CIRCLE
  5
2A0A
330
1F
100
AcDbEntity
  8
太線
100
AcDbCircle
 10
106.46042276933
 20
146.2132335875738
 30
0.0
 40
3.0
  0
LINE
  5
2A0D
330
1F
100
AcDbEntity
  8
破線
100
AcDbLine
 10
316.9586137021319
 20
142.0522637724998
 30
0.0
 11
321.9586137021319
 21
142.0522637724998
 31
0.0
  0
LINE
  5
2A0E
330
1F
100
AcDbEntity
  8
破線
100
AcDbLine
 10
69.70151402540432
 20
144.4711488256961
 30
0.0
 11
74.70151402540432
 21
144.4711488256961
 31
0.0
  0
LINE
  5
2A0F
330
1F
100
AcDbEntity
  8
破線
100
AcDbLine
 10
108.2015140254043
 20
182.9711488256961
 30
0.0
 11
108.2015140254043
 21
177.9711488256961
 31
0.0
  0
LINE
  5
2A11
330
1F
100
AcDbEntity
  8
太線
100
AcDbLine
 10
102.2015140254043
 20
61.53560202454525
 30
0.0
 11
102.2015140254043
 21
71.53560202454525
 31
0.0
  0
LINE
  5
2A13
330
1F
100
AcDbEntity
  8
太線
100
AcDbLine
 10
42.20151402540432
 20
61.53560202454525
 30
0.0
 11
42.20151402540432
 21
73.03560202454524
 31
0.0
  0
LINE
  5
2A15
330
1F
100
AcDbEntity
  8
太線
100
AcDbLine
 10
126.7015140254043
 20
29.03560202454525
 30
0.0
 11
102.2015140254043
 21
29.03560202454525
 31
0.0
  0
LINE
  5
2A16
330
1F
100
AcDbEntity
  8
太線
100
AcDbLine
 10
102.2015140254043
 20
34.03560202454525
 30
0.0
 11
126.7015140254043
 21
34.03560202454525
 31
0.0
  0
LINE
  5
2A17
330
1F
100
AcDbEntity
  8
太線
100
AcDbLine
 10
127.2015140254042
 20
61.53560202454525
 30
0.0
 11
102.2015140254043
 21
61.53560202454525
 31
0.0
  0
LINE
  5
2A19
330
1F
100
AcDbEntity
  8
太線
100
AcDbLine
 10
136.7015140254043
 20
1.535602024545255
 30
0.0
 11
102.2015140254043
 21
1.535602024545255
 31
0.0
  0
LINE
  5
2A1A
330
1F
100
AcDbEntity
  8
想像線
100
AcDbLine
 10
102.2015140254043
 20
6.535602024545255
 30
0.0
 11
137.2015140254043
 21
6.535602024545256
 31
0.0
  0
LINE
  5
2A1B
330
1F
100
AcDbEntity
  8
想像線
100
AcDbLine
 10
137.2015140254043
 20
56.53560202454526
 30
0.0
 11
102.2015140254043
 21
56.53560202454525
 31
0.0
  0
LINE
  5
2A1D
330
1F
100
AcDbEntity
  8
太線
100
AcDbLine
 10
127.2015140254043
 20
61.53560202454523
 30
0.0
 11
136.7015140254043
 21
61.53560202454523
 31
0.0
  0
LINE
  5
2A1E
330
1F
100
AcDbEntity
  8
太線
100
AcDbLine
 10
127.2015140254043
 20
33.53560202454525
 30
0.0
 11
127.2015140254043
 21
29.53560202454525
 31
0.0
  0
LINE
  5
2A1F
330
1F
100
AcDbEntity
  8
太線
100
AcDbLine
 10
42.20151402540432
 20
61.53560202454525
 30
0.0
 11
42.20151402540432
 21
1.535602024545255
 31
0.0
  0
CIRCLE
  5
2A20
330
1F
100
AcDbEntity
  8
太線
100
AcDbCircle
 10
72.20151402540432
 20
31.53560202454525
 30
0.0
 40
30.0
  0
CIRCLE
  5
2A21
330
1F
100
AcDbEntity
  8
太線
100
AcDbCircle
 10
72.20151402540432
 20
31.53560202454525
 30
0.0
 40
25.0
  0
LINE
  5
2A22
330
1F
100
AcDbEntity
  8
想像線
100
AcDbLine
 10
102.2015140254043
 20
56.53560202454525
 30
0.0
 11
102.2015140254043
 21
6.535602024545255
 31
0.0
  0
CIRCLE
  5
2A23
330
1F
100
AcDbEntity
  8
太線
100
AcDbCircle
 10
105.2015140254043
 20
64.53560202454525
 30
0.0
 40
3.0
  0
CIRCLE
  5
2A26
330
1F
100
AcDbEntity
  8
太線
100
AcDbCircle
 10
105.2015140254043
 20
-1.464397975454744
 30
0.0
 40
3.0
  0
LINE
  5
2A27
330
1F
100
AcDbEntity
  8
太線
100
AcDbLine
 10
102.2015140254043
 20
1.535602024545255
 30
0.0
 11
102.2015140254043
 21
-8.464397975454744
 31
0.0
  0
LINE
  5
2A28
330
1F
100
AcDbEntity
  8
太線
100
AcDbLine
 10
42.20267698504083
 20
-9.964785528418932
 30
0.0
 11
42.19376296379215
 21
1.535602024545255
 31
0.0
  0
DIMENSION
  5
2A44
330
1F
100
AcDbEntity
  8
寸法線
100
AcDbDimension
  2
*D2
 10
379.1767356872935
 20
210.4711488256961
 30
0.0
 11
375.6767356872935
 21
180.4711488256962
 31
0.0
 70
    32
  1
57.3
 71
     5
 42
60.0
  3
sunpo
100
AcDbAlignedDimension
 13
349.0551478994753
 23
150.4711488256961
 33
0.0
 14
359.0551478994752
 24
210.4711488256961
 34
0.0
 50
90.0
100
AcDbRotatedDimension
1001
ACAD
1000
DSTYLE
1002
{
1070
    40
1040
1.0
1070
   279
1070
     1
1002
}
  0
DIMENSION
  5
2A5A
330
1F
100
AcDbEntity
  8
寸法線
100
AcDbDimension
  2
*D3
 10
270.644962508061
 20
125.4711488256961
 30
0.0
 11
267.1444703820768
 21
137.9711488256961
 31
0.0
 70
    32
 71
     5
 42
24.99999999999998
  3
sunpo
100
AcDbAlignedDimension
 13
279.0551478994752
 23
150.4711488256961
 33
0.0
 14
289.0551478994753
 24
125.4711488256961
 34
0.0
 50
90.0
100
AcDbRotatedDimension
1001
ACAD
1000
DSTYLE
1002
{
1070
    40
1040
1.0
1002
}
  0
DIMENSION
  5
2AA4
330
1F
100
AcDbEntity
  8
寸法線
100
AcDbDimension
  2
*D4
 10
127.2015140254043
 20
117.3903612439743
 30
0.0
 11
114.7015140254043
 21
120.8908533699585
 31
0.0
 70
    32
 71
     5
 42
25.0
  3
sunpo
100
AcDbAlignedDimension
 13
102.2015140254043
 23
125.4711488256961
 33
0.0
 14
127.2015140254043
 24
150.4711488256961
 34
0.0
100
AcDbRotatedDimension
1001
ACAD
1000
DSTYLE
1002
{
1070
    40
1040
1.0
1002
}
  0
DIMENSION
  5
2AB1
330
1F
100
AcDbEntity
  8
寸法線
100
AcDbDimension
  2
*D5
 10
142.7646083528009
 20
125.4711488256961
 30
0.0
 11
139.2641162268166
 21
136.9711488256961
 31
0.0
 70
    32
  1
25.0
 71
     5
 42
23.0
  3
sunpo
100
AcDbAlignedDimension
 13
127.2015140254043
 23
148.4711488256961
 33
0.0
 14
102.2015140254043
 24
125.4711488256961
 34
0.0
 50
90.0
100
AcDbRotatedDimension
1001
ACAD
1000
DSTYLE
1002
{
1070
    40
1040
1.0
1002
}
  0
DIMENSION
  5
2AD3
330
1F
100
AcDbEntity
  8
寸法線
100
AcDbDimension
  2
*D6
 10
104.4588277380835
 20
143.9785932740358
 30
0.0
 11
122.1308102892494
 21
163.7081209819374
 31
0.0
 70
   163
 71
     5
 42
6.0
  3
sunpo
100
AcDbDiametricDimension
 15
108.4620178005765
 25
148.4478739011118
 35
0.0
 40
0.0
1001
ACAD
1000
DSTYLE
1002
{
1070
    40
1040
1.0
1070
   288
1070
     1
1002
}
  0
LINE
  5
2ADF
330
1F
100
AcDbEntity
  8
破線
100
AcDbLine
 10
317.3620795047886
 20
148.0994777120149
 30
0.0
 11
322.3620795047886
 21
148.0994777120149
 31
0.0
  0
LINE
  5
2AEC
330
1F
100
AcDbEntity
  8
太線
100
AcDbLine
 10
42.70151402540431
 20
115.4711488256961
 30
0.0
 11
101.7015140254043
 21
115.4711488256961
 31
0.0
  0
LINE
  5
2AED
330
1F
100
AcDbEntity
  8
太線
100
AcDbLine
 10
289.5551478994752
 20
115.4711488256961
 30
0.0
 11
348.5551478994752
 21
115.4711488256961
 31
0.0
  0
LINE
  5
2AEE
330
1F
100
AcDbEntity
  8
太線
100
AcDbLine
 10
137.2015140254043
 20
61.03560202454524
 30
0.0
 11
137.2015140254043
 21
2.035602024545255
 31
0.0
  0
DIMENSION
  5
2B10
330
1F
100
AcDbEntity
  8
寸法線
100
AcDbDimension
  2
*D7
 10
349.0551478994753
 20
85.72067086330276
 30
0.0
 11
319.0551478994752
 21
89.22067086330276
 31
0.0
 70
    32
  1
57.3
 71
     5
 42
60.0
  3
sunpo
100
AcDbAlignedDimension
 13
289.0551478994753
 23
115.4711488256961
 33
0.0
 14
349.0551478994753
 24
115.4711488256961
 34
0.0
100
AcDbRotatedDimension
1001
ACAD
1000
DSTYLE
1002
{
1070
    40
1040
1.0
1002
}
  0
DIMENSION
  5
2B1D
330
1F
100
AcDbEntity
  8
寸法線
100
AcDbDimension
  2
*D8
 10
344.0551478994752
 20
98.09590984449947
 30
0.0
 11
319.0551478994752
 21
101.5959098444994
 31
0.0
 70
    32
  1
49.3
 71
     5
 42
50.0
  3
sunpo
100
AcDbAlignedDimension
 13
294.0551478994752
 23
115.4711488256961
 33
0.0
 14
344.0551478994752
 24
115.4711488256961
 34
0.0
100
AcDbRotatedDimension
1001
ACAD
1000
DSTYLE
1002
{
1070
    40
1040
1.0
1002
}
  0
CIRCLE
  5
2B40
330
1F
100
AcDbEntity
  8
細線
100
AcDbCircle
 10
319.0551478994752
 20
180.4711488256961
 30
0.0
 40
23.8596282151463
  0
DIMENSION
  5
2B6B
330
1F
100
AcDbEntity
  8
寸法線
100
AcDbDimension
  2
*D9
 10
24.38574414206845
 20
150.4711488256962
 30
0.0
 11
20.88574414206843
 21
180.4711488256962
 31
0.0
 70
    32
  1
57.3
 71
     5
 42
59.99999999999997
  3
sunpo
100
AcDbAlignedDimension
 13
72.20151402540432
 23
210.4711488256961
 33
0.0
 14
72.20151402540432
 24
150.4711488256961
 34
0.0
 50
90.0
100
AcDbRotatedDimension
1001
ACAD
1000
DSTYLE
1002
{
1070
    40
1040
1.0
1002
}
  0
DIMENSION
  5
2B78
330
1F
100
AcDbEntity
  8
寸法線
100
AcDbDimension
  2
*D10
 10
24.38574414206845
 20
115.4711488256961
 30
0.0
 11
20.88574414206843
 21
132.9711488256961
 31
0.0
 70
    32
 71
     5
 42
35.00000000000004
  3
sunpo
100
AcDbAlignedDimension
 13
72.20151402540432
 23
150.4711488256961
 33
0.0
 14
42.20151402540432
 24
115.4711488256961
 34
0.0
 50
90.0
100
AcDbRotatedDimension
1001
ACAD
1000
DSTYLE
1002
{
1070
    40
1040
1.0
1070
   279
1070
     1
1002
}
  0
DIMENSION
  5
2B8E
330
1F
100
AcDbEntity
  8
寸法線
100
AcDbDimension
  2
*D11
 10
87.1428505273136
 20
6.535602024545259
 30
0.0
 11
83.64285052731361
 21
31.53560202454527
 31
0.0
 70
    32
  1
49.0
 71
     5
 42
50.0
  3
sunpo
100
AcDbAlignedDimension
 13
102.2015140254043
 23
56.53560202454525
 33
0.0
 14
102.2015140254043
 24
6.535602024545255
 34
0.0
 50
90.0
100
AcDbRotatedDimension
1001
ACAD
1000
DSTYLE
1002
{
1070
    40
1040
1.0
1002
}
  0
DIMENSION
  5
2B9B
330
1F
100
AcDbEntity
  8
寸法線
100
AcDbDimension
  2
*D12
 10
159.1351610243002
 20
6.535602024545249
 30
0.0
 11
155.6351610243002
 21
31.53560202454527
 31
0.0
 70
    32
  1
49.3
 71
     5
 42
50.0
  3
sunpo
100
AcDbAlignedDimension
 13
137.2015140254043
 23
56.53560202454526
 33
0.0
 14
137.2015140254043
 24
6.535602024545256
 34
0.0
 50
90.0
100
AcDbRotatedDimension
1001
ACAD
1000
DSTYLE
1002
{
1070
    40
1040
1.0
1002
}
  0
DIMENSION
  5
2BEA
330
1F
100
AcDbEntity
  8
寸法線
100
AcDbDimension
  2
*D13
 10
369.4153453910175
 20
155.4711488256961
 30
0.0
 11
365.9153453910175
 21
180.3492769006538
 31
0.0
 70
    32
  1
49.6
 71
     5
 42
49.75625614991537
  3
sunpo
100
AcDbAlignedDimension
 13
359.1391159272225
 23
205.2274049756115
 33
0.0
 14
359.0551478994752
 24
155.4711488256961
 34
0.0
 50
90.0
100
AcDbRotatedDimension
1001
ACAD
1000
DSTYLE
1002
{
1070
    40
1040
1.0
1002
}
  0
DIMENSION
  5
2C3E
330
1F
100
AcDbEntity
  8
寸法線
100
AcDbDimension
  2
*D14
 10
270.7981244397933
 20
155.4711488256961
 30
0.0
 11
267.2981244397933
 21
180.4711488256961
 31
0.0
 70
    32
  1
49.3
 71
     5
 42
50.0
  3
sunpo
100
AcDbAlignedDimension
 13
279.0551478994752
 23
205.4711488256961
 33
0.0
 14
279.0551478994752
 24
155.4711488256961
 34
0.0
 50
90.0
100
AcDbRotatedDimension
1001
ACAD
1000
DSTYLE
1002
{
1070
    40
1040
1.0
1002
}
  0
DIMENSION
  5
2C54
330
1F
100
AcDbEntity
  8
寸法線
100
AcDbDimension
  2
*D15
 10
379.3747634978521
 20
115.4711488256961
 30
0.0
 11
375.8747634978522
 21
132.9711488256962
 31
0.0
 70
    32
 71
     5
 42
35.00000000000001
  3
sunpo
100
AcDbAlignedDimension
 13
359.0551478994752
 23
150.4711488256961
 33
0.0
 14
349.0551478994753
 24
115.4711488256961
 34
0.0
 50
90.0
100
AcDbRotatedDimension
1001
ACAD
1000
DSTYLE
1002
{
1070
    40
1040
1.0
1002
}
  0
DIMENSION
  5
2C70
330
1F
100
AcDbEntity
  8
寸法線
100
AcDbDimension
  2
*D16
 10
74.70151402540432
 20
102.2514802953311
 30
0.0
 11
72.20151402540432
 21
105.7514802953311
 31
0.0
 70
    32
  1
4
 71
     5
 42
5.0
  3
sunpo
100
AcDbAlignedDimension
 13
69.70151402540432
 23
125.4711488256961
 33
0.0
 14
74.70151402540432
 24
125.4711488256961
 34
0.0
100
AcDbRotatedDimension
1001
ACAD
1000
DSTYLE
1002
{
1070
    40
1040
1.0
1002
}
  0
CIRCLE
  5
2CB4
330
1F
100
AcDbEntity
  8
細線
100
AcDbCircle
 10
72.20151402540432
 20
31.53560202454525
 30
0.0
 40
23.81397932512767
  0
ARC
  5
2CB6
330
1F
100
AcDbEntity
  8
太線
100
AcDbCircle
 10
136.7015140254043
 20
61.03560202454524
 30
0.0
 40
0.5
100
AcDbArc
 50
0.0
 51
90.00000000000005
  0
ARC
  5
2CB7
330
1F
100
AcDbEntity
  8
太線
100
AcDbCircle
 10
136.7015140254043
 20
2.035602024545255
 30
0.0
 40
0.5
100
AcDbArc
 50
270.0
 51
0.0
  0
ARC
  5
2CB9
330
1F
100
AcDbEntity
  8
太線
100
AcDbCircle
 10
126.7015140254043
 20
33.53560202454525
 30
0.0
 40
0.5
100
AcDbArc
 50
0.0
 51
90.0
  0
ARC
  5
2CBA
330
1F
100
AcDbEntity
  8
太線
100
AcDbCircle
 10
126.7015140254043
 20
29.53560202454525
 30
0.0
 40
0.5
100
AcDbArc
 50
270.0
 51
0.0
  0
ARC
  5
2CBB
330
1F
100
AcDbEntity
  8
太線
100
AcDbCircle
 10
42.70151402540431
 20
115.9711488256961
 30
0.0
 40
0.5
100
AcDbArc
 50
180.0
 51
270.0
  0
ARC
  5
2CBC
330
1F
100
AcDbEntity
  8
太線
100
AcDbCircle
 10
101.7015140254043
 20
115.9711488256961
 30
0.0
 40
0.5
100
AcDbArc
 50
270.0
 51
0.0000000000000254
  0
ARC
  5
2CBD
330
1F
100
AcDbEntity
  8
太線
100
AcDbCircle
 10
136.7015140254043
 20
150.9711488256961
 30
0.0
 40
0.5
100
AcDbArc
 50
270.0
 51
0.0
  0
ARC
  5
2CBE
330
1F
100
AcDbEntity
  8
太線
100
AcDbCircle
 10
70.20151402540432
 20
125.9711488256961
 30
0.0
 40
0.5
100
AcDbArc
 50
180.0
 51
270.0
  0
ARC
  5
2CBF
330
1F
100
AcDbEntity
  8
太線
100
AcDbCircle
 10
74.20151402540432
 20
125.9711488256961
 30
0.0
 40
0.5
100
AcDbArc
 50
269.9999999999997
 51
0.0
  0
ARC
  5
2CC0
330
1F
100
AcDbEntity
  8
太線
100
AcDbCircle
 10
126.7015140254043
 20
182.4711488256961
 30
0.0
 40
0.5
100
AcDbArc
 50
0.0
 51
90.0
  0
ARC
  5
2CC1
330
1F
100
AcDbEntity
  8
太線
100
AcDbCircle
 10
126.7015140254043
 20
178.5193172078315
 30
0.0
 40
0.5
100
AcDbArc
 50
270.0
 51
0.0
  0
ARC
  5
2CC4
330
1F
100
AcDbEntity
  8
太線
100
AcDbCircle
 10
348.5551478994752
 20
115.9711488256961
 30
0.0
 40
0.5
100
AcDbArc
 50
270.0
 51
0.0
  0
ARC
  5
2CC5
330
1F
100
AcDbEntity
  8
太線
100
AcDbCircle
 10
289.5551478994752
 20
115.9711488256961
 30
0.0
 40
0.5
100
AcDbArc
 50
179.9999999999998
 51
270.0
  0
ARC
  5
2CC6
330
1F
100
AcDbEntity
  8
太線
100
AcDbCircle
 10
317.0551478994752
 20
125.9711488256961
 30
0.0
 40
0.5
100
AcDbArc
 50
180.0
 51
270.0
  0
ARC
  5
2CC7
330
1F
100
AcDbEntity
  8
太線
100
AcDbCircle
 10
321.0551478994752
 20
125.9711488256961
 30
0.0
 40
0.5
100
AcDbArc
 50
269.9999999999997
 51
0.0
  0
LINE
  5
2CEE
330
1F
100
AcDbEntity
  8
太線
100
AcDbLine
 10
349.0551478994753
 20
125.4711488256961
 30
0.0
 11
361.0551478994752
 21
150.4711488256961
 31
0.0
  0
LINE
  5
2CEF
330
1F
100
AcDbEntity
  8
太線
100
AcDbLine
 10
361.0551478994752
 20
150.4711488256961
 30
0.0
 11
361.0551478994752
 21
209.969986016257
 31
0.0
  0
LINE
  5
2CF1
330
1F
100
AcDbEntity
  8
太線
100
AcDbLine
 10
359.0551478994752
 20
150.4711488256961
 30
0.0
 11
361.0551478994752
 21
150.4711488256961
 31
0.0
  0
LINE
  5
2CF2
330
1F
100
AcDbEntity
  8
太線
100
AcDbLine
 10
358.5555354524394
 20
210.4715360783821
 30
0.0
 11
361.0551478994752
 21
210.4711488256961
 31
0.0
  0
LINE
  5
2CF3
330
1F
100
AcDbEntity
  8
太線
100
AcDbLine
 10
279.5551478994752
 20
210.4711488256961
 30
0.0
 11
277.0551478994752
 21
210.4788998873083
 31
0.0
  0
LINE
  5
2CF4
330
1F
100
AcDbEntity
  8
太線
100
AcDbLine
 10
277.0551478994752
 20
209.9711488256961
 30
0.0
 11
277.0551478994752
 21
150.4711488256961
 31
0.0
  0
LINE
  5
2CF5
330
1F
100
AcDbEntity
  8
太線
100
AcDbLine
 10
277.0551478994752
 20
150.4711488256961
 30
0.0
 11
279.0551478994752
 21
150.4711488256961
 31
0.0
  0
LINE
  5
2CF6
330
1F
100
AcDbEntity
  8
太線
100
AcDbLine
 10
289.0551478994753
 20
125.4711488256961
 30
0.0
 11
277.0551478994752
 21
150.4711488256961
 31
0.0
  0
DIMENSION
  5
2D11
330
1F
100
AcDbEntity
  8
寸法線
100
AcDbDimension
  2
*D17
 10
289.0551478994753
 20
158.7058699698575
 30
0.0
 11
283.0551478994753
 21
162.2063620958417
 31
0.0
 70
    32
 71
     5
 42
12.0
  3
sunpo
100
AcDbAlignedDimension
 13
277.0551478994752
 23
150.4711488256961
 33
0.0
 14
289.0551478994753
 24
150.4711488256961
 34
0.0
100
AcDbRotatedDimension
1001
ACAD
1000
DSTYLE
1002
{
1070
    40
1040
1.0
1002
}
  0
LINE
  5
2D33
330
1F
100
AcDbEntity
  8
太線
100
AcDbLine
 10
42.70151402540432
 20
73.53560202454524
 30
0.0
 11
102.2015140254043
 21
73.53560202454525
 31
0.0
  0
LINE
  5
2D34
330
1F
100
AcDbEntity
  8
太線
100
AcDbLine
 10
102.2015140254043
 20
73.53560202454525
 30
0.0
 11
127.2015140254043
 21
61.53560202454525
 31
0.0
  0
LINE
  5
2D35
330
1F
100
AcDbEntity
  8
太線
100
AcDbLine
 10
42.20151402540432
 20
71.03560202454525
 30
0.0
 11
42.20151402540432
 21
73.53560202454525
 31
0.0
  0
LINE
  5
2D36
330
1F
100
AcDbEntity
  8
太線
100
AcDbLine
 10
127.2015140254043
 20
1.535602024545255
 30
0.0
 11
102.2015140254043
 21
-10.46439797545474
 31
0.0
  0
LINE
  5
2D37
330
1F
100
AcDbEntity
  8
太線
100
AcDbLine
 10
102.2015140254043
 20
-10.46439797545474
 30
0.0
 11
42.70267683484351
 21
-10.46439797545474
 31
0.0
  0
LINE
  5
2D38
330
1F
100
AcDbEntity
  8
太線
100
AcDbLine
 10
42.20151402540432
 20
-10.46439797545474
 30
0.0
 11
42.2011267727184
 21
-7.964785528418934
 31
0.0
  0
LINE
  5
2D39
330
1F
100
AcDbEntity
  8
太線
100
AcDbLine
 10
102.2015140254043
 20
-8.464397975454744
 30
0.0
 11
102.2015140254043
 21
-10.46439797545474
 31
0.0
  0
LINE
  5
2D3A
330
1F
100
AcDbEntity
  8
想像線
100
AcDbLine
 10
47.20151402540432
 20
73.53560202454525
 30
0.0
 11
48.38753470027665
 21
31.53560202454525
 31
0.0
  0
LINE
  5
2D3B
330
1F
100
AcDbEntity
  8
想像線
100
AcDbLine
 10
48.38753470027665
 20
31.53560202454525
 30
0.0
 11
47.20151402540432
 21
-10.46439797545474
 31
0.0
  0
LINE
  5
2D3C
330
1F
100
AcDbEntity
  8
想像線
100
AcDbLine
 10
97.20151402540432
 20
73.53560202454525
 30
0.0
 11
96.01549335053199
 21
31.53560202454525
 31
0.0
  0
LINE
  5
2D3D
330
1F
100
AcDbEntity
  8
想像線
100
AcDbLine
 10
96.01549335053199
 20
31.53560202454525
 30
0.0
 11
97.20151402540432
 21
-10.46439797545474
 31
0.0
  0
LINE
  5
2D3E
330
1F
100
AcDbEntity
  8
太線
100
AcDbLine
 10
102.2015140254043
 20
71.53560202454525
 30
0.0
 11
102.2015140254043
 21
73.53560202454525
 31
0.0
  0
ARC
  5
2D3F
330
1F
100
AcDbEntity
  8
太線
100
AcDbCircle
 10
42.70151402540432
 20
73.03560202454524
 30
0.0
 40
0.5
100
AcDbArc
 50
90.0
 51
180.0
  0
ARC
  5
2D40
330
1F
100
AcDbEntity
  8
太線
100
AcDbCircle
 10
42.70267683484351
 20
-9.964397975454742
 30
0.0
 40
0.5
100
AcDbArc
 50
180.0444103028185
 51
270.0
  0
ARC
  5
2D41
330
1F
100
AcDbEntity
  8
太線
100
AcDbCircle
 10
42.70267683484351
 20
-9.964397975454742
 30
0.0
 40
0.5
100
AcDbArc
 50
180.0444103028185
 51
270.0
  0
ARC
  5
2D42
330
1F
100
AcDbEntity
  8
太線
100
AcDbCircle
 10
42.70267683484351
 20
-9.964397975454742
 30
0.0
 40
0.5
100
AcDbArc
 50
180.0444103028185
 51
270.0
  0
ARC
  5
2D43
330
1F
100
AcDbEntity
  8
太線
100
AcDbCircle
 10
277.5551478994752
 20
209.9711488256961
 30
0.0
 40
0.5
100
AcDbArc
 50
90.0
 51
180.0
  0
ARC
  5
2D44
330
1F
100
AcDbEntity
  8
太線
100
AcDbCircle
 10
360.5551478994752
 20
209.969986016257
 30
0.0
 40
0.5
100
AcDbArc
 50
0.0
 51
89.95558969718166
  0
LINE
  5
2D4C
330
1F
100
AcDbEntity
  8
太線
100
AcDbLine
 10
69.70151402540432
 20
73.53560202454524
 30
0.0
 11
69.70151402540432
 21
61.53560202454525
 31
0.0
  0
LINE
  5
2D4D
330
1F
100
AcDbEntity
  8
太線
100
AcDbLine
 10
74.70151402540432
 20
73.53560202454525
 30
0.0
 11
74.70151402540432
 21
61.53560202454525
 31
0.0
  0
LINE
  5
2D4E
330
1F
100
AcDbEntity
  8
太線
100
AcDbLine
 10
69.70151402540432
 20
1.535602024545255
 30
0.0
 11
69.70151402540432
 21
-10.46439797545474
 31
0.0
  0
LINE
  5
2D4F
330
1F
100
AcDbEntity
  8
太線
100
AcDbLine
 10
74.70151402540432
 20
1.639950166791756
 30
0.0
 11
74.70151402540432
 21
-10.46439797545474
 31
0.0
  0
LINE
  5
2D50
330
1F
100
AcDbEntity
  8
太線
100
AcDbLine
 10
277.0551478994752
 20
182.9711488256961
 30
0.0
 11
289.0551478994753
 21
182.9711488256961
 31
0.0
  0
LINE
  5
2D51
330
1F
100
AcDbEntity
  8
太線
100
AcDbLine
 10
277.0551478994752
 20
177.9711488256961
 30
0.0
 11
289.0551478994753
 21
177.9711488256961
 31
0.0
  0
LINE
  5
2D52
330
1F
100
AcDbEntity
  8
太線
100
AcDbLine
 10
348.9507997572287
 20
182.9711488256961
 30
0.0
 11
361.0551478994752
 21
182.9711488256961
 31
0.0
  0
LINE
  5
2D53
330
1F
100
AcDbEntity
  8
太線
100
AcDbLine
 10
361.0551478994752
 20
182.9711488256961
 30
0.0
 11
361.0551478994752
 21
182.9711488256961
 31
0.0
  0
LINE
  5
2D55
330
1F
100
AcDbEntity
  8
太線
100
AcDbLine
 10
361.0551478994752
 20
177.9711488256961
 30
0.0
 11
349.0551478994753
 21
177.9711488256961
 31
0.0
  0
LINE
  5
2D56
330
1F
100
AcDbEntity
  8
想像線
100
AcDbLine
 10
354.3846013404147
 20
182.780626229222
 30
0.0
 11
354.3846013404147
 21
177.9550608239579
 31
0.0
  0
LINE
  5
2D57
330
1F
100
AcDbEntity
  8
想像線
100
AcDbLine
 10
283.4805307904577
 20
177.9550608239579
 30
0.0
 11
283.4805307904577
 21
182.780626229222
 31
0.0
  0
LINE
  5
2D58
330
1F
100
AcDbEntity
  8
想像線
100
AcDbLine
 10
74.64907629242066
 20
65.97344705022954
 30
0.0
 11
69.8196969437081
 21
65.97344705022954
 31
0.0
  0
LINE
  5
2D59
330
1F
100
AcDbEntity
  8
想像線
100
AcDbLine
 10
69.8196969437081
 20
65.97344705022954
 30
0.0
 11
69.8196969437081
 21
65.75410316817215
 31
0.0
  0
LINE
  5
2D5A
330
1F
100
AcDbEntity
  8
想像線
100
AcDbLine
 10
74.86859410283819
 20
-3.791057071423892
 30
0.0
 11
69.8196969437081
 21
-3.791057071423892
 31
0.0
  0
LINE
  5
2D5B
330
1F
100
AcDbEntity
  8
想像線
100
AcDbLine
 10
108.0248180910741
 20
33.88250206179304
 30
0.0
 11
108.0248180910741
 21
29.002550459154
 31
0.0
  0
LINE
  5
2D68
330
1F
100
AcDbEntity
  8
想像線
100
AcDbLine
 10
72.20151402540432
 20
204.2125407223735
 30
0.0
 11
102.2015140254043
 21
204.2125407223735
 31
0.0
  0
LINE
  5
2D69
330
1F
100
AcDbEntity
  8
想像線
100
AcDbLine
 10
72.20151402540432
 20
156.5568770497894
 30
0.0
 11
102.2015140254043
 21
156.5568770497894
 31
0.0
  0
LINE
  5
2D6A
330
1F
100
AcDbEntity
  8
想像線
100
AcDbLine
 10
48.42591737004318
 20
180.4711488256961
 30
0.0
 11
48.42591737004318
 21
150.4711488256962
 31
0.0
  0
LINE
  5
2D6B
330
1F
100
AcDbEntity
  8
想像線
100
AcDbLine
 10
96.13008255590466
 20
180.4711488256961
 30
0.0
 11
96.13008255590466
 21
150.4711488256961
 31
0.0
  0
LINE
  5
2D70
330
1F
100
AcDbEntity
  8
想像線
100
AcDbLine
 10
72.20151402540432
 20
55.34958134967293
 30
0.0
 11
102.2015140254043
 21
55.40359785196438
 31
0.0
  0
LINE
  5
2D71
330
1F
100
AcDbEntity
  8
想像線
100
AcDbLine
 10
72.20151402540432
 20
7.721622699417586
 30
0.0
 11
102.2015140254043
 21
8.106072650914711
 31
0.0
  0
LINE
  5
2D72
330
1F
100
AcDbEntity
  8
想像線
100
AcDbLine
 10
342.9147761146215
 20
180.4711488256961
 30
0.0
 11
342.9147761146215
 21
150.4711488256961
 31
0.0
  0
LINE
  5
2D73
330
1F
100
AcDbEntity
  8
想像線
100
AcDbLine
 10
295.1955196843289
 20
180.4711488256961
 30
0.0
 11
295.174237040451
 21
156.5568770497894
 31
0.0
  0
LINE
  5
2D75
330
1F
100
AcDbEntity
  8
想像線
100
AcDbLine
 10
277.0551478994752
 20
205.4711488256961
 30
0.0
 11
361.0551478994752
 21
205.4711488256961
 31
0.0
  0
LINE
  5
2D76
330
1F
100
AcDbEntity
  8
想像線
100
AcDbLine
 10
277.0551478994752
 20
155.4711488256961
 30
0.0
 11
361.0551478994752
 21
155.4711488256961
 31
0.0
  0
TEXT
  5
2DA4
330
1F
100
AcDbEntity
  8
文字
100
AcDbText
 10
216.4494324545373
 20
49.73569797880602
 30
0.0
 40
4.799999999999999
  1
注記　内面バリは最小限にする
 51
15.0
  7
OKANO
100
AcDbText
  0
DIMENSION
  5
2DAC
330
1F
100
AcDbEntity
  8
寸法線
100
AcDbDimension
  2
*D18
 10
137.7558902392596
 20
89.36887035454743
 30
0.0
 11
89.97736542786174
 21
92.87057087808092
 31
0.0
 70
    32
  1
92.3
 71
     5
 42
95.55704962279582
  3
sunpo
100
AcDbAlignedDimension
 13
42.19884061646382
 23
113.3405522996323
 33
0.0
 14
137.7558902392596
 24
148.2466855630364
 34
0.0
100
AcDbRotatedDimension
1001
ACAD
1000
DSTYLE
1002
{
1070
    40
1040
1.0
1002
}
  0
LINE
  5
2E55
330
1F
100
AcDbEntity
  8
太線
100
AcDbLine
 10
170.9980955542694
 20
243.8128405978003
 30
0.0
 11
186.168887386742
 21
252.9239809043401
 31
0.0
  0
LINE
  5
2E56
330
1F
100
AcDbEntity
  8
太線
100
AcDbLine
 10
177.1763645762425
 20
233.52551869693
 30
0.0
 11
192.3471564087152
 21
242.6366590034697
 31
0.0
  0
ARC
  5
2E5B
330
1F
100
AcDbEntity
  8
細線
 62
     0
100
AcDbCircle
 10
174.0872300652561
 20
238.6691796473652
 30
0.0
 40
6.0
100
AcDbArc
 50
120.9878137260518
 51
300.9878137260517
  0
ARC
  5
2F77
330
1F
100
AcDbEntity
  8
太線
100
AcDbCircle
 10
176.8215825128759
 20
240.1709504266168
 30
0.0
 40
30.0
100
AcDbArc
 50
288.2336884191404
 51
111.6067117601889
  0
LINE
  5
2F7A
330
1F
100
AcDbEntity
  8
構築線
100
AcDbLine
 10
183.2412160547289
 20
204.9921554077296
 30
0.0
 11
137.2015140254043
 21
204.2125407223735
 31
0.0
  0
LINE
  5
2F7B
330
1F
100
AcDbEntity
  8
太線
100
AcDbLine
 10
165.7745785230469
 20
268.0629511230297
 30
0.0
 11
63.61910458040809
 21
210.4711488256961
 31
0.0
  0
ARC
  5
2F7F
330
1F
100
AcDbEntity
  8
細線
 62
     0
100
AcDbCircle
 10
187.4659706547877
 20
246.8289102179281
 30
0.0
 40
6.0
100
AcDbArc
 50
300.9878137260517
 51
120.9878137260518
  0
LINE
  5
2F80
330
1F
100
AcDbEntity
  8
太線
100
AcDbLine
 10
186.2083852088767
 20
211.6773031496122
 30
0.0
 11
183.2412160547289
 21
204.9921554077296
 31
0.0
  0
LINE
  5
2F81
330
1F
100
AcDbEntity
  8
太線
100
AcDbLine
 10
183.2412160547289
 20
204.9921554077296
 30
0.0
 11
137.2015140254043
 21
150.9711488256961
 31
0.0
  0
LINE
  5
2F82
330
1F
100
AcDbEntity
  8
破線
100
AcDbLine
 10
137.2015140254043
 20
205.4711488256961
 30
0.0
 11
183.453814870747
 21
205.4711488256961
 31
0.0
  0
LINE
  5
2F83
330
1F
100
AcDbEntity
  8
太線
100
AcDbLine
 10
137.2015140254043
 20
210.4711488256961
 30
0.0
 11
185.6730396872446
 21
210.4711488256961
 31
0.0
  0
LINE
  5
2F84
330
1F
100
AcDbEntity
  8
想像線
100
AcDbLine
 10
137.2015140254043
 20
155.4711488256961
 30
0.0
 11
141.0366639465252
 21
155.4711488256961
 31
0.0
  0
LINE
  5
2F89
330
1F
100
AcDbEntity
  8
太線
100
AcDbLine
 10
321.5123424879223
 20
211.2402022740855
 30
0.0
 11
321.5123424879223
 21
268.9553789652937
 31
0.0
  0
LINE
  5
2F8A
330
1F
100
AcDbEntity
  8
太線
100
AcDbLine
 10
321.0123424879223
 20
269.4553789652938
 30
0.0
 11
317.7400747035442
 21
269.4553789652938
 31
0.0
  0
LINE
  5
2F8B
330
1F
100
AcDbEntity
  8
太線
100
AcDbLine
 10
317.2400747035442
 20
268.9553789652937
 30
0.0
 11
317.2400747035442
 21
212.3061554903791
 31
0.0
  0
ARC
  5
2F8E
330
1F
100
AcDbEntity
  8
太線
100
AcDbCircle
 10
309.1119140473471
 20
216.1710290960607
 30
0.0
 40
9.000235754736909
100
AcDbArc
 50
320.7057328920744
 51
334.569296280542
  0
ARC
  5
2F8F
330
1F
100
AcDbEntity
  8
太線
100
AcDbCircle
 10
326.8690867033264
 20
214.2026593668657
 30
0.0
 40
6.121344673830194
100
AcDbArc
 50
208.9440480336337
 51
217.5598636862352
  0
LINE
  5
2F90
330
1F
100
AcDbEntity
  8
太線
100
AcDbLine
 10
317.2400747035442
 20
210.4711488256961
 30
0.0
 11
317.2400747035442
 21
210.453721021562
 31
0.0
  0
LINE
  5
2F91
330
1F
100
AcDbEntity
  8
太線
100
AcDbLine
 10
322.0165935609335
 20
210.4711488256961
 30
0.0
 11
349.0551478994753
 21
210.4711488256961
 31
0.0
  0
ARC
  5
2F92
330
1F
100
AcDbEntity
  8
太線
100
AcDbCircle
 10
317.7400747035442
 20
268.9553789652937
 30
0.0
 40
0.5
100
AcDbArc
 50
90.0
 51
180.0
  0
ARC
  5
2F93
330
1F
100
AcDbEntity
  8
太線
100
AcDbCircle
 10
321.0123424879223
 20
268.9553789652937
 30
0.0
 40
0.5
100
AcDbArc
 50
0.0
 51
90.0
  0
LINE
  5
2F96
330
1F
100
AcDbEntity
  8
想像線
100
AcDbLine
 10
317.3319584847665
 20
249.6577206921734
 30
0.0
 11
321.3319584847665
 21
249.6577206921734
 31
0.0
  0
LINE
  5
2F97
330
1F
100
AcDbEntity
  8
想像線
100
AcDbLine
 10
317.3319584847665
 20
229.9030068268811
 30
0.0
 11
321.3319584847665
 21
229.9030068268811
 31
0.0
  0
LINE
  5
2F9A
330
1F
100
AcDbEntity
  8
太線
100
AcDbLine
 10
40.19038716891417
 20
34.03560202454525
 30
0.0
 11
-16.29848597459568
 21
34.03560202454525
 31
0.0
  0
LINE
  5
2F9B
330
1F
100
AcDbEntity
  8
太線
100
AcDbLine
 10
-16.79848597459568
 20
33.53560202454525
 30
0.0
 11
-16.79848597459568
 21
29.53560202454525
 31
0.0
  0
LINE
  5
2F9C
330
1F
100
AcDbEntity
  8
太線
100
AcDbLine
 10
-16.29848597459568
 20
29.03560202454526
 30
0.0
 11
40.23737697941455
 21
29.03560202454525
 31
0.0
  0
ARC
  5
2F9D
330
1F
100
AcDbEntity
  8
太線
100
AcDbCircle
 10
33.79439478147521
 20
49.01164511065251
 30
0.0
 40
16.28467331993854
100
AcDbArc
 50
293.1264362168491
 51
301.0816868963355
  0
ARC
  5
2F9E
330
1F
100
AcDbEntity
  8
太線
100
AcDbCircle
 10
37.81980985932583
 20
22.88098673375709
 30
0.0
 40
6.612406533005773
100
AcDbArc
 50
48.49778987549506
 51
68.55482393070236
  0
ARC
  5
2F9F
330
1F
100
AcDbEntity
  8
太線
100
AcDbCircle
 10
-16.29848597459568
 20
29.53560202454525
 30
0.0
 40
0.5
100
AcDbArc
 50
180.0
 51
270.0
  0
ARC
  5
2FA0
330
1F
100
AcDbEntity
  8
太線
100
AcDbCircle
 10
-16.29848597459568
 20
33.53560202454525
 30
0.0
 40
0.5
100
AcDbArc
 50
90.0
 51
179.9999999999999
  0
DIMENSION
  5
2FF3
330
1F
100
AcDbEntity
  8
寸法線
100
AcDbDimension
  2
*D19
 10
137.5666539052899
 20
77.67891269187976
 30
0.0
 11
120.7584673997189
 21
81.17891269187976
 31
0.0
 70
    32
  1
35
 71
     5
 42
33.61637301114206
  3
sunpo
100
AcDbAlignedDimension
 13
103.9502808941479
 23
74.32047178866344
 33
0.0
 14
137.5666539052899
 24
74.32047178866344
 34
0.0
100
AcDbRotatedDimension
1001
ACAD
1000
DSTYLE
1002
{
1070
    40
1040
1.0
1002
}
  0
DIMENSION
  5
3009
330
1F
100
AcDbEntity
  8
寸法線
100
AcDbDimension
  2
*D20
 10
236.3752105207479
 20
269.9735788821509
 30
0.0
 11
232.8752105207479
 21
240.0652291791845
 31
0.0
 70
    32
  1
60
 71
     5
 42
59.81669940593284
  3
sunpo
100
AcDbAlignedDimension
 13
186.5926315376541
 23
210.1568794762181
 33
0.0
 14
186.5926315376541
 24
269.9735788821509
 34
0.0
 50
90.0
100
AcDbRotatedDimension
1001
ACAD
1000
DSTYLE
1002
{
1070
    40
1040
1.0
1002
}
  0
DIMENSION
  5
301F
330
1F
100
AcDbEntity
  8
寸法線
100
AcDbDimension
  2
*D21
 10
206.0599602113027
 20
290.215428640994
 30
0.0
 11
123.9359155583142
 21
293.7154286409941
 31
0.0
 70
    32
  1
165
 71
     5
 42
164.2480893059769
  3
sunpo
100
AcDbAlignedDimension
 13
41.8118709053258
 23
189.3392721689583
 33
0.0
 14
206.0599602113027
 24
189.3392721689583
 34
0.0
100
AcDbRotatedDimension
1001
ACAD
1000
DSTYLE
1002
{
1070
    40
1040
1.0
1002
}
  0
DIMENSION
  5
3035
330
1F
100
AcDbEntity
  8
寸法線
100
AcDbDimension
  2
*D22
 10
42.20151402540431
 20
115.9711488256961
 30
0.0
 11
76.47633411805736
 21
257.0660434896077
 31
0.0
 70
    34
  1
60
 71
     5
 42
1.057445533631109
  3
sunpo
100
AcDb2LineAngularDimension
 13
165.7745785230469
 23
268.0629511230297
 33
0.0
 14
63.61910458040809
 24
210.4711488256961
 34
0.0
 15
42.20151402540432
 25
180.4711488256961
 35
0.0
 16
83.96389185246352
 26
247.4821122444843
 36
0.0
1001
ACAD
1000
DSTYLE
1002
{
1070
    40
1040
1.0
1002
}
  0
DIMENSION
  5
3063
330
1F
100
AcDbEntity
  8
寸法線
100
AcDbDimension
  2
*D23
 10
162.3479023666203
 20
224.6939312247822
 30
0.0
 11
162.3140805195425
 21
231.54922290717
 31
0.0
 70
    33
  1
12
 71
     5
 42
11.7885915772625
  3
sunpo
100
AcDbAlignedDimension
 13
171.5435138059187
 23
243.9677596081931
 33
0.0
 14
177.6129387715966
 24
233.8616737208917
 34
0.0
1001
ACAD
1000
DSTYLE
1002
{
1070
    40
1040
1.0
1002
}
  0
DIMENSION
  5
3099
330
1F
100
AcDbEntity
  8
寸法線
100
AcDbDimension
  2
*D24
 10
172.3925037009162
 20
302.9393670986446
 30
0.0
 11
166.1706063236398
 21
303.2227048731077
 31
0.0
 70
    33
  1
10
 71
     5
 42
10.30384147156723
  3
sunpo
100
AcDbAlignedDimension
 13
192.34520399193
 23
250.8116206792409
 33
0.0
 14
201.1228486050108
 24
256.2081106604827
 34
0.0
1001
ACAD
1000
DSTYLE
1002
{
1070
    40
1040
1.0
1002
}
  0
DIMENSION
  5
30A7
330
1F
100
AcDbEntity
  8
寸法線
100
AcDbDimension
  2
*D25
 10
179.9716129299255
 20
221.4341520410659
 30
0.0
 11
189.1722968489016
 21
231.7673538454207
 31
0.0
 70
    33
  1
30
 71
     5
 42
26.77145077177744
  3
sunpo
100
AcDbAlignedDimension
 13
193.0204069719113
 23
250.1370593346241
 33
0.0
 14
170.7386954175492
 24
235.2967120801321
 34
0.0
1001
ACAD
1000
DSTYLE
1002
{
1070
    40
1040
1.0
1002
}
  0
DIMENSION
  5
30D0
330
1F
100
AcDbEntity
  8
寸法線
100
AcDbDimension
  2
*D26
 10
360.4270426176901
 20
280.6244962448505
 30
0.0
 11
319.0907691873575
 21
284.1244962448505
 31
0.0
 70
    32
  1
81.3
 71
     5
 42
82.67254686066531
  3
sunpo
100
AcDbAlignedDimension
 13
277.7544957570248
 23
210.2835182119499
 33
0.0
 14
360.4270426176901
 24
210.7373307382427
 34
0.0
100
AcDbRotatedDimension
1001
ACAD
1000
DSTYLE
1002
{
1070
    40
1040
1.0
1002
}
  0
DIMENSION
  5
30E6
330
1F
100
AcDbEntity
  8
寸法線
100
AcDbDimension
  2
*D27
 10
321.8244115093966
 20
257.9735807175974
 30
0.0
 11
319.5518022117484
 21
261.4735807175974
 31
0.0
 70
    32
  1
4
 71
     5
 42
4.545218595296546
  3
sunpo
100
AcDbAlignedDimension
 13
317.2791929141001
 23
268.8717298066178
 33
0.0
 14
321.8244115093966
 24
268.8717298066178
 34
0.0
100
AcDbRotatedDimension
1001
ACAD
1000
DSTYLE
1002
{
1070
    40
1040
1.0
1002
}
  0
DIMENSION
  5
3100
330
1F
100
AcDbEntity
  8
寸法線
100
AcDbDimension
  2
*D28
 10
186.1827881860429
 20
189.9847303172679
 30
0.0
 11
145.0979560790741
 21
193.4852224432521
 31
0.0
 70
    32
  1
82
 71
     5
 42
82.16966421393749
  3
sunpo
100
AcDbAlignedDimension
 13
104.0131239721054
 23
199.5487904079216
 33
0.0
 14
186.1827881860429
 24
199.5487904079216
 34
0.0
100
AcDbRotatedDimension
1001
ACAD
1000
DSTYLE
1002
{
1070
    40
1040
1.0
1002
}
  0
TEXT
  5
3129
330
1F
100
AcDbEntity
  8
文字
100
AcDbText
 10
323.4156959921065
 20
10.78756149247251
 30
0.0
 40
4.799999999999999
  1
JAN 4562182302014
 51
15.0
  7
OKANO
100
AcDbText
  0
TEXT
  5
313E
330
1F
100
AcDbEntity
  8
文字
100
AcDbText
 10
160.5362043305117
 20
105.0735066062916
 30
0.0
 40
8.0
  1
勾配は、柄(ﾂｶ）の長さと
 51
15.0
  7
OKANO
100
AcDbText
  0
TEXT
  5
313F
330
1F
100
AcDbEntity
  8
文字
100
AcDbText
 10
160.5362043305117
 20
92.23239023450208
 30
0.0
 40
8.0
  1
梁(ﾊﾘ）の長さにより自由
 51
15.0
  7
OKANO
100
AcDbText
  0
TEXT
  5
3140
330
1F
100
AcDbEntity
  8
文字
100
AcDbText
 10
160.5362043305117
 20
79.39127386271241
 30
0.0
 40
8.0
  1
設定出来ます。
 51
15.0
  7
OKANO
100
AcDbText
  0
XLINE
  5
3159
330
1F
100
AcDbEntity
  8
構築線
100
AcDbXline
 10
319.0551478994752
 20
180.4711488256961
 30
0.0
 11
0.0
 21
-1.0
 31
0.0
  0
VIEWPORT
  5
2E
330
1B
100
AcDbEntity
 67
     1
  8
0
100
AcDbViewport
 10
281.3527695858028
 20
105.7532612563097
 30
0.0
 40
794.5855482092007
 41
403.572428068319
 68
     2
 69
     1
 12
281.3527695858028
 22
105.7532612563097
 13
0.0
 23
0.0
 14
10.0
 24
10.0
 15
10.0
 25
10.0
 16
0.0
 26
0.0
 36
1.0
 17
0.0
 27
0.0
 37
0.0
 42
50.0
 43
0.0
 44
0.0
 45
403.572428068319
 50
0.0
 51
0.0
 72
   100
 90
    32800
  1

281
     0
 71
     1
 74
     0
110
0.0
120
0.0
130
0.0
111
1.0
121
0.0
131
0.0
112
0.0
122
1.0
132
0.0
 79
     0
146
0.0
  0
VIEWPORT
  5
30
330
1B
100
AcDbEntity
 67
     1
  8
70-0-CON
100
AcDbViewport
 10
141.8594093064315
 20
100.3480256368386
 30
0.0
 40
261.6199023344245
 41
192.6196987113174
 68
     1
 69
     2
 12
194.6535798636207
 22
146.2358705824483
 13
0.0
 23
0.0
 14
5.0
 24
5.0
 15
10.0
 25
10.0
 16
0.0
 26
0.0
 36
1.0
 17
0.0
 27
0.0
 37
0.0
 42
50.0
 43
0.0
 44
0.0
 45
380.4684014501195
 50
0.0
 51
0.0
 72
   100
 90
    32864
  1

281
     0
 71
     1
 74
     0
110
0.0
120
0.0
130
0.0
111
1.0
121
0.0
131
0.0
112
0.0
122
1.0
132
0.0
 79
     0
146
0.0
  0
LWPOLYLINE
  5
45
330
1B
100
AcDbEntity
 67
     1
  8
50-0-CON
100
AcDbPolyline
 90
        4
 70
     1
 43
0.0
 10
11.04945813921926
 20
4.038176281179858
 10
272.2125713060605
 20
4.033520706629644
 10
273.4987754093466
 20
195.9297862125246
 10
11.04945813921926
 20
196.6578749924973
  0
LINE
  5
4A
330
1B
100
AcDbEntity
 67
     1
  8
50-0-CON
100
AcDbLine
 10
10.38768783662635
 20
100.3480256368386
 30
0.0
 11
-4.391850629656119
 21
100.3480256368386
 31
0.0
  0
LINE
  5
4B
330
1B
100
AcDbEntity
 67
     1
  8
50-0-CON
100
AcDbLine
 10
141.8594093064315
 20
197.098652626247
 30
0.0
 11
141.8594093064315
 21
202.387980773708
 31
0.0
  0
LINE
  5
4C
330
1B
100
AcDbEntity
 67
     1
  8
50-0-CON
100
AcDbLine
 10
272.4487699456857
 20
100.7888032705883
 30
0.0
 11
278.8458837249377
 21
100.7888032705883
 31
0.0
  0
LINE
  5
4D
330
1B
100
AcDbEntity
 67
     1
  8
50-0-CON
100
AcDbLine
 10
140.9770484758805
 20
4.038176281179858
 30
0.0
 11
140.9770484758805
 21
-3.455038652015446
 31
0.0
  0
ENDSEC
  0
SECTION
  2
OBJECTS
  0
DICTIONARY
  5
C
330
0
100
AcDbDictionary
281
     1
  3
ACAD_GROUP
350
D
  3
ACAD_LAYOUT
350
1A
  3
ACAD_MLINESTYLE
350
17
  3
ACAD_PLOTSETTINGS
350
19
  3
ACAD_PLOTSTYLENAME
350
E
  3
AcadDim
350
13D0
  3
AcDbVariableDictionary
350
6AD
  3
DWGPROPS
350
30F
  0
DICTIONARY
  5
D
102
{ACAD_REACTORS
330
C
102
}
330
C
100
AcDbDictionary
281
     1
  0
DICTIONARY
  5
1A
102
{ACAD_REACTORS
330
C
102
}
330
C
100
AcDbDictionary
281
     1
  3
A4
350
1E
  3
Model
350
22
  0
DICTIONARY
  5
17
102
{ACAD_REACTORS
330
C
102
}
330
C
100
AcDbDictionary
281
     1
  3
Standard
350
18
  0
DICTIONARY
  5
19
102
{ACAD_REACTORS
330
C
102
}
330
C
100
AcDbDictionary
281
     1
  0
ACDBDICTIONARYWDFLT
  5
E
102
{ACAD_REACTORS
330
C
102
}
330
C
100
AcDbDictionary
281
     1
  3
Normal
350
F
100
AcDbDictionaryWithDefault
340
F
  0
XRECORD
  5
13D0
102
{ACAD_REACTORS
330
C
102
}
330
C
100
AcDbXrecord
280
     1
 90
   990106
  3

 60
     0
 61
     0
 62
     1
 63
     3
 64
     0
 65
     0
 66
     0
 67
     3
 68
     1
 69
     0
 70
     0
 71
     0
 72
     0
 40
0.0
170
     0
340
0
  0
DICTIONARY
  5
6AD
102
{ACAD_REACTORS
330
C
102
}
330
C
100
AcDbDictionary
281
     1
  3
SORTENTS
350
6AE
  0
XRECORD
  5
30F
102
{ACAD_REACTORS
330
C
102
}
330
C
100
AcDbXrecord
280
     1
  1
DWGPROPS COOKIE
  2

  3

  4

  6

  7

  8

  9

300
=
301
=
302
=
303
=
304
=
305
=
306
=
307
=
308
=
309
=
 40
0.3303803125
 41
2452362.482225463
 42
2452370.969861285
  1

 90
        0
  0
LAYOUT
  5
1E
102
{ACAD_REACTORS
330
1A
102
}
330
1A
100
AcDbPlotSettings
  1

  2
EPSON PM-920C
  4
A4
  6

 40
3.757083177566528
 41
14.7637300491333
 42
3.757080078125
 43
3.757080078125
 44
209.9733276367187
 45
296.9683227539062
 46
0.0
 47
0.0
 48
0.0
 49
0.0
140
0.0
141
0.0
142
1.0
143
1.0
 70
   688
 72
     1
 73
     1
 74
     5
  7
joint.ctb
 75
    16
147
1.0
148
0.0
149
0.0
100
AcDbLayout
  1
A4
 70
     1
 71
     1
 10
-3.757080078125
 20
-3.757083177566528
 11
293.2112426757812
 21
206.2162444591522
 12
0.0
 22
0.0
 32
0.0
 14
-4.391850629656119
 24
-3.455038652015446
 34
0.0
 15
278.8458837249377
 25
202.387980773708
 35
0.0
146
0.0
 13
0.0
 23
0.0
 33
0.0
 16
1.0
 26
0.0
 36
0.0
 17
0.0
 27
1.0
 37
0.0
 76
     0
330
1B
331
30
  0
LAYOUT
  5
22
102
{ACAD_REACTORS
330
1A
102
}
330
1A
100
AcDbPlotSettings
  1

  2
EPSON PM-920C
  4
A4
  6

 40
3.757083177566528
 41
14.7637300491333
 42
3.757080078125
 43
3.757080078125
 44
209.9733276367187
 45
296.9683227539062
 46
0.0
 47
0.0
 48
0.0
 49
0.0
140
0.0
141
0.0
142
1.0
143
1.0
 70
 11952
 72
     1
 73
     1
 74
     0
  7

 75
     0
147
1.0
148
-45.64199848979289
149
-84.48806419330498
100
AcDbLayout
  1
Model
 70
     1
 71
     0
 10
0.0
 20
0.0
 11
12.0
 21
9.0
 12
0.0
 22
0.0
 32
0.0
 14
0.0
 24
0.0
 34
0.0
 15
0.0
 25
0.0
 35
0.0
146
0.0
 13
0.0
 23
0.0
 33
0.0
 16
1.0
 26
0.0
 36
0.0
 17
0.0
 27
1.0
 37
0.0
 76
     0
330
1F
  0
MLINESTYLE
  5
18
102
{ACAD_REACTORS
330
17
102
}
330
17
100
AcDbMlineStyle
  2
STANDARD
 70
     0
  3

 62
   256
 51
90.0
 52
90.0
 71
     2
 49
0.5
 62
   256
  6
BYLAYER
 49
-0.5
 62
   256
  6
BYLAYER
  0
ACDBPLACEHOLDER
  5
F
102
{ACAD_REACTORS
330
E
102
}
330
E
  0
DICTIONARYVAR
  5
6AE
102
{ACAD_REACTORS
330
6AD
102
}
330
6AD
100
DictionaryVariables
280
     0
  1
96
  0
ENDSEC
  0
EOF
