  0
SECTION
  2
HEADER
  9
$ACADVER
  1
AC1015
  9
$ACADMAINTVER
 70
     6
  9
$DWGCODEPAGE
  3
ANSI_932
  9
$INSBASE
 10
0.0
 20
0.0
 30
0.0
  9
$EXTMIN
 10
71.63269830905409
 20
18.53549208360118
 30
0.0
  9
$EXTMAX
 10
523.5079092286313
 20
382.5841294570563
 30
0.0
  9
$LIMMIN
 10
0.0
 20
0.0
  9
$LIMMAX
 10
420.0
 20
297.0
  9
$ORTHOMODE
 70
     1
  9
$REGENMODE
 70
     1
  9
$FILLMODE
 70
     1
  9
$QTEXTMODE
 70
     0
  9
$MIRRTEXT
 70
     1
  9
$LTSCALE
 40
1.0
  9
$ATTMODE
 70
     1
  9
$TEXTSIZE
 40
5.0
  9
$TRACEWID
 40
1.0
  9
$TEXTSTYLE
  7
OKANO
  9
$CLAYER
  8
太線
  9
$CELTYPE
  6
ByLayer
  9
$CECOLOR
 62
   256
  9
$CELTSCALE
 40
1.0
  9
$DISPSILH
 70
     0
  9
$DIMSCALE
 40
0.0
  9
$DIMASZ
 40
3.0
  9
$DIMEXO
 40
2.0
  9
$DIMDLI
 40
8.0
  9
$DIMRND
 40
0.0
  9
$DIMDLE
 40
0.0
  9
$DIMEXE
 40
3.0
  9
$DIMTP
 40
0.0
  9
$DIMTM
 40
0.0
  9
$DIMTXT
 40
5.0
  9
$DIMCEN
 40
2.5
  9
$DIMTSZ
 40
0.0
  9
$DIMTOL
 70
     0
  9
$DIMLIM
 70
     0
  9
$DIMTIH
 70
     0
  9
$DIMTOH
 70
     0
  9
$DIMSE1
 70
     0
  9
$DIMSE2
 70
     0
  9
$DIMTAD
 70
     1
  9
$DIMZIN
 70
     8
  9
$DIMBLK
  1
Closed
  9
$DIMASO
 70
     1
  9
$DIMSHO
 70
     1
  9
$DIMPOST
  1

  9
$DIMAPOST
  1

  9
$DIMALT
 70
     0
  9
$DIMALTD
 70
     3
  9
$DIMALTF
 40
0.03937007874016
  9
$DIMLFAC
 40
1.0
  9
$DIMTOFL
 70
     1
  9
$DIMTVP
 40
0.0
  9
$DIMTIX
 70
     0
  9
$DIMSOXD
 70
     0
  9
$DIMSAH
 70
     0
  9
$DIMBLK1
  1

  9
$DIMBLK2
  1

  9
$DIMSTYLE
  2
sunpo
  9
$DIMCLRD
 70
     0
  9
$DIMCLRE
 70
     0
  9
$DIMCLRT
 70
     0
  9
$DIMTFAC
 40
1.0
  9
$DIMGAP
 40
1.0
  9
$DIMJUST
 70
     0
  9
$DIMSD1
 70
     0
  9
$DIMSD2
 70
     0
  9
$DIMTOLJ
 70
     0
  9
$DIMTZIN
 70
     8
  9
$DIMALTZ
 70
     0
  9
$DIMALTTZ
 70
     0
  9
$DIMUPT
 70
     0
  9
$DIMDEC
 70
     2
  9
$DIMTDEC
 70
     2
  9
$DIMALTU
 70
     2
  9
$DIMALTTD
 70
     3
  9
$DIMTXSTY
  7
OKANO
  9
$DIMAUNIT
 70
     0
  9
$DIMADEC
 70
     0
  9
$DIMALTRND
 40
0.0
  9
$DIMAZIN
 70
     0
  9
$DIMDSEP
 70
    46
  9
$DIMATFIT
 70
     3
  9
$DIMFRAC
 70
     0
  9
$DIMLDRBLK
  1
Closed
  9
$DIMLUNIT
 70
     2
  9
$DIMLWD
 70
    -2
  9
$DIMLWE
 70
    -2
  9
$DIMTMOVE
 70
     0
  9
$LUNITS
 70
     2
  9
$LUPREC
 70
     2
  9
$SKETCHINC
 40
1.0
  9
$FILLETRAD
 40
0.5
  9
$AUNITS
 70
     0
  9
$AUPREC
 70
     0
  9
$MENU
  1
.
  9
$ELEVATION
 40
0.0
  9
$PELEVATION
 40
0.0
  9
$THICKNESS
 40
0.0
  9
$LIMCHECK
 70
     0
  9
$CHAMFERA
 40
10.0
  9
$CHAMFERB
 40
10.0
  9
$CHAMFERC
 40
20.0
  9
$CHAMFERD
 40
0.0
  9
$SKPOLY
 70
     0
  9
$TDCREATE
 40
2452362.482225463
  9
$TDUCREATE
 40
2452362.107225463
  9
$TDUPDATE
 40
2455964.415289410
  9
$TDUUPDATE
 40
2455964.040289410
  9
$TDINDWG
 40
2.1344414583
  9
$TDUSRTIMER
 40
2.1344414583
  9
$USRTIMER
 70
     1
  9
$ANGBASE
 50
0.0
  9
$ANGDIR
 70
     0
  9
$PDMODE
 70
     0
  9
$PDSIZE
 40
0.0
  9
$PLINEWID
 40
0.0
  9
$SPLFRAME
 70
     0
  9
$SPLINETYPE
 70
     6
  9
$SPLINESEGS
 70
     8
  9
$HANDSEED
  5
34A5
  9
$SURFTAB1
 70
     6
  9
$SURFTAB2
 70
     6
  9
$SURFTYPE
 70
     6
  9
$SURFU
 70
     6
  9
$SURFV
 70
     6
  9
$UCSBASE
  2

  9
$UCSNAME
  2

  9
$UCSORG
 10
0.0
 20
0.0
 30
0.0
  9
$UCSXDIR
 10
1.0
 20
0.0
 30
0.0
  9
$UCSYDIR
 10
0.0
 20
1.0
 30
0.0
  9
$UCSORTHOREF
  2

  9
$UCSORTHOVIEW
 70
     0
  9
$UCSORGTOP
 10
0.0
 20
0.0
 30
0.0
  9
$UCSORGBOTTOM
 10
0.0
 20
0.0
 30
0.0
  9
$UCSORGLEFT
 10
0.0
 20
0.0
 30
0.0
  9
$UCSORGRIGHT
 10
0.0
 20
0.0
 30
0.0
  9
$UCSORGFRONT
 10
0.0
 20
0.0
 30
0.0
  9
$UCSORGBACK
 10
0.0
 20
0.0
 30
0.0
  9
$PUCSBASE
  2

  9
$PUCSNAME
  2

  9
$PUCSORG
 10
0.0
 20
0.0
 30
0.0
  9
$PUCSXDIR
 10
1.0
 20
0.0
 30
0.0
  9
$PUCSYDIR
 10
0.0
 20
1.0
 30
0.0
  9
$PUCSORTHOREF
  2

  9
$PUCSORTHOVIEW
 70
     0
  9
$PUCSORGTOP
 10
0.0
 20
0.0
 30
0.0
  9
$PUCSORGBOTTOM
 10
0.0
 20
0.0
 30
0.0
  9
$PUCSORGLEFT
 10
0.0
 20
0.0
 30
0.0
  9
$PUCSORGRIGHT
 10
0.0
 20
0.0
 30
0.0
  9
$PUCSORGFRONT
 10
0.0
 20
0.0
 30
0.0
  9
$PUCSORGBACK
 10
0.0
 20
0.0
 30
0.0
  9
$USERI1
 70
     0
  9
$USERI2
 70
     0
  9
$USERI3
 70
     0
  9
$USERI4
 70
     0
  9
$USERI5
 70
     0
  9
$USERR1
 40
0.0
  9
$USERR2
 40
0.0
  9
$USERR3
 40
0.0
  9
$USERR4
 40
0.0
  9
$USERR5
 40
0.0
  9
$WORLDVIEW
 70
     1
  9
$SHADEDGE
 70
     3
  9
$SHADEDIF
 70
    70
  9
$TILEMODE
 70
     0
  9
$MAXACTVP
 70
    64
  9
$PINSBASE
 10
0.0
 20
0.0
 30
0.0
  9
$PLIMCHECK
 70
     0
  9
$PEXTMIN
 10
-4.391850629656119
 20
-3.455038652015446
 30
0.0
  9
$PEXTMAX
 10
278.8458837249377
 20
202.387980773708
 30
0.0
  9
$PLIMMIN
 10
-3.757080078125
 20
-3.757083177566528
  9
$PLIMMAX
 10
293.2112426757812
 20
206.2162444591522
  9
$UNITMODE
 70
     0
  9
$VISRETAIN
 70
     1
  9
$PLINEGEN
 70
     0
  9
$PSLTSCALE
 70
     1
  9
$TREEDEPTH
 70
  3020
  9
$CMLSTYLE
  2
Standard
  9
$CMLJUST
 70
     0
  9
$CMLSCALE
 40
20.0
  9
$PROXYGRAPHICS
 70
     1
  9
$MEASUREMENT
 70
     1
  9
$CELWEIGHT
370
    -1
  9
$ENDCAPS
280
     0
  9
$JOINSTYLE
280
     0
  9
$LWDISPLAY
290
     0
  9
$INSUNITS
 70
     4
  9
$HYPERLINKBASE
  1

  9
$STYLESHEET
  1

  9
$XEDIT
290
     1
  9
$CEPSNTYPE
380
     0
  9
$PSTYLEMODE
290
     1
  9
$FINGERPRINTGUID
  2
{FF7F33C3-4233-11D6-AEE0-0000F45FD7F4}
  9
$VERSIONGUID
  2
{F02161F3-FEFF-4E0F-94E2-A66188B92903}
  9
$EXTNAMES
290
     1
  9
$PSVPSCALE
 40
0.0
  9
$OLESTARTUP
290
     0
  0
ENDSEC
  0
SECTION
  2
CLASSES
  0
CLASS
  1
ACDBDICTIONARYWDFLT
  2
AcDbDictionaryWithDefault
  3
AutoCAD 2000
 90
        0
280
     0
281
     0
  0
CLASS
  1
ACDBPLACEHOLDER
  2
AcDbPlaceHolder
  3
AutoCAD 2000
 90
        0
280
     0
281
     0
  0
CLASS
  1
LAYOUT
  2
AcDbLayout
  3
AutoCAD 2000
 90
        0
280
     0
281
     0
  0
CLASS
  1
DICTIONARYVAR
  2
AcDbDictionaryVar
  3
AutoCAD 2000
 90
        0
280
     0
281
     0
  0
ENDSEC
  0
SECTION
  2
TABLES
  0
TABLE
  2
VPORT
  5
8
330
0
100
AcDbSymbolTable
 70
     2
  0
VPORT
  5
34A4
330
8
100
AcDbSymbolTableRecord
100
AcDbViewportTableRecord
  2
*Active
 70
     0
 10
0.0
 20
0.0
 11
1.0
 21
1.0
 12
78.87006967951015
 22
390.6967439587441
 13
0.0
 23
0.0
 14
5.0
 24
5.0
 15
10.0
 25
10.0
 16
0.0
 26
0.0
 36
1.0
 17
0.0
 27
0.0
 37
0.0
 40
527.1778073075288
 41
1.968879668049792
 42
50.0
 43
0.0
 44
0.0
 50
0.0
 51
0.0
 71
     0
 72
   100
 73
     1
 74
     3
 75
     0
 76
     0
 77
     0
 78
     0
281
     0
 65
     1
110
0.0
120
0.0
130
0.0
111
1.0
121
0.0
131
0.0
112
0.0
122
1.0
132
0.0
 79
     0
146
0.0
  0
ENDTAB
  0
TABLE
  2
LTYPE
  5
5
330
0
100
AcDbSymbolTable
 70
     5
  0
LTYPE
  5
14
330
5
100
AcDbSymbolTableRecord
100
AcDbLinetypeTableRecord
  2
ByBlock
 70
     0
  3

 72
    65
 73
     0
 40
0.0
  0
LTYPE
  5
15
330
5
100
AcDbSymbolTableRecord
100
AcDbLinetypeTableRecord
  2
ByLayer
 70
     0
  3

 72
    65
 73
     0
 40
0.0
  0
LTYPE
  5
16
330
5
100
AcDbSymbolTableRecord
100
AcDbLinetypeTableRecord
  2
Continuous
 70
     0
  3
Solid line
 72
    65
 73
     0
 40
0.0
  0
LTYPE
  5
33
330
5
100
AcDbSymbolTableRecord
100
AcDbLinetypeTableRecord
  2
DASHED2
 70
     0
  3
Dashed (.5x) _ _ _ _ _ _ _ _ _ _ _ _ _ _ _ _ _
 72
    65
 73
     2
 40
9.524999999999998
 49
6.349999999999999
 74
     0
 49
-3.174999999999999
 74
     0
  0
LTYPE
  5
34
330
5
100
AcDbSymbolTableRecord
100
AcDbLinetypeTableRecord
  2
CENTER2
 70
     0
  3
Center (.5x) ___ _ ___ _ ___ _ ___ _ ___ _ ___
 72
    65
 73
     4
 40
28.57499999999999
 49
19.05
 74
     0
 49
-3.174999999999999
 74
     0
 49
3.174999999999999
 74
     0
 49
-3.174999999999999
 74
     0
  0
LTYPE
  5
35
330
5
100
AcDbSymbolTableRecord
100
AcDbLinetypeTableRecord
  2
PHANTOM2
 70
     0
  3
Phantom (.5x) ___ _ _ ___ _ _ ___ _ _ ___ _ _
 72
    65
 73
     6
 40
31.75
 49
15.875
 74
     0
 49
-3.174999999999999
 74
     0
 49
3.174999999999999
 74
     0
 49
-3.174999999999999
 74
     0
 49
3.174999999999999
 74
     0
 49
-3.174999999999999
 74
     0
  0
LTYPE
  5
36
330
5
100
AcDbSymbolTableRecord
100
AcDbLinetypeTableRecord
  2
HIDDEN2
 70
     0
  3
Hidden (.5x) _ _ _ _ _ _ _ _ _ _ _ _ _ _ _ _ _
 72
    65
 73
     2
 40
4.762499999999999
 49
3.174999999999999
 74
     0
 49
-1.587499999999999
 74
     0
  0
ENDTAB
  0
TABLE
  2
LAYER
  5
2
330
0
100
AcDbSymbolTable
 70
    13
  0
LAYER
  5
10
330
2
100
AcDbSymbolTableRecord
100
AcDbLayerTableRecord
  2
0
 70
     0
 62
     7
  6
Continuous
370
    -3
390
F
  0
LAYER
  5
40
330
2
100
AcDbSymbolTableRecord
100
AcDbLayerTableRecord
  2
50-0-CON
 70
     0
 62
     4
  6
Continuous
370
    50
390
F
  0
LAYER
  5
41
330
2
100
AcDbSymbolTableRecord
100
AcDbLayerTableRecord
  2
70-0-CON
 70
     0
 62
   202
  6
Continuous
370
    70
390
F
  0
LAYER
  5
4E
330
2
100
AcDbSymbolTableRecord
100
AcDbLayerTableRecord
  2
極太線
 70
     0
 62
     7
  6
Continuous
370
    70
390
F
  0
LAYER
  5
4F
330
2
100
AcDbSymbolTableRecord
100
AcDbLayerTableRecord
  2
細線
 70
     0
 62
     8
  6
Continuous
370
    18
390
F
  0
LAYER
  5
AB
330
2
100
AcDbSymbolTableRecord
100
AcDbLayerTableRecord
  2
構築線
 70
     0
 62
    -2
  6
Continuous
370
    18
390
F
  0
LAYER
  5
B8
330
2
100
AcDbSymbolTableRecord
100
AcDbLayerTableRecord
  2
太線
 70
     0
 62
     7
  6
Continuous
370
    35
390
F
  0
LAYER
  5
B9
330
2
100
AcDbSymbolTableRecord
100
AcDbLayerTableRecord
  2
寸法線
 70
     0
 62
     5
  6
Continuous
370
    18
390
F
  0
LAYER
  5
BA
330
2
100
AcDbSymbolTableRecord
100
AcDbLayerTableRecord
  2
破線
 70
     0
 62
     8
  6
HIDDEN2
370
    18
390
F
  0
LAYER
  5
BB
330
2
100
AcDbSymbolTableRecord
100
AcDbLayerTableRecord
  2
中心線
 70
     0
 62
     1
  6
CENTER2
370
    18
390
F
  0
LAYER
  5
BC
330
2
100
AcDbSymbolTableRecord
100
AcDbLayerTableRecord
  2
想像線
 70
     0
 62
     8
  6
PHANTOM2
370
    18
390
F
  0
LAYER
  5
BD
330
2
100
AcDbSymbolTableRecord
100
AcDbLayerTableRecord
  2
文字
 70
     0
 62
     7
  6
Continuous
370
    18
390
F
  0
LAYER
  5
180
330
2
100
AcDbSymbolTableRecord
100
AcDbLayerTableRecord
  2
Defpoints
 70
     0
 62
     7
  6
Continuous
290
     0
370
    -3
390
F
  0
ENDTAB
  0
TABLE
  2
STYLE
  5
3
330
0
100
AcDbSymbolTable
 70
     3
  0
STYLE
  5
11
330
3
100
AcDbSymbolTableRecord
100
AcDbTextStyleTableRecord
  2
Standard
 70
     0
 40
0.0
 41
1.0
 50
0.0
 71
     0
 42
3.0
  3
txt
  4

  0
STYLE
  5
32
330
3
100
AcDbSymbolTableRecord
100
AcDbTextStyleTableRecord
  2

 70
     1
 40
0.0
 41
1.0
 50
0.0
 71
     0
 42
2.5
  3
ltypeshp.shx
  4

  0
STYLE
  5
50
330
3
100
AcDbSymbolTableRecord
100
AcDbTextStyleTableRecord
  2
OKANO
 70
     0
 40
0.0
 41
1.0
 50
15.0
 71
     0
 42
5.0
  3
isocp.shx
  4
bigfont.shx
  0
ENDTAB
  0
TABLE
  2
VIEW
  5
6
330
0
100
AcDbSymbolTable
 70
     0
  0
ENDTAB
  0
TABLE
  2
UCS
  5
7
330
0
100
AcDbSymbolTable
 70
     0
  0
ENDTAB
  0
TABLE
  2
APPID
  5
9
330
0
100
AcDbSymbolTable
 70
     1
  0
APPID
  5
12
330
9
100
AcDbSymbolTableRecord
100
AcDbRegAppTableRecord
  2
ACAD
 70
     0
  0
ENDTAB
  0
TABLE
  2
DIMSTYLE
  5
A
330
0
100
AcDbSymbolTable
 70
     2
100
AcDbDimStyleTable
 71
     2
340
A2
340
27
  0
DIMSTYLE
105
27
330
A
100
AcDbSymbolTableRecord
100
AcDbDimStyleTableRecord
  2
ISO-25
 70
     0
 41
2.5
 42
0.625
 43
3.75
 44
1.25
 73
     0
 74
     0
 77
     1
 78
     8
140
2.5
141
2.5
143
0.03937007874016
147
0.625
171
     3
172
     1
271
     2
272
     2
274
     3
283
     0
284
     8
340
11
  0
DIMSTYLE
105
A2
102
{ACAD_REACTORS
330
2B0D
330
2B29
330
2C0C
330
2C1B
330
2C28
330
2C56
330
2CBF
330
2D49
330
2D5F
330
2DA6
330
2DBC
330
2DC9
330
2DD8
330
2DE5
330
2E2D
330
2F1C
330
2F1D
330
2F1E
330
2F2A
330
2F34
330
2F35
330
2F3A
330
2F3C
330
2F3D
330
32A1
330
32AE
102
}
330
A
100
AcDbSymbolTableRecord
100
AcDbDimStyleTableRecord
  2
sunpo
 70
     0
 40
0.0
 41
3.0
 42
2.0
 43
8.0
 44
3.0
 73
     0
 74
     0
 77
     1
 78
     8
140
5.0
141
2.5
143
0.03937007874016
147
1.0
171
     3
172
     1
271
     2
272
     2
274
     3
283
     0
284
     8
340
50
341
9B
342
9B
  0
ENDTAB
  0
TABLE
  2
BLOCK_RECORD
  5
1
330
0
100
AcDbSymbolTable
 70
    28
  0
BLOCK_RECORD
  5
1F
330
1
100
AcDbSymbolTableRecord
100
AcDbBlockTableRecord
  2
*Model_Space
340
22
  0
BLOCK_RECORD
  5
1B
330
1
100
AcDbSymbolTableRecord
100
AcDbBlockTableRecord
  2
*Paper_Space
340
1E
  0
BLOCK_RECORD
  5
9B
330
1
100
AcDbSymbolTableRecord
100
AcDbBlockTableRecord
  2
_Closed
340
0
102
{BLKREFS
331
30E1
331
30E2
331
30E9
331
30EA
331
30F3
331
30F4
331
30FE
331
30FF
331
3107
331
3108
331
3110
331
3111
331
3119
331
311A
331
3122
331
3123
331
312B
331
312C
331
3189
331
318A
331
3194
331
3195
331
3219
331
321A
331
3222
331
3223
331
322B
331
322C
331
3234
331
3235
331
323F
331
3240
331
3249
331
324A
331
3252
331
3253
331
325B
331
325C
331
3266
331
3267
331
326F
331
3270
331
327A
331
327B
331
3283
331
3284
331
328C
331
328D
331
32C2
331
32C3
331
32CB
331
32CC
331
3309
331
330A
331
3312
331
3313
331
331D
331
331E
331
3328
331
3329
331
342B
331
342C
331
3434
331
3435
331
343F
331
3440
331
3448
331
3449
331
3451
331
3452
331
345C
331
345D
331
3465
331
3466
331
346E
331
346F
331
3479
331
347A
331
3482
331
3483
331
348C
331
348D
331
3495
331
3496
331
349E
331
349F
102
}
  0
BLOCK_RECORD
  5
1510
330
1
100
AcDbSymbolTableRecord
100
AcDbBlockTableRecord
  2
A$C10A573AC
340
0
  0
BLOCK_RECORD
  5
2B0E
330
1
100
AcDbSymbolTableRecord
100
AcDbBlockTableRecord
  2
*D2
340
0
  0
BLOCK_RECORD
  5
2B2A
330
1
100
AcDbSymbolTableRecord
100
AcDbBlockTableRecord
  2
*D3
340
0
  0
BLOCK_RECORD
  5
2C0D
330
1
100
AcDbSymbolTableRecord
100
AcDbBlockTableRecord
  2
*D4
340
0
  0
BLOCK_RECORD
  5
2C1C
330
1
100
AcDbSymbolTableRecord
100
AcDbBlockTableRecord
  2
*D5
340
0
  0
BLOCK_RECORD
  5
2C29
330
1
100
AcDbSymbolTableRecord
100
AcDbBlockTableRecord
  2
*D6
340
0
  0
BLOCK_RECORD
  5
2C57
330
1
100
AcDbSymbolTableRecord
100
AcDbBlockTableRecord
  2
*D7
340
0
  0
BLOCK_RECORD
  5
2CC0
330
1
100
AcDbSymbolTableRecord
100
AcDbBlockTableRecord
  2
*D8
340
0
  0
BLOCK_RECORD
  5
2D4A
330
1
100
AcDbSymbolTableRecord
100
AcDbBlockTableRecord
  2
*D9
340
0
  0
BLOCK_RECORD
  5
2D60
330
1
100
AcDbSymbolTableRecord
100
AcDbBlockTableRecord
  2
*D10
340
0
  0
BLOCK_RECORD
  5
2DA7
330
1
100
AcDbSymbolTableRecord
100
AcDbBlockTableRecord
  2
*D11
340
0
  0
BLOCK_RECORD
  5
2DBD
330
1
100
AcDbSymbolTableRecord
100
AcDbBlockTableRecord
  2
*D12
340
0
  0
BLOCK_RECORD
  5
2DCA
330
1
100
AcDbSymbolTableRecord
100
AcDbBlockTableRecord
  2
*D13
340
0
  0
BLOCK_RECORD
  5
2DD9
330
1
100
AcDbSymbolTableRecord
100
AcDbBlockTableRecord
  2
*D14
340
0
  0
BLOCK_RECORD
  5
2DE6
330
1
100
AcDbSymbolTableRecord
100
AcDbBlockTableRecord
  2
*D15
340
0
  0
BLOCK_RECORD
  5
2E2E
330
1
100
AcDbSymbolTableRecord
100
AcDbBlockTableRecord
  2
*D16
340
0
  0
BLOCK_RECORD
  5
2F43
330
1
100
AcDbSymbolTableRecord
100
AcDbBlockTableRecord
  2
*D17
340
0
  0
BLOCK_RECORD
  5
2F50
330
1
100
AcDbSymbolTableRecord
100
AcDbBlockTableRecord
  2
*D18
340
0
  0
BLOCK_RECORD
  5
2F5D
330
1
100
AcDbSymbolTableRecord
100
AcDbBlockTableRecord
  2
*D19
340
0
  0
BLOCK_RECORD
  5
2F69
330
1
100
AcDbSymbolTableRecord
100
AcDbBlockTableRecord
  2
*D20
340
0
  0
BLOCK_RECORD
  5
2F77
330
1
100
AcDbSymbolTableRecord
100
AcDbBlockTableRecord
  2
*D21
340
0
  0
BLOCK_RECORD
  5
2F83
330
1
100
AcDbSymbolTableRecord
100
AcDbBlockTableRecord
  2
*D22
340
0
  0
BLOCK_RECORD
  5
2F8F
330
1
100
AcDbSymbolTableRecord
100
AcDbBlockTableRecord
  2
*D23
340
0
  0
BLOCK_RECORD
  5
2F9B
330
1
100
AcDbSymbolTableRecord
100
AcDbBlockTableRecord
  2
*D24
340
0
  0
BLOCK_RECORD
  5
2FA7
330
1
100
AcDbSymbolTableRecord
100
AcDbBlockTableRecord
  2
*D25
340
0
  0
BLOCK_RECORD
  5
32A2
330
1
100
AcDbSymbolTableRecord
100
AcDbBlockTableRecord
  2
*D26
340
0
  0
BLOCK_RECORD
  5
32AF
330
1
100
AcDbSymbolTableRecord
100
AcDbBlockTableRecord
  2
*D27
340
0
  0
ENDTAB
  0
ENDSEC
  0
SECTION
  2
BLOCKS
  0
BLOCK
  5
20
330
1F
100
AcDbEntity
  8
0
100
AcDbBlockBegin
  2
*Model_Space
 70
     0
 10
0.0
 20
0.0
 30
0.0
  3
*Model_Space
  1

  0
ENDBLK
  5
21
330
1F
100
AcDbEntity
  8
0
100
AcDbBlockEnd
  0
BLOCK
  5
1C
330
1B
100
AcDbEntity
 67
     1
  8
0
100
AcDbBlockBegin
  2
*Paper_Space
 70
     0
 10
0.0
 20
0.0
 30
0.0
  3
*Paper_Space
  1

  0
ENDBLK
  5
1D
330
1B
100
AcDbEntity
 67
     1
  8
0
100
AcDbBlockEnd
  0
BLOCK
  5
A0
330
9B
100
AcDbEntity
  8
0
100
AcDbBlockBegin
  2
_Closed
 70
     0
 10
0.0
 20
0.0
 30
0.0
  3
_Closed
  1

  0
LINE
  5
9C
330
9B
100
AcDbEntity
  8
0
 62
     0
370
    -2
100
AcDbLine
 10
-1.0
 20
0.1666666666666666
 30
0.0
 11
0.0
 21
0.0
 31
0.0
  0
LINE
  5
9D
330
9B
100
AcDbEntity
  8
0
 62
     0
370
    -2
100
AcDbLine
 10
0.0
 20
0.0
 30
0.0
 11
-1.0
 21
-0.1666666666666666
 31
0.0
  0
LINE
  5
9E
330
9B
100
AcDbEntity
  8
0
 62
     0
370
    -2
100
AcDbLine
 10
-1.0
 20
0.1666666666666666
 30
0.0
 11
-1.0
 21
-0.1666666666666666
 31
0.0
  0
LINE
  5
9F
330
9B
100
AcDbEntity
  8
0
 62
     0
370
    -2
100
AcDbLine
 10
0.0
 20
0.0
 30
0.0
 11
-1.0
 21
0.0
 31
0.0
  0
ENDBLK
  5
A1
330
9B
100
AcDbEntity
  8
0
100
AcDbBlockEnd
  0
BLOCK
  5
155B
330
1510
100
AcDbEntity
  8
0
100
AcDbBlockBegin
  2
A$C10A573AC
 70
     0
 10
0.0
 20
0.0
 30
0.0
  3
A$C10A573AC
  1

  0
TEXT
  5
1511
330
1510
100
AcDbEntity
  8
文字
100
AcDbText
 10
0.9844302777919438
 20
5.224957122252135
 30
0.0
 40
3.0
  1
Materal : Steel.
 51
15.0
  7
OKANO
100
AcDbText
  0
TEXT
  5
1512
330
1510
100
AcDbEntity
  8
文字
100
AcDbText
 10
-0.1141909619694843
 20
0.7500001922403499
 30
0.0
 40
3.0
  1
Surface treatment : Electro galvanized.
 51
15.0
  7
OKANO
100
AcDbText
  0
TEXT
  5
1513
330
1510
100
AcDbEntity
  8
文字
100
AcDbText
 10
-0.4901926332574931
 20
9.159967445193728
 30
0.0
 40
3.0
  1
5 TORGUE SCREW  M5-6
 51
15.0
  7
OKANO
100
AcDbText
  0
TEXT
  5
1514
330
1510
100
AcDbEntity
  8
文字
100
AcDbText
 10
1.364713526390005
 20
78.88822913323082
 30
0.0
 40
3.0
  1
Special standard,
 51
15.0
  7
OKANO
100
AcDbText
  0
TEXT
  5
1515
330
1510
100
AcDbEntity
  8
文字
100
AcDbText
 10
92.88160823408942
 20
89.92753849837379
 30
0.0
 40
3.0
  1
Screw Type
 51
15.0
  7
OKANO
100
AcDbText
  0
LINE
  5
1516
330
1510
100
AcDbEntity
  8
太線
100
AcDbLine
 10
113.9464587597784
 20
81.93930390144641
 30
0.0
 11
112.4464587597784
 21
81.93930390144641
 31
0.0
  0
LINE
  5
1517
330
1510
100
AcDbEntity
  8
太線
100
AcDbLine
 10
112.4464587597784
 20
76.9393039014464
 30
0.0
 11
121.4644995438761
 21
76.9393039014464
 31
0.0
  0
TEXT
  5
1518
330
1510
100
AcDbEntity
  8
文字
100
AcDbText
 10
93.46068240437217
 20
77.96976862235396
 30
0.0
 40
2.0
  1
17-30
 51
15.0
  7
OKANO
100
AcDbText
  0
LINE
  5
1519
330
1510
100
AcDbEntity
  8
太線
100
AcDbLine
 10
111.9464587597784
 20
81.43930390144641
 30
0.0
 11
111.9464587597784
 21
77.4393039014464
 31
0.0
  0
LINE
  5
151A
330
1510
100
AcDbEntity
  8
太線
100
AcDbLine
 10
91.94645875977846
 20
81.43930390144641
 30
0.0
 11
91.94645875977846
 21
77.43930390144639
 31
0.0
  0
LINE
  5
151B
330
1510
100
AcDbEntity
  8
太線
100
AcDbLine
 10
101.9644995438761
 20
77.4393039014464
 30
0.0
 11
101.9644995438761
 21
81.43930390144641
 31
0.0
  0
LINE
  5
151C
330
1510
100
AcDbEntity
  8
太線
100
AcDbLine
 10
92.44645875977846
 20
76.9393039014464
 30
0.0
 11
101.4644995438761
 21
76.9393039014464
 31
0.0
  0
ARC
  5
151D
330
1510
100
AcDbEntity
  8
太線
100
AcDbCircle
 10
92.44645875977846
 20
77.43930390144639
 30
0.0
 40
0.5
100
AcDbArc
 50
180.0
 51
270.0
  0
ARC
  5
151E
330
1510
100
AcDbEntity
  8
太線
100
AcDbCircle
 10
101.4644995438761
 20
77.4393039014464
 30
0.0
 40
0.5
100
AcDbArc
 50
270.0
 51
0.0
  0
ARC
  5
151F
330
1510
100
AcDbEntity
  8
太線
100
AcDbCircle
 10
112.4464587597784
 20
77.4393039014464
 30
0.0
 40
0.5
100
AcDbArc
 50
180.0
 51
270.0
  0
LINE
  5
1520
330
1510
100
AcDbEntity
  8
想像線
100
AcDbLine
 10
93.94645875977847
 20
81.93930390144641
 30
0.0
 11
99.96449954387617
 21
81.93930390144641
 31
0.0
  0
LINE
  5
1521
330
1510
100
AcDbEntity
  8
極太線
100
AcDbLine
 10
96.38762957111168
 20
85.43930390144641
 30
0.0
 11
97.50528794844525
 21
85.43930390144641
 31
0.0
  0
CIRCLE
  5
1522
330
1510
100
AcDbEntity
  8
太線
100
AcDbCircle
 10
96.94645875977847
 20
85.43930390144641
 30
0.0
 40
0.5588291886667776
  0
LINE
  5
1523
330
1510
100
AcDbEntity
  8
太線
100
AcDbLine
 10
99.46449954387617
 20
86.93930390144641
 30
0.0
 11
94.44645875977846
 21
86.93930390144641
 31
0.0
  0
LINE
  5
1524
330
1510
100
AcDbEntity
  8
太線
100
AcDbLine
 10
93.94645875977847
 20
86.43930390144641
 30
0.0
 11
93.94645875977847
 21
81.93930390144641
 31
0.0
  0
ARC
  5
1525
330
1510
100
AcDbEntity
  8
太線
100
AcDbCircle
 10
92.44645875977846
 20
81.43930390144641
 30
0.0
 40
0.5
100
AcDbArc
 50
90.0
 51
180.0
  0
LINE
  5
1526
330
1510
100
AcDbEntity
  8
太線
100
AcDbLine
 10
93.94645875977847
 20
81.93930390144641
 30
0.0
 11
92.44645875977846
 21
81.93930390144641
 31
0.0
  0
ARC
  5
1527
330
1510
100
AcDbEntity
  8
太線
100
AcDbCircle
 10
94.44645875977846
 20
86.43930390144641
 30
0.0
 40
0.5
100
AcDbArc
 50
90.0
 51
180.0
  0
LINE
  5
1528
330
1510
100
AcDbEntity
  8
太線
100
AcDbLine
 10
99.96449954387617
 20
81.93930390144641
 30
0.0
 11
99.96449954387617
 21
86.43930390144641
 31
0.0
  0
LINE
  5
1529
330
1510
100
AcDbEntity
  8
太線
100
AcDbLine
 10
101.4644995438761
 20
81.93930390144641
 30
0.0
 11
99.96449954387617
 21
81.93930390144641
 31
0.0
  0
ARC
  5
152A
330
1510
100
AcDbEntity
  8
太線
100
AcDbCircle
 10
101.4644995438761
 20
81.43930390144641
 30
0.0
 40
0.5
100
AcDbArc
 50
0.0
 51
90.0
  0
ARC
  5
152B
330
1510
100
AcDbEntity
  8
太線
100
AcDbCircle
 10
99.46449954387617
 20
86.43930390144641
 30
0.0
 40
0.5
100
AcDbArc
 50
0.0
 51
90.0
  0
LINE
  5
152C
330
1510
100
AcDbEntity
  8
極太線
100
AcDbLine
 10
96.94645875977847
 20
85.99813309011318
 30
0.0
 11
96.94645875977847
 21
84.88047471277964
 31
0.0
  0
ARC
  5
152D
330
1510
100
AcDbEntity
  8
太線
100
AcDbCircle
 10
112.4464587597784
 20
81.43930390144641
 30
0.0
 40
0.5
100
AcDbArc
 50
90.0
 51
180.0
  0
TEXT
  5
152E
330
1510
100
AcDbEntity
  8
文字
100
AcDbText
 10
134.3819212586066
 20
78.16263579228063
 30
0.0
 40
2.0
  1
101
 51
15.0
  7
OKANO
100
AcDbText
  0
TEXT
  5
152F
330
1510
100
AcDbEntity
  8
文字
100
AcDbText
 10
113.3422276612066
 20
77.96976862235396
 30
0.0
 40
2.0
  1
38-83
 51
15.0
  7
OKANO
100
AcDbText
  0
LINE
  5
1530
330
1510
100
AcDbEntity
  8
太線
100
AcDbLine
 10
141.9825403279738
 20
77.4393039014464
 30
0.0
 11
141.9825403279738
 21
81.43930390144641
 31
0.0
  0
LINE
  5
1531
330
1510
100
AcDbEntity
  8
太線
100
AcDbLine
 10
131.9644995438761
 20
81.43930390144641
 30
0.0
 11
131.9644995438761
 21
77.4393039014464
 31
0.0
  0
LINE
  5
1532
330
1510
100
AcDbEntity
  8
太線
100
AcDbLine
 10
121.9644995438761
 20
77.4393039014464
 30
0.0
 11
121.9644995438761
 21
81.43930390144641
 31
0.0
  0
ARC
  5
1533
330
1510
100
AcDbEntity
  8
太線
100
AcDbCircle
 10
121.4644995438761
 20
77.4393039014464
 30
0.0
 40
0.5
100
AcDbArc
 50
270.0
 51
0.0
  0
LINE
  5
1534
330
1510
100
AcDbEntity
  8
太線
100
AcDbLine
 10
132.4644995438761
 20
76.9393039014464
 30
0.0
 11
141.4825403279738
 21
76.9393039014464
 31
0.0
  0
ARC
  5
1535
330
1510
100
AcDbEntity
  8
太線
100
AcDbCircle
 10
132.4644995438761
 20
77.4393039014464
 30
0.0
 40
0.5
100
AcDbArc
 50
180.0
 51
270.0
  0
ARC
  5
1536
330
1510
100
AcDbEntity
  8
太線
100
AcDbCircle
 10
141.4825403279738
 20
77.4393039014464
 30
0.0
 40
0.5
100
AcDbArc
 50
270.0
 51
0.0
  0
ARC
  5
1537
330
1510
100
AcDbEntity
  8
太線
100
AcDbCircle
 10
121.4644995438761
 20
81.43930390144641
 30
0.0
 40
0.5
100
AcDbArc
 50
0.0
 51
90.0
  0
LINE
  5
1538
330
1510
100
AcDbEntity
  8
太線
100
AcDbLine
 10
119.9644995438761
 20
81.93930390144641
 30
0.0
 11
119.9644995438761
 21
86.43930390144641
 31
0.0
  0
LINE
  5
1539
330
1510
100
AcDbEntity
  8
太線
100
AcDbLine
 10
113.9464587597784
 20
86.43930390144641
 30
0.0
 11
113.9464587597784
 21
81.93930390144641
 31
0.0
  0
LINE
  5
153A
330
1510
100
AcDbEntity
  8
想像線
100
AcDbLine
 10
113.9464587597784
 20
81.93930390144641
 30
0.0
 11
119.9644995438761
 21
81.93930390144641
 31
0.0
  0
LINE
  5
153B
330
1510
100
AcDbEntity
  8
太線
100
AcDbLine
 10
121.4644995438761
 20
81.93930390144641
 30
0.0
 11
119.9644995438761
 21
81.93930390144641
 31
0.0
  0
LINE
  5
153C
330
1510
100
AcDbEntity
  8
太線
100
AcDbLine
 10
119.4644995438761
 20
86.93930390144641
 30
0.0
 11
114.4464587597784
 21
86.93930390144641
 31
0.0
  0
ARC
  5
153D
330
1510
100
AcDbEntity
  8
太線
100
AcDbCircle
 10
114.4464587597784
 20
86.43930390144641
 30
0.0
 40
0.5
100
AcDbArc
 50
90.0
 51
180.0
  0
CIRCLE
  5
153E
330
1510
100
AcDbEntity
  8
太線
100
AcDbCircle
 10
115.4464587597784
 20
85.43930390144641
 30
0.0
 40
0.5588291886667776
  0
LINE
  5
153F
330
1510
100
AcDbEntity
  8
極太線
100
AcDbLine
 10
115.4464587597784
 20
85.99813309011318
 30
0.0
 11
115.4464587597784
 21
84.88047471277964
 31
0.0
  0
LINE
  5
1540
330
1510
100
AcDbEntity
  8
極太線
100
AcDbLine
 10
114.8876295711116
 20
85.43930390144641
 30
0.0
 11
116.0052879484452
 21
85.43930390144641
 31
0.0
  0
ARC
  5
1541
330
1510
100
AcDbEntity
  8
太線
100
AcDbCircle
 10
119.4644995438761
 20
86.43930390144641
 30
0.0
 40
0.5
100
AcDbArc
 50
0.0
 51
90.0
  0
LINE
  5
1542
330
1510
100
AcDbEntity
  8
極太線
100
AcDbLine
 10
117.9056703552094
 20
85.43930390144641
 30
0.0
 11
119.0233287325429
 21
85.43930390144641
 31
0.0
  0
LINE
  5
1543
330
1510
100
AcDbEntity
  8
極太線
100
AcDbLine
 10
118.4644995438761
 20
85.99813309011318
 30
0.0
 11
118.4644995438761
 21
84.88047471277964
 31
0.0
  0
CIRCLE
  5
1544
330
1510
100
AcDbEntity
  8
太線
100
AcDbCircle
 10
118.4644995438761
 20
85.43930390144641
 30
0.0
 40
0.5588291886667776
  0
LINE
  5
1545
330
1510
100
AcDbEntity
  8
想像線
100
AcDbLine
 10
133.9644995438761
 20
81.93930390144641
 30
0.0
 11
139.9825403279738
 21
81.93930390144641
 31
0.0
  0
LINE
  5
1546
330
1510
100
AcDbEntity
  8
極太線
100
AcDbLine
 10
137.9237111393071
 20
85.43930390144641
 30
0.0
 11
139.0413695166406
 21
85.43930390144641
 31
0.0
  0
CIRCLE
  5
1547
330
1510
100
AcDbEntity
  8
太線
100
AcDbCircle
 10
138.4825403279738
 20
85.43930390144641
 30
0.0
 40
0.5588291886667776
  0
CIRCLE
  5
1548
330
1510
100
AcDbEntity
  8
太線
100
AcDbCircle
 10
138.4825403279738
 20
83.26342923362075
 30
0.0
 40
0.5588291886667776
  0
LINE
  5
1549
330
1510
100
AcDbEntity
  8
極太線
100
AcDbLine
 10
137.9237111393071
 20
83.26342923362075
 30
0.0
 11
139.0413695166406
 21
83.26342923362075
 31
0.0
  0
LINE
  5
154A
330
1510
100
AcDbEntity
  8
太線
100
AcDbLine
 10
139.4825403279738
 20
86.93930390144641
 30
0.0
 11
134.4644995438761
 21
86.93930390144641
 31
0.0
  0
LINE
  5
154B
330
1510
100
AcDbEntity
  8
太線
100
AcDbLine
 10
133.9644995438761
 20
86.43930390144641
 30
0.0
 11
133.9644995438761
 21
81.93930390144641
 31
0.0
  0
ARC
  5
154C
330
1510
100
AcDbEntity
  8
太線
100
AcDbCircle
 10
132.4644995438761
 20
81.43930390144641
 30
0.0
 40
0.5
100
AcDbArc
 50
90.0
 51
180.0
  0
LINE
  5
154D
330
1510
100
AcDbEntity
  8
太線
100
AcDbLine
 10
133.9644995438761
 20
81.93930390144641
 30
0.0
 11
132.4644995438761
 21
81.93930390144641
 31
0.0
  0
LINE
  5
154E
330
1510
100
AcDbEntity
  8
極太線
100
AcDbLine
 10
134.9056703552093
 20
83.26342923362075
 30
0.0
 11
136.0233287325429
 21
83.26342923362075
 31
0.0
  0
LINE
  5
154F
330
1510
100
AcDbEntity
  8
極太線
100
AcDbLine
 10
135.4644995438761
 20
83.82225842228752
 30
0.0
 11
135.4644995438761
 21
82.70460004495395
 31
0.0
  0
CIRCLE
  5
1550
330
1510
100
AcDbEntity
  8
太線
100
AcDbCircle
 10
135.4644995438761
 20
83.26342923362075
 30
0.0
 40
0.5588291886667776
  0
ARC
  5
1551
330
1510
100
AcDbEntity
  8
太線
100
AcDbCircle
 10
134.4644995438761
 20
86.43930390144641
 30
0.0
 40
0.5
100
AcDbArc
 50
90.0
 51
180.0
  0
CIRCLE
  5
1552
330
1510
100
AcDbEntity
  8
太線
100
AcDbCircle
 10
135.4644995438761
 20
85.43930390144641
 30
0.0
 40
0.5588291886667776
  0
LINE
  5
1553
330
1510
100
AcDbEntity
  8
極太線
100
AcDbLine
 10
135.4644995438761
 20
85.99813309011318
 30
0.0
 11
135.4644995438761
 21
84.88047471277964
 31
0.0
  0
LINE
  5
1554
330
1510
100
AcDbEntity
  8
極太線
100
AcDbLine
 10
134.9056703552093
 20
85.43930390144641
 30
0.0
 11
136.0233287325429
 21
85.43930390144641
 31
0.0
  0
LINE
  5
1555
330
1510
100
AcDbEntity
  8
太線
100
AcDbLine
 10
139.9825403279738
 20
81.93930390144641
 30
0.0
 11
139.9825403279738
 21
86.43930390144641
 31
0.0
  0
ARC
  5
1556
330
1510
100
AcDbEntity
  8
太線
100
AcDbCircle
 10
141.4825403279738
 20
81.43930390144641
 30
0.0
 40
0.5
100
AcDbArc
 50
0.0
 51
90.0
  0
LINE
  5
1557
330
1510
100
AcDbEntity
  8
極太線
100
AcDbLine
 10
138.4825403279738
 20
83.82225842228752
 30
0.0
 11
138.4825403279738
 21
82.70460004495395
 31
0.0
  0
LINE
  5
1558
330
1510
100
AcDbEntity
  8
太線
100
AcDbLine
 10
141.4825403279738
 20
81.93930390144641
 30
0.0
 11
139.9825403279738
 21
81.93930390144641
 31
0.0
  0
ARC
  5
1559
330
1510
100
AcDbEntity
  8
太線
100
AcDbCircle
 10
139.4825403279738
 20
86.43930390144641
 30
0.0
 40
0.5
100
AcDbArc
 50
0.0
 51
90.0
  0
LINE
  5
155A
330
1510
100
AcDbEntity
  8
極太線
100
AcDbLine
 10
138.4825403279738
 20
85.99813309011318
 30
0.0
 11
138.4825403279738
 21
84.88047471277964
 31
0.0
  0
ENDBLK
  5
155C
330
1510
100
AcDbEntity
  8
0
100
AcDbBlockEnd
  0
BLOCK
  5
2B18
330
2B0E
100
AcDbEntity
  8
0
100
AcDbBlockBegin
  2
*D2
 70
     1
 10
0.0
 20
0.0
 30
0.0
  3
*D2
  1

  0
LINE
  5
3445
330
2B0E
100
AcDbEntity
  8
寸法線
 62
     0
370
    -2
100
AcDbLine
 10
436.9744913262515
 20
288.8067574804456
 30
0.0
 11
445.5748596754077
 21
288.8067574804456
 31
0.0
  0
LINE
  5
3446
330
2B0E
100
AcDbEntity
  8
寸法線
 62
     0
370
    -2
100
AcDbLine
 10
426.9744913262514
 20
263.8067574804456
 30
0.0
 11
445.5748596754077
 21
263.8067574804456
 31
0.0
  0
LINE
  5
3447
330
2B0E
100
AcDbEntity
  8
寸法線
 62
     0
370
    -2
100
AcDbLine
 10
442.5748596754077
 20
285.8067574804456
 30
0.0
 11
442.5748596754077
 21
266.8067574804457
 31
0.0
  0
INSERT
  5
3448
330
2B0E
100
AcDbEntity
  8
寸法線
 62
     0
370
    -2
100
AcDbBlockReference
  2
_Closed
 10
442.5748596754077
 20
288.8067574804456
 30
0.0
 41
3.0
 42
3.0
 43
3.0
 50
90.0
  0
INSERT
  5
3449
330
2B0E
100
AcDbEntity
  8
寸法線
 62
     0
370
    -2
100
AcDbBlockReference
  2
_Closed
 10
442.5748596754077
 20
263.8067574804456
 30
0.0
 41
3.0
 42
3.0
 43
3.0
 50
270.0
  0
MTEXT
  5
344A
330
2B0E
100
AcDbEntity
  8
寸法線
 62
     0
100
AcDbMText
 10
439.0743675494234
 20
276.3067574804458
 30
0.0
 40
5.0
 41
0.0
 71
     5
 72
     1
  1
25
  7
OKANO
 11
0.0000000000000001
 21
1.0
 31
0.0
 73
     1
 44
1.0
  0
POINT
  5
344B
330
2B0E
100
AcDbEntity
  8
Defpoints
 62
     0
100
AcDbPoint
 10
434.9744913262514
 20
288.8067574804456
 30
0.0
  0
POINT
  5
344C
330
2B0E
100
AcDbEntity
  8
Defpoints
 62
     0
100
AcDbPoint
 10
424.9744913262515
 20
263.8067574804456
 30
0.0
  0
POINT
  5
344D
330
2B0E
100
AcDbEntity
  8
Defpoints
 62
     0
100
AcDbPoint
 10
442.5748596754077
 20
263.8067574804456
 30
0.0
  0
ENDBLK
  5
2B19
330
2B0E
100
AcDbEntity
  8
0
100
AcDbBlockEnd
  0
BLOCK
  5
2B33
330
2B2A
100
AcDbEntity
  8
0
100
AcDbBlockBegin
  2
*D3
 70
     1
 10
0.0
 20
0.0
 30
0.0
  3
*D3
  1

  0
LINE
  5
3488
330
2B2A
100
AcDbEntity
  8
寸法線
 62
     0
370
    -2
100
AcDbLine
 10
377.0098891725885
 20
309.2324086679053
 30
0.0
 11
365.2153832774917
 21
290.856175205331
 31
0.0
  0
LINE
  5
3489
330
2B2A
100
AcDbEntity
  8
寸法線
 62
     0
370
    -2
100
AcDbLine
 10
358.7335993750112
 20
280.7573397555602
 30
0.0
 11
357.1131533993912
 21
278.2326308931175
 31
0.0
  0
MTEXT
  5
348A
330
2B2A
100
AcDbEntity
  8
寸法線
 62
     0
100
AcDbMText
 10
371.6295530157287
 20
307.3293631949055
 30
0.0
 40
5.0
 41
0.0
 71
     5
 72
     1
  1
\U+22056
  7
OKANO
 11
0.5401486585400296
 21
0.8415696208142298
 31
0.0
 73
     1
 44
1.0
  0
LINE
  5
348B
330
2B2A
100
AcDbEntity
  8
寸法線
 62
     0
370
    -2
100
AcDbLine
 10
360.3540453506314
 20
283.2820486180029
 30
0.0
 11
363.5949373018716
 21
288.3314663428883
 31
0.0
  0
INSERT
  5
348C
330
2B2A
100
AcDbEntity
  8
寸法線
 62
     0
370
    -2
100
AcDbBlockReference
  2
_Closed
 10
360.3540453506314
 20
283.2820486180029
 30
0.0
 41
3.0
 42
3.0
 43
3.0
 50
57.30624075017943
  0
INSERT
  5
348D
330
2B2A
100
AcDbEntity
  8
寸法線
 62
     0
370
    -2
100
AcDbBlockReference
  2
_Closed
 10
363.5949373018716
 20
288.3314663428883
 30
0.0
 41
3.0
 42
3.0
 43
3.0
 50
237.3062407501794
  0
POINT
  5
348E
330
2B2A
100
AcDbEntity
  8
Defpoints
 62
     0
100
AcDbPoint
 10
363.5949373018716
 20
288.3314663428883
 30
0.0
  0
POINT
  5
348F
330
2B2A
100
AcDbEntity
  8
Defpoints
 62
     0
100
AcDbPoint
 10
360.3540453506314
 20
283.2820486180029
 30
0.0
  0
ENDBLK
  5
2B34
330
2B2A
100
AcDbEntity
  8
0
100
AcDbBlockEnd
  0
BLOCK
  5
2C19
330
2C0D
100
AcDbEntity
  8
0
100
AcDbBlockBegin
  2
*D4
 70
     1
 10
0.0
 20
0.0
 30
0.0
  3
*D4
  1

  0
LINE
  5
343A
330
2C0D
100
AcDbEntity
  8
寸法線
 62
     0
370
    -2
100
AcDbLine
 10
424.9744913262515
 20
251.8067574804457
 30
0.0
 11
424.9744913262515
 21
235.0324372370286
 31
0.0
  0
LINE
  5
343B
330
2C0D
100
AcDbEntity
  8
寸法線
 62
     0
370
    -2
100
AcDbLine
 10
419.9744913262515
 20
251.8067574804457
 30
0.0
 11
419.9744913262515
 21
235.0324372370286
 31
0.0
  0
LINE
  5
343C
330
2C0D
100
AcDbEntity
  8
寸法線
 62
     0
370
    -2
100
AcDbLine
 10
427.9744913262515
 20
238.0324372370286
 30
0.0
 11
430.9744913262514
 21
238.0324372370286
 31
0.0
  0
LINE
  5
343D
330
2C0D
100
AcDbEntity
  8
寸法線
 62
     0
370
    -2
100
AcDbLine
 10
416.9744913262515
 20
238.0324372370286
 30
0.0
 11
413.9744913262514
 21
238.0324372370286
 31
0.0
  0
LINE
  5
343E
330
2C0D
100
AcDbEntity
  8
寸法線
 62
     0
370
    -2
100
AcDbLine
 10
424.9744913262515
 20
238.0324372370286
 30
0.0
 11
419.9744913262515
 21
238.0324372370286
 31
0.0
  0
INSERT
  5
343F
330
2C0D
100
AcDbEntity
  8
寸法線
 62
     0
370
    -2
100
AcDbBlockReference
  2
_Closed
 10
424.9744913262515
 20
238.0324372370286
 30
0.0
 41
3.0
 42
3.0
 43
3.0
 50
180.0
  0
INSERT
  5
3440
330
2C0D
100
AcDbEntity
  8
寸法線
 62
     0
370
    -2
100
AcDbBlockReference
  2
_Closed
 10
419.9744913262515
 20
238.0324372370286
 30
0.0
 41
3.0
 42
3.0
 43
3.0
  0
MTEXT
  5
3441
330
2C0D
100
AcDbEntity
  8
寸法線
 62
     0
100
AcDbMText
 10
422.4744913262514
 20
241.5324372370286
 30
0.0
 40
5.0
 41
0.0
 71
     5
 72
     1
  1
4
  7
OKANO
 73
     1
 44
1.0
  0
POINT
  5
3442
330
2C0D
100
AcDbEntity
  8
Defpoints
 62
     0
100
AcDbPoint
 10
424.9744913262515
 20
253.8067574804457
 30
0.0
  0
POINT
  5
3443
330
2C0D
100
AcDbEntity
  8
Defpoints
 62
     0
100
AcDbPoint
 10
419.9744913262515
 20
253.8067574804457
 30
0.0
  0
POINT
  5
3444
330
2C0D
100
AcDbEntity
  8
Defpoints
 62
     0
100
AcDbPoint
 10
419.9744913262515
 20
238.0324372370286
 30
0.0
  0
ENDBLK
  5
2C1A
330
2C0D
100
AcDbEntity
  8
0
100
AcDbBlockEnd
  0
BLOCK
  5
2C26
330
2C1C
100
AcDbEntity
  8
0
100
AcDbBlockBegin
  2
*D5
 70
     1
 10
0.0
 20
0.0
 30
0.0
  3
*D5
  1

  0
LINE
  5
346B
330
2C1C
100
AcDbEntity
  8
寸法線
 62
     0
370
    -2
100
AcDbLine
 10
419.9744913262515
 20
251.8067574804457
 30
0.0
 11
419.9744913262515
 21
235.0324372370286
 31
0.0
  0
LINE
  5
346C
330
2C1C
100
AcDbEntity
  8
寸法線
 62
     0
370
    -2
100
AcDbLine
 10
369.9744913262514
 20
251.8067574804457
 30
0.0
 11
369.9744913262514
 21
235.0324372370286
 31
0.0
  0
LINE
  5
346D
330
2C1C
100
AcDbEntity
  8
寸法線
 62
     0
370
    -2
100
AcDbLine
 10
416.9744913262515
 20
238.0324372370286
 30
0.0
 11
372.9744913262515
 21
238.0324372370286
 31
0.0
  0
INSERT
  5
346E
330
2C1C
100
AcDbEntity
  8
寸法線
 62
     0
370
    -2
100
AcDbBlockReference
  2
_Closed
 10
419.9744913262515
 20
238.0324372370286
 30
0.0
 41
3.0
 42
3.0
 43
3.0
  0
INSERT
  5
346F
330
2C1C
100
AcDbEntity
  8
寸法線
 62
     0
370
    -2
100
AcDbBlockReference
  2
_Closed
 10
369.9744913262514
 20
238.0324372370286
 30
0.0
 41
3.0
 42
3.0
 43
3.0
 50
180.0
  0
MTEXT
  5
3470
330
2C1C
100
AcDbEntity
  8
寸法線
 62
     0
100
AcDbMText
 10
394.9744913262514
 20
241.5324372370286
 30
0.0
 40
5.0
 41
0.0
 71
     5
 72
     1
  1
49.3
  7
OKANO
 73
     1
 44
1.0
  0
POINT
  5
3471
330
2C1C
100
AcDbEntity
  8
Defpoints
 62
     0
100
AcDbPoint
 10
419.9744913262515
 20
253.8067574804457
 30
0.0
  0
POINT
  5
3472
330
2C1C
100
AcDbEntity
  8
Defpoints
 62
     0
100
AcDbPoint
 10
369.9744913262514
 20
253.8067574804457
 30
0.0
  0
POINT
  5
3473
330
2C1C
100
AcDbEntity
  8
Defpoints
 62
     0
100
AcDbPoint
 10
369.9744913262514
 20
238.0324372370286
 30
0.0
  0
ENDBLK
  5
2C27
330
2C1C
100
AcDbEntity
  8
0
100
AcDbBlockEnd
  0
BLOCK
  5
2C35
330
2C29
100
AcDbEntity
  8
0
100
AcDbBlockBegin
  2
*D6
 70
     1
 10
0.0
 20
0.0
 30
0.0
  3
*D6
  1

  0
LINE
  5
3474
330
2C29
100
AcDbEntity
  8
寸法線
 62
     0
370
    -2
100
AcDbLine
 10
369.9744913262514
 20
251.8067574804457
 30
0.0
 11
369.9744913262514
 21
235.0324372370286
 31
0.0
  0
LINE
  5
3475
330
2C29
100
AcDbEntity
  8
寸法線
 62
     0
370
    -2
100
AcDbLine
 10
364.9744913262515
 20
251.8067574804457
 30
0.0
 11
364.9744913262515
 21
235.0324372370286
 31
0.0
  0
LINE
  5
3476
330
2C29
100
AcDbEntity
  8
寸法線
 62
     0
370
    -2
100
AcDbLine
 10
372.9744913262515
 20
238.0324372370286
 30
0.0
 11
375.9744913262514
 21
238.0324372370286
 31
0.0
  0
LINE
  5
3477
330
2C29
100
AcDbEntity
  8
寸法線
 62
     0
370
    -2
100
AcDbLine
 10
361.9744913262515
 20
238.0324372370286
 30
0.0
 11
358.9744913262514
 21
238.0324372370286
 31
0.0
  0
LINE
  5
3478
330
2C29
100
AcDbEntity
  8
寸法線
 62
     0
370
    -2
100
AcDbLine
 10
369.9744913262514
 20
238.0324372370286
 30
0.0
 11
364.9744913262515
 21
238.0324372370286
 31
0.0
  0
INSERT
  5
3479
330
2C29
100
AcDbEntity
  8
寸法線
 62
     0
370
    -2
100
AcDbBlockReference
  2
_Closed
 10
369.9744913262514
 20
238.0324372370286
 30
0.0
 41
3.0
 42
3.0
 43
3.0
 50
180.0
  0
INSERT
  5
347A
330
2C29
100
AcDbEntity
  8
寸法線
 62
     0
370
    -2
100
AcDbBlockReference
  2
_Closed
 10
364.9744913262515
 20
238.0324372370286
 30
0.0
 41
3.0
 42
3.0
 43
3.0
  0
MTEXT
  5
347B
330
2C29
100
AcDbEntity
  8
寸法線
 62
     0
100
AcDbMText
 10
367.4744913262514
 20
241.5324372370286
 30
0.0
 40
5.0
 41
0.0
 71
     5
 72
     1
  1
4
  7
OKANO
 73
     1
 44
1.0
  0
POINT
  5
347C
330
2C29
100
AcDbEntity
  8
Defpoints
 62
     0
100
AcDbPoint
 10
369.9744913262514
 20
253.8067574804457
 30
0.0
  0
POINT
  5
347D
330
2C29
100
AcDbEntity
  8
Defpoints
 62
     0
100
AcDbPoint
 10
364.9744913262515
 20
253.8067574804457
 30
0.0
  0
POINT
  5
347E
330
2C29
100
AcDbEntity
  8
Defpoints
 62
     0
100
AcDbPoint
 10
364.9744913262515
 20
238.0324372370286
 30
0.0
  0
ENDBLK
  5
2C36
330
2C29
100
AcDbEntity
  8
0
100
AcDbBlockEnd
  0
BLOCK
  5
2C61
330
2C57
100
AcDbEntity
  8
0
100
AcDbBlockBegin
  2
*D7
 70
     1
 10
0.0
 20
0.0
 30
0.0
  3
*D7
  1

  0
LINE
  5
349B
330
2C57
100
AcDbEntity
  8
寸法線
 62
     0
370
    -2
100
AcDbLine
 10
436.9744913262515
 20
293.8067574804457
 30
0.0
 11
450.1127681287711
 21
293.8067574804457
 31
0.0
  0
LINE
  5
349C
330
2C57
100
AcDbEntity
  8
寸法線
 62
     0
370
    -2
100
AcDbLine
 10
436.9744913262515
 20
343.8067574804457
 30
0.0
 11
450.1127681287711
 21
343.8067574804457
 31
0.0
  0
LINE
  5
349D
330
2C57
100
AcDbEntity
  8
寸法線
 62
     0
370
    -2
100
AcDbLine
 10
447.112768128771
 20
296.8067574804456
 30
0.0
 11
447.112768128771
 21
340.8067574804456
 31
0.0
  0
INSERT
  5
349E
330
2C57
100
AcDbEntity
  8
寸法線
 62
     0
370
    -2
100
AcDbBlockReference
  2
_Closed
 10
447.112768128771
 20
293.8067574804457
 30
0.0
 41
3.0
 42
3.0
 43
3.0
 50
270.0
  0
INSERT
  5
349F
330
2C57
100
AcDbEntity
  8
寸法線
 62
     0
370
    -2
100
AcDbBlockReference
  2
_Closed
 10
447.112768128771
 20
343.8067574804457
 30
0.0
 41
3.0
 42
3.0
 43
3.0
 50
90.0
  0
MTEXT
  5
34A0
330
2C57
100
AcDbEntity
  8
寸法線
 62
     0
100
AcDbMText
 10
443.612768128771
 20
318.8067574804458
 30
0.0
 40
5.0
 41
0.0
 71
     5
 72
     1
  1
49.6
  7
OKANO
 11
0.0000000000000001
 21
1.0
 31
0.0
 73
     1
 44
1.0
  0
POINT
  5
34A1
330
2C57
100
AcDbEntity
  8
Defpoints
 62
     0
100
AcDbPoint
 10
434.9744913262514
 20
293.8067574804457
 30
0.0
  0
POINT
  5
34A2
330
2C57
100
AcDbEntity
  8
Defpoints
 62
     0
100
AcDbPoint
 10
434.9744913262514
 20
343.8067574804457
 30
0.0
  0
POINT
  5
34A3
330
2C57
100
AcDbEntity
  8
Defpoints
 62
     0
100
AcDbPoint
 10
447.112768128771
 20
343.8067574804457
 30
0.0
  0
ENDBLK
  5
2C62
330
2C57
100
AcDbEntity
  8
0
100
AcDbBlockEnd
  0
BLOCK
  5
2CCA
330
2CC0
100
AcDbEntity
  8
0
100
AcDbBlockBegin
  2
*D8
 70
     1
 10
0.0
 20
0.0
 30
0.0
  3
*D8
  1

  0
LINE
  5
347F
330
2CC0
100
AcDbEntity
  8
寸法線
 62
     0
370
    -2
100
AcDbLine
 10
369.9744913262514
 20
290.8067574804456
 30
0.0
 11
369.9744913262514
 21
299.1085373559428
 31
0.0
  0
LINE
  5
3480
330
2CC0
100
AcDbEntity
  8
寸法線
 62
     0
370
    -2
100
AcDbLine
 10
419.9744913262515
 20
290.8067574804456
 30
0.0
 11
419.9744913262515
 21
299.1085373559428
 31
0.0
  0
LINE
  5
3481
330
2CC0
100
AcDbEntity
  8
寸法線
 62
     0
370
    -2
100
AcDbLine
 10
372.9744913262515
 20
296.1085373559429
 30
0.0
 11
416.9744913262515
 21
296.1085373559429
 31
0.0
  0
INSERT
  5
3482
330
2CC0
100
AcDbEntity
  8
寸法線
 62
     0
370
    -2
100
AcDbBlockReference
  2
_Closed
 10
369.9744913262514
 20
296.1085373559429
 30
0.0
 41
3.0
 42
3.0
 43
3.0
 50
180.0
  0
INSERT
  5
3483
330
2CC0
100
AcDbEntity
  8
寸法線
 62
     0
370
    -2
100
AcDbBlockReference
  2
_Closed
 10
419.9744913262515
 20
296.1085373559429
 30
0.0
 41
3.0
 42
3.0
 43
3.0
  0
MTEXT
  5
3484
330
2CC0
100
AcDbEntity
  8
寸法線
 62
     0
100
AcDbMText
 10
394.9744913262514
 20
299.6085373559428
 30
0.0
 40
5.0
 41
0.0
 71
     5
 72
     1
  1
49.0
  7
OKANO
 73
     1
 44
1.0
  0
POINT
  5
3485
330
2CC0
100
AcDbEntity
  8
Defpoints
 62
     0
100
AcDbPoint
 10
369.9744913262514
 20
288.8067574804456
 30
0.0
  0
POINT
  5
3486
330
2CC0
100
AcDbEntity
  8
Defpoints
 62
     0
100
AcDbPoint
 10
419.9744913262515
 20
288.8067574804456
 30
0.0
  0
POINT
  5
3487
330
2CC0
100
AcDbEntity
  8
Defpoints
 62
     0
100
AcDbPoint
 10
419.9744913262515
 20
296.1085373559429
 30
0.0
  0
ENDBLK
  5
2CCB
330
2CC0
100
AcDbEntity
  8
0
100
AcDbBlockEnd
  0
BLOCK
  5
2D54
330
2D4A
100
AcDbEntity
  8
0
100
AcDbBlockBegin
  2
*D9
 70
     1
 10
0.0
 20
0.0
 30
0.0
  3
*D9
  1

  0
LINE
  5
330F
330
2D4A
100
AcDbEntity
  8
寸法線
 62
     0
370
    -2
100
AcDbLine
 10
116.0397024588517
 20
135.5354920836011
 30
0.0
 11
100.7409781245173
 21
135.5354920836011
 31
0.0
  0
LINE
  5
3310
330
2D4A
100
AcDbEntity
  8
寸法線
 62
     0
370
    -2
100
AcDbLine
 10
116.0397024588517
 20
75.53549208360118
 30
0.0
 11
100.7409781245173
 21
75.53549208360118
 31
0.0
  0
LINE
  5
3311
330
2D4A
100
AcDbEntity
  8
寸法線
 62
     0
370
    -2
100
AcDbLine
 10
103.7409781245173
 20
132.5354920836011
 30
0.0
 11
103.7409781245173
 21
78.53549208360118
 31
0.0
  0
INSERT
  5
3312
330
2D4A
100
AcDbEntity
  8
寸法線
 62
     0
370
    -2
100
AcDbBlockReference
  2
_Closed
 10
103.7409781245173
 20
135.5354920836011
 30
0.0
 41
3.0
 42
3.0
 43
3.0
 50
90.0
  0
INSERT
  5
3313
330
2D4A
100
AcDbEntity
  8
寸法線
 62
     0
370
    -2
100
AcDbBlockReference
  2
_Closed
 10
103.7409781245173
 20
75.53549208360118
 30
0.0
 41
3.0
 42
3.0
 43
3.0
 50
270.0
  0
MTEXT
  5
3314
330
2D4A
100
AcDbEntity
  8
寸法線
 62
     0
100
AcDbMText
 10
100.2409781245173
 20
105.5354920836012
 30
0.0
 40
5.0
 41
0.0
 71
     5
 72
     1
  1
57.3
  7
OKANO
 11
0.0000000000000001
 21
1.0
 31
0.0
 73
     1
 44
1.0
  0
POINT
  5
3315
330
2D4A
100
AcDbEntity
  8
Defpoints
 62
     0
100
AcDbPoint
 10
118.0397024588517
 20
135.5354920836011
 30
0.0
  0
POINT
  5
3316
330
2D4A
100
AcDbEntity
  8
Defpoints
 62
     0
100
AcDbPoint
 10
118.0397024588517
 20
75.53549208360118
 30
0.0
  0
POINT
  5
3317
330
2D4A
100
AcDbEntity
  8
Defpoints
 62
     0
100
AcDbPoint
 10
103.7409781245173
 20
75.53549208360118
 30
0.0
  0
ENDBLK
  5
2D55
330
2D4A
100
AcDbEntity
  8
0
100
AcDbBlockEnd
  0
BLOCK
  5
2D6C
330
2D60
100
AcDbEntity
  8
0
100
AcDbBlockBegin
  2
*D10
 70
     1
 10
0.0
 20
0.0
 30
0.0
  3
*D10
  1

  0
LINE
  5
3318
330
2D60
100
AcDbEntity
  8
寸法線
 62
     0
370
    -2
100
AcDbLine
 10
200.0397024588516
 20
103.0354920836011
 30
0.0
 11
214.3822664382105
 21
103.0354920836011
 31
0.0
  0
LINE
  5
3319
330
2D60
100
AcDbEntity
  8
寸法線
 62
     0
370
    -2
100
AcDbLine
 10
200.0397024588516
 20
108.0354920836011
 30
0.0
 11
214.3822664382105
 21
108.0354920836011
 31
0.0
  0
LINE
  5
331A
330
2D60
100
AcDbEntity
  8
寸法線
 62
     0
370
    -2
100
AcDbLine
 10
211.3822664382105
 20
100.0354920836011
 30
0.0
 11
211.3822664382105
 21
97.03549208360119
 31
0.0
  0
LINE
  5
331B
330
2D60
100
AcDbEntity
  8
寸法線
 62
     0
370
    -2
100
AcDbLine
 10
211.3822664382105
 20
111.0354920836011
 30
0.0
 11
211.3822664382105
 21
114.0354920836011
 31
0.0
  0
LINE
  5
331C
330
2D60
100
AcDbEntity
  8
寸法線
 62
     0
370
    -2
100
AcDbLine
 10
211.3822664382105
 20
103.0354920836011
 30
0.0
 11
211.3822664382105
 21
108.0354920836011
 31
0.0
  0
INSERT
  5
331D
330
2D60
100
AcDbEntity
  8
寸法線
 62
     0
370
    -2
100
AcDbBlockReference
  2
_Closed
 10
211.3822664382105
 20
103.0354920836011
 30
0.0
 41
3.0
 42
3.0
 43
3.0
 50
90.0
  0
INSERT
  5
331E
330
2D60
100
AcDbEntity
  8
寸法線
 62
     0
370
    -2
100
AcDbBlockReference
  2
_Closed
 10
211.3822664382105
 20
108.0354920836011
 30
0.0
 41
3.0
 42
3.0
 43
3.0
 50
270.0
  0
MTEXT
  5
331F
330
2D60
100
AcDbEntity
  8
寸法線
 62
     0
100
AcDbMText
 10
207.8822664382105
 20
105.5354920836012
 30
0.0
 40
5.0
 41
0.0
 71
     5
 72
     1
  1
4
  7
OKANO
 11
0.0000000000000001
 21
1.0
 31
0.0
 73
     1
 44
1.0
  0
POINT
  5
3320
330
2D60
100
AcDbEntity
  8
Defpoints
 62
     0
100
AcDbPoint
 10
198.0397024588517
 20
103.0354920836011
 30
0.0
  0
POINT
  5
3321
330
2D60
100
AcDbEntity
  8
Defpoints
 62
     0
100
AcDbPoint
 10
198.0397024588517
 20
108.0354920836011
 30
0.0
  0
POINT
  5
3322
330
2D60
100
AcDbEntity
  8
Defpoints
 62
     0
100
AcDbPoint
 10
211.3822664382105
 20
108.0354920836011
 30
0.0
  0
ENDBLK
  5
2D6D
330
2D60
100
AcDbEntity
  8
0
100
AcDbBlockEnd
  0
BLOCK
  5
2DB1
330
2DA7
100
AcDbEntity
  8
0
100
AcDbBlockBegin
  2
*D11
 70
     1
 10
0.0
 20
0.0
 30
0.0
  3
*D11
  1

  0
LINE
  5
3431
330
2DA7
100
AcDbEntity
  8
寸法線
 62
     0
370
    -2
100
AcDbLine
 10
352.9744913262514
 20
350.8145085420578
 30
0.0
 11
352.9744913262514
 21
360.4858815762148
 31
0.0
  0
LINE
  5
3432
330
2DA7
100
AcDbEntity
  8
寸法線
 62
     0
370
    -2
100
AcDbLine
 10
436.9744913262515
 20
350.8067574804456
 30
0.0
 11
436.9744913262515
 21
360.4858815762148
 31
0.0
  0
LINE
  5
3433
330
2DA7
100
AcDbEntity
  8
寸法線
 62
     0
370
    -2
100
AcDbLine
 10
355.9744913262515
 20
357.4858815762148
 30
0.0
 11
433.9744913262514
 21
357.4858815762148
 31
0.0
  0
INSERT
  5
3434
330
2DA7
100
AcDbEntity
  8
寸法線
 62
     0
370
    -2
100
AcDbBlockReference
  2
_Closed
 10
352.9744913262514
 20
357.4858815762148
 30
0.0
 41
3.0
 42
3.0
 43
3.0
 50
180.0
  0
INSERT
  5
3435
330
2DA7
100
AcDbEntity
  8
寸法線
 62
     0
370
    -2
100
AcDbBlockReference
  2
_Closed
 10
436.9744913262515
 20
357.4858815762148
 30
0.0
 41
3.0
 42
3.0
 43
3.0
  0
MTEXT
  5
3436
330
2DA7
100
AcDbEntity
  8
寸法線
 62
     0
100
AcDbMText
 10
394.9744913262514
 20
360.9858815762148
 30
0.0
 40
5.0
 41
0.0
 71
     5
 72
     1
  1
81.3
  7
OKANO
 73
     1
 44
1.0
  0
POINT
  5
3437
330
2DA7
100
AcDbEntity
  8
Defpoints
 62
     0
100
AcDbPoint
 10
352.9744913262514
 20
348.8145085420578
 30
0.0
  0
POINT
  5
3438
330
2DA7
100
AcDbEntity
  8
Defpoints
 62
     0
100
AcDbPoint
 10
436.9744913262515
 20
348.8067574804456
 30
0.0
  0
POINT
  5
3439
330
2DA7
100
AcDbEntity
  8
Defpoints
 62
     0
100
AcDbPoint
 10
436.9744913262515
 20
357.4858815762148
 30
0.0
  0
ENDBLK
  5
2DB2
330
2DA7
100
AcDbEntity
  8
0
100
AcDbBlockEnd
  0
BLOCK
  5
2DC7
330
2DBD
100
AcDbEntity
  8
0
100
AcDbBlockBegin
  2
*D12
 70
     1
 10
0.0
 20
0.0
 30
0.0
  3
*D12
  1

  0
LINE
  5
3462
330
2DBD
100
AcDbEntity
  8
寸法線
 62
     0
370
    -2
100
AcDbLine
 10
362.9744913262515
 20
253.8067574804457
 30
0.0
 11
335.157703183824
 21
253.8067574804457
 31
0.0
  0
LINE
  5
3463
330
2DBD
100
AcDbEntity
  8
寸法線
 62
     0
370
    -2
100
AcDbLine
 10
362.9744913262515
 20
288.8067574804456
 30
0.0
 11
335.157703183824
 21
288.8067574804456
 31
0.0
  0
LINE
  5
3464
330
2DBD
100
AcDbEntity
  8
寸法線
 62
     0
370
    -2
100
AcDbLine
 10
338.157703183824
 20
256.8067574804457
 30
0.0
 11
338.157703183824
 21
285.8067574804456
 31
0.0
  0
INSERT
  5
3465
330
2DBD
100
AcDbEntity
  8
寸法線
 62
     0
370
    -2
100
AcDbBlockReference
  2
_Closed
 10
338.157703183824
 20
253.8067574804457
 30
0.0
 41
3.0
 42
3.0
 43
3.0
 50
270.0
  0
INSERT
  5
3466
330
2DBD
100
AcDbEntity
  8
寸法線
 62
     0
370
    -2
100
AcDbBlockReference
  2
_Closed
 10
338.157703183824
 20
288.8067574804456
 30
0.0
 41
3.0
 42
3.0
 43
3.0
 50
90.0
  0
MTEXT
  5
3467
330
2DBD
100
AcDbEntity
  8
寸法線
 62
     0
100
AcDbMText
 10
334.657703183824
 20
271.3067574804457
 30
0.0
 40
5.0
 41
0.0
 71
     5
 72
     1
  1
35
  7
OKANO
 11
0.0000000000000001
 21
1.0
 31
0.0
 73
     1
 44
1.0
  0
POINT
  5
3468
330
2DBD
100
AcDbEntity
  8
Defpoints
 62
     0
100
AcDbPoint
 10
364.9744913262515
 20
253.8067574804457
 30
0.0
  0
POINT
  5
3469
330
2DBD
100
AcDbEntity
  8
Defpoints
 62
     0
100
AcDbPoint
 10
364.9744913262515
 20
288.8067574804456
 30
0.0
  0
POINT
  5
346A
330
2DBD
100
AcDbEntity
  8
Defpoints
 62
     0
100
AcDbPoint
 10
338.157703183824
 20
288.8067574804456
 30
0.0
  0
ENDBLK
  5
2DC8
330
2DBD
100
AcDbEntity
  8
0
100
AcDbBlockEnd
  0
BLOCK
  5
2DD6
330
2DCA
100
AcDbEntity
  8
0
100
AcDbBlockBegin
  2
*D13
 70
     1
 10
0.0
 20
0.0
 30
0.0
  3
*D13
  1

  0
LINE
  5
3457
330
2DCA
100
AcDbEntity
  8
寸法線
 62
     0
370
    -2
100
AcDbLine
 10
362.9744913262515
 20
288.8067574804456
 30
0.0
 11
335.157703183824
 21
288.8067574804456
 31
0.0
  0
LINE
  5
3458
330
2DCA
100
AcDbEntity
  8
寸法線
 62
     0
370
    -2
100
AcDbLine
 10
352.9744913262514
 20
293.8067574804457
 30
0.0
 11
335.157703183824
 21
293.8067574804457
 31
0.0
  0
LINE
  5
3459
330
2DCA
100
AcDbEntity
  8
寸法線
 62
     0
370
    -2
100
AcDbLine
 10
338.157703183824
 20
285.8067574804456
 30
0.0
 11
338.157703183824
 21
282.8067574804456
 31
0.0
  0
LINE
  5
345A
330
2DCA
100
AcDbEntity
  8
寸法線
 62
     0
370
    -2
100
AcDbLine
 10
338.157703183824
 20
296.8067574804456
 30
0.0
 11
338.157703183824
 21
299.8067574804457
 31
0.0
  0
LINE
  5
345B
330
2DCA
100
AcDbEntity
  8
寸法線
 62
     0
370
    -2
100
AcDbLine
 10
338.157703183824
 20
288.8067574804456
 30
0.0
 11
338.157703183824
 21
293.8067574804457
 31
0.0
  0
INSERT
  5
345C
330
2DCA
100
AcDbEntity
  8
寸法線
 62
     0
370
    -2
100
AcDbBlockReference
  2
_Closed
 10
338.157703183824
 20
288.8067574804456
 30
0.0
 41
3.0
 42
3.0
 43
3.0
 50
90.0
  0
INSERT
  5
345D
330
2DCA
100
AcDbEntity
  8
寸法線
 62
     0
370
    -2
100
AcDbBlockReference
  2
_Closed
 10
338.157703183824
 20
293.8067574804457
 30
0.0
 41
3.0
 42
3.0
 43
3.0
 50
270.0
  0
MTEXT
  5
345E
330
2DCA
100
AcDbEntity
  8
寸法線
 62
     0
100
AcDbMText
 10
334.657703183824
 20
291.3067574804457
 30
0.0
 40
5.0
 41
0.0
 71
     5
 72
     1
  1
4
  7
OKANO
 11
0.0000000000000001
 21
1.0
 31
0.0
 73
     1
 44
1.0
  0
POINT
  5
345F
330
2DCA
100
AcDbEntity
  8
Defpoints
 62
     0
100
AcDbPoint
 10
364.9744913262515
 20
288.8067574804456
 30
0.0
  0
POINT
  5
3460
330
2DCA
100
AcDbEntity
  8
Defpoints
 62
     0
100
AcDbPoint
 10
354.9744913262514
 20
293.8067574804457
 30
0.0
  0
POINT
  5
3461
330
2DCA
100
AcDbEntity
  8
Defpoints
 62
     0
100
AcDbPoint
 10
338.157703183824
 20
293.8067574804457
 30
0.0
  0
ENDBLK
  5
2DD7
330
2DCA
100
AcDbEntity
  8
0
100
AcDbBlockEnd
  0
BLOCK
  5
2DE3
330
2DD9
100
AcDbEntity
  8
0
100
AcDbBlockBegin
  2
*D14
 70
     1
 10
0.0
 20
0.0
 30
0.0
  3
*D14
  1

  0
LINE
  5
344E
330
2DD9
100
AcDbEntity
  8
寸法線
 62
     0
370
    -2
100
AcDbLine
 10
352.9744913262514
 20
293.8067574804457
 30
0.0
 11
335.157703183824
 21
293.8067574804457
 31
0.0
  0
LINE
  5
344F
330
2DD9
100
AcDbEntity
  8
寸法線
 62
     0
370
    -2
100
AcDbLine
 10
352.9744913262514
 20
343.8067574804457
 30
0.0
 11
335.157703183824
 21
343.8067574804457
 31
0.0
  0
LINE
  5
3450
330
2DD9
100
AcDbEntity
  8
寸法線
 62
     0
370
    -2
100
AcDbLine
 10
338.157703183824
 20
296.8067574804456
 30
0.0
 11
338.157703183824
 21
340.8067574804456
 31
0.0
  0
INSERT
  5
3451
330
2DD9
100
AcDbEntity
  8
寸法線
 62
     0
370
    -2
100
AcDbBlockReference
  2
_Closed
 10
338.157703183824
 20
293.8067574804457
 30
0.0
 41
3.0
 42
3.0
 43
3.0
 50
270.0
  0
INSERT
  5
3452
330
2DD9
100
AcDbEntity
  8
寸法線
 62
     0
370
    -2
100
AcDbBlockReference
  2
_Closed
 10
338.157703183824
 20
343.8067574804457
 30
0.0
 41
3.0
 42
3.0
 43
3.0
 50
90.0
  0
MTEXT
  5
3453
330
2DD9
100
AcDbEntity
  8
寸法線
 62
     0
100
AcDbMText
 10
334.657703183824
 20
318.8067574804457
 30
0.0
 40
5.0
 41
0.0
 71
     5
 72
     1
  1
49.3
  7
OKANO
 11
0.0000000000000001
 21
1.0
 31
0.0
 73
     1
 44
1.0
  0
POINT
  5
3454
330
2DD9
100
AcDbEntity
  8
Defpoints
 62
     0
100
AcDbPoint
 10
354.9744913262514
 20
293.8067574804457
 30
0.0
  0
POINT
  5
3455
330
2DD9
100
AcDbEntity
  8
Defpoints
 62
     0
100
AcDbPoint
 10
354.9744913262514
 20
343.8067574804457
 30
0.0
  0
POINT
  5
3456
330
2DD9
100
AcDbEntity
  8
Defpoints
 62
     0
100
AcDbPoint
 10
338.157703183824
 20
343.8067574804457
 30
0.0
  0
ENDBLK
  5
2DE4
330
2DD9
100
AcDbEntity
  8
0
100
AcDbBlockEnd
  0
BLOCK
  5
2DF2
330
2DE6
100
AcDbEntity
  8
0
100
AcDbBlockBegin
  2
*D15
 70
     1
 10
0.0
 20
0.0
 30
0.0
  3
*D15
  1

  0
LINE
  5
3490
330
2DE6
100
AcDbEntity
  8
寸法線
 62
     0
370
    -2
100
AcDbLine
 10
352.9744913262514
 20
343.8067574804457
 30
0.0
 11
335.157703183824
 21
343.8067574804457
 31
0.0
  0
LINE
  5
3491
330
2DE6
100
AcDbEntity
  8
寸法線
 62
     0
370
    -2
100
AcDbLine
 10
352.9744913262514
 20
348.8067574804456
 30
0.0
 11
335.157703183824
 21
348.8067574804456
 31
0.0
  0
LINE
  5
3492
330
2DE6
100
AcDbEntity
  8
寸法線
 62
     0
370
    -2
100
AcDbLine
 10
338.157703183824
 20
340.8067574804456
 30
0.0
 11
338.157703183824
 21
337.8067574804457
 31
0.0
  0
LINE
  5
3493
330
2DE6
100
AcDbEntity
  8
寸法線
 62
     0
370
    -2
100
AcDbLine
 10
338.157703183824
 20
351.8067574804457
 30
0.0
 11
338.157703183824
 21
354.8067574804457
 31
0.0
  0
LINE
  5
3494
330
2DE6
100
AcDbEntity
  8
寸法線
 62
     0
370
    -2
100
AcDbLine
 10
338.157703183824
 20
343.8067574804457
 30
0.0
 11
338.157703183824
 21
348.8067574804456
 31
0.0
  0
INSERT
  5
3495
330
2DE6
100
AcDbEntity
  8
寸法線
 62
     0
370
    -2
100
AcDbBlockReference
  2
_Closed
 10
338.157703183824
 20
343.8067574804457
 30
0.0
 41
3.0
 42
3.0
 43
3.0
 50
90.0
  0
INSERT
  5
3496
330
2DE6
100
AcDbEntity
  8
寸法線
 62
     0
370
    -2
100
AcDbBlockReference
  2
_Closed
 10
338.157703183824
 20
348.8067574804456
 30
0.0
 41
3.0
 42
3.0
 43
3.0
 50
270.0
  0
MTEXT
  5
3497
330
2DE6
100
AcDbEntity
  8
寸法線
 62
     0
100
AcDbMText
 10
334.657703183824
 20
346.3067574804457
 30
0.0
 40
5.0
 41
0.0
 71
     5
 72
     1
  1
4
  7
OKANO
 11
0.0000000000000001
 21
1.0
 31
0.0
 73
     1
 44
1.0
  0
POINT
  5
3498
330
2DE6
100
AcDbEntity
  8
Defpoints
 62
     0
100
AcDbPoint
 10
354.9744913262514
 20
343.8067574804457
 30
0.0
  0
POINT
  5
3499
330
2DE6
100
AcDbEntity
  8
Defpoints
 62
     0
100
AcDbPoint
 10
354.9744913262514
 20
348.8067574804456
 30
0.0
  0
POINT
  5
349A
330
2DE6
100
AcDbEntity
  8
Defpoints
 62
     0
100
AcDbPoint
 10
338.157703183824
 20
348.8067574804456
 30
0.0
  0
ENDBLK
  5
2DF3
330
2DE6
100
AcDbEntity
  8
0
100
AcDbBlockEnd
  0
BLOCK
  5
2E38
330
2E2E
100
AcDbEntity
  8
0
100
AcDbBlockBegin
  2
*D16
 70
     1
 10
0.0
 20
0.0
 30
0.0
  3
*D16
  1

  0
LINE
  5
3428
330
2E2E
100
AcDbEntity
  8
寸法線
 62
     0
370
    -2
100
AcDbLine
 10
424.9744913262515
 20
290.8067574804456
 30
0.0
 11
424.9744913262515
 21
300.474683535683
 31
0.0
  0
LINE
  5
3429
330
2E2E
100
AcDbEntity
  8
寸法線
 62
     0
370
    -2
100
AcDbLine
 10
436.9744913262515
 20
290.8067574804456
 30
0.0
 11
436.9744913262515
 21
300.474683535683
 31
0.0
  0
LINE
  5
342A
330
2E2E
100
AcDbEntity
  8
寸法線
 62
     0
370
    -2
100
AcDbLine
 10
427.9744913262515
 20
297.474683535683
 30
0.0
 11
433.9744913262514
 21
297.474683535683
 31
0.0
  0
INSERT
  5
342B
330
2E2E
100
AcDbEntity
  8
寸法線
 62
     0
370
    -2
100
AcDbBlockReference
  2
_Closed
 10
424.9744913262515
 20
297.474683535683
 30
0.0
 41
3.0
 42
3.0
 43
3.0
 50
180.0
  0
INSERT
  5
342C
330
2E2E
100
AcDbEntity
  8
寸法線
 62
     0
370
    -2
100
AcDbBlockReference
  2
_Closed
 10
436.9744913262515
 20
297.474683535683
 30
0.0
 41
3.0
 42
3.0
 43
3.0
  0
MTEXT
  5
342D
330
2E2E
100
AcDbEntity
  8
寸法線
 62
     0
100
AcDbMText
 10
430.9744913262514
 20
300.9751756616673
 30
0.0
 40
5.0
 41
0.0
 71
     5
 72
     1
  1
12
  7
OKANO
 73
     1
 44
1.0
  0
POINT
  5
342E
330
2E2E
100
AcDbEntity
  8
Defpoints
 62
     0
100
AcDbPoint
 10
424.9744913262515
 20
288.8067574804456
 30
0.0
  0
POINT
  5
342F
330
2E2E
100
AcDbEntity
  8
Defpoints
 62
     0
100
AcDbPoint
 10
436.9744913262515
 20
288.8067574804456
 30
0.0
  0
POINT
  5
3430
330
2E2E
100
AcDbEntity
  8
Defpoints
 62
     0
100
AcDbPoint
 10
436.9744913262515
 20
297.474683535683
 30
0.0
  0
ENDBLK
  5
2E39
330
2E2E
100
AcDbEntity
  8
0
100
AcDbBlockEnd
  0
BLOCK
  5
2F4E
330
2F43
100
AcDbEntity
  8
0
100
AcDbBlockBegin
  2
*D17
 70
     1
 10
0.0
 20
0.0
 30
0.0
  3
*D17
  1

  0
LINE
  5
30E7
330
2F43
100
AcDbEntity
  8
寸法線
 62
     0
370
    -2
100
AcDbLine
 10
156.3076516512828
 20
354.3810285580093
 30
0.0
 11
107.6146994736811
 21
382.4939176053859
 31
0.0
  0
ARC
  5
30E8
330
2F43
100
AcDbEntity
  8
寸法線
 62
     0
370
    -2
100
AcDbCircle
 10
158.0397024588516
 20
353.3810285580093
 30
0.0
 40
55.22577809475208
100
AcDbArc
 50
153.1128303840056
 51
206.8871696159944
  0
INSERT
  5
30E9
330
2F43
100
AcDbEntity
  8
寸法線
 62
     0
370
    -2
100
AcDbBlockReference
  2
_Closed
 10
110.2127756850344
 20
380.9939176053859
 30
0.0
 41
3.0
 42
3.0
 43
3.0
 50
61.55641519200258
  0
INSERT
  5
30EA
330
2F43
100
AcDbEntity
  8
寸法線
 62
     0
370
    -2
100
AcDbBlockReference
  2
_Closed
 10
110.2127756850344
 20
325.7681395106328
 30
0.0
 41
3.0
 42
3.0
 43
3.0
 50
298.4435848079975
  0
MTEXT
  5
30EB
330
2F43
100
AcDbEntity
  8
寸法線
 62
     0
100
AcDbMText
 10
99.31392436409954
 20
353.3810285580094
 30
0.0
 40
5.0
 41
0.0
 71
     5
 72
     1
  1
60°
  7
OKANO
 11
0.0000000000000001
 21
1.0
 31
0.0
 73
     1
 44
1.0
  0
POINT
  5
30EC
330
2F43
100
AcDbEntity
  8
Defpoints
 62
     0
100
AcDbPoint
 10
103.652928025008
 20
362.9708842844015
 30
0.0
  0
POINT
  5
30ED
330
2F43
100
AcDbEntity
  8
Defpoints
 62
     0
100
AcDbPoint
 10
176.3548772181976
 20
342.8067574804456
 30
0.0
  0
POINT
  5
30EE
330
2F43
100
AcDbEntity
  8
Defpoints
 62
     0
100
AcDbPoint
 10
139.7245276995058
 20
342.8067574804456
 30
0.0
  0
POINT
  5
30EF
330
2F43
100
AcDbEntity
  8
Defpoints
 62
     0
100
AcDbPoint
 10
77.94531642448425
 20
307.1385132204884
 30
0.0
  0
POINT
  5
30F0
330
2F43
100
AcDbEntity
  8
Defpoints
 62
     0
100
AcDbPoint
 10
238.1340884932191
 20
307.1385132204884
 30
0.0
  0
ENDBLK
  5
2F4F
330
2F43
100
AcDbEntity
  8
0
100
AcDbBlockEnd
  0
BLOCK
  5
2F5B
330
2F50
100
AcDbEntity
  8
0
100
AcDbBlockBegin
  2
*D18
 70
     1
 10
0.0
 20
0.0
 30
0.0
  3
*D18
  1

  0
LINE
  5
30F1
330
2F50
100
AcDbEntity
  8
寸法線
 62
     0
370
    -2
100
AcDbLine
 10
159.7717532664205
 20
354.3810285580093
 30
0.0
 11
208.6209569545604
 21
382.5841294570563
 31
0.0
  0
ARC
  5
30F2
330
2F50
100
AcDbEntity
  8
寸法線
 62
     0
370
    -2
100
AcDbCircle
 10
158.0397024588516
 20
353.3810285580093
 30
0.0
 40
55.40620179809316
100
AcDbArc
 50
333.1026913403928
 51
26.89730865960726
  0
INSERT
  5
30F3
330
2F50
100
AcDbEntity
  8
寸法線
 62
     0
370
    -2
100
AcDbBlockReference
  2
_Closed
 10
206.0228807432071
 20
325.6779276589623
 30
0.0
 41
3.0
 42
3.0
 43
3.0
 50
241.5513456701961
  0
INSERT
  5
30F4
330
2F50
100
AcDbEntity
  8
寸法線
 62
     0
370
    -2
100
AcDbBlockReference
  2
_Closed
 10
206.0228807432071
 20
381.0841294570564
 30
0.0
 41
3.0
 42
3.0
 43
3.0
 50
118.4486543298038
  0
MTEXT
  5
30F5
330
2F50
100
AcDbEntity
  8
寸法線
 62
     0
100
AcDbMText
 10
209.9459042569447
 20
353.3810285580094
 30
0.0
 40
5.0
 41
0.0
 71
     5
 72
     1
  1
60°
  7
OKANO
 11
0.0000000000000001
 21
1.0
 31
0.0
 73
     1
 44
1.0
  0
POINT
  5
30F6
330
2F50
100
AcDbEntity
  8
Defpoints
 62
     0
100
AcDbPoint
 10
212.6041595545727
 20
343.7598425843241
 30
0.0
  0
POINT
  5
30F7
330
2F50
100
AcDbEntity
  8
Defpoints
 62
     0
100
AcDbPoint
 10
139.7245276995058
 20
342.8067574804456
 30
0.0
  0
POINT
  5
30F8
330
2F50
100
AcDbEntity
  8
Defpoints
 62
     0
100
AcDbPoint
 10
176.3548772181976
 20
342.8067574804456
 30
0.0
  0
POINT
  5
30F9
330
2F50
100
AcDbEntity
  8
Defpoints
 62
     0
100
AcDbPoint
 10
238.1340884932191
 20
307.1385132204884
 30
0.0
  0
POINT
  5
30FA
330
2F50
100
AcDbEntity
  8
Defpoints
 62
     0
100
AcDbPoint
 10
77.94531642448425
 20
307.1385132204884
 30
0.0
  0
ENDBLK
  5
2F5C
330
2F50
100
AcDbEntity
  8
0
100
AcDbBlockEnd
  0
BLOCK
  5
2F67
330
2F5D
100
AcDbEntity
  8
0
100
AcDbBlockBegin
  2
*D19
 70
     1
 10
0.0
 20
0.0
 30
0.0
  3
*D19
  1

  0
LINE
  5
30FB
330
2F5D
100
AcDbEntity
  8
寸法線
 62
     0
370
    -2
100
AcDbLine
 10
128.0397024588516
 20
251.8067574804457
 30
0.0
 11
128.0397024588516
 21
232.5403255498918
 31
0.0
  0
LINE
  5
30FC
330
2F5D
100
AcDbEntity
  8
寸法線
 62
     0
370
    -2
100
AcDbLine
 10
188.0397024588517
 20
251.8067574804457
 30
0.0
 11
188.0397024588517
 21
232.5403255498918
 31
0.0
  0
LINE
  5
30FD
330
2F5D
100
AcDbEntity
  8
寸法線
 62
     0
370
    -2
100
AcDbLine
 10
131.0397024588517
 20
235.5403255498917
 30
0.0
 11
185.0397024588517
 21
235.5403255498917
 31
0.0
  0
INSERT
  5
30FE
330
2F5D
100
AcDbEntity
  8
寸法線
 62
     0
370
    -2
100
AcDbBlockReference
  2
_Closed
 10
128.0397024588516
 20
235.5403255498917
 30
0.0
 41
3.0
 42
3.0
 43
3.0
 50
180.0
  0
INSERT
  5
30FF
330
2F5D
100
AcDbEntity
  8
寸法線
 62
     0
370
    -2
100
AcDbBlockReference
  2
_Closed
 10
188.0397024588517
 20
235.5403255498917
 30
0.0
 41
3.0
 42
3.0
 43
3.0
  0
MTEXT
  5
3100
330
2F5D
100
AcDbEntity
  8
寸法線
 62
     0
100
AcDbMText
 10
158.0397024588517
 20
239.0403255498918
 30
0.0
 40
5.0
 41
0.0
 71
     5
 72
     1
  1
57.3
  7
OKANO
 73
     1
 44
1.0
  0
POINT
  5
3101
330
2F5D
100
AcDbEntity
  8
Defpoints
 62
     0
100
AcDbPoint
 10
128.0397024588516
 20
253.8067574804457
 30
0.0
  0
POINT
  5
3102
330
2F5D
100
AcDbEntity
  8
Defpoints
 62
     0
100
AcDbPoint
 10
188.0397024588517
 20
253.8067574804457
 30
0.0
  0
POINT
  5
3103
330
2F5D
100
AcDbEntity
  8
Defpoints
 62
     0
100
AcDbPoint
 10
188.0397024588517
 20
235.5403255498917
 30
0.0
  0
ENDBLK
  5
2F68
330
2F5D
100
AcDbEntity
  8
0
100
AcDbBlockEnd
  0
BLOCK
  5
2F75
330
2F69
100
AcDbEntity
  8
0
100
AcDbBlockBegin
  2
*D20
 70
     1
 10
0.0
 20
0.0
 30
0.0
  3
*D20
  1

  0
LINE
  5
30DC
330
2F69
100
AcDbEntity
  8
寸法線
 62
     0
370
    -2
100
AcDbLine
 10
155.5397024588517
 20
261.8067574804456
 30
0.0
 11
155.5397024588517
 21
252.3273608406519
 31
0.0
  0
LINE
  5
30DD
330
2F69
100
AcDbEntity
  8
寸法線
 62
     0
370
    -2
100
AcDbLine
 10
160.5397024588517
 20
261.8067574804456
 30
0.0
 11
160.5397024588517
 21
252.3273608406519
 31
0.0
  0
LINE
  5
30DE
330
2F69
100
AcDbEntity
  8
寸法線
 62
     0
370
    -2
100
AcDbLine
 10
152.5397024588517
 20
255.3273608406519
 30
0.0
 11
149.5397024588517
 21
255.3273608406519
 31
0.0
  0
LINE
  5
30DF
330
2F69
100
AcDbEntity
  8
寸法線
 62
     0
370
    -2
100
AcDbLine
 10
163.5397024588517
 20
255.3273608406519
 30
0.0
 11
166.5397024588517
 21
255.3273608406519
 31
0.0
  0
LINE
  5
30E0
330
2F69
100
AcDbEntity
  8
寸法線
 62
     0
370
    -2
100
AcDbLine
 10
155.5397024588517
 20
255.3273608406519
 30
0.0
 11
160.5397024588517
 21
255.3273608406519
 31
0.0
  0
INSERT
  5
30E1
330
2F69
100
AcDbEntity
  8
寸法線
 62
     0
370
    -2
100
AcDbBlockReference
  2
_Closed
 10
155.5397024588517
 20
255.3273608406519
 30
0.0
 41
3.0
 42
3.0
 43
3.0
  0
INSERT
  5
30E2
330
2F69
100
AcDbEntity
  8
寸法線
 62
     0
370
    -2
100
AcDbBlockReference
  2
_Closed
 10
160.5397024588517
 20
255.3273608406519
 30
0.0
 41
3.0
 42
3.0
 43
3.0
 50
180.0
  0
MTEXT
  5
30E3
330
2F69
100
AcDbEntity
  8
寸法線
 62
     0
100
AcDbMText
 10
158.0397024588517
 20
258.8273608406519
 30
0.0
 40
5.0
 41
0.0
 71
     5
 72
     1
  1
4
  7
OKANO
 73
     1
 44
1.0
  0
POINT
  5
30E4
330
2F69
100
AcDbEntity
  8
Defpoints
 62
     0
100
AcDbPoint
 10
155.5397024588517
 20
263.8067574804456
 30
0.0
  0
POINT
  5
30E5
330
2F69
100
AcDbEntity
  8
Defpoints
 62
     0
100
AcDbPoint
 10
160.5397024588517
 20
263.8067574804456
 30
0.0
  0
POINT
  5
30E6
330
2F69
100
AcDbEntity
  8
Defpoints
 62
     0
100
AcDbPoint
 10
160.5397024588517
 20
255.3273608406519
 30
0.0
  0
ENDBLK
  5
2F76
330
2F69
100
AcDbEntity
  8
0
100
AcDbBlockEnd
  0
BLOCK
  5
2F81
330
2F77
100
AcDbEntity
  8
0
100
AcDbBlockBegin
  2
*D21
 70
     1
 10
0.0
 20
0.0
 30
0.0
  3
*D21
  1

  0
LINE
  5
3116
330
2F77
100
AcDbEntity
  8
寸法線
 62
     0
370
    -2
100
AcDbLine
 10
202.7497361001764
 20
260.756985727721
 30
0.0
 11
263.9790936909174
 21
222.6941302622821
 31
0.0
  0
LINE
  5
3117
330
2F77
100
AcDbEntity
  8
寸法線
 62
     0
370
    -2
100
AcDbLine
 10
233.1097345999777
 20
309.595234510359
 30
0.0
 11
294.3390921907188
 21
271.5323790449202
 31
0.0
  0
LINE
  5
3118
330
2F77
100
AcDbEntity
  8
寸法線
 62
     0
370
    -2
100
AcDbLine
 10
263.0151064122898
 20
226.8258040788659
 30
0.0
 11
290.207418374135
 21
270.5683917662925
 31
0.0
  0
INSERT
  5
3119
330
2F77
100
AcDbEntity
  8
寸法線
 62
     0
370
    -2
100
AcDbBlockReference
  2
_Closed
 10
261.4312631433117
 20
224.2779735312602
 30
0.0
 41
3.0
 42
3.0
 43
3.0
 50
238.1331024231591
  0
INSERT
  5
311A
330
2F77
100
AcDbEntity
  8
寸法線
 62
     0
370
    -2
100
AcDbBlockReference
  2
_Closed
 10
291.791261643113
 20
273.1162223138982
 30
0.0
 41
3.0
 42
3.0
 43
3.0
 50
58.13310242315916
  0
MTEXT
  5
311B
330
2F77
100
AcDbEntity
  8
寸法線
 62
     0
100
AcDbMText
 10
273.6387934210057
 20
250.5449150697203
 30
0.0
 40
5.0
 41
0.0
 71
     5
 72
     1
  1
57
  7
OKANO
 11
0.5279477563260233
 21
0.8492768492019065
 31
0.0
 73
     1
 44
1.0
  0
POINT
  5
311C
330
2F77
100
AcDbEntity
  8
Defpoints
 62
     0
100
AcDbPoint
 10
201.0511824017726
 20
261.812881240373
 30
0.0
  0
POINT
  5
311D
330
2F77
100
AcDbEntity
  8
Defpoints
 62
     0
100
AcDbPoint
 10
231.411180901574
 20
310.651130023011
 30
0.0
  0
POINT
  5
311E
330
2F77
100
AcDbEntity
  8
Defpoints
 62
     0
100
AcDbPoint
 10
291.791261643113
 20
273.1162223138982
 30
0.0
  0
ENDBLK
  5
2F82
330
2F77
100
AcDbEntity
  8
0
100
AcDbBlockEnd
  0
BLOCK
  5
2F8D
330
2F83
100
AcDbEntity
  8
0
100
AcDbBlockBegin
  2
*D22
 70
     1
 10
0.0
 20
0.0
 30
0.0
  3
*D22
  1

  0
LINE
  5
311F
330
2F83
100
AcDbEntity
  8
寸法線
 62
     0
370
    -2
100
AcDbLine
 10
188.0397024588517
 20
251.8067574804457
 30
0.0
 11
188.0397024588517
 21
232.594452579626
 31
0.0
  0
LINE
  5
3120
330
2F83
100
AcDbEntity
  8
寸法線
 62
     0
370
    -2
100
AcDbLine
 10
245.3047383040589
 20
273.693225142015
 30
0.0
 11
245.3047383040589
 21
232.594452579626
 31
0.0
  0
LINE
  5
3121
330
2F83
100
AcDbEntity
  8
寸法線
 62
     0
370
    -2
100
AcDbLine
 10
191.0397024588517
 20
235.594452579626
 30
0.0
 11
242.3047383040588
 21
235.594452579626
 31
0.0
  0
INSERT
  5
3122
330
2F83
100
AcDbEntity
  8
寸法線
 62
     0
370
    -2
100
AcDbBlockReference
  2
_Closed
 10
188.0397024588517
 20
235.594452579626
 30
0.0
 41
3.0
 42
3.0
 43
3.0
 50
180.0
  0
INSERT
  5
3123
330
2F83
100
AcDbEntity
  8
寸法線
 62
     0
370
    -2
100
AcDbBlockReference
  2
_Closed
 10
245.3047383040589
 20
235.594452579626
 30
0.0
 41
3.0
 42
3.0
 43
3.0
  0
MTEXT
  5
3124
330
2F83
100
AcDbEntity
  8
寸法線
 62
     0
100
AcDbMText
 10
216.6722203814553
 20
239.094452579626
 30
0.0
 40
5.0
 41
0.0
 71
     5
 72
     1
  1
57
  7
OKANO
 73
     1
 44
1.0
  0
POINT
  5
3125
330
2F83
100
AcDbEntity
  8
Defpoints
 62
     0
100
AcDbPoint
 10
188.0397024588517
 20
253.8067574804457
 30
0.0
  0
POINT
  5
3126
330
2F83
100
AcDbEntity
  8
Defpoints
 62
     0
100
AcDbPoint
 10
245.3047383040589
 20
275.693225142015
 30
0.0
  0
POINT
  5
3127
330
2F83
100
AcDbEntity
  8
Defpoints
 62
     0
100
AcDbPoint
 10
245.3047383040589
 20
235.594452579626
 30
0.0
  0
ENDBLK
  5
2F8E
330
2F83
100
AcDbEntity
  8
0
100
AcDbBlockEnd
  0
BLOCK
  5
2F99
330
2F8F
100
AcDbEntity
  8
0
100
AcDbBlockBegin
  2
*D23
 70
     1
 10
0.0
 20
0.0
 30
0.0
  3
*D23
  1

  0
LINE
  5
3104
330
2F8F
100
AcDbEntity
  8
寸法線
 62
     0
370
    -2
100
AcDbLine
 10
229.645079813662
 20
279.152820303267
 30
0.0
 11
261.928785156203
 21
328.8673393338431
 31
0.0
  0
LINE
  5
3105
330
2F8F
100
AcDbEntity
  8
寸法線
 62
     0
370
    -2
100
AcDbLine
 10
239.5989640708491
 20
272.6889487293482
 30
0.0
 11
271.8826694133901
 21
322.4034677599243
 31
0.0
  0
LINE
  5
3106
330
2F8F
100
AcDbEntity
  8
寸法線
 62
     0
370
    -2
100
AcDbLine
 10
262.810954956847
 20
324.7174265103212
 30
0.0
 11
267.7327565898682
 21
321.5212979592802
 31
0.0
  0
INSERT
  5
3107
330
2F8F
100
AcDbEntity
  8
寸法線
 62
     0
370
    -2
100
AcDbBlockReference
  2
_Closed
 10
260.294913644764
 20
326.3512980217601
 30
0.0
 41
3.0
 42
3.0
 43
3.0
 50
147.0010382725287
  0
INSERT
  5
3108
330
2F8F
100
AcDbEntity
  8
寸法線
 62
     0
370
    -2
100
AcDbBlockReference
  2
_Closed
 10
270.2487979019512
 20
319.8874264478413
 30
0.0
 41
3.0
 42
3.0
 43
3.0
 50
327.0010382725287
  0
MTEXT
  5
3109
330
2F8F
100
AcDbEntity
  8
寸法線
 62
     0
100
AcDbMText
 10
267.1780392033697
 20
326.0547437655642
 30
0.0
 40
5.0
 41
0.0
 71
     5
 72
     1
  1
10
  7
OKANO
 11
0.8386804373609935
 21
-0.544623837146312
 31
0.0
 73
     1
 44
1.0
  0
POINT
  5
310A
330
2F8F
100
AcDbEntity
  8
Defpoints
 62
     0
100
AcDbPoint
 10
228.5558321393693
 20
277.475459428545
 30
0.0
  0
POINT
  5
310B
330
2F8F
100
AcDbEntity
  8
Defpoints
 62
     0
100
AcDbPoint
 10
238.5097163965565
 20
271.0115878546262
 30
0.0
  0
POINT
  5
310C
330
2F8F
100
AcDbEntity
  8
Defpoints
 62
     0
100
AcDbPoint
 10
270.2487979019512
 20
319.8874264478413
 30
0.0
  0
ENDBLK
  5
2F9A
330
2F8F
100
AcDbEntity
  8
0
100
AcDbBlockEnd
  0
BLOCK
  5
2FA5
330
2F9B
100
AcDbEntity
  8
0
100
AcDbBlockBegin
  2
*D24
 70
     1
 10
0.0
 20
0.0
 30
0.0
  3
*D24
  1

  0
LINE
  5
310D
330
2F9B
100
AcDbEntity
  8
寸法線
 62
     0
370
    -2
100
AcDbLine
 10
206.0829053581307
 20
296.0317997972763
 30
0.0
 11
214.493484948839
 21
309.5458464414884
 31
0.0
  0
LINE
  5
310E
330
2F9B
100
AcDbEntity
  8
寸法線
 62
     0
370
    -2
100
AcDbLine
 10
231.0513954062097
 20
280.4924518626502
 30
0.0
 11
239.4619749969181
 21
294.0064985068623
 31
0.0
  0
LINE
  5
310F
330
2F9B
100
AcDbEntity
  8
寸法線
 62
     0
370
    -2
100
AcDbLine
 10
215.4553436621156
 20
305.4136765737683
 30
0.0
 11
235.3298051291979
 21
293.0446397935857
 31
0.0
  0
INSERT
  5
3110
330
2F9B
100
AcDbEntity
  8
寸法線
 62
     0
370
    -2
100
AcDbBlockReference
  2
_Closed
 10
212.9083293716173
 20
306.99883215099
 30
0.0
 41
3.0
 42
3.0
 43
3.0
 50
148.103586422374
  0
INSERT
  5
3111
330
2F9B
100
AcDbEntity
  8
寸法線
 62
     0
370
    -2
100
AcDbBlockReference
  2
_Closed
 10
237.8768194196963
 20
291.4594842163639
 30
0.0
 41
3.0
 42
3.0
 43
3.0
 50
328.103586422374
  0
MTEXT
  5
3112
330
2F9B
100
AcDbEntity
  8
寸法線
 62
     0
100
AcDbMText
 10
227.2419225690821
 20
302.2006748559251
 30
0.0
 40
5.0
 41
0.0
 71
     5
 72
     1
  1
30
  7
OKANO
 11
0.8490047634994459
 21
-0.528385192407253
 31
0.0
 73
     1
 44
1.0
  0
POINT
  5
3113
330
2F9B
100
AcDbEntity
  8
Defpoints
 62
     0
100
AcDbPoint
 10
205.0261349733161
 20
294.3337902702774
 30
0.0
  0
POINT
  5
3114
330
2F9B
100
AcDbEntity
  8
Defpoints
 62
     0
100
AcDbPoint
 10
229.9946250213952
 20
278.7944423356512
 30
0.0
  0
POINT
  5
3115
330
2F9B
100
AcDbEntity
  8
Defpoints
 62
     0
100
AcDbPoint
 10
237.8768194196963
 20
291.4594842163639
 30
0.0
  0
ENDBLK
  5
2FA6
330
2F9B
100
AcDbEntity
  8
0
100
AcDbBlockEnd
  0
BLOCK
  5
2FB1
330
2FA7
100
AcDbEntity
  8
0
100
AcDbBlockBegin
  2
*D25
 70
     1
 10
0.0
 20
0.0
 30
0.0
  3
*D25
  1

  0
LINE
  5
3128
330
2FA7
100
AcDbEntity
  8
寸法線
 62
     0
370
    -2
100
AcDbLine
 10
205.1401378931863
 20
286.5643879797687
 30
0.0
 11
193.838887070636
 21
293.3515933150248
 31
0.0
  0
LINE
  5
3129
330
2FA7
100
AcDbEntity
  8
寸法線
 62
     0
370
    -2
100
AcDbLine
 10
211.3188186482615
 20
296.852395711442
 30
0.0
 11
200.0175678257113
 21
303.6396010466981
 31
0.0
  0
LINE
  5
312A
330
2FA7
100
AcDbEntity
  8
寸法線
 62
     0
370
    -2
100
AcDbLine
 10
197.9552847898178
 20
294.3788565809481
 30
0.0
 11
201.0448310916347
 21
299.5232033275163
 31
0.0
  0
INSERT
  5
312B
330
2FA7
100
AcDbEntity
  8
寸法線
 62
     0
370
    -2
100
AcDbBlockReference
  2
_Closed
 10
196.4107175631886
 20
291.8070260883956
 30
0.0
 41
3.0
 42
3.0
 43
3.0
 50
239.0121869169892
  0
INSERT
  5
312C
330
2FA7
100
AcDbEntity
  8
寸法線
 62
     0
370
    -2
100
AcDbBlockReference
  2
_Closed
 10
202.5893983182638
 20
302.0950338200689
 30
0.0
 41
3.0
 42
3.0
 43
3.0
 50
59.01218691698926
  0
MTEXT
  5
312D
330
2FA7
100
AcDbEntity
  8
寸法線
 62
     0
100
AcDbMText
 10
196.4991671445441
 20
298.7532784258551
 30
0.0
 40
5.0
 41
0.0
 71
     5
 72
     1
  1
12
  7
OKANO
 11
0.5148557422097201
 21
0.8572768308508507
 31
0.0
 73
     1
 44
1.0
  0
POINT
  5
312E
330
2FA7
100
AcDbEntity
  8
Defpoints
 62
     0
100
AcDbPoint
 10
206.8546915548879
 20
285.5346764953493
 30
0.0
  0
POINT
  5
312F
330
2FA7
100
AcDbEntity
  8
Defpoints
 62
     0
100
AcDbPoint
 10
213.0333723099631
 20
295.8226842270226
 30
0.0
  0
POINT
  5
3130
330
2FA7
100
AcDbEntity
  8
Defpoints
 62
     0
100
AcDbPoint
 10
202.5893983182638
 20
302.0950338200689
 30
0.0
  0
ENDBLK
  5
2FB2
330
2FA7
100
AcDbEntity
  8
0
100
AcDbBlockEnd
  0
BLOCK
  5
32AC
330
32A2
100
AcDbEntity
  8
0
100
AcDbBlockBegin
  2
*D26
 70
     1
 10
0.0
 20
0.0
 30
0.0
  3
*D26
  1

  0
LINE
  5
3306
330
32A2
100
AcDbEntity
  8
寸法線
 62
     0
370
    -2
100
AcDbLine
 10
201.8493534268122
 20
135.7011995551881
 30
0.0
 11
211.5546569959146
 21
135.7011995551881
 31
0.0
  0
LINE
  5
3307
330
32A2
100
AcDbEntity
  8
寸法線
 62
     0
370
    -2
100
AcDbLine
 10
162.6754797253333
 20
192.2314057107175
 30
0.0
 11
211.5546569959147
 21
192.2314057107175
 31
0.0
  0
LINE
  5
3308
330
32A2
100
AcDbEntity
  8
寸法線
 62
     0
370
    -2
100
AcDbLine
 10
208.5546569959146
 20
138.7011995551881
 30
0.0
 11
208.5546569959146
 21
189.2314057107175
 31
0.0
  0
INSERT
  5
3309
330
32A2
100
AcDbEntity
  8
寸法線
 62
     0
370
    -2
100
AcDbBlockReference
  2
_Closed
 10
208.5546569959146
 20
135.7011995551881
 30
0.0
 41
3.0
 42
3.0
 43
3.0
 50
270.0
  0
INSERT
  5
330A
330
32A2
100
AcDbEntity
  8
寸法線
 62
     0
370
    -2
100
AcDbBlockReference
  2
_Closed
 10
208.5546569959147
 20
192.2314057107175
 30
0.0
 41
3.0
 42
3.0
 43
3.0
 50
90.0
  0
MTEXT
  5
330B
330
32A2
100
AcDbEntity
  8
寸法線
 62
     0
100
AcDbMText
 10
205.0546569959146
 20
163.9663026329529
 30
0.0
 40
5.0
 41
0.0
 71
     5
 72
     1
  1
57
  7
OKANO
 11
0.0000000000000001
 21
1.0
 31
0.0
 73
     1
 44
1.0
  0
POINT
  5
330C
330
32A2
100
AcDbEntity
  8
Defpoints
 62
     0
100
AcDbPoint
 10
199.8493534268122
 20
135.7011995551881
 30
0.0
  0
POINT
  5
330D
330
32A2
100
AcDbEntity
  8
Defpoints
 62
     0
100
AcDbPoint
 10
160.6754797253334
 20
192.2314057107175
 30
0.0
  0
POINT
  5
330E
330
32A2
100
AcDbEntity
  8
Defpoints
 62
     0
100
AcDbPoint
 10
208.5546569959147
 20
192.2314057107175
 30
0.0
  0
ENDBLK
  5
32AD
330
32A2
100
AcDbEntity
  8
0
100
AcDbBlockEnd
  0
BLOCK
  5
32BB
330
32AF
100
AcDbEntity
  8
0
100
AcDbBlockBegin
  2
*D27
 70
     1
 10
0.0
 20
0.0
 30
0.0
  3
*D27
  1

  0
LINE
  5
3323
330
32AF
100
AcDbEntity
  8
寸法線
 62
     0
370
    -2
100
AcDbLine
 10
154.8719440125983
 20
194.2314057107175
 30
0.0
 11
154.8719440125983
 21
206.8273444041496
 31
0.0
  0
LINE
  5
3324
330
32AF
100
AcDbEntity
  8
寸法線
 62
     0
370
    -2
100
AcDbLine
 10
160.6754797253334
 20
193.5066588388713
 30
0.0
 11
160.6754797253334
 21
206.8273444041496
 31
0.0
  0
LINE
  5
3325
330
32AF
100
AcDbEntity
  8
寸法線
 62
     0
370
    -2
100
AcDbLine
 10
151.8719440125983
 20
203.8273444041497
 30
0.0
 11
148.8719440125983
 21
203.8273444041497
 31
0.0
  0
LINE
  5
3326
330
32AF
100
AcDbEntity
  8
寸法線
 62
     0
370
    -2
100
AcDbLine
 10
163.6754797253333
 20
203.8273444041497
 30
0.0
 11
166.6754797253333
 21
203.8273444041497
 31
0.0
  0
LINE
  5
3327
330
32AF
100
AcDbEntity
  8
寸法線
 62
     0
370
    -2
100
AcDbLine
 10
154.8719440125983
 20
203.8273444041497
 30
0.0
 11
160.6754797253334
 21
203.8273444041497
 31
0.0
  0
INSERT
  5
3328
330
32AF
100
AcDbEntity
  8
寸法線
 62
     0
370
    -2
100
AcDbBlockReference
  2
_Closed
 10
154.8719440125983
 20
203.8273444041497
 30
0.0
 41
3.0
 42
3.0
 43
3.0
  0
INSERT
  5
3329
330
32AF
100
AcDbEntity
  8
寸法線
 62
     0
370
    -2
100
AcDbBlockReference
  2
_Closed
 10
160.6754797253334
 20
203.8273444041497
 30
0.0
 41
3.0
 42
3.0
 43
3.0
 50
180.0
  0
MTEXT
  5
332A
330
32AF
100
AcDbEntity
  8
寸法線
 62
     0
100
AcDbMText
 10
157.7737118689658
 20
207.3273444041496
 30
0.0
 40
5.0
 41
0.0
 71
     5
 72
     1
  1
4
  7
OKANO
 73
     1
 44
1.0
  0
POINT
  5
332B
330
32AF
100
AcDbEntity
  8
Defpoints
 62
     0
100
AcDbPoint
 10
154.8719440125983
 20
192.2314057107175
 30
0.0
  0
POINT
  5
332C
330
32AF
100
AcDbEntity
  8
Defpoints
 62
     0
100
AcDbPoint
 10
160.6754797253334
 20
191.5066588388713
 30
0.0
  0
POINT
  5
332D
330
32AF
100
AcDbEntity
  8
Defpoints
 62
     0
100
AcDbPoint
 10
160.6754797253334
 20
203.8273444041497
 30
0.0
  0
ENDBLK
  5
32BC
330
32AF
100
AcDbEntity
  8
0
100
AcDbBlockEnd
  0
ENDSEC
  0
SECTION
  2
ENTITIES
  0
LINE
  5
28FE
330
1F
100
AcDbEntity
  8
想像線
100
AcDbLine
 10
369.9744913262514
 20
253.8067574804457
 30
0.0
 11
369.9744913262514
 21
288.8067574804456
 31
0.0
  0
LINE
  5
28FF
330
1F
100
AcDbEntity
  8
想像線
100
AcDbLine
 10
369.9744913262514
 20
288.8067574804456
 30
0.0
 11
419.9744913262515
 21
288.8067574804456
 31
0.0
  0
LINE
  5
2900
330
1F
100
AcDbEntity
  8
想像線
100
AcDbLine
 10
419.9744913262515
 20
288.8067574804456
 30
0.0
 11
419.9744913262515
 21
253.8067574804457
 31
0.0
  0
ARC
  5
290A
330
1F
100
AcDbEntity
  8
太線
100
AcDbCircle
 10
158.0397024588517
 20
105.5354920836011
 30
0.0
 40
30.0
100
AcDbArc
 50
277.8757189011013
 51
262.0883173153409
  0
CIRCLE
  5
290B
330
1F
100
AcDbEntity
  8
太線
100
AcDbCircle
 10
158.0397024588517
 20
105.5354920836011
 30
0.0
 40
25.0
  0
LINE
  5
290F
330
1F
100
AcDbEntity
  8
太線
100
AcDbLine
 10
154.3872766724492
 20
135.5354920836011
 30
0.0
 11
128.0397024588516
 21
135.5354920836011
 31
0.0
  0
LINE
  5
2911
330
1F
100
AcDbEntity
  8
太線
100
AcDbLine
 10
128.0397024588516
 20
75.53549208360118
 30
0.0
 11
154.1589013920539
 21
75.53549208360118
 31
0.0
  0
TEXT
  5
29C1
330
1F
100
AcDbEntity
  8
文字
100
AcDbText
 10
465.2227382894468
 20
39.33931774947291
 30
0.0
 40
4.319999999999999
  1
SET SCREW COUP
 51
15.0
  7
OKANO
100
AcDbText
  0
TEXT
  5
29C2
330
1F
100
AcDbEntity
  8
文字
100
AcDbText
 10
435.8005586607241
 20
28.80124791136072
 30
0.0
 40
5.759999999999999
  1
joint kogyo T.okano
 51
15.0
  7
OKANO
100
AcDbText
  0
TEXT
  5
29C3
330
1F
100
AcDbEntity
  8
文字
100
AcDbText
 10
426.8145830465679
 20
46.50409372010607
 30
0.0
 40
5.759999999999999
  1
F-999-20050127 Auto CAD
 51
15.0
  7
OKANO
100
AcDbText
  0
LINE
  5
29C4
330
1F
100
AcDbEntity
  8
太線
100
AcDbLine
 10
393.9079092286313
 20
45.39912453958964
 30
0.0
 11
523.5079092286313
 21
45.39912453958964
 31
0.0
  0
LWPOLYLINE
  5
29C5
330
1F
100
AcDbEntity
  8
太線
100
AcDbPolyline
 90
        4
 70
     1
 43
0.0
 10
393.9079092286313
 20
55.47912453958964
 10
523.5079092286313
 20
55.47912453958964
 10
523.5079092286313
 20
25.23912453958965
 10
393.9079092286313
 20
25.23912453958965
  0
TEXT
  5
29C6
330
1F
100
AcDbEntity
  8
文字
100
AcDbText
 10
398.5547695079003
 20
35.56691038096882
 30
0.0
 40
2.879999999999999
  1
CHECK
 51
15.0
  7
OKANO
100
AcDbText
  0
LINE
  5
29C7
330
1F
100
AcDbEntity
  8
太線
100
AcDbLine
 10
422.7079092286313
 20
55.47912453958964
 30
0.0
 11
422.7079092286313
 21
25.23912453958964
 31
0.0
  0
TEXT
  5
29C8
330
1F
100
AcDbEntity
  8
文字
100
AcDbText
 10
398.5547695079003
 20
27.26359725350985
 30
0.0
 40
2.879999999999999
  1
ISSUED
 51
15.0
  7
OKANO
100
AcDbText
  0
TEXT
  5
29C9
330
1F
100
AcDbEntity
  8
文字
100
AcDbText
 10
398.8625868273811
 20
31.26148868063161
 30
0.0
 40
2.879999999999999
  1
APPR
 51
15.0
  7
OKANO
100
AcDbText
  0
TEXT
  5
29CA
330
1F
100
AcDbEntity
  8
文字
100
AcDbText
 10
396.4000548458774
 20
47.56058395410783
 30
0.0
 40
2.879999999999999
  1
FILM NAME
 51
15.0
  7
OKANO
100
AcDbText
  0
TEXT
  5
29CB
330
1F
100
AcDbEntity
  8
文字
100
AcDbText
 10
397.9391374986759
 20
39.87233137307967
 30
0.0
 40
2.879999999999999
  1
DRAWN
 51
15.0
  7
OKANO
100
AcDbText
  0
TEXT
  5
29CC
330
1F
100
AcDbEntity
  8
文字
100
AcDbText
 10
429.4693458457529
 20
36.9967017349229
 30
0.0
 40
5.759999999999999
  1
W-3-2T
 51
15.0
  7
OKANO
100
AcDbText
  0
LINE
  5
29DF
330
1F
100
AcDbEntity
  8
太線
100
AcDbLine
 10
158.0397024588517
 20
135.5354920836011
 30
0.0
 11
160.5397024588517
 21
135.5354920836011
 31
0.0
  0
LINE
  5
29E1
330
1F
100
AcDbEntity
  8
太線
100
AcDbLine
 10
188.629479202852
 20
75.53549208360118
 30
0.0
 11
161.934415725987
 21
75.53549208360118
 31
0.0
  0
LINE
  5
2A65
330
1F
100
AcDbEntity
  8
太線
100
AcDbLine
 10
364.9744913262515
 20
348.8067574804456
 30
0.0
 11
424.9744913262515
 21
348.8067574804456
 31
0.0
  0
CIRCLE
  5
2A91
330
1F
100
AcDbEntity
  8
太線
 62
     0
100
AcDbCircle
 10
427.9744913262515
 20
285.8067574804456
 30
0.0
 40
3.0
  0
LINE
  5
2A94
330
1F
100
AcDbEntity
  8
太線
 62
     0
100
AcDbLine
 10
424.9744913262515
 20
348.8067574804456
 30
0.0
 11
434.9744913262514
 21
348.8145085420578
 31
0.0
  0
LINE
  5
2A96
330
1F
100
AcDbEntity
  8
太線
 62
     0
100
AcDbLine
 10
424.9744913262515
 20
288.8067574804456
 30
0.0
 11
434.9744913262514
 21
288.8067574804456
 31
0.0
  0
LINE
  5
2A97
330
1F
100
AcDbEntity
  8
太線
 62
     0
100
AcDbLine
 10
424.9744913262515
 20
253.8067574804457
 30
0.0
 11
424.9744913262515
 21
263.8067574804456
 31
0.0
  0
LINE
  5
2A99
330
1F
100
AcDbEntity
  8
太線
 62
     0
100
AcDbLine
 10
424.9744913262515
 20
288.8067574804456
 30
0.0
 11
424.9744913262515
 21
263.8067574804456
 31
0.0
  0
LINE
  5
2A9E
330
1F
100
AcDbEntity
  8
太線
 62
     0
100
AcDbLine
 10
364.9744913262515
 20
348.8067574804456
 30
0.0
 11
354.9744913262514
 21
348.8145085420578
 31
0.0
  0
CIRCLE
  5
2AA1
330
1F
100
AcDbEntity
  8
太線
 62
     0
100
AcDbCircle
 10
361.9744913262515
 20
285.8067574804456
 30
0.0
 40
3.0
  0
LINE
  5
2AAC
330
1F
100
AcDbEntity
  8
太線
 62
     0
100
AcDbLine
 10
188.0397024588517
 20
135.5354920836011
 30
0.0
 11
199.5397024588516
 21
135.5354920836011
 31
0.0
  0
LINE
  5
2AAE
330
1F
100
AcDbEntity
  8
太線
 62
     0
100
AcDbLine
 10
199.5397024588516
 20
75.53549208360118
 30
0.0
 11
188.0397024588517
 21
75.53549208360118
 31
0.0
  0
LINE
  5
2AAF
330
1F
100
AcDbEntity
  8
太線
 62
     0
100
AcDbLine
 10
128.0397024588516
 20
135.5354920836011
 30
0.0
 11
116.5397024588517
 21
135.5354920836011
 31
0.0
  0
LINE
  5
2AB1
330
1F
100
AcDbEntity
  8
太線
 62
     0
100
AcDbLine
 10
118.0397024588517
 20
75.53549208360118
 30
0.0
 11
128.0397024588516
 21
75.53549208360118
 31
0.0
  0
LINE
  5
2AB2
330
1F
100
AcDbEntity
  8
太線
 62
     0
100
AcDbLine
 10
187.9353543166051
 20
108.0354920836011
 30
0.0
 11
198.0397024588517
 21
108.0354920836011
 31
0.0
  0
LINE
  5
2AB3
330
1F
100
AcDbEntity
  8
太線
 62
     0
100
AcDbLine
 10
198.0397024588517
 20
103.0354920836011
 30
0.0
 11
188.0397024588517
 21
103.0354920836011
 31
0.0
  0
LINE
  5
2AB4
330
1F
100
AcDbEntity
  8
太線
 62
     0
100
AcDbLine
 10
128.0397024588516
 20
108.0354920836011
 30
0.0
 11
118.0397024588517
 21
108.0354920836011
 31
0.0
  0
LINE
  5
2AB5
330
1F
100
AcDbEntity
  8
太線
 62
     0
100
AcDbLine
 10
118.0397024588517
 20
103.0354920836011
 30
0.0
 11
128.0397024588516
 21
103.0354920836011
 31
0.0
  0
LINE
  5
2AC1
330
1F
100
AcDbEntity
  8
破線
 62
     0
100
AcDbLine
 10
194.0397024588517
 20
108.0354920836011
 30
0.0
 11
194.0397024588517
 21
103.0354920836011
 31
0.0
  0
LINE
  5
2AC2
330
1F
100
AcDbEntity
  8
破線
 62
     0
100
AcDbLine
 10
122.0397024588517
 20
108.0354920836011
 30
0.0
 11
122.0397024588517
 21
103.0354920836011
 31
0.0
  0
LINE
  5
2AC5
330
1F
100
AcDbEntity
  8
太線
 62
     0
100
AcDbLine
 10
364.9744913262515
 20
253.8067574804457
 30
0.0
 11
364.9744913262515
 21
288.8067574804456
 31
0.0
  0
LINE
  5
2AC6
330
1F
100
AcDbEntity
  8
太線
 62
     0
100
AcDbLine
 10
364.9744913262515
 20
288.8067574804456
 30
0.0
 11
354.9744913262514
 21
288.8067574804456
 31
0.0
  0
DIMENSION
  5
2B0D
330
1F
100
AcDbEntity
  8
寸法線
100
AcDbDimension
  2
*D2
 10
442.5748596754077
 20
263.8067574804456
 30
0.0
 11
439.0743675494234
 21
276.3067574804458
 31
0.0
 70
    32
 71
     5
 42
25.0
  3
sunpo
100
AcDbAlignedDimension
 13
434.9744913262514
 23
288.8067574804456
 33
0.0
 14
424.9744913262515
 24
263.8067574804456
 34
0.0
 50
90.0
100
AcDbRotatedDimension
1001
ACAD
1000
DSTYLE
1002
{
1070
    40
1040
1.0
1002
}
  0
LINE
  5
2B1A
330
1F
100
AcDbEntity
  8
想像線
100
AcDbLine
 10
354.9744913262514
 20
343.8067574804457
 30
0.0
 11
434.9744913262514
 21
343.8067574804457
 31
0.0
  0
LINE
  5
2B1B
330
1F
100
AcDbEntity
  8
想像線
100
AcDbLine
 10
354.9744913262514
 20
293.8067574804457
 30
0.0
 11
434.9744913262514
 21
293.8067574804457
 31
0.0
  0
DIMENSION
  5
2B29
330
1F
100
AcDbEntity
  8
寸法線
100
AcDbDimension
  2
*D3
 10
360.3540453506314
 20
283.2820486180029
 30
0.0
 11
374.5750466885786
 21
305.4388428900154
 31
0.0
 70
   163
 71
     5
 42
6.0
  3
sunpo
100
AcDbDiametricDimension
 15
363.5949373018716
 25
288.3314663428883
 35
0.0
 40
0.0
1001
ACAD
1000
DSTYLE
1002
{
1070
    40
1040
1.0
1070
   288
1070
     1
1002
}
  0
LINE
  5
2B69
330
1F
100
AcDbEntity
  8
太線
100
AcDbLine
 10
364.9744913262515
 20
253.8067574804457
 30
0.0
 11
424.9744913262515
 21
253.8067574804457
 31
0.0
  0
CIRCLE
  5
2B6B
330
1F
100
AcDbEntity
  8
細線
100
AcDbCircle
 10
158.0397024588517
 20
105.5354920836011
 30
0.0
 40
23.95306275369432
  0
DIMENSION
  5
2C0C
330
1F
100
AcDbEntity
  8
寸法線
100
AcDbDimension
  2
*D4
 10
419.9744913262515
 20
238.0324372370286
 30
0.0
 11
422.4744913262514
 21
241.5324372370286
 31
0.0
 70
    32
  1
4
 71
     5
 42
5.0
  3
sunpo
100
AcDbAlignedDimension
 13
424.9744913262515
 23
253.8067574804457
 33
0.0
 14
419.9744913262515
 24
253.8067574804457
 34
0.0
100
AcDbRotatedDimension
1001
ACAD
1000
DSTYLE
1002
{
1070
    40
1040
1.0
1002
}
  0
DIMENSION
  5
2C1B
330
1F
100
AcDbEntity
  8
寸法線
100
AcDbDimension
  2
*D5
 10
369.9744913262514
 20
238.0324372370286
 30
0.0
 11
394.9744913262514
 21
241.5324372370286
 31
0.0
 70
    32
  1
49.3
 71
     5
 42
50.0
  3
sunpo
100
AcDbAlignedDimension
 13
419.9744913262515
 23
253.8067574804457
 33
0.0
 14
369.9744913262514
 24
253.8067574804457
 34
0.0
100
AcDbRotatedDimension
1001
ACAD
1000
DSTYLE
1002
{
1070
    40
1040
1.0
1070
   279
1070
     1
1002
}
  0
DIMENSION
  5
2C28
330
1F
100
AcDbEntity
  8
寸法線
100
AcDbDimension
  2
*D6
 10
364.9744913262515
 20
238.0324372370286
 30
0.0
 11
367.4744913262514
 21
241.5324372370286
 31
0.0
 70
    32
  1
4
 71
     5
 42
5.0
  3
sunpo
100
AcDbAlignedDimension
 13
369.9744913262514
 23
253.8067574804457
 33
0.0
 14
364.9744913262515
 24
253.8067574804457
 34
0.0
100
AcDbRotatedDimension
1001
ACAD
1000
DSTYLE
1002
{
1070
    40
1040
1.0
1070
   279
1070
     1
1002
}
  0
DIMENSION
  5
2C56
330
1F
100
AcDbEntity
  8
寸法線
100
AcDbDimension
  2
*D7
 10
447.112768128771
 20
343.8067574804457
 30
0.0
 11
443.612768128771
 21
318.8067574804458
 31
0.0
 70
    32
  1
49.6
 71
     5
 42
50.0
  3
sunpo
100
AcDbAlignedDimension
 13
434.9744913262514
 23
293.8067574804457
 33
0.0
 14
434.9744913262514
 24
343.8067574804457
 34
0.0
 50
90.0
100
AcDbRotatedDimension
1001
ACAD
1000
DSTYLE
1002
{
1070
    40
1040
1.0
1002
}
  0
DIMENSION
  5
2CBF
330
1F
100
AcDbEntity
  8
寸法線
100
AcDbDimension
  2
*D8
 10
419.9744913262515
 20
296.1085373559429
 30
0.0
 11
394.9744913262514
 21
299.6085373559428
 31
0.0
 70
    32
  1
49.0
 71
     5
 42
50.0
  3
sunpo
100
AcDbAlignedDimension
 13
369.9744913262514
 23
288.8067574804456
 33
0.0
 14
419.9744913262515
 24
288.8067574804456
 34
0.0
100
AcDbRotatedDimension
1001
ACAD
1000
DSTYLE
1002
{
1070
    40
1040
1.0
1002
}
  0
DIMENSION
  5
2D49
330
1F
100
AcDbEntity
  8
寸法線
100
AcDbDimension
  2
*D9
 10
103.7409781245173
 20
75.53549208360118
 30
0.0
 11
100.2409781245173
 21
105.5354920836012
 31
0.0
 70
    32
  1
57.3
 71
     5
 42
60.0
  3
sunpo
100
AcDbAlignedDimension
 13
118.0397024588517
 23
135.5354920836011
 33
0.0
 14
118.0397024588517
 24
75.53549208360118
 34
0.0
 50
90.0
100
AcDbRotatedDimension
1001
ACAD
1000
DSTYLE
1002
{
1070
    40
1040
1.0
1002
}
  0
DIMENSION
  5
2D5F
330
1F
100
AcDbEntity
  8
寸法線
100
AcDbDimension
  2
*D10
 10
211.3822664382105
 20
108.0354920836011
 30
0.0
 11
207.8822664382105
 21
105.5354920836012
 31
0.0
 70
    32
  1
4
 71
     5
 42
5.0
  3
sunpo
100
AcDbAlignedDimension
 13
198.0397024588517
 23
103.0354920836011
 33
0.0
 14
198.0397024588517
 24
108.0354920836011
 34
0.0
 50
90.0
100
AcDbRotatedDimension
1001
ACAD
1000
DSTYLE
1002
{
1070
    40
1040
1.0
1002
}
  0
LINE
  5
2D92
330
1F
100
AcDbEntity
  8
太線
100
AcDbLine
 10
354.9744913262514
 20
348.8067574804456
 30
0.0
 11
352.9744913262514
 21
348.8145085420578
 31
0.0
  0
LINE
  5
2D93
330
1F
100
AcDbEntity
  8
太線
100
AcDbLine
 10
352.9744913262514
 20
348.8145085420578
 30
0.0
 11
352.9744913262514
 21
288.8067574804456
 31
0.0
  0
LINE
  5
2D94
330
1F
100
AcDbEntity
  8
太線
100
AcDbLine
 10
352.9744913262514
 20
288.8067574804456
 30
0.0
 11
364.9744913262515
 21
263.8067574804456
 31
0.0
  0
LINE
  5
2D95
330
1F
100
AcDbEntity
  8
太線
100
AcDbLine
 10
424.9744913262515
 20
263.8067574804456
 30
0.0
 11
436.9744913262515
 21
288.8067574804456
 31
0.0
  0
LINE
  5
2D96
330
1F
100
AcDbEntity
  8
太線
100
AcDbLine
 10
436.9744913262515
 20
288.8067574804456
 30
0.0
 11
436.9744913262515
 21
348.8067574804456
 31
0.0
  0
LINE
  5
2D97
330
1F
100
AcDbEntity
  8
太線
100
AcDbLine
 10
436.9744913262515
 20
348.8067574804456
 30
0.0
 11
434.9744913262514
 21
348.8067574804456
 31
0.0
  0
LINE
  5
2D9A
330
1F
100
AcDbEntity
  8
太線
100
AcDbLine
 10
198.0397024588517
 20
135.5354920836011
 30
0.0
 11
200.0397024588516
 21
135.5354920836011
 31
0.0
  0
LINE
  5
2D9B
330
1F
100
AcDbEntity
  8
太線
100
AcDbLine
 10
200.0397024588516
 20
135.0354920836011
 30
0.0
 11
200.0397024588516
 21
76.03549208360118
 31
0.0
  0
LINE
  5
2D9C
330
1F
100
AcDbEntity
  8
太線
100
AcDbLine
 10
200.0397024588516
 20
75.53549208360118
 30
0.0
 11
198.0397024588517
 21
75.53549208360118
 31
0.0
  0
LINE
  5
2D9D
330
1F
100
AcDbEntity
  8
太線
100
AcDbLine
 10
118.0397024588517
 20
135.5354920836011
 30
0.0
 11
116.0397024588517
 21
135.5354920836011
 31
0.0
  0
LINE
  5
2D9E
330
1F
100
AcDbEntity
  8
太線
100
AcDbLine
 10
116.0397024588517
 20
135.0354920836011
 30
0.0
 11
116.0397024588517
 21
75.53549208360118
 31
0.0
  0
LINE
  5
2D9F
330
1F
100
AcDbEntity
  8
太線
100
AcDbLine
 10
116.0397024588517
 20
75.53549208360118
 30
0.0
 11
118.0397024588517
 21
75.53549208360118
 31
0.0
  0
LINE
  5
2DA0
330
1F
100
AcDbEntity
  8
太線
100
AcDbLine
 10
118.0397024588517
 20
108.0354920836011
 30
0.0
 11
116.0397024588517
 21
108.0354920836011
 31
0.0
  0
LINE
  5
2DA1
330
1F
100
AcDbEntity
  8
太線
100
AcDbLine
 10
116.0397024588517
 20
103.0354920836011
 30
0.0
 11
118.0397024588517
 21
103.0354920836011
 31
0.0
  0
LINE
  5
2DA2
330
1F
100
AcDbEntity
  8
太線
100
AcDbLine
 10
200.0397024588516
 20
108.0354920836011
 30
0.0
 11
198.0397024588517
 21
108.0354920836011
 31
0.0
  0
LINE
  5
2DA3
330
1F
100
AcDbEntity
  8
太線
100
AcDbLine
 10
200.0397024588516
 20
103.0354920836011
 30
0.0
 11
198.0397024588517
 21
103.0354920836011
 31
0.0
  0
LINE
  5
2DA4
330
1F
100
AcDbEntity
  8
太線
100
AcDbLine
 10
434.9744913262514
 20
288.8067574804456
 30
0.0
 11
436.9744913262515
 21
288.8067574804456
 31
0.0
  0
LINE
  5
2DA5
330
1F
100
AcDbEntity
  8
太線
100
AcDbLine
 10
354.9744913262514
 20
288.8067574804456
 30
0.0
 11
352.9744913262514
 21
288.8067574804456
 31
0.0
  0
DIMENSION
  5
2DA6
330
1F
100
AcDbEntity
  8
寸法線
100
AcDbDimension
  2
*D11
 10
436.9744913262515
 20
357.4858815762148
 30
0.0
 11
394.9744913262514
 21
360.9858815762148
 31
0.0
 70
    32
  1
81.3
 71
     5
 42
84.0
  3
sunpo
100
AcDbAlignedDimension
 13
352.9744913262514
 23
348.8145085420578
 33
0.0
 14
436.9744913262515
 24
348.8067574804456
 34
0.0
100
AcDbRotatedDimension
1001
ACAD
1000
DSTYLE
1002
{
1070
    40
1040
1.0
1002
}
  0
DIMENSION
  5
2DBC
330
1F
100
AcDbEntity
  8
寸法線
100
AcDbDimension
  2
*D12
 10
338.157703183824
 20
288.8067574804456
 30
0.0
 11
334.657703183824
 21
271.3067574804457
 31
0.0
 70
    32
 71
     5
 42
34.99999999999997
  3
sunpo
100
AcDbAlignedDimension
 13
364.9744913262515
 23
253.8067574804457
 33
0.0
 14
364.9744913262515
 24
288.8067574804456
 34
0.0
 50
90.0
100
AcDbRotatedDimension
1001
ACAD
1000
DSTYLE
1002
{
1070
    40
1040
1.0
1002
}
  0
DIMENSION
  5
2DC9
330
1F
100
AcDbEntity
  8
寸法線
100
AcDbDimension
  2
*D13
 10
338.157703183824
 20
293.8067574804457
 30
0.0
 11
334.657703183824
 21
291.3067574804457
 31
0.0
 70
    32
  1
4
 71
     5
 42
5.0
  3
sunpo
100
AcDbAlignedDimension
 13
364.9744913262515
 23
288.8067574804456
 33
0.0
 14
354.9744913262514
 24
293.8067574804457
 34
0.0
 50
90.0
100
AcDbRotatedDimension
1001
ACAD
1000
DSTYLE
1002
{
1070
    40
1040
1.0
1070
   279
1070
     1
1002
}
  0
DIMENSION
  5
2DD8
330
1F
100
AcDbEntity
  8
寸法線
100
AcDbDimension
  2
*D14
 10
338.157703183824
 20
343.8067574804457
 30
0.0
 11
334.657703183824
 21
318.8067574804457
 31
0.0
 70
    32
  1
49.3
 71
     5
 42
50.0
  3
sunpo
100
AcDbAlignedDimension
 13
354.9744913262514
 23
293.8067574804457
 33
0.0
 14
354.9744913262514
 24
343.8067574804457
 34
0.0
 50
90.0
100
AcDbRotatedDimension
1001
ACAD
1000
DSTYLE
1002
{
1070
    40
1040
1.0
1070
   279
1070
     1
1002
}
  0
DIMENSION
  5
2DE5
330
1F
100
AcDbEntity
  8
寸法線
100
AcDbDimension
  2
*D15
 10
338.157703183824
 20
348.8067574804456
 30
0.0
 11
334.657703183824
 21
346.3067574804457
 31
0.0
 70
    32
  1
4
 71
     5
 42
5.0
  3
sunpo
100
AcDbAlignedDimension
 13
354.9744913262514
 23
343.8067574804457
 33
0.0
 14
354.9744913262514
 24
348.8067574804456
 34
0.0
 50
90.0
100
AcDbRotatedDimension
1001
ACAD
1000
DSTYLE
1002
{
1070
    40
1040
1.0
1070
   279
1070
     1
1002
}
  0
DIMENSION
  5
2E2D
330
1F
100
AcDbEntity
  8
寸法線
100
AcDbDimension
  2
*D16
 10
436.9744913262515
 20
297.474683535683
 30
0.0
 11
430.9744913262514
 21
300.9751756616673
 31
0.0
 70
    32
 71
     5
 42
12.0
  3
sunpo
100
AcDbAlignedDimension
 13
424.9744913262515
 23
288.8067574804456
 33
0.0
 14
436.9744913262515
 24
288.8067574804456
 34
0.0
100
AcDbRotatedDimension
1001
ACAD
1000
DSTYLE
1002
{
1070
    40
1040
1.0
1002
}
  0
LINE
  5
2E43
330
1F
100
AcDbEntity
  8
想像線
100
AcDbLine
 10
418.9275540799457
 20
288.8067574804456
 30
0.0
 11
418.9275540799457
 21
293.7260423442835
 31
0.0
  0
LINE
  5
2E44
330
1F
100
AcDbEntity
  8
想像線
100
AcDbLine
 10
371.0214285725571
 20
288.8067574804456
 30
0.0
 11
371.0214285725571
 21
293.8067574804457
 31
0.0
  0
TEXT
  5
2E7A
330
1F
100
AcDbEntity
  8
文字
100
AcDbText
 10
358.140674391849
 20
203.870413374638
 30
0.0
 40
4.799999999999999
  1
注記　内面バリは最小限にする
 51
15.0
  7
OKANO
100
AcDbText
  0
DIMENSION
  5
2F1C
330
1F
100
AcDbEntity
  8
寸法線
100
AcDbDimension
  2
*D17
 10
238.1340884932191
 20
307.1385132204884
 30
0.0
 11
99.31392436409959
 21
353.3810285580094
 31
0.0
 70
    34
 71
     5
 42
1.047197551196617
  3
sunpo
100
AcDb2LineAngularDimension
 13
139.7245276995058
 23
342.8067574804456
 33
0.0
 14
77.94531642448425
 24
307.1385132204884
 34
0.0
 15
176.3548772181976
 25
342.8067574804456
 35
0.0
 16
103.652928025008
 26
362.9708842844015
 36
0.0
1001
ACAD
1000
DSTYLE
1002
{
1070
    40
1040
1.0
1002
}
  0
DIMENSION
  5
2F1D
330
1F
100
AcDbEntity
  8
寸法線
100
AcDbDimension
  2
*D18
 10
77.94531642448425
 20
307.1385132204884
 30
0.0
 11
209.9459042569448
 21
353.3810285580093
 31
0.0
 70
    34
 71
     5
 42
1.047197551196616
  3
sunpo
100
AcDb2LineAngularDimension
 13
176.3548772181976
 23
342.8067574804456
 33
0.0
 14
238.1340884932191
 24
307.1385132204884
 34
0.0
 15
139.7245276995058
 25
342.8067574804456
 35
0.0
 16
212.6041595545727
 26
343.7598425843241
 36
0.0
1001
ACAD
1000
DSTYLE
1002
{
1070
    40
1040
1.0
1002
}
  0
DIMENSION
  5
2F1E
330
1F
100
AcDbEntity
  8
寸法線
100
AcDbDimension
  2
*D19
 10
188.0397024588517
 20
235.5403255498917
 30
0.0
 11
158.0397024588517
 21
239.0403255498918
 31
0.0
 70
    32
  1
57.3
 71
     5
 42
60.0
  3
sunpo
100
AcDbAlignedDimension
 13
128.0397024588516
 23
253.8067574804457
 33
0.0
 14
188.0397024588517
 24
253.8067574804457
 34
0.0
100
AcDbRotatedDimension
1001
ACAD
1000
DSTYLE
1002
{
1070
    40
1040
1.0
1002
}
  0
CIRCLE
  5
2F1F
330
1F
100
AcDbEntity
  8
細線
100
AcDbCircle
 10
158.0397024588517
 20
318.8067574804457
 30
0.0
 40
23.6476562994305
  0
LINE
  5
2F20
330
1F
100
AcDbEntity
  8
太線
100
AcDbLine
 10
128.0397024588516
 20
253.8067574804457
 30
0.0
 11
188.0397024588517
 21
253.8067574804457
 31
0.0
  0
LINE
  5
2F21
330
1F
100
AcDbEntity
  8
想像線
100
AcDbLine
 10
133.0397024588517
 20
288.8067574804456
 30
0.0
 11
183.0397024588517
 21
288.8067574804456
 31
0.0
  0
CIRCLE
  5
2F22
330
1F
100
AcDbEntity
  8
太線
100
AcDbCircle
 10
158.0397024588517
 20
318.8067574804457
 30
0.0
 40
30.0
  0
CIRCLE
  5
2F23
330
1F
100
AcDbEntity
  8
太線
100
AcDbCircle
 10
158.0397024588517
 20
318.8067574804457
 30
0.0
 40
25.0
  0
ARC
  5
2F24
330
1F
100
AcDbEntity
  8
太線
100
AcDbCircle
 10
101.3370539746903
 20
288.3548337518039
 30
0.0
 40
30.0
100
AcDbArc
 50
141.2353655783507
 51
305.0880916251982
  0
LINE
  5
2F25
330
1F
100
AcDbEntity
  8
太線
100
AcDbLine
 10
160.5397024588517
 20
263.8067574804456
 30
0.0
 11
160.5397024588517
 21
288.8067574804456
 31
0.0
  0
LINE
  5
2F26
330
1F
100
AcDbEntity
  8
太線
100
AcDbLine
 10
155.5397024588517
 20
288.8067574804456
 30
0.0
 11
155.5397024588517
 21
263.8067574804456
 31
0.0
  0
LINE
  5
2F27
330
1F
100
AcDbEntity
  8
想像線
100
AcDbLine
 10
133.0397024588517
 20
253.8067574804457
 30
0.0
 11
133.0397024588517
 21
288.8067574804456
 31
0.0
  0
LINE
  5
2F28
330
1F
100
AcDbEntity
  8
太線
100
AcDbLine
 10
128.0397024588516
 20
318.8067574804457
 30
0.0
 11
128.0397024588516
 21
253.8067574804457
 31
0.0
  0
LINE
  5
2F29
330
1F
100
AcDbEntity
  8
太線
100
AcDbLine
 10
118.5821098277624
 20
263.8067574804456
 30
0.0
 11
128.0397024588516
 21
263.8067574804456
 31
0.0
  0
DIMENSION
  5
2F2A
330
1F
100
AcDbEntity
  8
寸法線
100
AcDbDimension
  2
*D20
 10
160.5397024588517
 20
255.3273608406519
 30
0.0
 11
158.0397024588517
 21
258.8273608406519
 31
0.0
 70
    32
  1
4
 71
     5
 42
5.0
  3
sunpo
100
AcDbAlignedDimension
 13
155.5397024588517
 23
263.8067574804456
 33
0.0
 14
160.5397024588517
 24
263.8067574804456
 34
0.0
100
AcDbRotatedDimension
1001
ACAD
1000
DSTYLE
1002
{
1070
    40
1040
1.0
1002
}
  0
LINE
  5
2F2B
330
1F
100
AcDbEntity
  8
太線
100
AcDbLine
 10
155.5397024588517
 20
263.8067574804456
 30
0.0
 11
160.5397024588517
 21
263.8067574804456
 31
0.0
  0
LINE
  5
2F2C
330
1F
100
AcDbEntity
  8
太線
100
AcDbLine
 10
103.1979733232499
 20
296.2347724084451
 30
0.0
 11
88.33729941560306
 21
286.6261214354804
 31
0.0
  0
ARC
  5
2F2D
330
1F
100
AcDbEntity
  8
細線
 62
     0
100
AcDbCircle
 10
91.59511504854913
 20
281.5876060488083
 30
0.0
 40
6.0
100
AcDbArc
 50
122.8859997445152
 51
302.8859997445152
  0
LINE
  5
2F2E
330
1F
100
AcDbEntity
  8
太線
100
AcDbLine
 10
139.7245276995058
 20
342.8067574804456
 30
0.0
 11
77.94531642448425
 21
307.1385132204884
 31
0.0
  0
ARC
  5
2F2F
330
1F
100
AcDbEntity
  8
細線
 62
     0
100
AcDbCircle
 10
106.4557889561959
 20
291.1962570217729
 30
0.0
 40
6.0
100
AcDbArc
 50
302.8859997445152
 51
122.8859997445152
  0
LINE
  5
2F30
330
1F
100
AcDbEntity
  8
太線
100
AcDbLine
 10
109.7136045891419
 20
286.1577416351007
 30
0.0
 11
94.8529306814952
 21
276.549090662136
 31
0.0
  0
LINE
  5
2F31
330
1F
100
AcDbEntity
  8
想像線
100
AcDbLine
 10
134.3920461594211
 20
318.8067574804457
 30
0.0
 11
134.3920461594211
 21
288.8067574804456
 31
0.0
  0
LINE
  5
2F32
330
1F
100
AcDbEntity
  8
破線
100
AcDbLine
 10
155.5397024588517
 20
280.7557623347333
 30
0.0
 11
160.5397024588517
 21
280.7557623347333
 31
0.0
  0
LINE
  5
2F33
330
1F
100
AcDbEntity
  8
破線
100
AcDbLine
 10
155.5397024588517
 20
286.9087484232696
 30
0.0
 11
160.5397024588517
 21
286.9087484232696
 31
0.0
  0
DIMENSION
  5
2F34
330
1F
100
AcDbEntity
  8
寸法線
100
AcDbDimension
  2
*D21
 10
291.791261643113
 20
273.1162223138982
 30
0.0
 11
273.6387934210057
 21
250.5449150697203
 31
0.0
 70
    33
  1
57
 71
     5
 42
57.50568713668923
  3
sunpo
100
AcDbAlignedDimension
 13
201.0511824017726
 23
261.812881240373
 33
0.0
 14
231.4111809015739
 24
310.651130023011
 34
0.0
1001
ACAD
1000
DSTYLE
1002
{
1070
    40
1040
1.0
1002
}
  0
DIMENSION
  5
2F35
330
1F
100
AcDbEntity
  8
寸法線
100
AcDbDimension
  2
*D22
 10
245.3047383040589
 20
235.594452579626
 30
0.0
 11
216.6722203814553
 21
239.094452579626
 31
0.0
 70
    32
  1
57
 71
     5
 42
57.26503584520719
  3
sunpo
100
AcDbAlignedDimension
 13
188.0397024588517
 23
253.8067574804457
 33
0.0
 14
245.3047383040589
 24
275.693225142015
 34
0.0
100
AcDbRotatedDimension
1001
ACAD
1000
DSTYLE
1002
{
1070
    40
1040
1.0
1002
}
  0
ARC
  5
2F36
330
1F
100
AcDbEntity
  8
太線
100
AcDbCircle
 10
214.742350943013
 20
288.3548337518039
 30
0.0
 40
30.0
100
AcDbArc
 50
234.9119083748016
 51
38.7646344216493
  0
LINE
  5
2F37
330
1F
100
AcDbEntity
  8
想像線
100
AcDbLine
 10
183.0397024588517
 20
288.8067574804456
 30
0.0
 11
183.0397024588517
 21
253.8067574804457
 31
0.0
  0
LINE
  5
2F38
330
1F
100
AcDbEntity
  8
太線
100
AcDbLine
 10
188.0397024588517
 20
253.8067574804457
 30
0.0
 11
188.0397024588517
 21
318.8067574804457
 31
0.0
  0
LINE
  5
2F39
330
1F
100
AcDbEntity
  8
太線
100
AcDbLine
 10
197.4972950899409
 20
263.8067574804456
 30
0.0
 11
188.0397024588517
 21
263.8067574804456
 31
0.0
  0
DIMENSION
  5
2F3A
330
1F
100
AcDbEntity
  8
寸法線
100
AcDbDimension
  2
*D23
 10
270.2487979019512
 20
319.8874264478413
 30
0.0
 11
267.1780392033697
 21
326.0547437655642
 31
0.0
 70
    33
  1
10
 71
     5
 42
11.86850654166707
  3
sunpo
100
AcDbAlignedDimension
 13
228.5558321393693
 23
277.475459428545
 33
0.0
 14
238.5097163965565
 24
271.0115878546262
 34
0.0
1001
ACAD
1000
DSTYLE
1002
{
1070
    40
1040
1.0
1002
}
  0
LINE
  5
2F3B
330
1F
100
AcDbEntity
  8
太線
100
AcDbLine
 10
176.3548772181976
 20
342.8067574804456
 30
0.0
 11
238.1340884932191
 21
307.1385132204884
 31
0.0
  0
DIMENSION
  5
2F3C
330
1F
100
AcDbEntity
  8
寸法線
100
AcDbDimension
  2
*D24
 10
237.8768194196963
 20
291.4594842163639
 30
0.0
 11
227.2419225690821
 21
302.2006748559251
 31
0.0
 70
    33
  1
30
 71
     5
 42
29.40912833652825
  3
sunpo
100
AcDbAlignedDimension
 13
205.0261349733161
 23
294.3337902702774
 33
0.0
 14
229.9946250213952
 24
278.7944423356512
 34
0.0
1001
ACAD
1000
DSTYLE
1002
{
1070
    40
1040
1.0
1002
}
  0
DIMENSION
  5
2F3D
330
1F
100
AcDbEntity
  8
寸法線
100
AcDbDimension
  2
*D25
 10
202.5893983182638
 20
302.0950338200689
 30
0.0
 11
196.4991671445441
 21
298.7532784258551
 31
0.0
 70
    33
 71
     5
 42
12.00079993000918
  3
sunpo
100
AcDbAlignedDimension
 13
206.8546915548879
 23
285.5346764953492
 33
0.0
 14
213.0333723099631
 24
295.8226842270225
 34
0.0
1001
ACAD
1000
DSTYLE
1002
{
1070
    40
1040
1.0
1002
}
  0
ARC
  5
2F3E
330
1F
100
AcDbEntity
  8
細線
 62
     0
100
AcDbCircle
 10
209.6236159615074
 20
291.1962570217729
 30
0.0
 40
6.0
100
AcDbArc
 50
57.11400025548472
 51
237.1140002554847
  0
LINE
  5
2F3F
330
1F
100
AcDbEntity
  8
太線
100
AcDbLine
 10
206.3658003285614
 20
286.1577416351007
 30
0.0
 11
221.2264742362082
 21
276.549090662136
 31
0.0
  0
LINE
  5
2F40
330
1F
100
AcDbEntity
  8
想像線
100
AcDbLine
 10
181.6873587582821
 20
318.8067574804457
 30
0.0
 11
181.6873587582821
 21
288.8067574804456
 31
0.0
  0
LINE
  5
2F41
330
1F
100
AcDbEntity
  8
太線
100
AcDbLine
 10
212.8814315944534
 20
296.2347724084451
 30
0.0
 11
227.7421055021003
 21
286.6261214354804
 31
0.0
  0
ARC
  5
2F42
330
1F
100
AcDbEntity
  8
細線
 62
     0
100
AcDbCircle
 10
224.4842898691542
 20
281.5876060488083
 30
0.0
 40
6.0
100
AcDbArc
 50
237.1140002554847
 51
57.11400025548472
  0
LINE
  5
3062
330
1F
100
AcDbEntity
  8
太線
100
AcDbLine
 10
396.9744913262514
 20
348.8067574804456
 30
0.0
 11
396.9744913262514
 21
277.0296861486954
 31
0.0
  0
LINE
  5
3064
330
1F
100
AcDbEntity
  8
太線
100
AcDbLine
 10
392.9744913262514
 20
277.0296861486954
 30
0.0
 11
392.9744913262514
 21
348.8067574804456
 31
0.0
  0
LINE
  5
3065
330
1F
100
AcDbEntity
  8
太線
100
AcDbLine
 10
396.9744913262514
 20
277.0296861486954
 30
0.0
 11
396.9744913262514
 21
260.0795095506706
 31
0.0
  0
LINE
  5
3066
330
1F
100
AcDbEntity
  8
太線
100
AcDbLine
 10
396.9744913262514
 20
260.0795095506706
 30
0.0
 11
392.9744913262514
 21
260.0795095506706
 31
0.0
  0
LINE
  5
3067
330
1F
100
AcDbEntity
  8
太線
100
AcDbLine
 10
392.9744913262514
 20
260.0795095506706
 30
0.0
 11
392.9744913262514
 21
277.0296861486954
 31
0.0
  0
LINE
  5
3068
330
1F
100
AcDbEntity
  8
想像線
100
AcDbLine
 10
392.9744913262514
 20
298.088995519686
 30
0.0
 11
396.9744913262514
 21
298.088995519686
 31
0.0
  0
LINE
  5
3069
330
1F
100
AcDbEntity
  8
想像線
100
AcDbLine
 10
392.9744913262514
 20
277.0296861486954
 30
0.0
 11
396.9744913262514
 21
277.0296861486954
 31
0.0
  0
XLINE
  5
3095
330
1F
100
AcDbEntity
  8
構築線
100
AcDbXline
 10
112.2015140254043
 20
-36.62015197114476
 30
0.0
 11
1.0
 21
0.0
 31
0.0
  0
XLINE
  5
3096
330
1F
100
AcDbEntity
  8
構築線
100
AcDbXline
 10
112.2015140254043
 20
-96.62015197114477
 30
0.0
 11
1.0
 21
0.0
 31
0.0
  0
XLINE
  5
3098
330
1F
100
AcDbEntity
  8
構築線
100
AcDbXline
 10
112.2015140254043
 20
-153.6201519711447
 30
0.0
 11
1.0
 21
0.0
 31
0.0
  0
LINE
  5
3099
330
1F
100
AcDbEntity
  8
太線
100
AcDbLine
 10
155.5397024588517
 20
135.4311439413546
 30
0.0
 11
155.5397024588517
 21
135.5354920836011
 31
0.0
  0
LINE
  5
309A
330
1F
100
AcDbEntity
  8
太線
100
AcDbLine
 10
156.0397024588516
 20
192.5354920836011
 30
0.0
 11
160.0397024588517
 21
192.5354920836011
 31
0.0
  0
LINE
  5
309B
330
1F
100
AcDbEntity
  8
太線
100
AcDbLine
 10
160.5397024588517
 20
192.0354920836011
 30
0.0
 11
160.5397024588517
 21
137.7235567071517
 31
0.0
  0
LINE
  5
309C
330
1F
100
AcDbEntity
  8
太線
100
AcDbLine
 10
155.5397024588517
 20
73.31485627112709
 30
0.0
 11
155.5397024588517
 21
18.53549208360118
 31
0.0
  0
LINE
  5
309D
330
1F
100
AcDbEntity
  8
太線
100
AcDbLine
 10
155.5397024588517
 20
18.53549208360118
 30
0.0
 11
160.5397024588517
 21
18.53549208360118
 31
0.0
  0
LINE
  5
309E
330
1F
100
AcDbEntity
  8
太線
100
AcDbLine
 10
160.5397024588517
 20
18.53549208360118
 30
0.0
 11
160.5397024588516
 21
73.20223077742429
 31
0.0
  0
ARC
  5
3292
330
1F
100
AcDbEntity
  8
太線
100
AcDbCircle
 10
166.5441062602447
 20
141.0229213667492
 30
0.0
 40
6.851180348464389
100
AcDbArc
 50
208.7883897686521
 51
259.8530670510888
  0
ARC
  5
3294
330
1F
100
AcDbEntity
  8
太線
100
AcDbCircle
 10
146.9606071690029
 20
69.51994925297125
 30
0.0
 40
9.380948527134878
100
AcDbArc
 50
23.86189099293253
 51
42.19772478011916
  0
ARC
  5
3296
330
1F
100
AcDbEntity
  8
太線
100
AcDbCircle
 10
142.8008072652706
 20
143.8065601678155
 30
0.0
 40
14.23575922025922
100
AcDbArc
 50
324.4786370793018
 51
333.4894042062
  0
LINE
  5
3297
330
1F
100
AcDbEntity
  8
太線
100
AcDbLine
 10
155.5397024588517
 20
137.4522396042815
 30
0.0
 11
155.5397024588516
 21
192.0354920836011
 31
0.0
  0
LINE
  5
3298
330
1F
100
AcDbEntity
  8
太線
100
AcDbLine
 10
160.5397024588517
 20
135.5354920836011
 30
0.0
 11
160.5397024588517
 21
135.4311439413546
 31
0.0
  0
LINE
  5
3299
330
1F
100
AcDbEntity
  8
太線
100
AcDbLine
 10
162.4420589629024
 20
135.5354920836011
 30
0.0
 11
188.0397024588517
 21
135.5354920836011
 31
0.0
  0
ARC
  5
329A
330
1F
100
AcDbEntity
  8
太線
100
AcDbCircle
 10
172.8434907454118
 20
67.43108546531141
 30
0.0
 40
13.59004504827035
100
AcDbArc
 50
141.8901809487069
 51
154.8708705648778
  0
ARC
  5
329B
330
1F
100
AcDbEntity
  8
太線
100
AcDbCircle
 10
158.1578862792916
 20
94.52749937411359
 30
0.0
 40
19.10412374749706
100
AcDbArc
 50
253.9175652299586
 51
286.0824347700415
  0
ARC
  5
329C
330
1F
100
AcDbEntity
  8
太線
100
AcDbCircle
 10
156.0397024588516
 20
192.0354920836011
 30
0.0
 40
0.5
100
AcDbArc
 50
90.0
 51
180.0
  0
ARC
  5
329D
330
1F
100
AcDbEntity
  8
太線
100
AcDbCircle
 10
160.0397024588517
 20
192.0354920836011
 30
0.0
 40
0.5
100
AcDbArc
 50
0.0
 51
90.0
  0
ARC
  5
329E
330
1F
100
AcDbEntity
  8
太線
100
AcDbCircle
 10
199.5397024588516
 20
135.0354920836011
 30
0.0
 40
0.5
100
AcDbArc
 50
0.0
 51
90.0
  0
ARC
  5
329F
330
1F
100
AcDbEntity
  8
太線
100
AcDbCircle
 10
116.5397024588517
 20
135.0354920836011
 30
0.0
 40
0.5
100
AcDbArc
 50
90.0
 51
180.0
  0
ARC
  5
32A0
330
1F
100
AcDbEntity
  8
太線
100
AcDbCircle
 10
199.5397024588516
 20
76.03549208360118
 30
0.0
 40
0.5
100
AcDbArc
 50
270.0
 51
0.0000000000000254
  0
DIMENSION
  5
32A1
330
1F
100
AcDbEntity
  8
寸法線
100
AcDbDimension
  2
*D26
 10
208.5546569959147
 20
192.2314057107175
 30
0.0
 11
205.0546569959146
 21
163.9663026329529
 31
0.0
 70
    32
  1
57
 71
     5
 42
56.53020615552938
  3
sunpo
100
AcDbAlignedDimension
 13
199.8493534268122
 23
135.7011995551881
 33
0.0
 14
160.6754797253334
 24
192.2314057107175
 34
0.0
 50
90.0
100
AcDbRotatedDimension
1001
ACAD
1000
DSTYLE
1002
{
1070
    40
1040
1.0
1002
}
  0
DIMENSION
  5
32AE
330
1F
100
AcDbEntity
  8
寸法線
100
AcDbDimension
  2
*D27
 10
160.6754797253334
 20
203.8273444041497
 30
0.0
 11
157.7737118689658
 21
207.3273444041496
 31
0.0
 70
    32
  1
4
 71
     5
 42
5.803535712735083
  3
sunpo
100
AcDbAlignedDimension
 13
154.8719440125983
 23
192.2314057107175
 33
0.0
 14
160.6754797253334
 24
191.5066588388713
 34
0.0
100
AcDbRotatedDimension
1001
ACAD
1000
DSTYLE
1002
{
1070
    40
1040
1.0
1002
}
  0
TEXT
  5
32DD
330
1F
100
AcDbEntity
  8
文字
100
AcDbText
 10
440.6357095771445
 20
60.43103183649978
 30
0.0
 40
4.799999999999999
  1
JAN 4562182302021
 51
15.0
  7
OKANO
100
AcDbText
  0
TEXT
  5
32F2
330
1F
100
AcDbEntity
  8
文字
100
AcDbText
 10
275.20329016314
 20
152.998494902537
 30
0.0
 40
8.0
  1
勾配は、柄(ﾂｶ）の長さと
 51
15.0
  7
OKANO
100
AcDbText
  0
TEXT
  5
32F3
330
1F
100
AcDbEntity
  8
文字
100
AcDbText
 10
275.20329016314
 20
140.1573785307474
 30
0.0
 40
8.0
  1
梁(ﾊﾘ）の長さにより自由
 51
15.0
  7
OKANO
100
AcDbText
  0
TEXT
  5
32F4
330
1F
100
AcDbEntity
  8
文字
100
AcDbText
 10
275.20329016314
 20
127.3162621589577
 30
0.0
 40
8.0
  1
設定出来ます。
 51
15.0
  7
OKANO
100
AcDbText
  0
XLINE
  5
3303
330
1F
100
AcDbEntity
  8
構築線
100
AcDbXline
 10
158.0397024588517
 20
318.8067574804457
 30
0.0
 11
0.0
 21
-1.0
 31
0.0
  0
XLINE
  5
3304
330
1F
100
AcDbEntity
  8
構築線
100
AcDbXline
 10
158.0397024588517
 20
318.8067574804457
 30
0.0
 11
1.0
 21
0.0
 31
0.0
  0
XLINE
  5
3305
330
1F
100
AcDbEntity
  8
構築線
100
AcDbXline
 10
159.7114995889121
 20
105.5354920836011
 30
0.0
 11
1.0
 21
0.0
 31
0.0
  0
VIEWPORT
  5
2E
330
1B
100
AcDbEntity
 67
     1
  8
0
100
AcDbViewport
 10
291.9411453585441
 20
120.4912723553663
 30
0.0
 40
698.1831690215015
 41
354.6093650878437
 68
     2
 69
     1
 12
291.9411453585441
 22
120.4912723553663
 13
0.0
 23
0.0
 14
10.0
 24
10.0
 15
10.0
 25
10.0
 16
0.0
 26
0.0
 36
1.0
 17
0.0
 27
0.0
 37
0.0
 42
50.0
 43
0.0
 44
0.0
 45
354.6093650878437
 50
0.0
 51
0.0
 72
   100
 90
    32800
  1

281
     0
 71
     1
 74
     0
110
0.0
120
0.0
130
0.0
111
1.0
121
0.0
131
0.0
112
0.0
122
1.0
132
0.0
 79
     0
146
0.0
  0
VIEWPORT
  5
30
330
1B
100
AcDbEntity
 67
     1
  8
70-0-CON
100
AcDbViewport
 10
141.8594093064315
 20
100.3480256368386
 30
0.0
 40
261.6199023344245
 41
192.6196987113174
 68
     1
 69
     2
 12
284.8444880653184
 22
205.5836038065504
 13
0.0
 23
0.0
 14
5.0
 24
5.0
 15
10.0
 25
10.0
 16
0.0
 26
0.0
 36
1.0
 17
0.0
 27
0.0
 37
0.0
 42
50.0
 43
0.0
 44
0.0
 45
391.7809254693272
 50
0.0
 51
0.0
 72
   100
 90
    32864
  1

281
     0
 71
     1
 74
     0
110
0.0
120
0.0
130
0.0
111
1.0
121
0.0
131
0.0
112
0.0
122
1.0
132
0.0
 79
     0
146
0.0
  0
LWPOLYLINE
  5
45
330
1B
100
AcDbEntity
 67
     1
  8
50-0-CON
100
AcDbPolyline
 90
        4
 70
     1
 43
0.0
 10
11.04945813921926
 20
4.038176281179858
 10
272.2125713060605
 20
4.033520706629644
 10
273.4987754093466
 20
195.9297862125246
 10
11.04945813921926
 20
196.6578749924973
  0
LINE
  5
4A
330
1B
100
AcDbEntity
 67
     1
  8
50-0-CON
100
AcDbLine
 10
10.38768783662635
 20
100.3480256368386
 30
0.0
 11
-4.391850629656119
 21
100.3480256368386
 31
0.0
  0
LINE
  5
4B
330
1B
100
AcDbEntity
 67
     1
  8
50-0-CON
100
AcDbLine
 10
141.8594093064315
 20
197.098652626247
 30
0.0
 11
141.8594093064315
 21
202.387980773708
 31
0.0
  0
LINE
  5
4C
330
1B
100
AcDbEntity
 67
     1
  8
50-0-CON
100
AcDbLine
 10
272.4487699456857
 20
100.7888032705883
 30
0.0
 11
278.8458837249377
 21
100.7888032705883
 31
0.0
  0
LINE
  5
4D
330
1B
100
AcDbEntity
 67
     1
  8
50-0-CON
100
AcDbLine
 10
140.9770484758805
 20
4.038176281179858
 30
0.0
 11
140.9770484758805
 21
-3.455038652015446
 31
0.0
  0
ENDSEC
  0
SECTION
  2
OBJECTS
  0
DICTIONARY
  5
C
330
0
100
AcDbDictionary
281
     1
  3
ACAD_GROUP
350
D
  3
ACAD_LAYOUT
350
1A
  3
ACAD_MLINESTYLE
350
17
  3
ACAD_PLOTSETTINGS
350
19
  3
ACAD_PLOTSTYLENAME
350
E
  3
AcadDim
350
13D0
  3
AcDbVariableDictionary
350
6AD
  3
DWGPROPS
350
30F
  0
DICTIONARY
  5
D
102
{ACAD_REACTORS
330
C
102
}
330
C
100
AcDbDictionary
281
     1
  0
DICTIONARY
  5
1A
102
{ACAD_REACTORS
330
C
102
}
330
C
100
AcDbDictionary
281
     1
  3
A4
350
1E
  3
Model
350
22
  0
DICTIONARY
  5
17
102
{ACAD_REACTORS
330
C
102
}
330
C
100
AcDbDictionary
281
     1
  3
Standard
350
18
  0
DICTIONARY
  5
19
102
{ACAD_REACTORS
330
C
102
}
330
C
100
AcDbDictionary
281
     1
  0
ACDBDICTIONARYWDFLT
  5
E
102
{ACAD_REACTORS
330
C
102
}
330
C
100
AcDbDictionary
281
     1
  3
Normal
350
F
100
AcDbDictionaryWithDefault
340
F
  0
XRECORD
  5
13D0
102
{ACAD_REACTORS
330
C
102
}
330
C
100
AcDbXrecord
280
     1
 90
   990106
  3

 60
     0
 61
     0
 62
     1
 63
     3
 64
     0
 65
     0
 66
     0
 67
     3
 68
     1
 69
     0
 70
     0
 71
     0
 72
     0
 40
0.0
170
     0
340
0
  0
DICTIONARY
  5
6AD
102
{ACAD_REACTORS
330
C
102
}
330
C
100
AcDbDictionary
281
     1
  3
SORTENTS
350
6AE
  0
XRECORD
  5
30F
102
{ACAD_REACTORS
330
C
102
}
330
C
100
AcDbXrecord
280
     1
  1
DWGPROPS COOKIE
  2

  3

  4

  6

  7

  8

  9

300
=
301
=
302
=
303
=
304
=
305
=
306
=
307
=
308
=
309
=
 40
0.3303803125
 41
2452362.482225463
 42
2452370.969861285
  1

 90
        0
  0
LAYOUT
  5
1E
102
{ACAD_REACTORS
330
1A
102
}
330
1A
100
AcDbPlotSettings
  1

  2
EPSON PM-920C
  4
A4
  6

 40
3.757083177566528
 41
14.7637300491333
 42
3.757080078125
 43
3.757080078125
 44
209.9733276367187
 45
296.9683227539062
 46
0.0
 47
0.0
 48
0.0
 49
0.0
140
0.0
141
0.0
142
1.0
143
1.0
 70
   688
 72
     1
 73
     1
 74
     5
  7
joint.ctb
 75
    16
147
1.0
148
0.0
149
0.0
100
AcDbLayout
  1
A4
 70
     1
 71
     1
 10
-3.757080078125
 20
-3.757083177566528
 11
293.2112426757812
 21
206.2162444591522
 12
0.0
 22
0.0
 32
0.0
 14
-4.391850629656119
 24
-3.455038652015446
 34
0.0
 15
278.8458837249377
 25
202.387980773708
 35
0.0
146
0.0
 13
0.0
 23
0.0
 33
0.0
 16
1.0
 26
0.0
 36
0.0
 17
0.0
 27
1.0
 37
0.0
 76
     0
330
1B
331
30
  0
LAYOUT
  5
22
102
{ACAD_REACTORS
330
1A
102
}
330
1A
100
AcDbPlotSettings
  1

  2
EPSON PM-920C
  4
A4
  6

 40
3.757083177566528
 41
14.7637300491333
 42
3.757080078125
 43
3.757080078125
 44
209.9733276367187
 45
296.9683227539062
 46
0.0
 47
0.0
 48
0.0
 49
0.0
140
0.0
141
0.0
142
1.0
143
1.0
 70
 11952
 72
     1
 73
     1
 74
     0
  7

 75
     0
147
1.0
148
-45.64199848979289
149
-84.48806419330498
100
AcDbLayout
  1
Model
 70
     1
 71
     0
 10
0.0
 20
0.0
 11
12.0
 21
9.0
 12
0.0
 22
0.0
 32
0.0
 14
0.0
 24
0.0
 34
0.0
 15
0.0
 25
0.0
 35
0.0
146
0.0
 13
0.0
 23
0.0
 33
0.0
 16
1.0
 26
0.0
 36
0.0
 17
0.0
 27
1.0
 37
0.0
 76
     0
330
1F
  0
MLINESTYLE
  5
18
102
{ACAD_REACTORS
330
17
102
}
330
17
100
AcDbMlineStyle
  2
STANDARD
 70
     0
  3

 62
   256
 51
90.0
 52
90.0
 71
     2
 49
0.5
 62
   256
  6
BYLAYER
 49
-0.5
 62
   256
  6
BYLAYER
  0
ACDBPLACEHOLDER
  5
F
102
{ACAD_REACTORS
330
E
102
}
330
E
  0
DICTIONARYVAR
  5
6AE
102
{ACAD_REACTORS
330
6AD
102
}
330
6AD
100
DictionaryVariables
280
     0
  1
96
  0
ENDSEC
  0
EOF
