  0
SECTION
  2
HEADER
  9
$ACADVER
  1
AC1015
  9
$ACADMAINTVER
 70
     6
  9
$DWGCODEPAGE
  3
ANSI_932
  9
$INSBASE
 10
0.0
 20
0.0
 30
0.0
  9
$EXTMIN
 10
-1.159460848304374
 20
-65.61419454868451
 30
0.0
  9
$EXTMAX
 10
432.3787111694541
 20
228.35796784062
 30
0.0
  9
$LIMMIN
 10
0.0
 20
0.0
  9
$LIMMAX
 10
420.0
 20
297.0
  9
$ORTHOMODE
 70
     1
  9
$REGENMODE
 70
     1
  9
$FILLMODE
 70
     1
  9
$QTEXTMODE
 70
     0
  9
$MIRRTEXT
 70
     1
  9
$LTSCALE
 40
1.0
  9
$ATTMODE
 70
     1
  9
$TEXTSIZE
 40
5.0
  9
$TRACEWID
 40
1.0
  9
$TEXTSTYLE
  7
OKANO
  9
$CLAYER
  8
太線
  9
$CELTYPE
  6
ByLayer
  9
$CECOLOR
 62
   256
  9
$CELTSCALE
 40
1.0
  9
$DISPSILH
 70
     0
  9
$DIMSCALE
 40
0.0
  9
$DIMASZ
 40
3.0
  9
$DIMEXO
 40
2.0
  9
$DIMDLI
 40
8.0
  9
$DIMRND
 40
0.0
  9
$DIMDLE
 40
0.0
  9
$DIMEXE
 40
3.0
  9
$DIMTP
 40
0.0
  9
$DIMTM
 40
0.0
  9
$DIMTXT
 40
5.0
  9
$DIMCEN
 40
2.5
  9
$DIMTSZ
 40
0.0
  9
$DIMTOL
 70
     0
  9
$DIMLIM
 70
     0
  9
$DIMTIH
 70
     0
  9
$DIMTOH
 70
     0
  9
$DIMSE1
 70
     0
  9
$DIMSE2
 70
     0
  9
$DIMTAD
 70
     1
  9
$DIMZIN
 70
     8
  9
$DIMBLK
  1
Closed
  9
$DIMASO
 70
     1
  9
$DIMSHO
 70
     1
  9
$DIMPOST
  1

  9
$DIMAPOST
  1

  9
$DIMALT
 70
     0
  9
$DIMALTD
 70
     3
  9
$DIMALTF
 40
0.03937007874016
  9
$DIMLFAC
 40
1.0
  9
$DIMTOFL
 70
     1
  9
$DIMTVP
 40
0.0
  9
$DIMTIX
 70
     0
  9
$DIMSOXD
 70
     0
  9
$DIMSAH
 70
     0
  9
$DIMBLK1
  1

  9
$DIMBLK2
  1

  9
$DIMSTYLE
  2
sunpo
  9
$DIMCLRD
 70
     0
  9
$DIMCLRE
 70
     0
  9
$DIMCLRT
 70
     0
  9
$DIMTFAC
 40
1.0
  9
$DIMGAP
 40
1.0
  9
$DIMJUST
 70
     0
  9
$DIMSD1
 70
     0
  9
$DIMSD2
 70
     0
  9
$DIMTOLJ
 70
     0
  9
$DIMTZIN
 70
     8
  9
$DIMALTZ
 70
     0
  9
$DIMALTTZ
 70
     0
  9
$DIMUPT
 70
     0
  9
$DIMDEC
 70
     2
  9
$DIMTDEC
 70
     2
  9
$DIMALTU
 70
     2
  9
$DIMALTTD
 70
     3
  9
$DIMTXSTY
  7
OKANO
  9
$DIMAUNIT
 70
     0
  9
$DIMADEC
 70
     0
  9
$DIMALTRND
 40
0.0
  9
$DIMAZIN
 70
     0
  9
$DIMDSEP
 70
    46
  9
$DIMATFIT
 70
     3
  9
$DIMFRAC
 70
     0
  9
$DIMLDRBLK
  1
Closed
  9
$DIMLUNIT
 70
     2
  9
$DIMLWD
 70
    -2
  9
$DIMLWE
 70
    -2
  9
$DIMTMOVE
 70
     0
  9
$LUNITS
 70
     2
  9
$LUPREC
 70
     2
  9
$SKETCHINC
 40
1.0
  9
$FILLETRAD
 40
0.5
  9
$AUNITS
 70
     0
  9
$AUPREC
 70
     0
  9
$MENU
  1
.
  9
$ELEVATION
 40
0.0
  9
$PELEVATION
 40
0.0
  9
$THICKNESS
 40
0.0
  9
$LIMCHECK
 70
     0
  9
$CHAMFERA
 40
10.0
  9
$CHAMFERB
 40
10.0
  9
$CHAMFERC
 40
20.0
  9
$CHAMFERD
 40
0.0
  9
$SKPOLY
 70
     0
  9
$TDCREATE
 40
2452362.482225463
  9
$TDUCREATE
 40
2452362.107225463
  9
$TDUPDATE
 40
2455964.439684907
  9
$TDUUPDATE
 40
2455964.064684907
  9
$TDINDWG
 40
2.0816103588
  9
$TDUSRTIMER
 40
2.0816103588
  9
$USRTIMER
 70
     1
  9
$ANGBASE
 50
0.0
  9
$ANGDIR
 70
     0
  9
$PDMODE
 70
     0
  9
$PDSIZE
 40
0.0
  9
$PLINEWID
 40
0.0
  9
$SPLFRAME
 70
     0
  9
$SPLINETYPE
 70
     6
  9
$SPLINESEGS
 70
     8
  9
$HANDSEED
  5
2FAD
  9
$SURFTAB1
 70
     6
  9
$SURFTAB2
 70
     6
  9
$SURFTYPE
 70
     6
  9
$SURFU
 70
     6
  9
$SURFV
 70
     6
  9
$UCSBASE
  2

  9
$UCSNAME
  2

  9
$UCSORG
 10
0.0
 20
0.0
 30
0.0
  9
$UCSXDIR
 10
1.0
 20
0.0
 30
0.0
  9
$UCSYDIR
 10
0.0
 20
1.0
 30
0.0
  9
$UCSORTHOREF
  2

  9
$UCSORTHOVIEW
 70
     0
  9
$UCSORGTOP
 10
0.0
 20
0.0
 30
0.0
  9
$UCSORGBOTTOM
 10
0.0
 20
0.0
 30
0.0
  9
$UCSORGLEFT
 10
0.0
 20
0.0
 30
0.0
  9
$UCSORGRIGHT
 10
0.0
 20
0.0
 30
0.0
  9
$UCSORGFRONT
 10
0.0
 20
0.0
 30
0.0
  9
$UCSORGBACK
 10
0.0
 20
0.0
 30
0.0
  9
$PUCSBASE
  2

  9
$PUCSNAME
  2

  9
$PUCSORG
 10
0.0
 20
0.0
 30
0.0
  9
$PUCSXDIR
 10
1.0
 20
0.0
 30
0.0
  9
$PUCSYDIR
 10
0.0
 20
1.0
 30
0.0
  9
$PUCSORTHOREF
  2

  9
$PUCSORTHOVIEW
 70
     0
  9
$PUCSORGTOP
 10
0.0
 20
0.0
 30
0.0
  9
$PUCSORGBOTTOM
 10
0.0
 20
0.0
 30
0.0
  9
$PUCSORGLEFT
 10
0.0
 20
0.0
 30
0.0
  9
$PUCSORGRIGHT
 10
0.0
 20
0.0
 30
0.0
  9
$PUCSORGFRONT
 10
0.0
 20
0.0
 30
0.0
  9
$PUCSORGBACK
 10
0.0
 20
0.0
 30
0.0
  9
$USERI1
 70
     0
  9
$USERI2
 70
     0
  9
$USERI3
 70
     0
  9
$USERI4
 70
     0
  9
$USERI5
 70
     0
  9
$USERR1
 40
0.0
  9
$USERR2
 40
0.0
  9
$USERR3
 40
0.0
  9
$USERR4
 40
0.0
  9
$USERR5
 40
0.0
  9
$WORLDVIEW
 70
     1
  9
$SHADEDGE
 70
     3
  9
$SHADEDIF
 70
    70
  9
$TILEMODE
 70
     0
  9
$MAXACTVP
 70
    64
  9
$PINSBASE
 10
0.0
 20
0.0
 30
0.0
  9
$PLIMCHECK
 70
     0
  9
$PEXTMIN
 10
-4.391850629656119
 20
-3.455038652015446
 30
0.0
  9
$PEXTMAX
 10
278.8458837249377
 20
202.387980773708
 30
0.0
  9
$PLIMMIN
 10
-3.757080078125
 20
-3.757083177566528
  9
$PLIMMAX
 10
293.2112426757812
 20
206.2162444591522
  9
$UNITMODE
 70
     0
  9
$VISRETAIN
 70
     1
  9
$PLINEGEN
 70
     0
  9
$PSLTSCALE
 70
     1
  9
$TREEDEPTH
 70
  3020
  9
$CMLSTYLE
  2
Standard
  9
$CMLJUST
 70
     0
  9
$CMLSCALE
 40
20.0
  9
$PROXYGRAPHICS
 70
     1
  9
$MEASUREMENT
 70
     1
  9
$CELWEIGHT
370
    -1
  9
$ENDCAPS
280
     0
  9
$JOINSTYLE
280
     0
  9
$LWDISPLAY
290
     0
  9
$INSUNITS
 70
     4
  9
$HYPERLINKBASE
  1

  9
$STYLESHEET
  1

  9
$XEDIT
290
     1
  9
$CEPSNTYPE
380
     0
  9
$PSTYLEMODE
290
     1
  9
$FINGERPRINTGUID
  2
{FF7F33C3-4233-11D6-AEE0-0000F45FD7F4}
  9
$VERSIONGUID
  2
{808F3A6E-4A3B-4707-9FB1-E0973C84E635}
  9
$EXTNAMES
290
     1
  9
$PSVPSCALE
 40
0.0
  9
$OLESTARTUP
290
     0
  0
ENDSEC
  0
SECTION
  2
CLASSES
  0
CLASS
  1
ACDBDICTIONARYWDFLT
  2
AcDbDictionaryWithDefault
  3
AutoCAD 2000
 90
        0
280
     0
281
     0
  0
CLASS
  1
ACDBPLACEHOLDER
  2
AcDbPlaceHolder
  3
AutoCAD 2000
 90
        0
280
     0
281
     0
  0
CLASS
  1
LAYOUT
  2
AcDbLayout
  3
AutoCAD 2000
 90
        0
280
     0
281
     0
  0
CLASS
  1
DICTIONARYVAR
  2
AcDbDictionaryVar
  3
AutoCAD 2000
 90
        0
280
     0
281
     0
  0
ENDSEC
  0
SECTION
  2
TABLES
  0
TABLE
  2
VPORT
  5
8
330
0
100
AcDbSymbolTable
 70
     2
  0
VPORT
  5
2FAC
330
8
100
AcDbSymbolTableRecord
100
AcDbViewportTableRecord
  2
*Active
 70
     0
 10
0.0
 20
0.0
 11
1.0
 21
1.0
 12
248.240089821967
 22
91.76435796869681
 13
0.0
 23
0.0
 14
5.0
 24
5.0
 15
10.0
 25
10.0
 16
0.0
 26
0.0
 36
1.0
 17
0.0
 27
0.0
 37
0.0
 40
311.6118096330176
 41
1.968879668049792
 42
50.0
 43
0.0
 44
0.0
 50
0.0
 51
0.0
 71
     0
 72
   100
 73
     1
 74
     3
 75
     0
 76
     0
 77
     0
 78
     0
281
     0
 65
     1
110
0.0
120
0.0
130
0.0
111
1.0
121
0.0
131
0.0
112
0.0
122
1.0
132
0.0
 79
     0
146
0.0
  0
ENDTAB
  0
TABLE
  2
LTYPE
  5
5
330
0
100
AcDbSymbolTable
 70
     5
  0
LTYPE
  5
14
330
5
100
AcDbSymbolTableRecord
100
AcDbLinetypeTableRecord
  2
ByBlock
 70
     0
  3

 72
    65
 73
     0
 40
0.0
  0
LTYPE
  5
15
330
5
100
AcDbSymbolTableRecord
100
AcDbLinetypeTableRecord
  2
ByLayer
 70
     0
  3

 72
    65
 73
     0
 40
0.0
  0
LTYPE
  5
16
330
5
100
AcDbSymbolTableRecord
100
AcDbLinetypeTableRecord
  2
Continuous
 70
     0
  3
Solid line
 72
    65
 73
     0
 40
0.0
  0
LTYPE
  5
33
330
5
100
AcDbSymbolTableRecord
100
AcDbLinetypeTableRecord
  2
DASHED2
 70
     0
  3
Dashed (.5x) _ _ _ _ _ _ _ _ _ _ _ _ _ _ _ _ _
 72
    65
 73
     2
 40
9.524999999999998
 49
6.349999999999999
 74
     0
 49
-3.174999999999999
 74
     0
  0
LTYPE
  5
34
330
5
100
AcDbSymbolTableRecord
100
AcDbLinetypeTableRecord
  2
CENTER2
 70
     0
  3
Center (.5x) ___ _ ___ _ ___ _ ___ _ ___ _ ___
 72
    65
 73
     4
 40
28.57499999999999
 49
19.05
 74
     0
 49
-3.174999999999999
 74
     0
 49
3.174999999999999
 74
     0
 49
-3.174999999999999
 74
     0
  0
LTYPE
  5
35
330
5
100
AcDbSymbolTableRecord
100
AcDbLinetypeTableRecord
  2
PHANTOM2
 70
     0
  3
Phantom (.5x) ___ _ _ ___ _ _ ___ _ _ ___ _ _
 72
    65
 73
     6
 40
31.75
 49
15.875
 74
     0
 49
-3.174999999999999
 74
     0
 49
3.174999999999999
 74
     0
 49
-3.174999999999999
 74
     0
 49
3.174999999999999
 74
     0
 49
-3.174999999999999
 74
     0
  0
LTYPE
  5
36
330
5
100
AcDbSymbolTableRecord
100
AcDbLinetypeTableRecord
  2
HIDDEN2
 70
     0
  3
Hidden (.5x) _ _ _ _ _ _ _ _ _ _ _ _ _ _ _ _ _
 72
    65
 73
     2
 40
4.762499999999999
 49
3.174999999999999
 74
     0
 49
-1.587499999999999
 74
     0
  0
ENDTAB
  0
TABLE
  2
LAYER
  5
2
330
0
100
AcDbSymbolTable
 70
    13
  0
LAYER
  5
10
330
2
100
AcDbSymbolTableRecord
100
AcDbLayerTableRecord
  2
0
 70
     0
 62
     7
  6
Continuous
370
    -3
390
F
  0
LAYER
  5
40
330
2
100
AcDbSymbolTableRecord
100
AcDbLayerTableRecord
  2
50-0-CON
 70
     0
 62
     4
  6
Continuous
370
    50
390
F
  0
LAYER
  5
41
330
2
100
AcDbSymbolTableRecord
100
AcDbLayerTableRecord
  2
70-0-CON
 70
     0
 62
   202
  6
Continuous
370
    70
390
F
  0
LAYER
  5
4E
330
2
100
AcDbSymbolTableRecord
100
AcDbLayerTableRecord
  2
極太線
 70
     0
 62
     7
  6
Continuous
370
    70
390
F
  0
LAYER
  5
4F
330
2
100
AcDbSymbolTableRecord
100
AcDbLayerTableRecord
  2
細線
 70
     0
 62
     8
  6
Continuous
370
    18
390
F
  0
LAYER
  5
AB
330
2
100
AcDbSymbolTableRecord
100
AcDbLayerTableRecord
  2
構築線
 70
     0
 62
    -2
  6
Continuous
290
     0
370
    18
390
F
  0
LAYER
  5
B8
330
2
100
AcDbSymbolTableRecord
100
AcDbLayerTableRecord
  2
太線
 70
     0
 62
     7
  6
Continuous
370
    35
390
F
  0
LAYER
  5
B9
330
2
100
AcDbSymbolTableRecord
100
AcDbLayerTableRecord
  2
寸法線
 70
     0
 62
     5
  6
Continuous
370
    18
390
F
  0
LAYER
  5
BA
330
2
100
AcDbSymbolTableRecord
100
AcDbLayerTableRecord
  2
破線
 70
     0
 62
     8
  6
HIDDEN2
370
    18
390
F
  0
LAYER
  5
BB
330
2
100
AcDbSymbolTableRecord
100
AcDbLayerTableRecord
  2
中心線
 70
     0
 62
     1
  6
CENTER2
370
    18
390
F
  0
LAYER
  5
BC
330
2
100
AcDbSymbolTableRecord
100
AcDbLayerTableRecord
  2
想像線
 70
     0
 62
     8
  6
PHANTOM2
370
    18
390
F
  0
LAYER
  5
BD
330
2
100
AcDbSymbolTableRecord
100
AcDbLayerTableRecord
  2
文字
 70
     0
 62
     7
  6
Continuous
370
    18
390
F
  0
LAYER
  5
180
330
2
100
AcDbSymbolTableRecord
100
AcDbLayerTableRecord
  2
Defpoints
 70
     0
 62
     7
  6
Continuous
290
     0
370
    -3
390
F
  0
ENDTAB
  0
TABLE
  2
STYLE
  5
3
330
0
100
AcDbSymbolTable
 70
     3
  0
STYLE
  5
11
330
3
100
AcDbSymbolTableRecord
100
AcDbTextStyleTableRecord
  2
Standard
 70
     0
 40
0.0
 41
1.0
 50
0.0
 71
     0
 42
3.0
  3
txt
  4

  0
STYLE
  5
32
330
3
100
AcDbSymbolTableRecord
100
AcDbTextStyleTableRecord
  2

 70
     1
 40
0.0
 41
1.0
 50
0.0
 71
     0
 42
2.5
  3
ltypeshp.shx
  4

  0
STYLE
  5
50
330
3
100
AcDbSymbolTableRecord
100
AcDbTextStyleTableRecord
  2
OKANO
 70
     0
 40
0.0
 41
1.0
 50
15.0
 71
     0
 42
5.0
  3
isocp.shx
  4
bigfont.shx
  0
ENDTAB
  0
TABLE
  2
VIEW
  5
6
330
0
100
AcDbSymbolTable
 70
     0
  0
ENDTAB
  0
TABLE
  2
UCS
  5
7
330
0
100
AcDbSymbolTable
 70
     0
  0
ENDTAB
  0
TABLE
  2
APPID
  5
9
330
0
100
AcDbSymbolTable
 70
     1
  0
APPID
  5
12
330
9
100
AcDbSymbolTableRecord
100
AcDbRegAppTableRecord
  2
ACAD
 70
     0
  0
ENDTAB
  0
TABLE
  2
DIMSTYLE
  5
A
330
0
100
AcDbSymbolTable
 70
     2
100
AcDbDimStyleTable
 71
     2
340
A2
340
27
  0
DIMSTYLE
105
27
330
A
100
AcDbSymbolTableRecord
100
AcDbDimStyleTableRecord
  2
ISO-25
 70
     0
 41
2.5
 42
0.625
 43
3.75
 44
1.25
 73
     0
 74
     0
 77
     1
 78
     8
140
2.5
141
2.5
143
0.03937007874016
147
0.625
171
     3
172
     1
271
     2
272
     2
274
     3
283
     0
284
     8
340
11
  0
DIMSTYLE
105
A2
102
{ACAD_REACTORS
330
2A9D
330
2AD7
330
2AE4
330
2AFF
330
2B0C
330
2B1B
330
2B28
330
2B37
330
2B44
330
2B53
330
2B62
330
2B6F
330
2B7E
330
2B98
330
2E63
330
2E64
330
2E67
330
2F18
330
2F2E
330
2F44
330
2F5E
102
}
330
A
100
AcDbSymbolTableRecord
100
AcDbDimStyleTableRecord
  2
sunpo
 70
     0
 40
0.0
 41
3.0
 42
2.0
 43
8.0
 44
3.0
 73
     0
 74
     0
 77
     1
 78
     8
140
5.0
141
2.5
143
0.03937007874016
147
1.0
171
     3
172
     1
271
     2
272
     2
274
     3
283
     0
284
     8
340
50
341
9B
342
9B
  0
ENDTAB
  0
TABLE
  2
BLOCK_RECORD
  5
1
330
0
100
AcDbSymbolTable
 70
    23
  0
BLOCK_RECORD
  5
1F
330
1
100
AcDbSymbolTableRecord
100
AcDbBlockTableRecord
  2
*Model_Space
340
22
  0
BLOCK_RECORD
  5
1B
330
1
100
AcDbSymbolTableRecord
100
AcDbBlockTableRecord
  2
*Paper_Space
340
1E
  0
BLOCK_RECORD
  5
9B
330
1
100
AcDbSymbolTableRecord
100
AcDbBlockTableRecord
  2
_Closed
340
0
102
{BLKREFS
331
2CF4
331
2CF5
331
2CFD
331
2CFE
331
2D06
331
2D07
331
2D0F
331
2D10
331
2D1A
331
2D1B
331
2D25
331
2D26
331
2D2E
331
2D2F
331
2D39
331
2D3A
331
2D44
331
2D45
331
2D4D
331
2D4E
331
2D58
331
2D59
331
2D61
331
2D62
331
2D6A
331
2D6B
331
2EE6
331
2EE7
331
2EED
331
2EEE
331
2EF6
331
2EF7
331
2EFF
331
2F00
331
2F28
331
2F29
331
2F3E
331
2F3F
331
2F49
331
2F4A
331
2F6E
331
2F6F
102
}
  0
BLOCK_RECORD
  5
1510
330
1
100
AcDbSymbolTableRecord
100
AcDbBlockTableRecord
  2
A$C10A573AC
340
0
  0
BLOCK_RECORD
  5
2A9E
330
1
100
AcDbSymbolTableRecord
100
AcDbBlockTableRecord
  2
*D2
340
0
  0
BLOCK_RECORD
  5
2AD8
330
1
100
AcDbSymbolTableRecord
100
AcDbBlockTableRecord
  2
*D3
340
0
  0
BLOCK_RECORD
  5
2AE5
330
1
100
AcDbSymbolTableRecord
100
AcDbBlockTableRecord
  2
*D4
340
0
  0
BLOCK_RECORD
  5
2B00
330
1
100
AcDbSymbolTableRecord
100
AcDbBlockTableRecord
  2
*D5
340
0
  0
BLOCK_RECORD
  5
2B0D
330
1
100
AcDbSymbolTableRecord
100
AcDbBlockTableRecord
  2
*D6
340
0
  0
BLOCK_RECORD
  5
2B1C
330
1
100
AcDbSymbolTableRecord
100
AcDbBlockTableRecord
  2
*D7
340
0
  0
BLOCK_RECORD
  5
2B29
330
1
100
AcDbSymbolTableRecord
100
AcDbBlockTableRecord
  2
*D8
340
0
  0
BLOCK_RECORD
  5
2B38
330
1
100
AcDbSymbolTableRecord
100
AcDbBlockTableRecord
  2
*D9
340
0
  0
BLOCK_RECORD
  5
2B45
330
1
100
AcDbSymbolTableRecord
100
AcDbBlockTableRecord
  2
*D10
340
0
  0
BLOCK_RECORD
  5
2B54
330
1
100
AcDbSymbolTableRecord
100
AcDbBlockTableRecord
  2
*D11
340
0
  0
BLOCK_RECORD
  5
2B63
330
1
100
AcDbSymbolTableRecord
100
AcDbBlockTableRecord
  2
*D12
340
0
  0
BLOCK_RECORD
  5
2B70
330
1
100
AcDbSymbolTableRecord
100
AcDbBlockTableRecord
  2
*D13
340
0
  0
BLOCK_RECORD
  5
2B7F
330
1
100
AcDbSymbolTableRecord
100
AcDbBlockTableRecord
  2
*D14
340
0
  0
BLOCK_RECORD
  5
2B99
330
1
100
AcDbSymbolTableRecord
100
AcDbBlockTableRecord
  2
*D15
340
0
  0
BLOCK_RECORD
  5
2E6B
330
1
100
AcDbSymbolTableRecord
100
AcDbBlockTableRecord
  2
*D16
340
0
  0
BLOCK_RECORD
  5
2E77
330
1
100
AcDbSymbolTableRecord
100
AcDbBlockTableRecord
  2
*D17
340
0
  0
BLOCK_RECORD
  5
2E83
330
1
100
AcDbSymbolTableRecord
100
AcDbBlockTableRecord
  2
*D18
340
0
  0
BLOCK_RECORD
  5
2F19
330
1
100
AcDbSymbolTableRecord
100
AcDbBlockTableRecord
  2
*D19
340
0
  0
BLOCK_RECORD
  5
2F2F
330
1
100
AcDbSymbolTableRecord
100
AcDbBlockTableRecord
  2
*D20
340
0
  0
BLOCK_RECORD
  5
2F45
330
1
100
AcDbSymbolTableRecord
100
AcDbBlockTableRecord
  2
*D21
340
0
  0
BLOCK_RECORD
  5
2F5F
330
1
100
AcDbSymbolTableRecord
100
AcDbBlockTableRecord
  2
*D22
340
0
  0
ENDTAB
  0
ENDSEC
  0
SECTION
  2
BLOCKS
  0
BLOCK
  5
20
330
1F
100
AcDbEntity
  8
0
100
AcDbBlockBegin
  2
*Model_Space
 70
     0
 10
0.0
 20
0.0
 30
0.0
  3
*Model_Space
  1

  0
ENDBLK
  5
21
330
1F
100
AcDbEntity
  8
0
100
AcDbBlockEnd
  0
BLOCK
  5
1C
330
1B
100
AcDbEntity
 67
     1
  8
0
100
AcDbBlockBegin
  2
*Paper_Space
 70
     0
 10
0.0
 20
0.0
 30
0.0
  3
*Paper_Space
  1

  0
ENDBLK
  5
1D
330
1B
100
AcDbEntity
 67
     1
  8
0
100
AcDbBlockEnd
  0
BLOCK
  5
A0
330
9B
100
AcDbEntity
  8
0
100
AcDbBlockBegin
  2
_Closed
 70
     0
 10
0.0
 20
0.0
 30
0.0
  3
_Closed
  1

  0
LINE
  5
9C
330
9B
100
AcDbEntity
  8
0
 62
     0
370
    -2
100
AcDbLine
 10
-1.0
 20
0.1666666666666666
 30
0.0
 11
0.0
 21
0.0
 31
0.0
  0
LINE
  5
9D
330
9B
100
AcDbEntity
  8
0
 62
     0
370
    -2
100
AcDbLine
 10
0.0
 20
0.0
 30
0.0
 11
-1.0
 21
-0.1666666666666666
 31
0.0
  0
LINE
  5
9E
330
9B
100
AcDbEntity
  8
0
 62
     0
370
    -2
100
AcDbLine
 10
-1.0
 20
0.1666666666666666
 30
0.0
 11
-1.0
 21
-0.1666666666666666
 31
0.0
  0
LINE
  5
9F
330
9B
100
AcDbEntity
  8
0
 62
     0
370
    -2
100
AcDbLine
 10
0.0
 20
0.0
 30
0.0
 11
-1.0
 21
0.0
 31
0.0
  0
ENDBLK
  5
A1
330
9B
100
AcDbEntity
  8
0
100
AcDbBlockEnd
  0
BLOCK
  5
155B
330
1510
100
AcDbEntity
  8
0
100
AcDbBlockBegin
  2
A$C10A573AC
 70
     0
 10
0.0
 20
0.0
 30
0.0
  3
A$C10A573AC
  1

  0
TEXT
  5
1511
330
1510
100
AcDbEntity
  8
文字
100
AcDbText
 10
0.9844302777919438
 20
5.224957122252135
 30
0.0
 40
3.0
  1
Materal : Steel.
 51
15.0
  7
OKANO
100
AcDbText
  0
TEXT
  5
1512
330
1510
100
AcDbEntity
  8
文字
100
AcDbText
 10
-0.1141909619694843
 20
0.7500001922403499
 30
0.0
 40
3.0
  1
Surface treatment : Electro galvanized.
 51
15.0
  7
OKANO
100
AcDbText
  0
TEXT
  5
1513
330
1510
100
AcDbEntity
  8
文字
100
AcDbText
 10
-0.4901926332574931
 20
9.159967445193728
 30
0.0
 40
3.0
  1
5 TORGUE SCREW  M5-6
 51
15.0
  7
OKANO
100
AcDbText
  0
TEXT
  5
1514
330
1510
100
AcDbEntity
  8
文字
100
AcDbText
 10
1.364713526390005
 20
78.88822913323082
 30
0.0
 40
3.0
  1
Special standard,
 51
15.0
  7
OKANO
100
AcDbText
  0
TEXT
  5
1515
330
1510
100
AcDbEntity
  8
文字
100
AcDbText
 10
92.88160823408942
 20
89.92753849837379
 30
0.0
 40
3.0
  1
Screw Type
 51
15.0
  7
OKANO
100
AcDbText
  0
LINE
  5
1516
330
1510
100
AcDbEntity
  8
太線
100
AcDbLine
 10
113.9464587597784
 20
81.93930390144641
 30
0.0
 11
112.4464587597784
 21
81.93930390144641
 31
0.0
  0
LINE
  5
1517
330
1510
100
AcDbEntity
  8
太線
100
AcDbLine
 10
112.4464587597784
 20
76.9393039014464
 30
0.0
 11
121.4644995438761
 21
76.9393039014464
 31
0.0
  0
TEXT
  5
1518
330
1510
100
AcDbEntity
  8
文字
100
AcDbText
 10
93.46068240437217
 20
77.96976862235396
 30
0.0
 40
2.0
  1
17-30
 51
15.0
  7
OKANO
100
AcDbText
  0
LINE
  5
1519
330
1510
100
AcDbEntity
  8
太線
100
AcDbLine
 10
111.9464587597784
 20
81.43930390144641
 30
0.0
 11
111.9464587597784
 21
77.4393039014464
 31
0.0
  0
LINE
  5
151A
330
1510
100
AcDbEntity
  8
太線
100
AcDbLine
 10
91.94645875977846
 20
81.43930390144641
 30
0.0
 11
91.94645875977846
 21
77.43930390144639
 31
0.0
  0
LINE
  5
151B
330
1510
100
AcDbEntity
  8
太線
100
AcDbLine
 10
101.9644995438761
 20
77.4393039014464
 30
0.0
 11
101.9644995438761
 21
81.43930390144641
 31
0.0
  0
LINE
  5
151C
330
1510
100
AcDbEntity
  8
太線
100
AcDbLine
 10
92.44645875977846
 20
76.9393039014464
 30
0.0
 11
101.4644995438761
 21
76.9393039014464
 31
0.0
  0
ARC
  5
151D
330
1510
100
AcDbEntity
  8
太線
100
AcDbCircle
 10
92.44645875977846
 20
77.43930390144639
 30
0.0
 40
0.5
100
AcDbArc
 50
180.0
 51
270.0
  0
ARC
  5
151E
330
1510
100
AcDbEntity
  8
太線
100
AcDbCircle
 10
101.4644995438761
 20
77.4393039014464
 30
0.0
 40
0.5
100
AcDbArc
 50
270.0
 51
0.0
  0
ARC
  5
151F
330
1510
100
AcDbEntity
  8
太線
100
AcDbCircle
 10
112.4464587597784
 20
77.4393039014464
 30
0.0
 40
0.5
100
AcDbArc
 50
180.0
 51
270.0
  0
LINE
  5
1520
330
1510
100
AcDbEntity
  8
想像線
100
AcDbLine
 10
93.94645875977847
 20
81.93930390144641
 30
0.0
 11
99.96449954387617
 21
81.93930390144641
 31
0.0
  0
LINE
  5
1521
330
1510
100
AcDbEntity
  8
極太線
100
AcDbLine
 10
96.38762957111168
 20
85.43930390144641
 30
0.0
 11
97.50528794844525
 21
85.43930390144641
 31
0.0
  0
CIRCLE
  5
1522
330
1510
100
AcDbEntity
  8
太線
100
AcDbCircle
 10
96.94645875977847
 20
85.43930390144641
 30
0.0
 40
0.5588291886667776
  0
LINE
  5
1523
330
1510
100
AcDbEntity
  8
太線
100
AcDbLine
 10
99.46449954387617
 20
86.93930390144641
 30
0.0
 11
94.44645875977846
 21
86.93930390144641
 31
0.0
  0
LINE
  5
1524
330
1510
100
AcDbEntity
  8
太線
100
AcDbLine
 10
93.94645875977847
 20
86.43930390144641
 30
0.0
 11
93.94645875977847
 21
81.93930390144641
 31
0.0
  0
ARC
  5
1525
330
1510
100
AcDbEntity
  8
太線
100
AcDbCircle
 10
92.44645875977846
 20
81.43930390144641
 30
0.0
 40
0.5
100
AcDbArc
 50
90.0
 51
180.0
  0
LINE
  5
1526
330
1510
100
AcDbEntity
  8
太線
100
AcDbLine
 10
93.94645875977847
 20
81.93930390144641
 30
0.0
 11
92.44645875977846
 21
81.93930390144641
 31
0.0
  0
ARC
  5
1527
330
1510
100
AcDbEntity
  8
太線
100
AcDbCircle
 10
94.44645875977846
 20
86.43930390144641
 30
0.0
 40
0.5
100
AcDbArc
 50
90.0
 51
180.0
  0
LINE
  5
1528
330
1510
100
AcDbEntity
  8
太線
100
AcDbLine
 10
99.96449954387617
 20
81.93930390144641
 30
0.0
 11
99.96449954387617
 21
86.43930390144641
 31
0.0
  0
LINE
  5
1529
330
1510
100
AcDbEntity
  8
太線
100
AcDbLine
 10
101.4644995438761
 20
81.93930390144641
 30
0.0
 11
99.96449954387617
 21
81.93930390144641
 31
0.0
  0
ARC
  5
152A
330
1510
100
AcDbEntity
  8
太線
100
AcDbCircle
 10
101.4644995438761
 20
81.43930390144641
 30
0.0
 40
0.5
100
AcDbArc
 50
0.0
 51
90.0
  0
ARC
  5
152B
330
1510
100
AcDbEntity
  8
太線
100
AcDbCircle
 10
99.46449954387617
 20
86.43930390144641
 30
0.0
 40
0.5
100
AcDbArc
 50
0.0
 51
90.0
  0
LINE
  5
152C
330
1510
100
AcDbEntity
  8
極太線
100
AcDbLine
 10
96.94645875977847
 20
85.99813309011318
 30
0.0
 11
96.94645875977847
 21
84.88047471277964
 31
0.0
  0
ARC
  5
152D
330
1510
100
AcDbEntity
  8
太線
100
AcDbCircle
 10
112.4464587597784
 20
81.43930390144641
 30
0.0
 40
0.5
100
AcDbArc
 50
90.0
 51
180.0
  0
TEXT
  5
152E
330
1510
100
AcDbEntity
  8
文字
100
AcDbText
 10
134.3819212586066
 20
78.16263579228063
 30
0.0
 40
2.0
  1
101
 51
15.0
  7
OKANO
100
AcDbText
  0
TEXT
  5
152F
330
1510
100
AcDbEntity
  8
文字
100
AcDbText
 10
113.3422276612066
 20
77.96976862235396
 30
0.0
 40
2.0
  1
38-83
 51
15.0
  7
OKANO
100
AcDbText
  0
LINE
  5
1530
330
1510
100
AcDbEntity
  8
太線
100
AcDbLine
 10
141.9825403279738
 20
77.4393039014464
 30
0.0
 11
141.9825403279738
 21
81.43930390144641
 31
0.0
  0
LINE
  5
1531
330
1510
100
AcDbEntity
  8
太線
100
AcDbLine
 10
131.9644995438761
 20
81.43930390144641
 30
0.0
 11
131.9644995438761
 21
77.4393039014464
 31
0.0
  0
LINE
  5
1532
330
1510
100
AcDbEntity
  8
太線
100
AcDbLine
 10
121.9644995438761
 20
77.4393039014464
 30
0.0
 11
121.9644995438761
 21
81.43930390144641
 31
0.0
  0
ARC
  5
1533
330
1510
100
AcDbEntity
  8
太線
100
AcDbCircle
 10
121.4644995438761
 20
77.4393039014464
 30
0.0
 40
0.5
100
AcDbArc
 50
270.0
 51
0.0
  0
LINE
  5
1534
330
1510
100
AcDbEntity
  8
太線
100
AcDbLine
 10
132.4644995438761
 20
76.9393039014464
 30
0.0
 11
141.4825403279738
 21
76.9393039014464
 31
0.0
  0
ARC
  5
1535
330
1510
100
AcDbEntity
  8
太線
100
AcDbCircle
 10
132.4644995438761
 20
77.4393039014464
 30
0.0
 40
0.5
100
AcDbArc
 50
180.0
 51
270.0
  0
ARC
  5
1536
330
1510
100
AcDbEntity
  8
太線
100
AcDbCircle
 10
141.4825403279738
 20
77.4393039014464
 30
0.0
 40
0.5
100
AcDbArc
 50
270.0
 51
0.0
  0
ARC
  5
1537
330
1510
100
AcDbEntity
  8
太線
100
AcDbCircle
 10
121.4644995438761
 20
81.43930390144641
 30
0.0
 40
0.5
100
AcDbArc
 50
0.0
 51
90.0
  0
LINE
  5
1538
330
1510
100
AcDbEntity
  8
太線
100
AcDbLine
 10
119.9644995438761
 20
81.93930390144641
 30
0.0
 11
119.9644995438761
 21
86.43930390144641
 31
0.0
  0
LINE
  5
1539
330
1510
100
AcDbEntity
  8
太線
100
AcDbLine
 10
113.9464587597784
 20
86.43930390144641
 30
0.0
 11
113.9464587597784
 21
81.93930390144641
 31
0.0
  0
LINE
  5
153A
330
1510
100
AcDbEntity
  8
想像線
100
AcDbLine
 10
113.9464587597784
 20
81.93930390144641
 30
0.0
 11
119.9644995438761
 21
81.93930390144641
 31
0.0
  0
LINE
  5
153B
330
1510
100
AcDbEntity
  8
太線
100
AcDbLine
 10
121.4644995438761
 20
81.93930390144641
 30
0.0
 11
119.9644995438761
 21
81.93930390144641
 31
0.0
  0
LINE
  5
153C
330
1510
100
AcDbEntity
  8
太線
100
AcDbLine
 10
119.4644995438761
 20
86.93930390144641
 30
0.0
 11
114.4464587597784
 21
86.93930390144641
 31
0.0
  0
ARC
  5
153D
330
1510
100
AcDbEntity
  8
太線
100
AcDbCircle
 10
114.4464587597784
 20
86.43930390144641
 30
0.0
 40
0.5
100
AcDbArc
 50
90.0
 51
180.0
  0
CIRCLE
  5
153E
330
1510
100
AcDbEntity
  8
太線
100
AcDbCircle
 10
115.4464587597784
 20
85.43930390144641
 30
0.0
 40
0.5588291886667776
  0
LINE
  5
153F
330
1510
100
AcDbEntity
  8
極太線
100
AcDbLine
 10
115.4464587597784
 20
85.99813309011318
 30
0.0
 11
115.4464587597784
 21
84.88047471277964
 31
0.0
  0
LINE
  5
1540
330
1510
100
AcDbEntity
  8
極太線
100
AcDbLine
 10
114.8876295711116
 20
85.43930390144641
 30
0.0
 11
116.0052879484452
 21
85.43930390144641
 31
0.0
  0
ARC
  5
1541
330
1510
100
AcDbEntity
  8
太線
100
AcDbCircle
 10
119.4644995438761
 20
86.43930390144641
 30
0.0
 40
0.5
100
AcDbArc
 50
0.0
 51
90.0
  0
LINE
  5
1542
330
1510
100
AcDbEntity
  8
極太線
100
AcDbLine
 10
117.9056703552094
 20
85.43930390144641
 30
0.0
 11
119.0233287325429
 21
85.43930390144641
 31
0.0
  0
LINE
  5
1543
330
1510
100
AcDbEntity
  8
極太線
100
AcDbLine
 10
118.4644995438761
 20
85.99813309011318
 30
0.0
 11
118.4644995438761
 21
84.88047471277964
 31
0.0
  0
CIRCLE
  5
1544
330
1510
100
AcDbEntity
  8
太線
100
AcDbCircle
 10
118.4644995438761
 20
85.43930390144641
 30
0.0
 40
0.5588291886667776
  0
LINE
  5
1545
330
1510
100
AcDbEntity
  8
想像線
100
AcDbLine
 10
133.9644995438761
 20
81.93930390144641
 30
0.0
 11
139.9825403279738
 21
81.93930390144641
 31
0.0
  0
LINE
  5
1546
330
1510
100
AcDbEntity
  8
極太線
100
AcDbLine
 10
137.9237111393071
 20
85.43930390144641
 30
0.0
 11
139.0413695166406
 21
85.43930390144641
 31
0.0
  0
CIRCLE
  5
1547
330
1510
100
AcDbEntity
  8
太線
100
AcDbCircle
 10
138.4825403279738
 20
85.43930390144641
 30
0.0
 40
0.5588291886667776
  0
CIRCLE
  5
1548
330
1510
100
AcDbEntity
  8
太線
100
AcDbCircle
 10
138.4825403279738
 20
83.26342923362075
 30
0.0
 40
0.5588291886667776
  0
LINE
  5
1549
330
1510
100
AcDbEntity
  8
極太線
100
AcDbLine
 10
137.9237111393071
 20
83.26342923362075
 30
0.0
 11
139.0413695166406
 21
83.26342923362075
 31
0.0
  0
LINE
  5
154A
330
1510
100
AcDbEntity
  8
太線
100
AcDbLine
 10
139.4825403279738
 20
86.93930390144641
 30
0.0
 11
134.4644995438761
 21
86.93930390144641
 31
0.0
  0
LINE
  5
154B
330
1510
100
AcDbEntity
  8
太線
100
AcDbLine
 10
133.9644995438761
 20
86.43930390144641
 30
0.0
 11
133.9644995438761
 21
81.93930390144641
 31
0.0
  0
ARC
  5
154C
330
1510
100
AcDbEntity
  8
太線
100
AcDbCircle
 10
132.4644995438761
 20
81.43930390144641
 30
0.0
 40
0.5
100
AcDbArc
 50
90.0
 51
180.0
  0
LINE
  5
154D
330
1510
100
AcDbEntity
  8
太線
100
AcDbLine
 10
133.9644995438761
 20
81.93930390144641
 30
0.0
 11
132.4644995438761
 21
81.93930390144641
 31
0.0
  0
LINE
  5
154E
330
1510
100
AcDbEntity
  8
極太線
100
AcDbLine
 10
134.9056703552093
 20
83.26342923362075
 30
0.0
 11
136.0233287325429
 21
83.26342923362075
 31
0.0
  0
LINE
  5
154F
330
1510
100
AcDbEntity
  8
極太線
100
AcDbLine
 10
135.4644995438761
 20
83.82225842228752
 30
0.0
 11
135.4644995438761
 21
82.70460004495395
 31
0.0
  0
CIRCLE
  5
1550
330
1510
100
AcDbEntity
  8
太線
100
AcDbCircle
 10
135.4644995438761
 20
83.26342923362075
 30
0.0
 40
0.5588291886667776
  0
ARC
  5
1551
330
1510
100
AcDbEntity
  8
太線
100
AcDbCircle
 10
134.4644995438761
 20
86.43930390144641
 30
0.0
 40
0.5
100
AcDbArc
 50
90.0
 51
180.0
  0
CIRCLE
  5
1552
330
1510
100
AcDbEntity
  8
太線
100
AcDbCircle
 10
135.4644995438761
 20
85.43930390144641
 30
0.0
 40
0.5588291886667776
  0
LINE
  5
1553
330
1510
100
AcDbEntity
  8
極太線
100
AcDbLine
 10
135.4644995438761
 20
85.99813309011318
 30
0.0
 11
135.4644995438761
 21
84.88047471277964
 31
0.0
  0
LINE
  5
1554
330
1510
100
AcDbEntity
  8
極太線
100
AcDbLine
 10
134.9056703552093
 20
85.43930390144641
 30
0.0
 11
136.0233287325429
 21
85.43930390144641
 31
0.0
  0
LINE
  5
1555
330
1510
100
AcDbEntity
  8
太線
100
AcDbLine
 10
139.9825403279738
 20
81.93930390144641
 30
0.0
 11
139.9825403279738
 21
86.43930390144641
 31
0.0
  0
ARC
  5
1556
330
1510
100
AcDbEntity
  8
太線
100
AcDbCircle
 10
141.4825403279738
 20
81.43930390144641
 30
0.0
 40
0.5
100
AcDbArc
 50
0.0
 51
90.0
  0
LINE
  5
1557
330
1510
100
AcDbEntity
  8
極太線
100
AcDbLine
 10
138.4825403279738
 20
83.82225842228752
 30
0.0
 11
138.4825403279738
 21
82.70460004495395
 31
0.0
  0
LINE
  5
1558
330
1510
100
AcDbEntity
  8
太線
100
AcDbLine
 10
141.4825403279738
 20
81.93930390144641
 30
0.0
 11
139.9825403279738
 21
81.93930390144641
 31
0.0
  0
ARC
  5
1559
330
1510
100
AcDbEntity
  8
太線
100
AcDbCircle
 10
139.4825403279738
 20
86.43930390144641
 30
0.0
 40
0.5
100
AcDbArc
 50
0.0
 51
90.0
  0
LINE
  5
155A
330
1510
100
AcDbEntity
  8
極太線
100
AcDbLine
 10
138.4825403279738
 20
85.99813309011318
 30
0.0
 11
138.4825403279738
 21
84.88047471277964
 31
0.0
  0
ENDBLK
  5
155C
330
1510
100
AcDbEntity
  8
0
100
AcDbBlockEnd
  0
BLOCK
  5
2AA7
330
2A9E
100
AcDbEntity
  8
0
100
AcDbBlockBegin
  2
*D2
 70
     1
 10
0.0
 20
0.0
 30
0.0
  3
*D2
  1

  0
LINE
  5
2EE2
330
2A9E
100
AcDbEntity
  8
寸法線
 62
     0
370
    -2
100
AcDbLine
 10
158.0319670680496
 20
125.9932751877934
 30
0.0
 11
172.3475425230781
 21
141.9578064962493
 31
0.0
  0
LINE
  5
2EE3
330
2A9E
100
AcDbEntity
  8
寸法線
 62
     0
370
    -2
100
AcDbLine
 10
180.3588729970001
 20
150.8919311896711
 30
0.0
 11
182.3617056154805
 21
153.1254623630266
 31
0.0
  0
MTEXT
  5
2EE4
330
2A9E
100
AcDbEntity
  8
寸法線
 62
     0
100
AcDbMText
 10
158.4355879988575
 20
131.6859625476729
 30
0.0
 40
5.0
 41
0.0
 71
     5
 72
     1
  1
\U+22056
  7
OKANO
 11
0.6676108728268276
 21
0.7445103911184864
 31
0.0
 73
     1
 44
1.0
  0
LINE
  5
2EE5
330
2A9E
100
AcDbEntity
  8
寸法線
 62
     0
370
    -2
100
AcDbLine
 10
178.3560403785196
 20
148.6584000163157
 30
0.0
 11
174.3503751415586
 21
144.1913376696048
 31
0.0
  0
INSERT
  5
2EE6
330
2A9E
100
AcDbEntity
  8
寸法線
 62
     0
370
    -2
100
AcDbBlockReference
  2
_Closed
 10
178.3560403785196
 20
148.6584000163157
 30
0.0
 41
3.0
 42
3.0
 43
3.0
 50
228.1170624565538
  0
INSERT
  5
2EE7
330
2A9E
100
AcDbEntity
  8
寸法線
 62
     0
370
    -2
100
AcDbBlockReference
  2
_Closed
 10
174.3503751415586
 20
144.1913376696048
 30
0.0
 41
3.0
 42
3.0
 43
3.0
 50
48.1170624565538
  0
POINT
  5
2EE8
330
2A9E
100
AcDbEntity
  8
Defpoints
 62
     0
100
AcDbPoint
 10
174.3503751415586
 20
144.1913376696048
 30
0.0
  0
POINT
  5
2EE9
330
2A9E
100
AcDbEntity
  8
Defpoints
 62
     0
100
AcDbPoint
 10
178.3560403785196
 20
148.6584000163157
 30
0.0
  0
ENDBLK
  5
2AA8
330
2A9E
100
AcDbEntity
  8
0
100
AcDbBlockEnd
  0
BLOCK
  5
2AE2
330
2AD8
100
AcDbEntity
  8
0
100
AcDbBlockBegin
  2
*D3
 70
     1
 10
0.0
 20
0.0
 30
0.0
  3
*D3
  1

  0
LINE
  5
2D03
330
2AD8
100
AcDbEntity
  8
寸法線
 62
     0
370
    -2
100
AcDbLine
 10
258.8392598281198
 20
212.4711488256961
 30
0.0
 11
258.8392598281198
 21
225.6079678406199
 31
0.0
  0
LINE
  5
2D04
330
2AD8
100
AcDbEntity
  8
寸法線
 62
     0
370
    -2
100
AcDbLine
 10
293.8392598281197
 20
207.4711488256961
 30
0.0
 11
293.8392598281197
 21
225.6079678406199
 31
0.0
  0
LINE
  5
2D05
330
2AD8
100
AcDbEntity
  8
寸法線
 62
     0
370
    -2
100
AcDbLine
 10
261.8392598281197
 20
222.6079678406199
 30
0.0
 11
290.8392598281198
 21
222.6079678406199
 31
0.0
  0
INSERT
  5
2D06
330
2AD8
100
AcDbEntity
  8
寸法線
 62
     0
370
    -2
100
AcDbBlockReference
  2
_Closed
 10
258.8392598281198
 20
222.6079678406199
 30
0.0
 41
3.0
 42
3.0
 43
3.0
 50
180.0
  0
INSERT
  5
2D07
330
2AD8
100
AcDbEntity
  8
寸法線
 62
     0
370
    -2
100
AcDbBlockReference
  2
_Closed
 10
293.8392598281197
 20
222.6079678406199
 30
0.0
 41
3.0
 42
3.0
 43
3.0
  0
MTEXT
  5
2D08
330
2AD8
100
AcDbEntity
  8
寸法線
 62
     0
100
AcDbMText
 10
276.3392598281197
 20
226.1079678406199
 30
0.0
 40
5.0
 41
0.0
 71
     5
 72
     1
  1
35
  7
OKANO
 73
     1
 44
1.0
  0
POINT
  5
2D09
330
2AD8
100
AcDbEntity
  8
Defpoints
 62
     0
100
AcDbPoint
 10
258.8392598281198
 20
210.4711488256961
 30
0.0
  0
POINT
  5
2D0A
330
2AD8
100
AcDbEntity
  8
Defpoints
 62
     0
100
AcDbPoint
 10
293.8392598281197
 20
205.4711488256961
 30
0.0
  0
POINT
  5
2D0B
330
2AD8
100
AcDbEntity
  8
Defpoints
 62
     0
100
AcDbPoint
 10
293.8392598281197
 20
222.6079678406199
 30
0.0
  0
ENDBLK
  5
2AE3
330
2AD8
100
AcDbEntity
  8
0
100
AcDbBlockEnd
  0
BLOCK
  5
2AEF
330
2AE5
100
AcDbEntity
  8
0
100
AcDbBlockBegin
  2
*D4
 70
     1
 10
0.0
 20
0.0
 30
0.0
  3
*D4
  1

  0
LINE
  5
2D5E
330
2AE5
100
AcDbEntity
  8
寸法線
 62
     0
370
    -2
100
AcDbLine
 10
293.8392598281197
 20
207.4711488256961
 30
0.0
 11
293.8392598281197
 21
225.6079678406199
 31
0.0
  0
LINE
  5
2D5F
330
2AE5
100
AcDbEntity
  8
寸法線
 62
     0
370
    -2
100
AcDbLine
 10
353.8392598281197
 20
182.4711488256961
 30
0.0
 11
353.8392598281197
 21
225.6079678406199
 31
0.0
  0
LINE
  5
2D60
330
2AE5
100
AcDbEntity
  8
寸法線
 62
     0
370
    -2
100
AcDbLine
 10
296.8392598281198
 20
222.6079678406199
 30
0.0
 11
350.8392598281198
 21
222.6079678406199
 31
0.0
  0
INSERT
  5
2D61
330
2AE5
100
AcDbEntity
  8
寸法線
 62
     0
370
    -2
100
AcDbBlockReference
  2
_Closed
 10
293.8392598281197
 20
222.6079678406199
 30
0.0
 41
3.0
 42
3.0
 43
3.0
 50
180.0
  0
INSERT
  5
2D62
330
2AE5
100
AcDbEntity
  8
寸法線
 62
     0
370
    -2
100
AcDbBlockReference
  2
_Closed
 10
353.8392598281197
 20
222.6079678406199
 30
0.0
 41
3.0
 42
3.0
 43
3.0
  0
MTEXT
  5
2D63
330
2AE5
100
AcDbEntity
  8
寸法線
 62
     0
100
AcDbMText
 10
323.8392598281198
 20
226.1079678406199
 30
0.0
 40
5.0
 41
0.0
 71
     5
 72
     1
  1
57.3
  7
OKANO
 73
     1
 44
1.0
  0
POINT
  5
2D64
330
2AE5
100
AcDbEntity
  8
Defpoints
 62
     0
100
AcDbPoint
 10
293.8392598281197
 20
205.4711488256961
 30
0.0
  0
POINT
  5
2D65
330
2AE5
100
AcDbEntity
  8
Defpoints
 62
     0
100
AcDbPoint
 10
353.8392598281197
 20
180.4711488256961
 30
0.0
  0
POINT
  5
2D66
330
2AE5
100
AcDbEntity
  8
Defpoints
 62
     0
100
AcDbPoint
 10
353.8392598281197
 20
222.6079678406199
 30
0.0
  0
ENDBLK
  5
2AF0
330
2AE5
100
AcDbEntity
  8
0
100
AcDbBlockEnd
  0
BLOCK
  5
2B0A
330
2B00
100
AcDbEntity
  8
0
100
AcDbBlockBegin
  2
*D5
 70
     1
 10
0.0
 20
0.0
 30
0.0
  3
*D5
  1

  0
LINE
  5
2D2B
330
2B00
100
AcDbEntity
  8
寸法線
 62
     0
370
    -2
100
AcDbLine
 10
325.986780140601
 20
210.0684986993007
 30
0.0
 11
374.3583614609104
 21
210.0684986993007
 31
0.0
  0
LINE
  5
2D2C
330
2B00
100
AcDbEntity
  8
寸法線
 62
     0
370
    -2
100
AcDbLine
 10
355.8392598281197
 20
115.4711488256961
 30
0.0
 11
374.3583614609103
 21
115.4711488256961
 31
0.0
  0
LINE
  5
2D2D
330
2B00
100
AcDbEntity
  8
寸法線
 62
     0
370
    -2
100
AcDbLine
 10
371.3583614609104
 20
207.0684986993007
 30
0.0
 11
371.3583614609103
 21
118.4711488256961
 31
0.0
  0
INSERT
  5
2D2E
330
2B00
100
AcDbEntity
  8
寸法線
 62
     0
370
    -2
100
AcDbBlockReference
  2
_Closed
 10
371.3583614609104
 20
210.0684986993007
 30
0.0
 41
3.0
 42
3.0
 43
3.0
 50
90.0
  0
INSERT
  5
2D2F
330
2B00
100
AcDbEntity
  8
寸法線
 62
     0
370
    -2
100
AcDbBlockReference
  2
_Closed
 10
371.3583614609103
 20
115.4711488256961
 30
0.0
 41
3.0
 42
3.0
 43
3.0
 50
270.0
  0
MTEXT
  5
2D30
330
2B00
100
AcDbEntity
  8
寸法線
 62
     0
100
AcDbMText
 10
367.8566609373768
 20
162.7698237624985
 30
0.0
 40
5.0
 41
0.0
 71
     5
 72
     1
  1
92.3
  7
OKANO
 11
0.0000000000000001
 21
1.0
 31
0.0
 73
     1
 44
1.0
  0
POINT
  5
2D31
330
2B00
100
AcDbEntity
  8
Defpoints
 62
     0
100
AcDbPoint
 10
323.986780140601
 20
210.0684986993007
 30
0.0
  0
POINT
  5
2D32
330
2B00
100
AcDbEntity
  8
Defpoints
 62
     0
100
AcDbPoint
 10
353.8392598281197
 20
115.4711488256961
 30
0.0
  0
POINT
  5
2D33
330
2B00
100
AcDbEntity
  8
Defpoints
 62
     0
100
AcDbPoint
 10
371.3583614609103
 20
115.4711488256961
 30
0.0
  0
ENDBLK
  5
2B0B
330
2B00
100
AcDbEntity
  8
0
100
AcDbBlockEnd
  0
BLOCK
  5
2B19
330
2B0D
100
AcDbEntity
  8
0
100
AcDbBlockBegin
  2
*D6
 70
     1
 10
0.0
 20
0.0
 30
0.0
  3
*D6
  1

  0
LINE
  5
2D34
330
2B0D
100
AcDbEntity
  8
寸法線
 62
     0
370
    -2
100
AcDbLine
 10
353.8392598281197
 20
113.4711488256961
 30
0.0
 11
353.8392598281197
 21
101.4440144306266
 31
0.0
  0
LINE
  5
2D35
330
2B0D
100
AcDbEntity
  8
寸法線
 62
     0
370
    -2
100
AcDbLine
 10
348.8392598281198
 20
113.4711488256961
 30
0.0
 11
348.8392598281198
 21
101.4440144306266
 31
0.0
  0
LINE
  5
2D36
330
2B0D
100
AcDbEntity
  8
寸法線
 62
     0
370
    -2
100
AcDbLine
 10
356.8392598281198
 20
104.4440144306266
 30
0.0
 11
359.8392598281197
 21
104.4440144306266
 31
0.0
  0
LINE
  5
2D37
330
2B0D
100
AcDbEntity
  8
寸法線
 62
     0
370
    -2
100
AcDbLine
 10
345.8392598281197
 20
104.4440144306266
 30
0.0
 11
342.8392598281198
 21
104.4440144306266
 31
0.0
  0
LINE
  5
2D38
330
2B0D
100
AcDbEntity
  8
寸法線
 62
     0
370
    -2
100
AcDbLine
 10
353.8392598281197
 20
104.4440144306266
 30
0.0
 11
348.8392598281198
 21
104.4440144306266
 31
0.0
  0
INSERT
  5
2D39
330
2B0D
100
AcDbEntity
  8
寸法線
 62
     0
370
    -2
100
AcDbBlockReference
  2
_Closed
 10
353.8392598281197
 20
104.4440144306266
 30
0.0
 41
3.0
 42
3.0
 43
3.0
 50
180.0
  0
INSERT
  5
2D3A
330
2B0D
100
AcDbEntity
  8
寸法線
 62
     0
370
    -2
100
AcDbBlockReference
  2
_Closed
 10
348.8392598281198
 20
104.4440144306266
 30
0.0
 41
3.0
 42
3.0
 43
3.0
  0
MTEXT
  5
2D3B
330
2B0D
100
AcDbEntity
  8
寸法線
 62
     0
100
AcDbMText
 10
351.3392598281197
 20
107.9440144306266
 30
0.0
 40
5.0
 41
0.0
 71
     5
 72
     1
  1
4
  7
OKANO
 73
     1
 44
1.0
  0
POINT
  5
2D3C
330
2B0D
100
AcDbEntity
  8
Defpoints
 62
     0
100
AcDbPoint
 10
353.8392598281197
 20
115.4711488256961
 30
0.0
  0
POINT
  5
2D3D
330
2B0D
100
AcDbEntity
  8
Defpoints
 62
     0
100
AcDbPoint
 10
348.8392598281198
 20
115.4711488256961
 30
0.0
  0
POINT
  5
2D3E
330
2B0D
100
AcDbEntity
  8
Defpoints
 62
     0
100
AcDbPoint
 10
348.8392598281198
 20
104.4440144306266
 30
0.0
  0
ENDBLK
  5
2B1A
330
2B0D
100
AcDbEntity
  8
0
100
AcDbBlockEnd
  0
BLOCK
  5
2B26
330
2B1C
100
AcDbEntity
  8
0
100
AcDbBlockBegin
  2
*D7
 70
     1
 10
0.0
 20
0.0
 30
0.0
  3
*D7
  1

  0
LINE
  5
2D4A
330
2B1C
100
AcDbEntity
  8
寸法線
 62
     0
370
    -2
100
AcDbLine
 10
348.8392598281198
 20
113.4711488256961
 30
0.0
 11
348.8392598281198
 21
101.4440144306266
 31
0.0
  0
LINE
  5
2D4B
330
2B1C
100
AcDbEntity
  8
寸法線
 62
     0
370
    -2
100
AcDbLine
 10
298.8392598281198
 20
113.4711488256961
 30
0.0
 11
298.8392598281198
 21
101.4440144306266
 31
0.0
  0
LINE
  5
2D4C
330
2B1C
100
AcDbEntity
  8
寸法線
 62
     0
370
    -2
100
AcDbLine
 10
345.8392598281197
 20
104.4440144306266
 30
0.0
 11
301.8392598281197
 21
104.4440144306266
 31
0.0
  0
INSERT
  5
2D4D
330
2B1C
100
AcDbEntity
  8
寸法線
 62
     0
370
    -2
100
AcDbBlockReference
  2
_Closed
 10
348.8392598281198
 20
104.4440144306266
 30
0.0
 41
3.0
 42
3.0
 43
3.0
  0
INSERT
  5
2D4E
330
2B1C
100
AcDbEntity
  8
寸法線
 62
     0
370
    -2
100
AcDbBlockReference
  2
_Closed
 10
298.8392598281198
 20
104.4440144306266
 30
0.0
 41
3.0
 42
3.0
 43
3.0
 50
180.0
  0
MTEXT
  5
2D4F
330
2B1C
100
AcDbEntity
  8
寸法線
 62
     0
100
AcDbMText
 10
323.8392598281198
 20
107.9440144306266
 30
0.0
 40
5.0
 41
0.0
 71
     5
 72
     1
  1
49.3
  7
OKANO
 73
     1
 44
1.0
  0
POINT
  5
2D50
330
2B1C
100
AcDbEntity
  8
Defpoints
 62
     0
100
AcDbPoint
 10
348.8392598281198
 20
115.4711488256961
 30
0.0
  0
POINT
  5
2D51
330
2B1C
100
AcDbEntity
  8
Defpoints
 62
     0
100
AcDbPoint
 10
298.8392598281198
 20
115.4711488256961
 30
0.0
  0
POINT
  5
2D52
330
2B1C
100
AcDbEntity
  8
Defpoints
 62
     0
100
AcDbPoint
 10
298.8392598281198
 20
104.4440144306266
 30
0.0
  0
ENDBLK
  5
2B27
330
2B1C
100
AcDbEntity
  8
0
100
AcDbBlockEnd
  0
BLOCK
  5
2B35
330
2B29
100
AcDbEntity
  8
0
100
AcDbBlockBegin
  2
*D8
 70
     1
 10
0.0
 20
0.0
 30
0.0
  3
*D8
  1

  0
LINE
  5
2D53
330
2B29
100
AcDbEntity
  8
寸法線
 62
     0
370
    -2
100
AcDbLine
 10
298.8392598281198
 20
113.4711488256961
 30
0.0
 11
298.8392598281198
 21
101.4440144306266
 31
0.0
  0
LINE
  5
2D54
330
2B29
100
AcDbEntity
  8
寸法線
 62
     0
370
    -2
100
AcDbLine
 10
293.8392598281197
 20
113.4711488256961
 30
0.0
 11
293.8392598281197
 21
101.4440144306266
 31
0.0
  0
LINE
  5
2D55
330
2B29
100
AcDbEntity
  8
寸法線
 62
     0
370
    -2
100
AcDbLine
 10
301.8392598281197
 20
104.4440144306266
 30
0.0
 11
304.8392598281198
 21
104.4440144306266
 31
0.0
  0
LINE
  5
2D56
330
2B29
100
AcDbEntity
  8
寸法線
 62
     0
370
    -2
100
AcDbLine
 10
290.8392598281198
 20
104.4440144306266
 30
0.0
 11
287.8392598281198
 21
104.4440144306266
 31
0.0
  0
LINE
  5
2D57
330
2B29
100
AcDbEntity
  8
寸法線
 62
     0
370
    -2
100
AcDbLine
 10
298.8392598281198
 20
104.4440144306266
 30
0.0
 11
293.8392598281197
 21
104.4440144306266
 31
0.0
  0
INSERT
  5
2D58
330
2B29
100
AcDbEntity
  8
寸法線
 62
     0
370
    -2
100
AcDbBlockReference
  2
_Closed
 10
298.8392598281198
 20
104.4440144306266
 30
0.0
 41
3.0
 42
3.0
 43
3.0
 50
180.0
  0
INSERT
  5
2D59
330
2B29
100
AcDbEntity
  8
寸法線
 62
     0
370
    -2
100
AcDbBlockReference
  2
_Closed
 10
293.8392598281197
 20
104.4440144306266
 30
0.0
 41
3.0
 42
3.0
 43
3.0
  0
MTEXT
  5
2D5A
330
2B29
100
AcDbEntity
  8
寸法線
 62
     0
100
AcDbMText
 10
296.3392598281198
 20
107.9440144306266
 30
0.0
 40
5.0
 41
0.0
 71
     5
 72
     1
  1
4
  7
OKANO
 73
     1
 44
1.0
  0
POINT
  5
2D5B
330
2B29
100
AcDbEntity
  8
Defpoints
 62
     0
100
AcDbPoint
 10
298.8392598281198
 20
115.4711488256961
 30
0.0
  0
POINT
  5
2D5C
330
2B29
100
AcDbEntity
  8
Defpoints
 62
     0
100
AcDbPoint
 10
293.8392598281197
 20
115.4711488256961
 30
0.0
  0
POINT
  5
2D5D
330
2B29
100
AcDbEntity
  8
Defpoints
 62
     0
100
AcDbPoint
 10
293.8392598281197
 20
104.4440144306266
 30
0.0
  0
ENDBLK
  5
2B36
330
2B29
100
AcDbEntity
  8
0
100
AcDbBlockEnd
  0
BLOCK
  5
2B42
330
2B38
100
AcDbEntity
  8
0
100
AcDbBlockBegin
  2
*D9
 70
     1
 10
0.0
 20
0.0
 30
0.0
  3
*D9
  1

  0
LINE
  5
2CFA
330
2B38
100
AcDbEntity
  8
寸法線
 62
     0
370
    -2
100
AcDbLine
 10
293.8392598281197
 20
113.4711488256961
 30
0.0
 11
293.8392598281197
 21
101.4440144306266
 31
0.0
  0
LINE
  5
2CFB
330
2B38
100
AcDbEntity
  8
寸法線
 62
     0
370
    -2
100
AcDbLine
 10
268.8392598281197
 20
148.4711488256961
 30
0.0
 11
268.8392598281197
 21
101.4440144306266
 31
0.0
  0
LINE
  5
2CFC
330
2B38
100
AcDbEntity
  8
寸法線
 62
     0
370
    -2
100
AcDbLine
 10
290.8392598281198
 20
104.4440144306266
 30
0.0
 11
271.8392598281198
 21
104.4440144306266
 31
0.0
  0
INSERT
  5
2CFD
330
2B38
100
AcDbEntity
  8
寸法線
 62
     0
370
    -2
100
AcDbBlockReference
  2
_Closed
 10
293.8392598281197
 20
104.4440144306266
 30
0.0
 41
3.0
 42
3.0
 43
3.0
  0
INSERT
  5
2CFE
330
2B38
100
AcDbEntity
  8
寸法線
 62
     0
370
    -2
100
AcDbBlockReference
  2
_Closed
 10
268.8392598281197
 20
104.4440144306266
 30
0.0
 41
3.0
 42
3.0
 43
3.0
 50
180.0
  0
MTEXT
  5
2CFF
330
2B38
100
AcDbEntity
  8
寸法線
 62
     0
100
AcDbMText
 10
281.3392598281197
 20
107.9445065566109
 30
0.0
 40
5.0
 41
0.0
 71
     5
 72
     1
  1
25
  7
OKANO
 73
     1
 44
1.0
  0
POINT
  5
2D00
330
2B38
100
AcDbEntity
  8
Defpoints
 62
     0
100
AcDbPoint
 10
293.8392598281197
 20
115.4711488256961
 30
0.0
  0
POINT
  5
2D01
330
2B38
100
AcDbEntity
  8
Defpoints
 62
     0
100
AcDbPoint
 10
268.8392598281197
 20
150.4711488256961
 30
0.0
  0
POINT
  5
2D02
330
2B38
100
AcDbEntity
  8
Defpoints
 62
     0
100
AcDbPoint
 10
268.8392598281197
 20
104.4440144306266
 30
0.0
  0
ENDBLK
  5
2B43
330
2B38
100
AcDbEntity
  8
0
100
AcDbBlockEnd
  0
BLOCK
  5
2B51
330
2B45
100
AcDbEntity
  8
0
100
AcDbBlockBegin
  2
*D10
 70
     1
 10
0.0
 20
0.0
 30
0.0
  3
*D10
  1

  0
LINE
  5
2D3F
330
2B45
100
AcDbEntity
  8
寸法線
 62
     0
370
    -2
100
AcDbLine
 10
321.3392598281198
 20
123.4711488256961
 30
0.0
 11
321.3392598281198
 21
114.7192224087432
 31
0.0
  0
LINE
  5
2D40
330
2B45
100
AcDbEntity
  8
寸法線
 62
     0
370
    -2
100
AcDbLine
 10
326.3392598281197
 20
123.4711488256961
 30
0.0
 11
326.3392598281197
 21
114.7192224087432
 31
0.0
  0
LINE
  5
2D41
330
2B45
100
AcDbEntity
  8
寸法線
 62
     0
370
    -2
100
AcDbLine
 10
318.3392598281197
 20
117.7192224087432
 30
0.0
 11
315.3392598281198
 21
117.7192224087432
 31
0.0
  0
LINE
  5
2D42
330
2B45
100
AcDbEntity
  8
寸法線
 62
     0
370
    -2
100
AcDbLine
 10
329.3392598281197
 20
117.7192224087432
 30
0.0
 11
332.3392598281198
 21
117.7192224087432
 31
0.0
  0
LINE
  5
2D43
330
2B45
100
AcDbEntity
  8
寸法線
 62
     0
370
    -2
100
AcDbLine
 10
321.3392598281198
 20
117.7192224087432
 30
0.0
 11
326.3392598281197
 21
117.7192224087432
 31
0.0
  0
INSERT
  5
2D44
330
2B45
100
AcDbEntity
  8
寸法線
 62
     0
370
    -2
100
AcDbBlockReference
  2
_Closed
 10
321.3392598281198
 20
117.7192224087432
 30
0.0
 41
3.0
 42
3.0
 43
3.0
  0
INSERT
  5
2D45
330
2B45
100
AcDbEntity
  8
寸法線
 62
     0
370
    -2
100
AcDbBlockReference
  2
_Closed
 10
326.3392598281197
 20
117.7192224087432
 30
0.0
 41
3.0
 42
3.0
 43
3.0
 50
180.0
  0
MTEXT
  5
2D46
330
2B45
100
AcDbEntity
  8
寸法線
 62
     0
100
AcDbMText
 10
323.8392598281198
 20
121.2192224087432
 30
0.0
 40
5.0
 41
0.0
 71
     5
 72
     1
  1
4
  7
OKANO
 73
     1
 44
1.0
  0
POINT
  5
2D47
330
2B45
100
AcDbEntity
  8
Defpoints
 62
     0
100
AcDbPoint
 10
321.3392598281198
 20
125.4711488256961
 30
0.0
  0
POINT
  5
2D48
330
2B45
100
AcDbEntity
  8
Defpoints
 62
     0
100
AcDbPoint
 10
326.3392598281197
 20
125.4711488256961
 30
0.0
  0
POINT
  5
2D49
330
2B45
100
AcDbEntity
  8
Defpoints
 62
     0
100
AcDbPoint
 10
326.3392598281197
 20
117.7192224087432
 30
0.0
  0
ENDBLK
  5
2B52
330
2B45
100
AcDbEntity
  8
0
100
AcDbBlockEnd
  0
BLOCK
  5
2B60
330
2B54
100
AcDbEntity
  8
0
100
AcDbBlockBegin
  2
*D11
 70
     1
 10
0.0
 20
0.0
 30
0.0
  3
*D11
  1

  0
LINE
  5
2D20
330
2B54
100
AcDbEntity
  8
寸法線
 62
     0
370
    -2
100
AcDbLine
 10
256.8392598281198
 20
210.4711488256961
 30
0.0
 11
248.9357868577073
 21
210.4711488256961
 31
0.0
  0
LINE
  5
2D21
330
2B54
100
AcDbEntity
  8
寸法線
 62
     0
370
    -2
100
AcDbLine
 10
256.8392598281198
 20
205.4711488256961
 30
0.0
 11
248.9357868577073
 21
205.4711488256961
 31
0.0
  0
LINE
  5
2D22
330
2B54
100
AcDbEntity
  8
寸法線
 62
     0
370
    -2
100
AcDbLine
 10
251.9357868577074
 20
213.4711488256961
 30
0.0
 11
251.9357868577074
 21
216.4711488256961
 31
0.0
  0
LINE
  5
2D23
330
2B54
100
AcDbEntity
  8
寸法線
 62
     0
370
    -2
100
AcDbLine
 10
251.9357868577074
 20
202.4711488256961
 30
0.0
 11
251.9357868577074
 21
199.4711488256961
 31
0.0
  0
LINE
  5
2D24
330
2B54
100
AcDbEntity
  8
寸法線
 62
     0
370
    -2
100
AcDbLine
 10
251.9357868577074
 20
210.4711488256961
 30
0.0
 11
251.9357868577074
 21
205.4711488256961
 31
0.0
  0
INSERT
  5
2D25
330
2B54
100
AcDbEntity
  8
寸法線
 62
     0
370
    -2
100
AcDbBlockReference
  2
_Closed
 10
251.9357868577074
 20
210.4711488256961
 30
0.0
 41
3.0
 42
3.0
 43
3.0
 50
270.0
  0
INSERT
  5
2D26
330
2B54
100
AcDbEntity
  8
寸法線
 62
     0
370
    -2
100
AcDbBlockReference
  2
_Closed
 10
251.9357868577074
 20
205.4711488256961
 30
0.0
 41
3.0
 42
3.0
 43
3.0
 50
90.0
  0
MTEXT
  5
2D27
330
2B54
100
AcDbEntity
  8
寸法線
 62
     0
100
AcDbMText
 10
248.4357868577073
 20
207.9711488256962
 30
0.0
 40
5.0
 41
0.0
 71
     5
 72
     1
  1
4
  7
OKANO
 11
0.0000000000000001
 21
1.0
 31
0.0
 73
     1
 44
1.0
  0
POINT
  5
2D28
330
2B54
100
AcDbEntity
  8
Defpoints
 62
     0
100
AcDbPoint
 10
258.8392598281198
 20
210.4711488256961
 30
0.0
  0
POINT
  5
2D29
330
2B54
100
AcDbEntity
  8
Defpoints
 62
     0
100
AcDbPoint
 10
258.8392598281198
 20
205.4711488256961
 30
0.0
  0
POINT
  5
2D2A
330
2B54
100
AcDbEntity
  8
Defpoints
 62
     0
100
AcDbPoint
 10
251.9357868577074
 20
205.4711488256961
 30
0.0
  0
ENDBLK
  5
2B61
330
2B54
100
AcDbEntity
  8
0
100
AcDbBlockEnd
  0
BLOCK
  5
2B6D
330
2B63
100
AcDbEntity
  8
0
100
AcDbBlockBegin
  2
*D12
 70
     1
 10
0.0
 20
0.0
 30
0.0
  3
*D12
  1

  0
LINE
  5
2D0C
330
2B63
100
AcDbEntity
  8
寸法線
 62
     0
370
    -2
100
AcDbLine
 10
256.8392598281198
 20
205.4711488256961
 30
0.0
 11
248.9357868577073
 21
205.4711488256961
 31
0.0
  0
LINE
  5
2D0D
330
2B63
100
AcDbEntity
  8
寸法線
 62
     0
370
    -2
100
AcDbLine
 10
256.8392598281198
 20
155.4711488256961
 30
0.0
 11
248.9357868577073
 21
155.4711488256961
 31
0.0
  0
LINE
  5
2D0E
330
2B63
100
AcDbEntity
  8
寸法線
 62
     0
370
    -2
100
AcDbLine
 10
251.9357868577074
 20
202.4711488256961
 30
0.0
 11
251.9357868577073
 21
158.4711488256961
 31
0.0
  0
INSERT
  5
2D0F
330
2B63
100
AcDbEntity
  8
寸法線
 62
     0
370
    -2
100
AcDbBlockReference
  2
_Closed
 10
251.9357868577074
 20
205.4711488256961
 30
0.0
 41
3.0
 42
3.0
 43
3.0
 50
90.0
  0
INSERT
  5
2D10
330
2B63
100
AcDbEntity
  8
寸法線
 62
     0
370
    -2
100
AcDbBlockReference
  2
_Closed
 10
251.9357868577073
 20
155.4711488256961
 30
0.0
 41
3.0
 42
3.0
 43
3.0
 50
270.0
  0
MTEXT
  5
2D11
330
2B63
100
AcDbEntity
  8
寸法線
 62
     0
100
AcDbMText
 10
248.4357868577073
 20
180.4711488256961
 30
0.0
 40
5.0
 41
0.0
 71
     5
 72
     1
  1
49.3
  7
OKANO
 11
0.0000000000000001
 21
1.0
 31
0.0
 73
     1
 44
1.0
  0
POINT
  5
2D12
330
2B63
100
AcDbEntity
  8
Defpoints
 62
     0
100
AcDbPoint
 10
258.8392598281198
 20
205.4711488256961
 30
0.0
  0
POINT
  5
2D13
330
2B63
100
AcDbEntity
  8
Defpoints
 62
     0
100
AcDbPoint
 10
258.8392598281198
 20
155.4711488256961
 30
0.0
  0
POINT
  5
2D14
330
2B63
100
AcDbEntity
  8
Defpoints
 62
     0
100
AcDbPoint
 10
251.9357868577073
 20
155.4711488256961
 30
0.0
  0
ENDBLK
  5
2B6E
330
2B63
100
AcDbEntity
  8
0
100
AcDbBlockEnd
  0
BLOCK
  5
2B7C
330
2B70
100
AcDbEntity
  8
0
100
AcDbBlockBegin
  2
*D13
 70
     1
 10
0.0
 20
0.0
 30
0.0
  3
*D13
  1

  0
LINE
  5
2D15
330
2B70
100
AcDbEntity
  8
寸法線
 62
     0
370
    -2
100
AcDbLine
 10
256.8392598281198
 20
155.4711488256961
 30
0.0
 11
248.9357868577073
 21
155.4711488256961
 31
0.0
  0
LINE
  5
2D16
330
2B70
100
AcDbEntity
  8
寸法線
 62
     0
370
    -2
100
AcDbLine
 10
256.8392598281198
 20
150.4711488256961
 30
0.0
 11
248.9357868577073
 21
150.4711488256961
 31
0.0
  0
LINE
  5
2D17
330
2B70
100
AcDbEntity
  8
寸法線
 62
     0
370
    -2
100
AcDbLine
 10
251.9357868577073
 20
158.4711488256961
 30
0.0
 11
251.9357868577073
 21
161.4711488256961
 31
0.0
  0
LINE
  5
2D18
330
2B70
100
AcDbEntity
  8
寸法線
 62
     0
370
    -2
100
AcDbLine
 10
251.9357868577073
 20
147.4711488256961
 30
0.0
 11
251.9357868577073
 21
144.4711488256961
 31
0.0
  0
LINE
  5
2D19
330
2B70
100
AcDbEntity
  8
寸法線
 62
     0
370
    -2
100
AcDbLine
 10
251.9357868577073
 20
155.4711488256961
 30
0.0
 11
251.9357868577073
 21
150.4711488256961
 31
0.0
  0
INSERT
  5
2D1A
330
2B70
100
AcDbEntity
  8
寸法線
 62
     0
370
    -2
100
AcDbBlockReference
  2
_Closed
 10
251.9357868577073
 20
155.4711488256961
 30
0.0
 41
3.0
 42
3.0
 43
3.0
 50
270.0
  0
INSERT
  5
2D1B
330
2B70
100
AcDbEntity
  8
寸法線
 62
     0
370
    -2
100
AcDbBlockReference
  2
_Closed
 10
251.9357868577073
 20
150.4711488256961
 30
0.0
 41
3.0
 42
3.0
 43
3.0
 50
90.0
  0
MTEXT
  5
2D1C
330
2B70
100
AcDbEntity
  8
寸法線
 62
     0
100
AcDbMText
 10
248.4357868577073
 20
152.9711488256961
 30
0.0
 40
5.0
 41
0.0
 71
     5
 72
     1
  1
4
  7
OKANO
 11
0.0000000000000001
 21
1.0
 31
0.0
 73
     1
 44
1.0
  0
POINT
  5
2D1D
330
2B70
100
AcDbEntity
  8
Defpoints
 62
     0
100
AcDbPoint
 10
258.8392598281198
 20
155.4711488256961
 30
0.0
  0
POINT
  5
2D1E
330
2B70
100
AcDbEntity
  8
Defpoints
 62
     0
100
AcDbPoint
 10
258.8392598281198
 20
150.4711488256961
 30
0.0
  0
POINT
  5
2D1F
330
2B70
100
AcDbEntity
  8
Defpoints
 62
     0
100
AcDbPoint
 10
251.9357868577073
 20
150.4711488256961
 30
0.0
  0
ENDBLK
  5
2B7D
330
2B70
100
AcDbEntity
  8
0
100
AcDbBlockEnd
  0
BLOCK
  5
2B89
330
2B7F
100
AcDbEntity
  8
0
100
AcDbBlockBegin
  2
*D14
 70
     1
 10
0.0
 20
0.0
 30
0.0
  3
*D14
  1

  0
LINE
  5
2CF1
330
2B7F
100
AcDbEntity
  8
寸法線
 62
     0
370
    -2
100
AcDbLine
 10
256.8392598281198
 20
150.4711488256961
 30
0.0
 11
248.9357868577073
 21
150.4711488256961
 31
0.0
  0
LINE
  5
2CF2
330
2B7F
100
AcDbEntity
  8
寸法線
 62
     0
370
    -2
100
AcDbLine
 10
291.8392598281197
 20
125.4711488256961
 30
0.0
 11
248.9357868577073
 21
125.4711488256961
 31
0.0
  0
LINE
  5
2CF3
330
2B7F
100
AcDbEntity
  8
寸法線
 62
     0
370
    -2
100
AcDbLine
 10
251.9357868577073
 20
147.4711488256961
 30
0.0
 11
251.9357868577073
 21
128.4711488256961
 31
0.0
  0
INSERT
  5
2CF4
330
2B7F
100
AcDbEntity
  8
寸法線
 62
     0
370
    -2
100
AcDbBlockReference
  2
_Closed
 10
251.9357868577073
 20
150.4711488256961
 30
0.0
 41
3.0
 42
3.0
 43
3.0
 50
90.0
  0
INSERT
  5
2CF5
330
2B7F
100
AcDbEntity
  8
寸法線
 62
     0
370
    -2
100
AcDbBlockReference
  2
_Closed
 10
251.9357868577073
 20
125.4711488256961
 30
0.0
 41
3.0
 42
3.0
 43
3.0
 50
270.0
  0
MTEXT
  5
2CF6
330
2B7F
100
AcDbEntity
  8
寸法線
 62
     0
100
AcDbMText
 10
248.435294731723
 20
137.9711488256961
 30
0.0
 40
5.0
 41
0.0
 71
     5
 72
     1
  1
25
  7
OKANO
 11
0.0000000000000001
 21
1.0
 31
0.0
 73
     1
 44
1.0
  0
POINT
  5
2CF7
330
2B7F
100
AcDbEntity
  8
Defpoints
 62
     0
100
AcDbPoint
 10
258.8392598281198
 20
150.4711488256961
 30
0.0
  0
POINT
  5
2CF8
330
2B7F
100
AcDbEntity
  8
Defpoints
 62
     0
100
AcDbPoint
 10
293.8392598281197
 20
125.4711488256961
 30
0.0
  0
POINT
  5
2CF9
330
2B7F
100
AcDbEntity
  8
Defpoints
 62
     0
100
AcDbPoint
 10
251.9357868577073
 20
125.4711488256961
 30
0.0
  0
ENDBLK
  5
2B8A
330
2B7F
100
AcDbEntity
  8
0
100
AcDbBlockEnd
  0
BLOCK
  5
2BA3
330
2B99
100
AcDbEntity
  8
0
100
AcDbBlockBegin
  2
*D15
 70
     1
 10
0.0
 20
0.0
 30
0.0
  3
*D15
  1

  0
LINE
  5
2D67
330
2B99
100
AcDbEntity
  8
寸法線
 62
     0
370
    -2
100
AcDbLine
 10
298.8392598281198
 20
152.4711488256961
 30
0.0
 11
298.8392598281198
 21
165.4509032230389
 31
0.0
  0
LINE
  5
2D68
330
2B99
100
AcDbEntity
  8
寸法線
 62
     0
370
    -2
100
AcDbLine
 10
348.8392598281198
 20
152.4711488256961
 30
0.0
 11
348.8392598281198
 21
165.4509032230389
 31
0.0
  0
LINE
  5
2D69
330
2B99
100
AcDbEntity
  8
寸法線
 62
     0
370
    -2
100
AcDbLine
 10
301.8392598281197
 20
162.4509032230389
 30
0.0
 11
345.8392598281197
 21
162.4509032230389
 31
0.0
  0
INSERT
  5
2D6A
330
2B99
100
AcDbEntity
  8
寸法線
 62
     0
370
    -2
100
AcDbBlockReference
  2
_Closed
 10
298.8392598281198
 20
162.4509032230389
 30
0.0
 41
3.0
 42
3.0
 43
3.0
 50
180.0
  0
INSERT
  5
2D6B
330
2B99
100
AcDbEntity
  8
寸法線
 62
     0
370
    -2
100
AcDbBlockReference
  2
_Closed
 10
348.8392598281198
 20
162.4509032230389
 30
0.0
 41
3.0
 42
3.0
 43
3.0
  0
MTEXT
  5
2D6C
330
2B99
100
AcDbEntity
  8
寸法線
 62
     0
100
AcDbMText
 10
323.8392598281198
 20
165.9509032230389
 30
0.0
 40
5.0
 41
0.0
 71
     5
 72
     1
  1
49.0
  7
OKANO
 73
     1
 44
1.0
  0
POINT
  5
2D6D
330
2B99
100
AcDbEntity
  8
Defpoints
 62
     0
100
AcDbPoint
 10
298.8392598281198
 20
150.4711488256961
 30
0.0
  0
POINT
  5
2D6E
330
2B99
100
AcDbEntity
  8
Defpoints
 62
     0
100
AcDbPoint
 10
348.8392598281198
 20
150.4711488256961
 30
0.0
  0
POINT
  5
2D6F
330
2B99
100
AcDbEntity
  8
Defpoints
 62
     0
100
AcDbPoint
 10
348.8392598281198
 20
162.4509032230389
 30
0.0
  0
ENDBLK
  5
2BA4
330
2B99
100
AcDbEntity
  8
0
100
AcDbBlockEnd
  0
BLOCK
  5
2E75
330
2E6B
100
AcDbEntity
  8
0
100
AcDbBlockBegin
  2
*D16
 70
     1
 10
0.0
 20
0.0
 30
0.0
  3
*D16
  1

  0
LINE
  5
2EEA
330
2E6B
100
AcDbEntity
  8
寸法線
 62
     0
370
    -2
100
AcDbLine
 10
73.48018641415541
 20
55.25087560257794
 30
0.0
 11
88.15781592874092
 21
45.43781143771076
 31
0.0
  0
LINE
  5
2EEB
330
2E6B
100
AcDbEntity
  8
寸法線
 62
     0
370
    -2
100
AcDbLine
 10
88.35967198802199
 20
77.50647007863722
 30
0.0
 11
103.0373015026074
 21
67.69340591377005
 31
0.0
  0
LINE
  5
2EEC
330
2E6B
100
AcDbEntity
  8
寸法線
 62
     0
370
    -2
100
AcDbLine
 10
87.3312515824446
 20
49.59915633827257
 30
0.0
 11
98.87595660204567
 21
66.86684156747372
 31
0.0
  0
INSERT
  5
2EED
330
2E6B
100
AcDbEntity
  8
寸法線
 62
     0
370
    -2
100
AcDbBlockReference
  2
_Closed
 10
85.66386130531185
 20
47.1052017148435
 30
0.0
 41
3.0
 42
3.0
 43
3.0
 50
236.2343888860324
  0
INSERT
  5
2EEE
330
2E6B
100
AcDbEntity
  8
寸法線
 62
     0
370
    -2
100
AcDbBlockReference
  2
_Closed
 10
100.5433468791784
 20
69.36079619090278
 30
0.0
 41
3.0
 42
3.0
 43
3.0
 50
56.23438888603244
  0
MTEXT
  5
2EEF
330
2E6B
100
AcDbEntity
  8
寸法線
 62
     0
100
AcDbMText
 10
90.19399036491122
 20
60.17828760952802
 30
0.0
 40
5.0
 41
0.0
 71
     5
 72
     1
  1
30
  7
OKANO
 11
0.5557967590442487
 21
0.8313182078096867
 31
0.0
 73
     1
 44
1.0
  0
POINT
  5
2EF0
330
2E6B
100
AcDbEntity
  8
Defpoints
 62
     0
100
AcDbPoint
 10
71.81754999853605
 20
56.36246912066643
 30
0.0
  0
POINT
  5
2EF1
330
2E6B
100
AcDbEntity
  8
Defpoints
 62
     0
100
AcDbPoint
 10
86.69703557240261
 20
78.61806359672572
 30
0.0
  0
POINT
  5
2EF2
330
2E6B
100
AcDbEntity
  8
Defpoints
 62
     0
100
AcDbPoint
 10
100.5433468791784
 20
69.36079619090278
 30
0.0
  0
ENDBLK
  5
2E76
330
2E6B
100
AcDbEntity
  8
0
100
AcDbBlockEnd
  0
BLOCK
  5
2E81
330
2E77
100
AcDbEntity
  8
0
100
AcDbBlockBegin
  2
*D17
 70
     1
 10
0.0
 20
0.0
 30
0.0
  3
*D17
  1

  0
LINE
  5
2EFC
330
2E77
100
AcDbEntity
  8
寸法線
 62
     0
370
    -2
100
AcDbLine
 10
79.05731038917645
 20
79.54122740940807
 30
0.0
 11
88.76822953370213
 21
95.64649804008407
 31
0.0
  0
LINE
  5
2EFD
330
2E77
100
AcDbEntity
  8
寸法線
 62
     0
370
    -2
100
AcDbLine
 10
89.15271334492645
 20
73.45404985847864
 30
0.0
 11
98.86363248945215
 21
89.55932048915464
 31
0.0
  0
LINE
  5
2EFE
330
2E77
100
AcDbEntity
  8
寸法線
 62
     0
370
    -2
100
AcDbLine
 10
89.78825606830993
 20
91.52830112047276
 30
0.0
 11
94.74543556984084
 21
88.53929395454683
 31
0.0
  0
INSERT
  5
2EFF
330
2E77
100
AcDbEntity
  8
寸法線
 62
     0
370
    -2
100
AcDbBlockReference
  2
_Closed
 10
87.21914434120037
 20
93.07738631297452
 30
0.0
 41
3.0
 42
3.0
 43
3.0
 50
148.9114815214482
  0
INSERT
  5
2F00
330
2E77
100
AcDbEntity
  8
寸法線
 62
     0
370
    -2
100
AcDbBlockReference
  2
_Closed
 10
97.31454729695039
 20
86.99020876204508
 30
0.0
 41
3.0
 42
3.0
 43
3.0
 50
328.9114815214482
  0
MTEXT
  5
2F01
330
2E77
100
AcDbEntity
  8
寸法線
 62
     0
100
AcDbMText
 10
94.07436599201913
 20
93.03151599468339
 30
0.0
 40
5.0
 41
0.0
 71
     5
 72
     1
  1
12
  7
OKANO
 11
0.8563705757031826
 21
-0.5163617308339179
 31
0.0
 73
     1
 44
1.0
  0
POINT
  5
2F02
330
2E77
100
AcDbEntity
  8
Defpoints
 62
     0
100
AcDbPoint
 10
78.0245869275086
 20
77.8284862580017
 30
0.0
  0
POINT
  5
2F03
330
2E77
100
AcDbEntity
  8
Defpoints
 62
     0
100
AcDbPoint
 10
88.11998988325862
 20
71.74130870707227
 30
0.0
  0
POINT
  5
2F04
330
2E77
100
AcDbEntity
  8
Defpoints
 62
     0
100
AcDbPoint
 10
97.31454729695039
 20
86.99020876204508
 30
0.0
  0
ENDBLK
  5
2E82
330
2E77
100
AcDbEntity
  8
0
100
AcDbBlockEnd
  0
BLOCK
  5
2E8D
330
2E83
100
AcDbEntity
  8
0
100
AcDbBlockBegin
  2
*D18
 70
     1
 10
0.0
 20
0.0
 30
0.0
  3
*D18
  1

  0
LINE
  5
2EF3
330
2E83
100
AcDbEntity
  8
寸法線
 62
     0
370
    -2
100
AcDbLine
 10
69.44225843504938
 20
58.08932093236337
 30
0.0
 11
21.91061023184503
 21
87.4269861696027
 31
0.0
  0
LINE
  5
2EF4
330
2E83
100
AcDbEntity
  8
寸法線
 62
     0
370
    -2
100
AcDbLine
 10
64.03034963225014
 20
49.32117448163768
 30
0.0
 11
16.49870142904578
 21
78.65883971887701
 31
0.0
  0
LINE
  5
2EF5
330
2E83
100
AcDbEntity
  8
寸法線
 62
     0
370
    -2
100
AcDbLine
 10
22.88779073016337
 20
83.2984127751108
 30
0.0
 11
20.62727482353767
 21
79.63602021719535
 31
0.0
  0
INSERT
  5
2EF6
330
2E83
100
AcDbEntity
  8
寸法線
 62
     0
370
    -2
100
AcDbBlockReference
  2
_Closed
 10
24.46348717825015
 20
85.85128972151592
 30
0.0
 41
3.0
 42
3.0
 43
3.0
 50
58.31612725143917
  0
INSERT
  5
2EF7
330
2E83
100
AcDbEntity
  8
寸法線
 62
     0
370
    -2
100
AcDbBlockReference
  2
_Closed
 10
19.0515783754509
 20
77.08314327079023
 30
0.0
 41
3.0
 42
3.0
 43
3.0
 50
238.3161272514391
  0
MTEXT
  5
2EF8
330
2E83
100
AcDbEntity
  8
寸法線
 62
     0
100
AcDbMText
 10
18.77917633937789
 20
83.30552901892097
 30
0.0
 40
5.0
 41
0.0
 71
     5
 72
     1
  1
10
  7
OKANO
 11
0.5252321493622578
 21
0.8509589821350397
 31
0.0
 73
     1
 44
1.0
  0
POINT
  5
2EF9
330
2E83
100
AcDbEntity
  8
Defpoints
 62
     0
100
AcDbPoint
 10
71.14417639931946
 20
57.03885663363886
 30
0.0
  0
POINT
  5
2EFA
330
2E83
100
AcDbEntity
  8
Defpoints
 62
     0
100
AcDbPoint
 10
65.73226759652022
 20
48.27071018291317
 30
0.0
  0
POINT
  5
2EFB
330
2E83
100
AcDbEntity
  8
Defpoints
 62
     0
100
AcDbPoint
 10
19.0515783754509
 20
77.08314327079023
 30
0.0
  0
ENDBLK
  5
2E8E
330
2E83
100
AcDbEntity
  8
0
100
AcDbBlockEnd
  0
BLOCK
  5
2F23
330
2F19
100
AcDbEntity
  8
0
100
AcDbBlockBegin
  2
*D19
 70
     1
 10
0.0
 20
0.0
 30
0.0
  3
*D19
  1

  0
LINE
  5
2F25
330
2F19
100
AcDbEntity
  8
寸法線
 62
     0
370
    -2
100
AcDbLine
 10
139.6080299761372
 20
210.4711488256961
 30
0.0
 11
1.814948600514572
 21
210.4711488256961
 31
0.0
  0
LINE
  5
2F26
330
2F19
100
AcDbEntity
  8
寸法線
 62
     0
370
    -2
100
AcDbLine
 10
83.66386130531186
 20
47.1052017148435
 30
0.0
 11
1.814948600514522
 21
47.10520171484353
 31
0.0
  0
LINE
  5
2F27
330
2F19
100
AcDbEntity
  8
寸法線
 62
     0
370
    -2
100
AcDbLine
 10
4.81494860051456
 20
207.4711488256961
 30
0.0
 11
4.814948600514526
 21
50.10520171484354
 31
0.0
  0
INSERT
  5
2F28
330
2F19
100
AcDbEntity
  8
寸法線
 62
     0
370
    -2
100
AcDbBlockReference
  2
_Closed
 10
4.814948600514561
 20
210.4711488256961
 30
0.0
 41
3.0
 42
3.0
 43
3.0
 50
90.0
  0
INSERT
  5
2F29
330
2F19
100
AcDbEntity
  8
寸法線
 62
     0
370
    -2
100
AcDbBlockReference
  2
_Closed
 10
4.814948600514525
 20
47.10520171484353
 30
0.0
 41
3.0
 42
3.0
 43
3.0
 50
270.0
  0
MTEXT
  5
2F2A
330
2F19
100
AcDbEntity
  8
寸法線
 62
     0
100
AcDbMText
 10
1.314948600514522
 20
128.7881752702698
 30
0.0
 40
5.0
 41
0.0
 71
     5
 72
     1
  1
165
  7
OKANO
 11
0.0000000000000001
 21
1.0
 31
0.0
 73
     1
 44
1.0
  0
POINT
  5
2F2B
330
2F19
100
AcDbEntity
  8
Defpoints
 62
     0
100
AcDbPoint
 10
141.6080299761372
 20
210.4711488256961
 30
0.0
  0
POINT
  5
2F2C
330
2F19
100
AcDbEntity
  8
Defpoints
 62
     0
100
AcDbPoint
 10
85.66386130531185
 20
47.1052017148435
 30
0.0
  0
POINT
  5
2F2D
330
2F19
100
AcDbEntity
  8
Defpoints
 62
     0
100
AcDbPoint
 10
4.814948600514525
 20
47.10520171484353
 30
0.0
  0
ENDBLK
  5
2F24
330
2F19
100
AcDbEntity
  8
0
100
AcDbBlockEnd
  0
BLOCK
  5
2F39
330
2F2F
100
AcDbEntity
  8
0
100
AcDbBlockBegin
  2
*D20
 70
     1
 10
0.0
 20
0.0
 30
0.0
  3
*D20
  1

  0
LINE
  5
2F3B
330
2F2F
100
AcDbEntity
  8
寸法線
 62
     0
370
    -2
100
AcDbLine
 10
110.0375132876004
 20
60.56109440426417
 30
0.0
 11
110.0375132876004
 21
13.32811224146735
 31
0.0
  0
LINE
  5
2F3C
330
2F2F
100
AcDbEntity
  8
寸法線
 62
     0
370
    -2
100
AcDbLine
 10
52.04305111227387
 20
66.82852605411
 30
0.0
 11
52.04305111227387
 21
13.32811224146735
 31
0.0
  0
LINE
  5
2F3D
330
2F2F
100
AcDbEntity
  8
寸法線
 62
     0
370
    -2
100
AcDbLine
 10
107.0375132876004
 20
16.32811224146735
 30
0.0
 11
55.04305111227386
 21
16.32811224146735
 31
0.0
  0
INSERT
  5
2F3E
330
2F2F
100
AcDbEntity
  8
寸法線
 62
     0
370
    -2
100
AcDbBlockReference
  2
_Closed
 10
110.0375132876004
 20
16.32811224146735
 30
0.0
 41
3.0
 42
3.0
 43
3.0
  0
INSERT
  5
2F3F
330
2F2F
100
AcDbEntity
  8
寸法線
 62
     0
370
    -2
100
AcDbBlockReference
  2
_Closed
 10
52.04305111227387
 20
16.32811224146735
 30
0.0
 41
3.0
 42
3.0
 43
3.0
 50
180.0
  0
MTEXT
  5
2F40
330
2F2F
100
AcDbEntity
  8
寸法線
 62
     0
100
AcDbMText
 10
81.04028219993713
 20
19.82811224146735
 30
0.0
 40
5.0
 41
0.0
 71
     5
 72
     1
  1
60
  7
OKANO
 73
     1
 44
1.0
  0
POINT
  5
2F41
330
2F2F
100
AcDbEntity
  8
Defpoints
 62
     0
100
AcDbPoint
 10
110.0375132876004
 20
62.56109440426417
 30
0.0
  0
POINT
  5
2F42
330
2F2F
100
AcDbEntity
  8
Defpoints
 62
     0
100
AcDbPoint
 10
52.04305111227387
 20
68.82852605411
 30
0.0
  0
POINT
  5
2F43
330
2F2F
100
AcDbEntity
  8
Defpoints
 62
     0
100
AcDbPoint
 10
52.04305111227387
 20
16.32811224146735
 30
0.0
  0
ENDBLK
  5
2F3A
330
2F2F
100
AcDbEntity
  8
0
100
AcDbBlockEnd
  0
BLOCK
  5
2F4F
330
2F45
100
AcDbEntity
  8
0
100
AcDbBlockBegin
  2
*D21
 70
     1
 10
0.0
 20
0.0
 30
0.0
  3
*D21
  1

  0
LINE
  5
2F46
330
2F45
100
AcDbEntity
  8
寸法線
 62
     0
370
    -2
100
AcDbLine
 10
208.6080299761372
 20
150.4711488256961
 30
0.0
 11
215.1751971465539
 21
150.4711488256961
 31
0.0
  0
LINE
  5
2F47
330
2F45
100
AcDbEntity
  8
寸法線
 62
     0
370
    -2
100
AcDbLine
 10
173.6080299761372
 20
115.4711488256961
 30
0.0
 11
215.1751971465539
 21
115.4711488256961
 31
0.0
  0
LINE
  5
2F48
330
2F45
100
AcDbEntity
  8
寸法線
 62
     0
370
    -2
100
AcDbLine
 10
212.1751971465539
 20
147.4711488256961
 30
0.0
 11
212.1751971465539
 21
118.4711488256961
 31
0.0
  0
INSERT
  5
2F49
330
2F45
100
AcDbEntity
  8
寸法線
 62
     0
370
    -2
100
AcDbBlockReference
  2
_Closed
 10
212.1751971465539
 20
150.4711488256961
 30
0.0
 41
3.0
 42
3.0
 43
3.0
 50
90.0
  0
INSERT
  5
2F4A
330
2F45
100
AcDbEntity
  8
寸法線
 62
     0
370
    -2
100
AcDbBlockReference
  2
_Closed
 10
212.1751971465539
 20
115.4711488256961
 30
0.0
 41
3.0
 42
3.0
 43
3.0
 50
270.0
  0
MTEXT
  5
2F4B
330
2F45
100
AcDbEntity
  8
寸法線
 62
     0
100
AcDbMText
 10
208.6751971465539
 20
132.9711488256962
 30
0.0
 40
5.0
 41
0.0
 71
     5
 72
     1
  1
35
  7
OKANO
 11
0.0000000000000001
 21
1.0
 31
0.0
 73
     1
 44
1.0
  0
POINT
  5
2F4C
330
2F45
100
AcDbEntity
  8
Defpoints
 62
     0
100
AcDbPoint
 10
206.6080299761372
 20
150.4711488256961
 30
0.0
  0
POINT
  5
2F4D
330
2F45
100
AcDbEntity
  8
Defpoints
 62
     0
100
AcDbPoint
 10
171.6080299761372
 20
115.4711488256961
 30
0.0
  0
POINT
  5
2F4E
330
2F45
100
AcDbEntity
  8
Defpoints
 62
     0
100
AcDbPoint
 10
212.1751971465539
 20
115.4711488256961
 30
0.0
  0
ENDBLK
  5
2F50
330
2F45
100
AcDbEntity
  8
0
100
AcDbBlockEnd
  0
BLOCK
  5
2F69
330
2F5F
100
AcDbEntity
  8
0
100
AcDbBlockBegin
  2
*D22
 70
     1
 10
0.0
 20
0.0
 30
0.0
  3
*D22
  1

  0
LINE
  5
2F6B
330
2F5F
100
AcDbEntity
  8
寸法線
 62
     0
370
    -2
100
AcDbLine
 10
119.5694530715645
 20
150.4711488256961
 30
0.0
 11
133.3995917274351
 21
150.4711488256961
 31
0.0
  0
LINE
  5
2F6C
330
2F5F
100
AcDbEntity
  8
寸法線
 62
     0
370
    -2
100
AcDbLine
 10
118.6080299761372
 20
65.32283022721999
 30
0.0
 11
133.3995917274351
 21
65.32283022721999
 31
0.0
  0
LINE
  5
2F6D
330
2F5F
100
AcDbEntity
  8
寸法線
 62
     0
370
    -2
100
AcDbLine
 10
130.3995917274351
 20
147.4711488256961
 30
0.0
 11
130.3995917274351
 21
68.32283022721999
 31
0.0
  0
INSERT
  5
2F6E
330
2F5F
100
AcDbEntity
  8
寸法線
 62
     0
370
    -2
100
AcDbBlockReference
  2
_Closed
 10
130.3995917274351
 20
150.4711488256961
 30
0.0
 41
3.0
 42
3.0
 43
3.0
 50
90.0
  0
INSERT
  5
2F6F
330
2F5F
100
AcDbEntity
  8
寸法線
 62
     0
370
    -2
100
AcDbBlockReference
  2
_Closed
 10
130.3995917274351
 20
65.32283022721999
 30
0.0
 41
3.0
 42
3.0
 43
3.0
 50
270.0
  0
MTEXT
  5
2F70
330
2F5F
100
AcDbEntity
  8
寸法線
 62
     0
100
AcDbMText
 10
126.8995917274351
 20
107.896989526458
 30
0.0
 40
5.0
 41
0.0
 71
     5
 72
     1
  1
85
  7
OKANO
 11
0.0000000000000001
 21
1.0
 31
0.0
 73
     1
 44
1.0
  0
POINT
  5
2F71
330
2F5F
100
AcDbEntity
  8
Defpoints
 62
     0
100
AcDbPoint
 10
117.5694530715645
 20
150.4711488256961
 30
0.0
  0
POINT
  5
2F72
330
2F5F
100
AcDbEntity
  8
Defpoints
 62
     0
100
AcDbPoint
 10
116.6080299761372
 20
65.32283022721999
 30
0.0
  0
POINT
  5
2F73
330
2F5F
100
AcDbEntity
  8
Defpoints
 62
     0
100
AcDbPoint
 10
130.3995917274351
 20
65.32283022721999
 30
0.0
  0
ENDBLK
  5
2F6A
330
2F5F
100
AcDbEntity
  8
0
100
AcDbBlockEnd
  0
ENDSEC
  0
SECTION
  2
ENTITIES
  0
XLINE
  5
28DD
330
1F
100
AcDbEntity
  8
構築線
370
     5
100
AcDbXline
 10
40.70151402540432
 20
180.4711488256961
 30
0.0
 11
1.0
 21
0.0
 31
0.0
  0
LINE
  5
28E0
330
1F
100
AcDbEntity
  8
太線
100
AcDbLine
 10
111.6080299761372
 20
180.4711488256961
 30
0.0
 11
111.6080299761372
 21
115.4711488256961
 31
0.0
  0
LINE
  5
28E2
330
1F
100
AcDbEntity
  8
太線
100
AcDbLine
 10
171.6080299761372
 20
115.4711488256961
 30
0.0
 11
171.6080299761372
 21
150.4711488256961
 31
0.0
  0
LINE
  5
28E3
330
1F
100
AcDbEntity
  8
太線
100
AcDbLine
 10
171.6080299761372
 20
150.4711488256961
 30
0.0
 11
206.6080299761372
 21
150.4711488256961
 31
0.0
  0
CIRCLE
  5
28F0
330
1F
100
AcDbEntity
  8
太線
100
AcDbCircle
 10
323.8392598281198
 20
180.4711488256961
 30
0.0
 40
25.0
  0
CIRCLE
  5
28F1
330
1F
100
AcDbEntity
  8
太線
100
AcDbCircle
 10
323.8392598281198
 20
180.4711488256961
 30
0.0
 40
30.0
  0
LINE
  5
28F4
330
1F
100
AcDbEntity
  8
太線
100
AcDbLine
 10
353.8392598281197
 20
115.4711488256961
 30
0.0
 11
353.8392598281197
 21
180.4711488256961
 31
0.0
  0
LINE
  5
28F8
330
1F
100
AcDbEntity
  8
想像線
100
AcDbLine
 10
116.6080299761372
 20
65.32283022721999
 30
0.0
 11
116.6080299761372
 21
150.4711488256961
 31
0.0
  0
LINE
  5
28F9
330
1F
100
AcDbEntity
  8
想像線
100
AcDbLine
 10
116.6080299761372
 20
150.4711488256961
 30
0.0
 11
166.6080299761372
 21
150.4711488256961
 31
0.0
  0
LINE
  5
28FA
330
1F
100
AcDbEntity
  8
想像線
100
AcDbLine
 10
166.6080299761372
 20
150.4711488256961
 30
0.0
 11
166.6080299761372
 21
111.2557393061194
 31
0.0
  0
LINE
  5
28FB
330
1F
100
AcDbEntity
  8
想像線
100
AcDbLine
 10
206.6410492773235
 20
155.4711488256961
 30
0.0
 11
171.6080299761372
 21
155.4711488256961
 31
0.0
  0
LINE
  5
28FC
330
1F
100
AcDbEntity
  8
想像線
100
AcDbLine
 10
171.6080299761372
 20
155.4711488256961
 30
0.0
 11
171.6080299761372
 21
205.4711488256961
 31
0.0
  0
LINE
  5
28FD
330
1F
100
AcDbEntity
  8
想像線
100
AcDbLine
 10
171.6080286788505
 20
205.471148825696
 30
0.0
 11
206.6110317307905
 21
205.471148825696
 31
0.0
  0
LINE
  5
28FE
330
1F
100
AcDbEntity
  8
想像線
100
AcDbLine
 10
298.8392598281198
 20
115.4711488256961
 30
0.0
 11
298.8392598281198
 21
150.4711488256961
 31
0.0
  0
LINE
  5
28FF
330
1F
100
AcDbEntity
  8
想像線
100
AcDbLine
 10
298.8392598281198
 20
150.4711488256961
 30
0.0
 11
348.8392598281198
 21
150.4711488256961
 31
0.0
  0
LINE
  5
2900
330
1F
100
AcDbEntity
  8
想像線
100
AcDbLine
 10
348.8392598281198
 20
150.4711488256961
 30
0.0
 11
348.8392598281198
 21
115.4711488256961
 31
0.0
  0
XLINE
  5
2907
330
1F
100
AcDbEntity
  8
構築線
100
AcDbXline
 10
102.7912907694046
 20
1.535602024545255
 30
0.0
 11
1.0
 21
0.0
 31
0.0
  0
LINE
  5
290E
330
1F
100
AcDbEntity
  8
太線
100
AcDbLine
 10
243.5346491604241
 20
-28.41855747873035
 30
0.0
 11
178.5346491604241
 21
-28.41855747873036
 31
0.0
  0
LINE
  5
2912
330
1F
100
AcDbEntity
  8
想像線
100
AcDbLine
 10
243.5346491604241
 20
26.58144252126964
 30
0.0
 11
209.1244259044244
 21
26.58144252126964
 31
0.0
  0
LINE
  5
2913
330
1F
100
AcDbEntity
  8
想像線
100
AcDbLine
 10
209.1244259044244
 20
26.58144252126964
 30
0.0
 11
208.5346491604241
 21
-23.41855747873034
 31
0.0
  0
LINE
  5
2914
330
1F
100
AcDbEntity
  8
想像線
100
AcDbLine
 10
208.5346491604241
 20
-23.41855747873034
 30
0.0
 11
243.5346491604241
 21
-23.41855747873034
 31
0.0
  0
TEXT
  5
29C2
330
1F
100
AcDbEntity
  8
文字
100
AcDbText
 10
344.671360601547
 20
-62.05207117691342
 30
0.0
 40
5.759999999999999
  1
joint kogyo T.okano
 51
15.0
  7
OKANO
100
AcDbText
  0
TEXT
  5
29C3
330
1F
100
AcDbEntity
  8
文字
100
AcDbText
 10
335.6853849873908
 20
-44.34922536816808
 30
0.0
 40
5.759999999999999
  1
F-999-20050127 Auto CAD
 51
15.0
  7
OKANO
100
AcDbText
  0
LINE
  5
29C4
330
1F
100
AcDbEntity
  8
太線
100
AcDbLine
 10
302.7787111694541
 20
-45.45419454868451
 30
0.0
 11
432.3787111694541
 21
-45.45419454868451
 31
0.0
  0
LWPOLYLINE
  5
29C5
330
1F
100
AcDbEntity
  8
太線
100
AcDbPolyline
 90
        4
 70
     1
 43
0.0
 10
302.7787111694541
 20
-35.37419454868451
 10
432.3787111694541
 20
-35.37419454868451
 10
432.3787111694541
 20
-65.61419454868451
 10
302.7787111694541
 20
-65.61419454868451
  0
TEXT
  5
29C6
330
1F
100
AcDbEntity
  8
文字
100
AcDbText
 10
307.4255714487232
 20
-55.28640870730533
 30
0.0
 40
2.879999999999999
  1
CHECK
 51
15.0
  7
OKANO
100
AcDbText
  0
LINE
  5
29C7
330
1F
100
AcDbEntity
  8
太線
100
AcDbLine
 10
331.5787111694541
 20
-35.37419454868451
 30
0.0
 11
331.5787111694541
 21
-65.61419454868451
 31
0.0
  0
TEXT
  5
29C8
330
1F
100
AcDbEntity
  8
文字
100
AcDbText
 10
307.4255714487232
 20
-63.58972183476431
 30
0.0
 40
2.879999999999999
  1
ISSUED
 51
15.0
  7
OKANO
100
AcDbText
  0
TEXT
  5
29C9
330
1F
100
AcDbEntity
  8
文字
100
AcDbText
 10
307.733388768204
 20
-59.59183040764255
 30
0.0
 40
2.879999999999999
  1
APPR
 51
15.0
  7
OKANO
100
AcDbText
  0
TEXT
  5
29CA
330
1F
100
AcDbEntity
  8
文字
100
AcDbText
 10
305.2708567867003
 20
-43.29273513416632
 30
0.0
 40
2.879999999999999
  1
FILM NAME
 51
15.0
  7
OKANO
100
AcDbText
  0
TEXT
  5
29CB
330
1F
100
AcDbEntity
  8
文字
100
AcDbText
 10
306.8099394394987
 20
-50.98098771519448
 30
0.0
 40
2.879999999999999
  1
DRAWN
 51
15.0
  7
OKANO
100
AcDbText
  0
TEXT
  5
29CC
330
1F
100
AcDbEntity
  8
文字
100
AcDbText
 10
340.9349119459593
 20
-53.1336982112499
 30
0.0
 40
5.759999999999999
  1
W-5-3Y  L
 51
15.0
  7
OKANO
100
AcDbText
  0
CIRCLE
  5
29D7
330
1F
100
AcDbEntity
  8
太線
100
AcDbCircle
 10
178.5346491604241
 20
1.581442521269643
 30
0.0
 40
30.0
  0
CIRCLE
  5
29D8
330
1F
100
AcDbEntity
  8
太線
100
AcDbCircle
 10
178.5346491604241
 20
1.581442521269643
 30
0.0
 40
25.0
  0
CIRCLE
  5
29DA
330
1F
100
AcDbEntity
  8
太線
100
AcDbCircle
 10
141.6080299761372
 20
180.4711488256961
 30
0.0
 40
30.10002455617537
  0
CIRCLE
  5
29DB
330
1F
100
AcDbEntity
  8
太線
100
AcDbCircle
 10
141.6080299761372
 20
180.4711488256961
 30
0.0
 40
25.0
  0
LINE
  5
29DF
330
1F
100
AcDbEntity
  8
太線
100
AcDbLine
 10
258.8392598281198
 20
150.4711488256961
 30
0.0
 11
293.8392598281197
 21
150.4711488256961
 31
0.0
  0
LINE
  5
29E1
330
1F
100
AcDbEntity
  8
想像線
100
AcDbLine
 10
258.8392598281198
 20
205.4711488256961
 30
0.0
 11
293.8392598281197
 21
205.4711488256961
 31
0.0
  0
LINE
  5
29E2
330
1F
100
AcDbEntity
  8
想像線
100
AcDbLine
 10
293.8392598281197
 20
205.4711488256961
 30
0.0
 11
293.8392598281197
 21
180.4711488256961
 31
0.0
  0
LINE
  5
29E6
330
1F
100
AcDbEntity
  8
太線
100
AcDbLine
 10
148.6185693773244
 20
66.58144252126965
 30
0.0
 11
148.954250244926
 21
6.58144252126965
 31
0.0
  0
LINE
  5
29E7
330
1F
100
AcDbEntity
  8
想像線
100
AcDbLine
 10
153.5346491604241
 20
66.58144252126965
 30
0.0
 11
153.5346491604241
 21
31.58144252126965
 31
0.0
  0
LINE
  5
29E8
330
1F
100
AcDbEntity
  8
想像線
100
AcDbLine
 10
153.5346491604241
 20
31.58144252126965
 30
0.0
 11
203.5346491604241
 21
31.58144252126965
 31
0.0
  0
LINE
  5
29E9
330
1F
100
AcDbEntity
  8
想像線
100
AcDbLine
 10
203.5346491604241
 20
31.58144252126965
 30
0.0
 11
203.5346491604241
 21
66.58144252126965
 31
0.0
  0
LINE
  5
29EA
330
1F
100
AcDbEntity
  8
想像線
100
AcDbLine
 10
258.8392598281198
 20
155.4711488256961
 30
0.0
 11
293.8392598281197
 21
155.4711488256961
 31
0.0
  0
LINE
  5
29EB
330
1F
100
AcDbEntity
  8
想像線
100
AcDbLine
 10
293.8392598281197
 20
155.4711488256961
 30
0.0
 11
293.8392598281197
 21
180.4711488256961
 31
0.0
  0
LINE
  5
29EC
330
1F
100
AcDbEntity
  8
太線
100
AcDbLine
 10
208.5346491604241
 20
31.58144252126965
 30
0.0
 11
243.5346491604241
 21
31.58144252126965
 31
0.0
  0
LINE
  5
29ED
330
1F
100
AcDbEntity
  8
太線
100
AcDbLine
 10
293.8392598281197
 20
150.4711488256961
 30
0.0
 11
293.8392598281197
 21
115.4711488256961
 31
0.0
  0
LINE
  5
2A60
330
1F
100
AcDbEntity
  8
太線
100
AcDbLine
 10
196.6080299761372
 20
150.4711488256961
 30
0.0
 11
171.6080299761372
 21
125.4711488256961
 31
0.0
  0
LINE
  5
2A61
330
1F
100
AcDbEntity
  8
太線
100
AcDbLine
 10
139.1080299761372
 20
150.4711488256961
 30
0.0
 11
139.1080299761372
 21
125.4711488256961
 31
0.0
  0
LINE
  5
2A62
330
1F
100
AcDbEntity
  8
太線
100
AcDbLine
 10
139.1080299761372
 20
125.4711488256961
 30
0.0
 11
144.1080299761372
 21
125.4711488256961
 31
0.0
  0
LINE
  5
2A63
330
1F
100
AcDbEntity
  8
太線
100
AcDbLine
 10
144.1080299761372
 20
125.4711488256961
 30
0.0
 11
144.0598615940018
 21
150.4711488256961
 31
0.0
  0
LINE
  5
2A64
330
1F
100
AcDbEntity
  8
太線
100
AcDbLine
 10
268.8392598281197
 20
150.4711488256961
 30
0.0
 11
293.8392598281197
 21
125.4711488256961
 31
0.0
  0
LINE
  5
2A65
330
1F
100
AcDbEntity
  8
太線
100
AcDbLine
 10
321.3392598281198
 20
150.4711488256961
 30
0.0
 11
321.3392598281198
 21
125.4711488256961
 31
0.0
  0
LINE
  5
2A66
330
1F
100
AcDbEntity
  8
太線
100
AcDbLine
 10
321.3392598281198
 20
125.4711488256961
 30
0.0
 11
326.3392598281197
 21
125.4711488256961
 31
0.0
  0
LINE
  5
2A67
330
1F
100
AcDbEntity
  8
太線
100
AcDbLine
 10
326.3392598281197
 20
125.4711488256961
 30
0.0
 11
326.3392598281197
 21
150.4711488256961
 31
0.0
  0
LINE
  5
2A68
330
1F
100
AcDbEntity
  8
太線
100
AcDbLine
 10
293.9436079703663
 20
182.9711488256961
 30
0.0
 11
268.8392598281197
 21
182.9711488256961
 31
0.0
  0
LINE
  5
2A69
330
1F
100
AcDbEntity
  8
太線
100
AcDbLine
 10
268.8392598281197
 20
182.9711488256961
 30
0.0
 11
268.8392598281197
 21
177.9711488256961
 31
0.0
  0
LINE
  5
2A6A
330
1F
100
AcDbEntity
  8
太線
100
AcDbLine
 10
268.8392598281197
 20
177.9711488256961
 30
0.0
 11
293.8392598281197
 21
177.9711488256961
 31
0.0
  0
LINE
  5
2A6B
330
1F
100
AcDbEntity
  8
太線
100
AcDbLine
 10
171.6080299761372
 20
182.9229804435607
 30
0.0
 11
196.6080299761372
 21
182.9711488256961
 31
0.0
  0
LINE
  5
2A6C
330
1F
100
AcDbEntity
  8
太線
100
AcDbLine
 10
196.6080299761372
 20
182.9711488256961
 30
0.0
 11
196.6080299761372
 21
178.0193172078315
 31
0.0
  0
LINE
  5
2A6D
330
1F
100
AcDbEntity
  8
太線
100
AcDbLine
 10
196.6080299761372
 20
178.0193172078315
 30
0.0
 11
171.6080299761372
 21
177.9711488256961
 31
0.0
  0
LINE
  5
2A6E
330
1F
100
AcDbEntity
  8
太線
100
AcDbLine
 10
209.1244259044244
 20
56.58144252126965
 30
0.0
 11
233.5346491604241
 21
31.58144252126965
 31
0.0
  0
LINE
  5
2A6F
330
1F
100
AcDbEntity
  8
太線
100
AcDbLine
 10
176.0346491604241
 20
31.58144252126965
 30
0.0
 11
176.0346491604241
 21
56.58144252126965
 31
0.0
  0
LINE
  5
2A70
330
1F
100
AcDbEntity
  8
太線
100
AcDbLine
 10
176.0346491604241
 20
56.58144252126965
 30
0.0
 11
181.0346491604241
 21
56.58144252126965
 31
0.0
  0
LINE
  5
2A71
330
1F
100
AcDbEntity
  8
太線
100
AcDbLine
 10
181.0346491604241
 20
56.58144252126965
 30
0.0
 11
181.0346491604241
 21
31.58144252126965
 31
0.0
  0
LINE
  5
2A72
330
1F
100
AcDbEntity
  8
太線
100
AcDbLine
 10
208.4303010181776
 20
4.08144252126965
 30
0.0
 11
233.5346491604241
 21
4.08144252126965
 31
0.0
  0
LINE
  5
2A73
330
1F
100
AcDbEntity
  8
太線
100
AcDbLine
 10
233.5346491604241
 20
4.08144252126965
 30
0.0
 11
233.5346491604241
 21
-0.9185574787303494
 31
0.0
  0
LINE
  5
2A74
330
1F
100
AcDbEntity
  8
太線
100
AcDbLine
 10
233.5346491604241
 20
-0.9185574787303494
 30
0.0
 11
209.1244259044244
 21
-0.9185574787303494
 31
0.0
  0
CIRCLE
  5
2A75
330
1F
100
AcDbEntity
  8
太線
100
AcDbCircle
 10
176.0041724444308
 20
145.7273488544697
 30
0.0
 40
3.0
  0
CIRCLE
  5
2A76
330
1F
100
AcDbEntity
  8
太線
100
AcDbCircle
 10
289.0940808383568
 20
145.3785888602243
 30
0.0
 40
3.0
  0
CIRCLE
  5
2A77
330
1F
100
AcDbEntity
  8
太線
100
AcDbCircle
 10
213.9778987814036
 20
36.32524249249604
 30
0.0
 40
3.0
  0
LINE
  5
2A7B
330
1F
100
AcDbEntity
  8
破線
100
AcDbLine
 10
216.7613671109452
 20
-0.9185574787303494
 30
0.0
 11
216.7613671109452
 21
4.08144252126965
 31
0.0
  0
LINE
  5
2A7C
330
1F
100
AcDbEntity
  8
破線
100
AcDbLine
 10
176.0346491604241
 20
39.31196641315
 30
0.0
 11
181.0346491604241
 21
39.31196641315
 31
0.0
  0
LINE
  5
2A7D
330
1F
100
AcDbEntity
  8
破線
100
AcDbLine
 10
321.3392598281198
 20
142.7273488544696
 30
0.0
 11
326.3392598281197
 21
142.7273488544696
 31
0.0
  0
LINE
  5
2A7E
330
1F
100
AcDbEntity
  8
破線
100
AcDbLine
 10
179.3399215814467
 20
182.9345408552732
 30
0.0
 11
179.3399215814467
 21
178.0193172078315
 31
0.0
  0
LINE
  5
2A7F
330
1F
100
AcDbEntity
  8
破線
100
AcDbLine
 10
139.1080299761372
 20
142.7406249338158
 30
0.0
 11
144.0714220057143
 21
142.7406249338158
 31
0.0
  0
LINE
  5
2A82
330
1F
100
AcDbEntity
  8
破線
100
AcDbLine
 10
286.1073682228099
 20
182.9711488256961
 30
0.0
 11
286.1073682228099
 21
177.9711488256961
 31
0.0
  0
DIMENSION
  5
2A9D
330
1F
100
AcDbEntity
  8
寸法線
100
AcDbDimension
  2
*D2
 10
178.3560403785196
 20
148.6584000163157
 30
0.0
 11
161.0413743677722
 21
129.349324492779
 31
0.0
 70
   163
 71
     5
 42
6.0
  3
sunpo
100
AcDbDiametricDimension
 15
174.3503751415586
 25
144.1913376696048
 35
0.0
 40
0.0
1001
ACAD
1000
DSTYLE
1002
{
1070
    40
1040
1.0
1070
   288
1070
     1
1002
}
  0
LINE
  5
2AB9
330
1F
100
AcDbEntity
  8
破線
100
AcDbLine
 10
321.688295143728
 20
148.656268067939
 30
0.0
 11
326.688295143728
 21
148.656268067939
 31
0.0
  0
LINE
  5
2ABA
330
1F
100
AcDbEntity
  8
破線
100
AcDbLine
 10
139.1080299761372
 20
148.4266312200508
 30
0.0
 11
144.0714220057143
 21
148.4266312200508
 31
0.0
  0
LINE
  5
2ABB
330
1F
100
AcDbEntity
  8
破線
100
AcDbLine
 10
173.4020078506311
 20
182.9345408552732
 30
0.0
 11
173.4020078506311
 21
178.0193172078315
 31
0.0
  0
LINE
  5
2ABC
330
1F
100
AcDbEntity
  8
破線
100
AcDbLine
 10
292.292695729162
 20
182.9711488256961
 30
0.0
 11
292.292695729162
 21
177.9711488256961
 31
0.0
  0
LINE
  5
2ABD
330
1F
100
AcDbEntity
  8
破線
100
AcDbLine
 10
210.3286270349181
 20
-0.9185574787303494
 30
0.0
 11
210.3286270349181
 21
4.08144252126965
 31
0.0
  0
LINE
  5
2ABE
330
1F
100
AcDbEntity
  8
破線
100
AcDbLine
 10
176.0346491604241
 20
33.13152482762052
 30
0.0
 11
181.0346491604241
 21
33.13152482762052
 31
0.0
  0
CIRCLE
  5
2AC6
330
1F
100
AcDbEntity
  8
細線
100
AcDbCircle
 10
323.8392598281198
 20
180.4711488256961
 30
0.0
 40
24.31196236442923
  0
CIRCLE
  5
2AC7
330
1F
100
AcDbEntity
  8
細線
100
AcDbCircle
 10
141.6080299761372
 20
180.4711488256961
 30
0.0
 40
23.87134301692339
  0
CIRCLE
  5
2AC8
330
1F
100
AcDbEntity
  8
細線
100
AcDbCircle
 10
178.5346491604241
 20
1.581442521269643
 30
0.0
 40
24.03857690457265
  0
LINE
  5
2ACF
330
1F
100
AcDbEntity
  8
太線
100
AcDbLine
 10
258.8392598281198
 20
210.4711488256961
 30
0.0
 11
258.8392598281198
 21
150.4711488256961
 31
0.0
  0
LINE
  5
2AD0
330
1F
100
AcDbEntity
  8
太線
100
AcDbLine
 10
293.8392598281197
 20
115.4711488256961
 30
0.0
 11
353.8392598281197
 21
115.4711488256961
 31
0.0
  0
LINE
  5
2AD2
330
1F
100
AcDbEntity
  8
太線
100
AcDbLine
 10
148.6185693773244
 20
66.58144252126965
 30
0.0
 11
208.5346491604241
 21
66.58144252126965
 31
0.0
  0
LINE
  5
2AD3
330
1F
100
AcDbEntity
  8
太線
100
AcDbLine
 10
243.5346491604241
 20
31.58144252126965
 30
0.0
 11
243.5346491604241
 21
-28.41855747873035
 31
0.0
  0
LINE
  5
2AD6
330
1F
100
AcDbEntity
  8
太線
100
AcDbLine
 10
208.5346491604241
 20
66.58144252126965
 30
0.0
 11
208.5346491604241
 21
31.58144252126965
 31
0.0
  0
DIMENSION
  5
2AD7
330
1F
100
AcDbEntity
  8
寸法線
100
AcDbDimension
  2
*D3
 10
293.8392598281197
 20
222.6079678406199
 30
0.0
 11
276.3392598281197
 21
226.1079678406199
 31
0.0
 70
    32
 71
     5
 42
35.0
  3
sunpo
100
AcDbAlignedDimension
 13
258.8392598281198
 23
210.4711488256961
 33
0.0
 14
293.8392598281197
 24
205.4711488256961
 34
0.0
100
AcDbRotatedDimension
1001
ACAD
1000
DSTYLE
1002
{
1070
    40
1040
1.0
1002
}
  0
DIMENSION
  5
2AE4
330
1F
100
AcDbEntity
  8
寸法線
100
AcDbDimension
  2
*D4
 10
353.8392598281197
 20
222.6079678406199
 30
0.0
 11
323.8392598281198
 21
226.1079678406199
 31
0.0
 70
    32
  1
57.3
 71
     5
 42
60.0
  3
sunpo
100
AcDbAlignedDimension
 13
293.8392598281197
 23
205.4711488256961
 33
0.0
 14
353.8392598281197
 24
180.4711488256961
 34
0.0
100
AcDbRotatedDimension
1001
ACAD
1000
DSTYLE
1002
{
1070
    40
1040
1.0
1070
   279
1070
     1
1002
}
  0
LINE
  5
2AFE
330
1F
100
AcDbEntity
  8
太線
100
AcDbLine
 10
323.986780140601
 20
210.0684986993007
 30
0.0
 11
258.8392598281198
 21
210.4711488256961
 31
0.0
  0
DIMENSION
  5
2AFF
330
1F
100
AcDbEntity
  8
寸法線
100
AcDbDimension
  2
*D5
 10
371.3583614609103
 20
115.4711488256961
 30
0.0
 11
367.8566609373768
 21
162.7698237624985
 31
0.0
 70
    32
  1
92.3
 71
     5
 42
94.59734987360464
  3
sunpo
100
AcDbAlignedDimension
 13
323.986780140601
 23
210.0684986993007
 33
0.0
 14
353.8392598281197
 24
115.4711488256961
 34
0.0
 50
90.0
100
AcDbRotatedDimension
1001
ACAD
1000
DSTYLE
1002
{
1070
    40
1040
1.0
1002
}
  0
DIMENSION
  5
2B0C
330
1F
100
AcDbEntity
  8
寸法線
100
AcDbDimension
  2
*D6
 10
348.8392598281198
 20
104.4440144306266
 30
0.0
 11
351.3392598281197
 21
107.9440144306266
 31
0.0
 70
    32
  1
4
 71
     5
 42
5.0
  3
sunpo
100
AcDbAlignedDimension
 13
353.8392598281197
 23
115.4711488256961
 33
0.0
 14
348.8392598281198
 24
115.4711488256961
 34
0.0
100
AcDbRotatedDimension
1001
ACAD
1000
DSTYLE
1002
{
1070
    40
1040
1.0
1002
}
  0
DIMENSION
  5
2B1B
330
1F
100
AcDbEntity
  8
寸法線
100
AcDbDimension
  2
*D7
 10
298.8392598281198
 20
104.4440144306266
 30
0.0
 11
323.8392598281198
 21
107.9440144306266
 31
0.0
 70
    32
  1
49.3
 71
     5
 42
50.0
  3
sunpo
100
AcDbAlignedDimension
 13
348.8392598281198
 23
115.4711488256961
 33
0.0
 14
298.8392598281198
 24
115.4711488256961
 34
0.0
100
AcDbRotatedDimension
1001
ACAD
1000
DSTYLE
1002
{
1070
    40
1040
1.0
1070
   279
1070
     1
1002
}
  0
DIMENSION
  5
2B28
330
1F
100
AcDbEntity
  8
寸法線
100
AcDbDimension
  2
*D8
 10
293.8392598281197
 20
104.4440144306266
 30
0.0
 11
296.3392598281198
 21
107.9440144306266
 31
0.0
 70
    32
  1
4
 71
     5
 42
5.0
  3
sunpo
100
AcDbAlignedDimension
 13
298.8392598281198
 23
115.4711488256961
 33
0.0
 14
293.8392598281197
 24
115.4711488256961
 34
0.0
100
AcDbRotatedDimension
1001
ACAD
1000
DSTYLE
1002
{
1070
    40
1040
1.0
1070
   279
1070
     1
1002
}
  0
DIMENSION
  5
2B37
330
1F
100
AcDbEntity
  8
寸法線
100
AcDbDimension
  2
*D9
 10
268.8392598281197
 20
104.4440144306266
 30
0.0
 11
281.3392598281197
 21
107.9445065566109
 31
0.0
 70
    32
 71
     5
 42
25.0
  3
sunpo
100
AcDbAlignedDimension
 13
293.8392598281197
 23
115.4711488256961
 33
0.0
 14
268.8392598281197
 24
150.4711488256961
 34
0.0
100
AcDbRotatedDimension
1001
ACAD
1000
DSTYLE
1002
{
1070
    40
1040
1.0
1070
   279
1070
     1
1002
}
  0
DIMENSION
  5
2B44
330
1F
100
AcDbEntity
  8
寸法線
100
AcDbDimension
  2
*D10
 10
326.3392598281197
 20
117.7192224087432
 30
0.0
 11
323.8392598281198
 21
121.2192224087432
 31
0.0
 70
    32
  1
4
 71
     5
 42
5.0
  3
sunpo
100
AcDbAlignedDimension
 13
321.3392598281198
 23
125.4711488256961
 33
0.0
 14
326.3392598281197
 24
125.4711488256961
 34
0.0
100
AcDbRotatedDimension
1001
ACAD
1000
DSTYLE
1002
{
1070
    40
1040
1.0
1002
}
  0
DIMENSION
  5
2B53
330
1F
100
AcDbEntity
  8
寸法線
100
AcDbDimension
  2
*D11
 10
251.9357868577074
 20
205.4711488256961
 30
0.0
 11
248.4357868577073
 21
207.9711488256962
 31
0.0
 70
    32
  1
4
 71
     5
 42
5.000000000000028
  3
sunpo
100
AcDbAlignedDimension
 13
258.8392598281198
 23
210.4711488256961
 33
0.0
 14
258.8392598281198
 24
205.4711488256961
 34
0.0
 50
90.0
100
AcDbRotatedDimension
1001
ACAD
1000
DSTYLE
1002
{
1070
    40
1040
1.0
1002
}
  0
DIMENSION
  5
2B62
330
1F
100
AcDbEntity
  8
寸法線
100
AcDbDimension
  2
*D12
 10
251.9357868577073
 20
155.4711488256961
 30
0.0
 11
248.4357868577073
 21
180.4711488256961
 31
0.0
 70
    32
  1
49.3
 71
     5
 42
49.99999999999997
  3
sunpo
100
AcDbAlignedDimension
 13
258.8392598281198
 23
205.4711488256961
 33
0.0
 14
258.8392598281198
 24
155.4711488256961
 34
0.0
 50
90.0
100
AcDbRotatedDimension
1001
ACAD
1000
DSTYLE
1002
{
1070
    40
1040
1.0
1070
   279
1070
     1
1002
}
  0
DIMENSION
  5
2B6F
330
1F
100
AcDbEntity
  8
寸法線
100
AcDbDimension
  2
*D13
 10
251.9357868577073
 20
150.4711488256961
 30
0.0
 11
248.4357868577073
 21
152.9711488256961
 31
0.0
 70
    32
  1
4
 71
     5
 42
5.0
  3
sunpo
100
AcDbAlignedDimension
 13
258.8392598281198
 23
155.4711488256961
 33
0.0
 14
258.8392598281198
 24
150.4711488256961
 34
0.0
 50
90.0
100
AcDbRotatedDimension
1001
ACAD
1000
DSTYLE
1002
{
1070
    40
1040
1.0
1070
   279
1070
     1
1002
}
  0
DIMENSION
  5
2B7E
330
1F
100
AcDbEntity
  8
寸法線
100
AcDbDimension
  2
*D14
 10
251.9357868577073
 20
125.4711488256961
 30
0.0
 11
248.435294731723
 21
137.9711488256961
 31
0.0
 70
    32
 71
     5
 42
24.99999999999998
  3
sunpo
100
AcDbAlignedDimension
 13
258.8392598281198
 23
150.4711488256961
 33
0.0
 14
293.8392598281197
 24
125.4711488256961
 34
0.0
 50
90.0
100
AcDbRotatedDimension
1001
ACAD
1000
DSTYLE
1002
{
1070
    40
1040
1.0
1070
   279
1070
     1
1002
}
  0
DIMENSION
  5
2B98
330
1F
100
AcDbEntity
  8
寸法線
100
AcDbDimension
  2
*D15
 10
348.8392598281198
 20
162.4509032230389
 30
0.0
 11
323.8392598281198
 21
165.9509032230389
 31
0.0
 70
    32
  1
49.0
 71
     5
 42
50.0
  3
sunpo
100
AcDbAlignedDimension
 13
298.8392598281198
 23
150.4711488256961
 33
0.0
 14
348.8392598281198
 24
150.4711488256961
 34
0.0
100
AcDbRotatedDimension
1001
ACAD
1000
DSTYLE
1002
{
1070
    40
1040
1.0
1002
}
  0
LINE
  5
2C20
330
1F
100
AcDbEntity
  8
想像線
100
AcDbLine
 10
178.5346491604241
 20
-22.45713438330301
 30
0.0
 11
208.5346491604241
 21
-22.45713438330301
 31
0.0
  0
LINE
  5
2C21
330
1F
100
AcDbEntity
  8
想像線
100
AcDbLine
 10
178.5346491604241
 20
25.6200194258423
 30
0.0
 11
209.1130854047678
 21
25.6200194258423
 31
0.0
  0
LINE
  5
2C22
330
1F
100
AcDbEntity
  8
想像線
100
AcDbLine
 10
202.5732260649967
 20
31.58144252126965
 30
0.0
 11
202.5732260649967
 21
1.581442521269643
 31
0.0
  0
LINE
  5
2C23
330
1F
100
AcDbEntity
  8
想像線
100
AcDbLine
 10
154.4960722558514
 20
31.58144252126965
 30
0.0
 11
154.4960722558514
 21
1.581442521269643
 31
0.0
  0
LINE
  5
2C24
330
1F
100
AcDbEntity
  8
想像線
100
AcDbLine
 10
165.4793729930606
 20
180.4711488256961
 30
0.0
 11
165.6466068807098
 21
150.4711488256961
 31
0.0
  0
LINE
  5
2C25
330
1F
100
AcDbEntity
  8
想像線
100
AcDbLine
 10
117.7366869592138
 20
180.4711488256961
 30
0.0
 11
117.5694530715645
 21
150.4711488256961
 31
0.0
  0
LINE
  5
2C26
330
1F
100
AcDbEntity
  8
想像線
100
AcDbLine
 10
141.6080286788505
 20
204.3424918426194
 30
0.0
 11
171.6080286788505
 21
204.3424918426194
 31
0.0
  0
LINE
  5
2C27
330
1F
100
AcDbEntity
  8
想像線
100
AcDbLine
 10
141.6080299761372
 20
156.5998058087727
 30
0.0
 11
171.6080299761372
 21
156.5998058087727
 31
0.0
  0
LINE
  5
2C28
330
1F
100
AcDbEntity
  8
想像線
100
AcDbLine
 10
293.8392598281197
 20
204.3424918426195
 30
0.0
 11
323.8392598281198
 21
204.3424918426195
 31
0.0
  0
LINE
  5
2C2A
330
1F
100
AcDbEntity
  8
想像線
100
AcDbLine
 10
293.8392598281197
 20
156.5998058087727
 30
0.0
 11
323.8392598281198
 21
156.1591864612669
 31
0.0
  0
LINE
  5
2C2B
330
1F
100
AcDbEntity
  8
想像線
100
AcDbLine
 10
348.151222192549
 20
180.4711488256961
 30
0.0
 11
348.151222192549
 21
150.4711488256961
 31
0.0
  0
LINE
  5
2C2C
330
1F
100
AcDbEntity
  8
想像線
100
AcDbLine
 10
299.5272974636905
 20
180.4711488256961
 30
0.0
 11
299.5272974636905
 21
150.4711488256961
 31
0.0
  0
XLINE
  5
2DE0
330
1F
100
AcDbEntity
  8
構築線
100
AcDbXline
 10
324.0895122414187
 20
125.7127629665894
 30
0.0
 11
0.0
 21
1.0
 31
0.0
  0
LINE
  5
2E42
330
1F
100
AcDbEntity
  8
太線
100
AcDbLine
 10
206.6439979171882
 20
150.5596217270352
 30
0.0
 11
206.6080299761372
 21
210.4711488256961
 31
0.0
  0
LINE
  5
2E43
330
1F
100
AcDbEntity
  8
太線
100
AcDbLine
 10
206.6080299761372
 20
210.4711488256961
 30
0.0
 11
141.6080299761372
 21
210.4711488256961
 31
0.0
  0
LINE
  5
2E60
330
1F
100
AcDbEntity
  8
太線
100
AcDbLine
 10
53.93957182442216
 20
83.6397611541599
 30
0.0
 11
111.7108286075842
 21
185.6938567995296
 31
0.0
  0
LINE
  5
2E61
330
1F
100
AcDbEntity
  8
太線
100
AcDbLine
 10
111.5815037842438
 20
112.1115610020952
 30
0.0
 11
111.4963126150428
 21
63.64011020421694
 31
0.0
  0
ARC
  5
2E62
330
1F
100
AcDbEntity
  8
太線
100
AcDbCircle
 10
81.81211377100487
 20
72.54375261793448
 30
0.0
 40
30.0
100
AcDbArc
 50
158.2925879442601
 51
341.6656112853088
  0
DIMENSION
  5
2E63
330
1F
100
AcDbEntity
  8
寸法線
100
AcDbDimension
  2
*D16
 10
100.5433468791784
 20
69.36079619090278
 30
0.0
 11
90.19399036491122
 21
60.17828760952802
 31
0.0
 70
    33
  1
30
 71
     5
 42
26.77145077177745
  3
sunpo
100
AcDbAlignedDimension
 13
71.81754999853604
 23
56.36246912066642
 33
0.0
 14
86.69703557240259
 24
78.6180635967257
 34
0.0
1001
ACAD
1000
DSTYLE
1002
{
1070
    40
1040
1.0
1002
}
  0
DIMENSION
  5
2E64
330
1F
100
AcDbEntity
  8
寸法線
100
AcDbDimension
  2
*D17
 10
97.31454729695039
 20
86.99020876204508
 30
0.0
 11
94.07436599201913
 21
93.03151599468339
 31
0.0
 70
    33
  1
12
 71
     5
 42
11.78859157726253
  3
sunpo
100
AcDbAlignedDimension
 13
78.0245869275086
 23
77.8284862580017
 33
0.0
 14
88.11998988325862
 24
71.74130870707227
 34
0.0
1001
ACAD
1000
DSTYLE
1002
{
1070
    40
1040
1.0
1002
}
  0
LINE
  5
2E65
330
1F
100
AcDbEntity
  8
太線
100
AcDbLine
 10
88.45691168936184
 20
72.17729141860553
 30
0.0
 11
79.31912201744285
 21
57.02253630935217
 31
0.0
  0
ARC
  5
2E66
330
1F
100
AcDbEntity
  8
細線
 62
     0
100
AcDbCircle
 10
75.13545620986651
 20
61.91108261883814
 30
0.0
 40
6.0
100
AcDbArc
 50
148.9114859783967
 51
328.9114859783967
  0
DIMENSION
  5
2E67
330
1F
100
AcDbEntity
  8
寸法線
100
AcDbDimension
  2
*D18
 10
19.0515783754509
 20
77.08314327079023
 30
0.0
 11
18.77917633937789
 21
83.30552901892097
 31
0.0
 70
    33
  1
10
 71
     5
 42
10.30384147156726
  3
sunpo
100
AcDbAlignedDimension
 13
71.14417639931946
 23
57.03885663363886
 33
0.0
 14
65.73226759652022
 24
48.27071018291317
 34
0.0
1001
ACAD
1000
DSTYLE
1002
{
1070
    40
1040
1.0
1002
}
  0
LINE
  5
2E68
330
1F
100
AcDbEntity
  8
太線
100
AcDbLine
 10
78.18046429892007
 20
78.37363138922377
 30
0.0
 11
69.04267462700102
 21
63.21887627997039
 31
0.0
  0
ARC
  5
2E69
330
1F
100
AcDbEntity
  8
細線
 62
     0
100
AcDbCircle
 10
83.31868799414094
 20
75.27546140391456
 30
0.0
 40
6.0
100
AcDbArc
 50
328.9114859783967
 51
148.9114859783967
  0
LINE
  5
2E6A
330
1F
100
AcDbEntity
  8
太線
100
AcDbLine
 10
111.5815037842438
 20
112.1115610020952
 30
0.0
 11
111.7108286075842
 21
185.6938567995296
 31
0.0
  0
LINE
  5
2EE0
330
1F
100
AcDbEntity
  8
太線
100
AcDbLine
 10
110.0375132876004
 20
62.56109440426417
 30
0.0
 11
116.3459122655074
 21
65.08203364781343
 31
0.0
  0
LINE
  5
2EE1
330
1F
100
AcDbEntity
  8
太線
100
AcDbLine
 10
116.3459122655074
 20
65.08203364781343
 30
0.0
 11
171.2289892044098
 21
115.5008213079104
 31
0.0
  0
LINE
  5
2F0D
330
1F
100
AcDbEntity
  8
太線
100
AcDbLine
 10
353.8392598281197
 20
115.4711488256961
 30
0.0
 11
353.8392598281197
 21
62.72986638475481
 31
0.0
  0
LINE
  5
2F0E
330
1F
100
AcDbEntity
  8
太線
100
AcDbLine
 10
353.8392598281197
 20
62.72986638475481
 30
0.0
 11
293.8392598281197
 21
62.72986638475481
 31
0.0
  0
LINE
  5
2F0F
330
1F
100
AcDbEntity
  8
太線
100
AcDbLine
 10
293.8392598281197
 20
62.72986638475481
 30
0.0
 11
293.8392598281197
 21
115.4711488256961
 31
0.0
  0
LINE
  5
2F10
330
1F
100
AcDbEntity
  8
太線
100
AcDbLine
 10
326.0895122414187
 20
62.72986638475481
 30
0.0
 11
326.0895122414187
 21
41.95230568588328
 31
0.0
  0
LINE
  5
2F11
330
1F
100
AcDbEntity
  8
太線
100
AcDbLine
 10
326.0895122414187
 20
41.95230568588328
 30
0.0
 11
322.0895122414187
 21
41.95230568588328
 31
0.0
  0
LINE
  5
2F12
330
1F
100
AcDbEntity
  8
太線
100
AcDbLine
 10
322.0895122414187
 20
41.95230568588328
 30
0.0
 11
322.0895122414187
 21
62.72986638475481
 31
0.0
  0
LINE
  5
2F13
330
1F
100
AcDbEntity
  8
想像線
100
AcDbLine
 10
326.0895122414187
 20
62.72986638475481
 30
0.0
 11
326.3392598281197
 21
123.4711488256961
 31
0.0
  0
LINE
  5
2F14
330
1F
100
AcDbEntity
  8
想像線
100
AcDbLine
 10
322.0895122414187
 20
62.72986638475481
 30
0.0
 11
321.3392598281198
 21
123.4711488256961
 31
0.0
  0
TEXT
  5
2F16
330
1F
100
AcDbEntity
  8
文字
100
AcDbText
 10
87.44189756368996
 20
110.9484828923787
 30
0.0
 40
10.0
  1
R
 51
15.0
  7
OKANO
100
AcDbText
  0
DIMENSION
  5
2F18
330
1F
100
AcDbEntity
  8
寸法線
100
AcDbDimension
  2
*D19
 10
4.814948600514525
 20
47.10520171484353
 30
0.0
 11
1.314948600514522
 21
128.7881752702698
 31
0.0
 70
    32
  1
165
 71
     5
 42
163.3659471108526
  3
sunpo
100
AcDbAlignedDimension
 13
141.6080299761372
 23
210.4711488256961
 33
0.0
 14
85.66386130531185
 24
47.1052017148435
 34
0.0
 50
90.0
100
AcDbRotatedDimension
1001
ACAD
1000
DSTYLE
1002
{
1070
    40
1040
1.0
1002
}
  0
DIMENSION
  5
2F2E
330
1F
100
AcDbEntity
  8
寸法線
100
AcDbDimension
  2
*D20
 10
52.04305111227387
 20
16.32811224146735
 30
0.0
 11
81.04028219993713
 21
19.82811224146735
 31
0.0
 70
    32
  1
60
 71
     5
 42
57.99446217532654
  3
sunpo
100
AcDbAlignedDimension
 13
110.0375132876004
 23
62.56109440426417
 33
0.0
 14
52.04305111227387
 24
68.82852605411
 34
0.0
100
AcDbRotatedDimension
1001
ACAD
1000
DSTYLE
1002
{
1070
    40
1040
1.0
1002
}
  0
DIMENSION
  5
2F44
330
1F
100
AcDbEntity
  8
寸法線
100
AcDbDimension
  2
*D21
 10
212.1751971465539
 20
115.4711488256961
 30
0.0
 11
208.6751971465539
 21
132.9711488256962
 31
0.0
 70
    32
 71
     5
 42
35.00000000000001
  3
sunpo
100
AcDbAlignedDimension
 13
206.6080299761372
 23
150.4711488256961
 33
0.0
 14
171.6080299761372
 24
115.4711488256961
 34
0.0
 50
90.0
100
AcDbRotatedDimension
1001
ACAD
1000
DSTYLE
1002
{
1070
    40
1040
1.0
1002
}
  0
DIMENSION
  5
2F5E
330
1F
100
AcDbEntity
  8
寸法線
100
AcDbDimension
  2
*D22
 10
130.3995917274351
 20
65.32283022721999
 30
0.0
 11
126.8995917274351
 21
107.896989526458
 31
0.0
 70
    32
  1
85
 71
     5
 42
85.14831859847616
  3
sunpo
100
AcDbAlignedDimension
 13
117.5694530715645
 23
150.4711488256961
 33
0.0
 14
116.6080299761372
 24
65.32283022721999
 34
0.0
 50
90.0
100
AcDbRotatedDimension
1001
ACAD
1000
DSTYLE
1002
{
1070
    40
1040
1.0
1002
}
  0
TEXT
  5
2F80
330
1F
100
AcDbEntity
  8
文字
100
AcDbText
 10
345.2991114020353
 20
-30.33842245718322
 30
0.0
 40
4.799999999999999
  1
JAN 4562182303059
 51
15.0
  7
OKANO
100
AcDbText
  0
TEXT
  5
2F95
330
1F
100
AcDbEntity
  8
文字
100
AcDbText
 10
276.6859957999217
 20
22.59723526303014
 30
0.0
 40
8.0
  1
勾配は、柄(ﾂｶ）の長さと
 51
15.0
  7
OKANO
100
AcDbText
  0
TEXT
  5
2F96
330
1F
100
AcDbEntity
  8
文字
100
AcDbText
 10
276.6859957999217
 20
9.756118891240589
 30
0.0
 40
8.0
  1
梁(ﾊﾘ）の長さにより自由
 51
15.0
  7
OKANO
100
AcDbText
  0
TEXT
  5
2F97
330
1F
100
AcDbEntity
  8
文字
100
AcDbText
 10
276.6859957999217
 20
-3.084997480549077
 30
0.0
 40
8.0
  1
設定出来ます。
 51
15.0
  7
OKANO
100
AcDbText
  0
XLINE
  5
2FAA
330
1F
100
AcDbEntity
  8
構築線
100
AcDbXline
 10
141.6080299761372
 20
180.4711488256961
 30
0.0
 11
0.0
 21
-1.0
 31
0.0
  0
XLINE
  5
2FAB
330
1F
100
AcDbEntity
  8
構築線
100
AcDbXline
 10
178.5346491604241
 20
1.581442521269643
 30
0.0
 11
0.0
 21
1.0
 31
0.0
  0
VIEWPORT
  5
2E
330
1B
100
AcDbEntity
 67
     1
  8
0
100
AcDbViewport
 10
274.4749797482263
 20
147.3154767970505
 30
0.0
 40
719.4389718784386
 41
365.4052523133903
 68
     2
 69
     1
 12
274.4749797482263
 22
147.3154767970505
 13
0.0
 23
0.0
 14
10.0
 24
10.0
 15
10.0
 25
10.0
 16
0.0
 26
0.0
 36
1.0
 17
0.0
 27
0.0
 37
0.0
 42
50.0
 43
0.0
 44
0.0
 45
365.4052523133903
 50
0.0
 51
0.0
 72
   100
 90
    32800
  1

281
     0
 71
     1
 74
     0
110
0.0
120
0.0
130
0.0
111
1.0
121
0.0
131
0.0
112
0.0
122
1.0
132
0.0
 79
     0
146
0.0
  0
VIEWPORT
  5
30
330
1B
100
AcDbEntity
 67
     1
  8
70-0-CON
100
AcDbViewport
 10
141.8594093064315
 20
100.3480256368386
 30
0.0
 40
261.6199023344245
 41
192.6196987113174
 68
     1
 69
     2
 12
201.4790344801448
 22
98.6101882349339
 13
0.0
 23
0.0
 14
5.0
 24
5.0
 15
10.0
 25
10.0
 16
0.0
 26
0.0
 36
1.0
 17
0.0
 27
0.0
 37
0.0
 42
50.0
 43
0.0
 44
0.0
 45
354.2977987325764
 50
0.0
 51
0.0
 72
   100
 90
    32864
  1

281
     0
 71
     1
 74
     0
110
0.0
120
0.0
130
0.0
111
1.0
121
0.0
131
0.0
112
0.0
122
1.0
132
0.0
 79
     0
146
0.0
  0
LWPOLYLINE
  5
45
330
1B
100
AcDbEntity
 67
     1
  8
50-0-CON
100
AcDbPolyline
 90
        4
 70
     1
 43
0.0
 10
11.04945813921926
 20
4.038176281179858
 10
272.2125713060605
 20
4.033520706629644
 10
273.4987754093466
 20
195.9297862125246
 10
11.04945813921926
 20
196.6578749924973
  0
LINE
  5
4A
330
1B
100
AcDbEntity
 67
     1
  8
50-0-CON
100
AcDbLine
 10
10.38768783662635
 20
100.3480256368386
 30
0.0
 11
-4.391850629656119
 21
100.3480256368386
 31
0.0
  0
LINE
  5
4B
330
1B
100
AcDbEntity
 67
     1
  8
50-0-CON
100
AcDbLine
 10
141.8594093064315
 20
197.098652626247
 30
0.0
 11
141.8594093064315
 21
202.387980773708
 31
0.0
  0
LINE
  5
4C
330
1B
100
AcDbEntity
 67
     1
  8
50-0-CON
100
AcDbLine
 10
272.4487699456857
 20
100.7888032705883
 30
0.0
 11
278.8458837249377
 21
100.7888032705883
 31
0.0
  0
LINE
  5
4D
330
1B
100
AcDbEntity
 67
     1
  8
50-0-CON
100
AcDbLine
 10
140.9770484758805
 20
4.038176281179858
 30
0.0
 11
140.9770484758805
 21
-3.455038652015446
 31
0.0
  0
ENDSEC
  0
SECTION
  2
OBJECTS
  0
DICTIONARY
  5
C
330
0
100
AcDbDictionary
281
     1
  3
ACAD_GROUP
350
D
  3
ACAD_LAYOUT
350
1A
  3
ACAD_MLINESTYLE
350
17
  3
ACAD_PLOTSETTINGS
350
19
  3
ACAD_PLOTSTYLENAME
350
E
  3
AcadDim
350
13D0
  3
AcDbVariableDictionary
350
6AD
  3
DWGPROPS
350
30F
  0
DICTIONARY
  5
D
102
{ACAD_REACTORS
330
C
102
}
330
C
100
AcDbDictionary
281
     1
  0
DICTIONARY
  5
1A
102
{ACAD_REACTORS
330
C
102
}
330
C
100
AcDbDictionary
281
     1
  3
A4
350
1E
  3
Model
350
22
  0
DICTIONARY
  5
17
102
{ACAD_REACTORS
330
C
102
}
330
C
100
AcDbDictionary
281
     1
  3
Standard
350
18
  0
DICTIONARY
  5
19
102
{ACAD_REACTORS
330
C
102
}
330
C
100
AcDbDictionary
281
     1
  0
ACDBDICTIONARYWDFLT
  5
E
102
{ACAD_REACTORS
330
C
102
}
330
C
100
AcDbDictionary
281
     1
  3
Normal
350
F
100
AcDbDictionaryWithDefault
340
F
  0
XRECORD
  5
13D0
102
{ACAD_REACTORS
330
C
102
}
330
C
100
AcDbXrecord
280
     1
 90
   990106
  3

 60
     0
 61
     0
 62
     1
 63
     3
 64
     0
 65
     0
 66
     0
 67
     3
 68
     1
 69
     0
 70
     0
 71
     0
 72
     0
 40
0.0
170
     0
340
0
  0
DICTIONARY
  5
6AD
102
{ACAD_REACTORS
330
C
102
}
330
C
100
AcDbDictionary
281
     1
  3
SORTENTS
350
6AE
  0
XRECORD
  5
30F
102
{ACAD_REACTORS
330
C
102
}
330
C
100
AcDbXrecord
280
     1
  1
DWGPROPS COOKIE
  2

  3

  4

  6

  7

  8

  9

300
=
301
=
302
=
303
=
304
=
305
=
306
=
307
=
308
=
309
=
 40
0.3303803125
 41
2452362.482225463
 42
2452370.969861285
  1

 90
        0
  0
LAYOUT
  5
1E
102
{ACAD_REACTORS
330
1A
102
}
330
1A
100
AcDbPlotSettings
  1

  2
EPSON PM-920C
  4
A4
  6

 40
3.757083177566528
 41
14.7637300491333
 42
3.757080078125
 43
3.757080078125
 44
209.9733276367187
 45
296.9683227539062
 46
0.0
 47
0.0
 48
0.0
 49
0.0
140
0.0
141
0.0
142
1.0
143
1.0
 70
   688
 72
     1
 73
     1
 74
     5
  7
joint.ctb
 75
    16
147
1.0
148
0.0
149
0.0
100
AcDbLayout
  1
A4
 70
     1
 71
     1
 10
-3.757080078125
 20
-3.757083177566528
 11
293.2112426757812
 21
206.2162444591522
 12
0.0
 22
0.0
 32
0.0
 14
-4.391850629656119
 24
-3.455038652015446
 34
0.0
 15
278.8458837249377
 25
202.387980773708
 35
0.0
146
0.0
 13
0.0
 23
0.0
 33
0.0
 16
1.0
 26
0.0
 36
0.0
 17
0.0
 27
1.0
 37
0.0
 76
     0
330
1B
331
30
  0
LAYOUT
  5
22
102
{ACAD_REACTORS
330
1A
102
}
330
1A
100
AcDbPlotSettings
  1

  2
EPSON PM-920C
  4
A4
  6

 40
3.757083177566528
 41
14.7637300491333
 42
3.757080078125
 43
3.757080078125
 44
209.9733276367187
 45
296.9683227539062
 46
0.0
 47
0.0
 48
0.0
 49
0.0
140
0.0
141
0.0
142
1.0
143
1.0
 70
 11952
 72
     1
 73
     1
 74
     0
  7

 75
     0
147
1.0
148
-45.64199848979289
149
-84.48806419330498
100
AcDbLayout
  1
Model
 70
     1
 71
     0
 10
0.0
 20
0.0
 11
12.0
 21
9.0
 12
0.0
 22
0.0
 32
0.0
 14
0.0
 24
0.0
 34
0.0
 15
0.0
 25
0.0
 35
0.0
146
0.0
 13
0.0
 23
0.0
 33
0.0
 16
1.0
 26
0.0
 36
0.0
 17
0.0
 27
1.0
 37
0.0
 76
     0
330
1F
  0
MLINESTYLE
  5
18
102
{ACAD_REACTORS
330
17
102
}
330
17
100
AcDbMlineStyle
  2
STANDARD
 70
     0
  3

 62
   256
 51
90.0
 52
90.0
 71
     2
 49
0.5
 62
   256
  6
BYLAYER
 49
-0.5
 62
   256
  6
BYLAYER
  0
ACDBPLACEHOLDER
  5
F
102
{ACAD_REACTORS
330
E
102
}
330
E
  0
DICTIONARYVAR
  5
6AE
102
{ACAD_REACTORS
330
6AD
102
}
330
6AD
100
DictionaryVariables
280
     0
  1
96
  0
ENDSEC
  0
EOF
