  0
SECTION
  2
HEADER
  9
$ACADVER
  1
AC1015
  9
$ACADMAINTVER
 70
     6
  9
$DWGCODEPAGE
  3
ANSI_932
  9
$INSBASE
 10
0.0
 20
0.0
 30
0.0
  9
$EXTMIN
 10
61.88632386510683
 20
-71.89993222004694
 30
0.0
  9
$EXTMAX
 10
449.1540330258628
 20
223.9664114215697
 30
0.0
  9
$LIMMIN
 10
0.0
 20
0.0
  9
$LIMMAX
 10
420.0
 20
297.0
  9
$ORTHOMODE
 70
     1
  9
$REGENMODE
 70
     1
  9
$FILLMODE
 70
     1
  9
$QTEXTMODE
 70
     0
  9
$MIRRTEXT
 70
     1
  9
$LTSCALE
 40
1.0
  9
$ATTMODE
 70
     1
  9
$TEXTSIZE
 40
5.0
  9
$TRACEWID
 40
1.0
  9
$TEXTSTYLE
  7
OKANO
  9
$CLAYER
  8
太線
  9
$CELTYPE
  6
ByLayer
  9
$CECOLOR
 62
   256
  9
$CELTSCALE
 40
1.0
  9
$DISPSILH
 70
     0
  9
$DIMSCALE
 40
0.0
  9
$DIMASZ
 40
3.0
  9
$DIMEXO
 40
2.0
  9
$DIMDLI
 40
8.0
  9
$DIMRND
 40
0.0
  9
$DIMDLE
 40
0.0
  9
$DIMEXE
 40
3.0
  9
$DIMTP
 40
0.0
  9
$DIMTM
 40
0.0
  9
$DIMTXT
 40
5.0
  9
$DIMCEN
 40
2.5
  9
$DIMTSZ
 40
0.0
  9
$DIMTOL
 70
     0
  9
$DIMLIM
 70
     0
  9
$DIMTIH
 70
     0
  9
$DIMTOH
 70
     0
  9
$DIMSE1
 70
     0
  9
$DIMSE2
 70
     0
  9
$DIMTAD
 70
     1
  9
$DIMZIN
 70
     8
  9
$DIMBLK
  1
Closed
  9
$DIMASO
 70
     1
  9
$DIMSHO
 70
     1
  9
$DIMPOST
  1

  9
$DIMAPOST
  1

  9
$DIMALT
 70
     0
  9
$DIMALTD
 70
     3
  9
$DIMALTF
 40
0.03937007874016
  9
$DIMLFAC
 40
1.0
  9
$DIMTOFL
 70
     1
  9
$DIMTVP
 40
0.0
  9
$DIMTIX
 70
     0
  9
$DIMSOXD
 70
     0
  9
$DIMSAH
 70
     0
  9
$DIMBLK1
  1

  9
$DIMBLK2
  1

  9
$DIMSTYLE
  2
sunpo
  9
$DIMCLRD
 70
     0
  9
$DIMCLRE
 70
     0
  9
$DIMCLRT
 70
     0
  9
$DIMTFAC
 40
1.0
  9
$DIMGAP
 40
1.0
  9
$DIMJUST
 70
     0
  9
$DIMSD1
 70
     0
  9
$DIMSD2
 70
     0
  9
$DIMTOLJ
 70
     0
  9
$DIMTZIN
 70
     8
  9
$DIMALTZ
 70
     0
  9
$DIMALTTZ
 70
     0
  9
$DIMUPT
 70
     0
  9
$DIMDEC
 70
     2
  9
$DIMTDEC
 70
     2
  9
$DIMALTU
 70
     2
  9
$DIMALTTD
 70
     3
  9
$DIMTXSTY
  7
OKANO
  9
$DIMAUNIT
 70
     0
  9
$DIMADEC
 70
     0
  9
$DIMALTRND
 40
0.0
  9
$DIMAZIN
 70
     0
  9
$DIMDSEP
 70
    46
  9
$DIMATFIT
 70
     3
  9
$DIMFRAC
 70
     0
  9
$DIMLDRBLK
  1
Closed
  9
$DIMLUNIT
 70
     2
  9
$DIMLWD
 70
    -2
  9
$DIMLWE
 70
    -2
  9
$DIMTMOVE
 70
     0
  9
$LUNITS
 70
     2
  9
$LUPREC
 70
     2
  9
$SKETCHINC
 40
1.0
  9
$FILLETRAD
 40
0.5
  9
$AUNITS
 70
     0
  9
$AUPREC
 70
     0
  9
$MENU
  1
.
  9
$ELEVATION
 40
0.0
  9
$PELEVATION
 40
0.0
  9
$THICKNESS
 40
0.0
  9
$LIMCHECK
 70
     0
  9
$CHAMFERA
 40
10.0
  9
$CHAMFERB
 40
10.0
  9
$CHAMFERC
 40
20.0
  9
$CHAMFERD
 40
0.0
  9
$SKPOLY
 70
     0
  9
$TDCREATE
 40
2452362.482225463
  9
$TDUCREATE
 40
2452362.107225463
  9
$TDUPDATE
 40
2455964.442377326
  9
$TDUUPDATE
 40
2455964.067377326
  9
$TDINDWG
 40
2.1014476852
  9
$TDUSRTIMER
 40
2.1014476852
  9
$USRTIMER
 70
     1
  9
$ANGBASE
 50
0.0
  9
$ANGDIR
 70
     0
  9
$PDMODE
 70
     0
  9
$PDSIZE
 40
0.0
  9
$PLINEWID
 40
0.0
  9
$SPLFRAME
 70
     0
  9
$SPLINETYPE
 70
     6
  9
$SPLINESEGS
 70
     8
  9
$HANDSEED
  5
31E1
  9
$SURFTAB1
 70
     6
  9
$SURFTAB2
 70
     6
  9
$SURFTYPE
 70
     6
  9
$SURFU
 70
     6
  9
$SURFV
 70
     6
  9
$UCSBASE
  2

  9
$UCSNAME
  2

  9
$UCSORG
 10
0.0
 20
0.0
 30
0.0
  9
$UCSXDIR
 10
1.0
 20
0.0
 30
0.0
  9
$UCSYDIR
 10
0.0
 20
1.0
 30
0.0
  9
$UCSORTHOREF
  2

  9
$UCSORTHOVIEW
 70
     0
  9
$UCSORGTOP
 10
0.0
 20
0.0
 30
0.0
  9
$UCSORGBOTTOM
 10
0.0
 20
0.0
 30
0.0
  9
$UCSORGLEFT
 10
0.0
 20
0.0
 30
0.0
  9
$UCSORGRIGHT
 10
0.0
 20
0.0
 30
0.0
  9
$UCSORGFRONT
 10
0.0
 20
0.0
 30
0.0
  9
$UCSORGBACK
 10
0.0
 20
0.0
 30
0.0
  9
$PUCSBASE
  2

  9
$PUCSNAME
  2

  9
$PUCSORG
 10
0.0
 20
0.0
 30
0.0
  9
$PUCSXDIR
 10
1.0
 20
0.0
 30
0.0
  9
$PUCSYDIR
 10
0.0
 20
1.0
 30
0.0
  9
$PUCSORTHOREF
  2

  9
$PUCSORTHOVIEW
 70
     0
  9
$PUCSORGTOP
 10
0.0
 20
0.0
 30
0.0
  9
$PUCSORGBOTTOM
 10
0.0
 20
0.0
 30
0.0
  9
$PUCSORGLEFT
 10
0.0
 20
0.0
 30
0.0
  9
$PUCSORGRIGHT
 10
0.0
 20
0.0
 30
0.0
  9
$PUCSORGFRONT
 10
0.0
 20
0.0
 30
0.0
  9
$PUCSORGBACK
 10
0.0
 20
0.0
 30
0.0
  9
$USERI1
 70
     0
  9
$USERI2
 70
     0
  9
$USERI3
 70
     0
  9
$USERI4
 70
     0
  9
$USERI5
 70
     0
  9
$USERR1
 40
0.0
  9
$USERR2
 40
0.0
  9
$USERR3
 40
0.0
  9
$USERR4
 40
0.0
  9
$USERR5
 40
0.0
  9
$WORLDVIEW
 70
     1
  9
$SHADEDGE
 70
     3
  9
$SHADEDIF
 70
    70
  9
$TILEMODE
 70
     0
  9
$MAXACTVP
 70
    64
  9
$PINSBASE
 10
0.0
 20
0.0
 30
0.0
  9
$PLIMCHECK
 70
     0
  9
$PEXTMIN
 10
-4.391850629656119
 20
-3.455038652015446
 30
0.0
  9
$PEXTMAX
 10
278.8458837249377
 20
202.387980773708
 30
0.0
  9
$PLIMMIN
 10
-3.757080078125
 20
-3.757083177566528
  9
$PLIMMAX
 10
293.2112426757812
 20
206.2162444591522
  9
$UNITMODE
 70
     0
  9
$VISRETAIN
 70
     1
  9
$PLINEGEN
 70
     0
  9
$PSLTSCALE
 70
     1
  9
$TREEDEPTH
 70
  3020
  9
$CMLSTYLE
  2
Standard
  9
$CMLJUST
 70
     0
  9
$CMLSCALE
 40
20.0
  9
$PROXYGRAPHICS
 70
     1
  9
$MEASUREMENT
 70
     1
  9
$CELWEIGHT
370
    -1
  9
$ENDCAPS
280
     0
  9
$JOINSTYLE
280
     0
  9
$LWDISPLAY
290
     0
  9
$INSUNITS
 70
     4
  9
$HYPERLINKBASE
  1

  9
$STYLESHEET
  1

  9
$XEDIT
290
     1
  9
$CEPSNTYPE
380
     0
  9
$PSTYLEMODE
290
     1
  9
$FINGERPRINTGUID
  2
{FF7F33C3-4233-11D6-AEE0-0000F45FD7F4}
  9
$VERSIONGUID
  2
{DF65EF5D-A380-4C30-8DE4-6E7BEA471548}
  9
$EXTNAMES
290
     1
  9
$PSVPSCALE
 40
0.0
  9
$OLESTARTUP
290
     0
  0
ENDSEC
  0
SECTION
  2
CLASSES
  0
CLASS
  1
ACDBDICTIONARYWDFLT
  2
AcDbDictionaryWithDefault
  3
AutoCAD 2000
 90
        0
280
     0
281
     0
  0
CLASS
  1
ACDBPLACEHOLDER
  2
AcDbPlaceHolder
  3
AutoCAD 2000
 90
        0
280
     0
281
     0
  0
CLASS
  1
LAYOUT
  2
AcDbLayout
  3
AutoCAD 2000
 90
        0
280
     0
281
     0
  0
CLASS
  1
DICTIONARYVAR
  2
AcDbDictionaryVar
  3
AutoCAD 2000
 90
        0
280
     0
281
     0
  0
ENDSEC
  0
SECTION
  2
TABLES
  0
TABLE
  2
VPORT
  5
8
330
0
100
AcDbSymbolTable
 70
     2
  0
VPORT
  5
31E0
330
8
100
AcDbSymbolTableRecord
100
AcDbViewportTableRecord
  2
*Active
 70
     0
 10
0.0
 20
0.0
 11
1.0
 21
1.0
 12
146.2747742102575
 22
79.10917145360812
 13
0.0
 23
0.0
 14
5.0
 24
5.0
 15
10.0
 25
10.0
 16
0.0
 26
0.0
 36
1.0
 17
0.0
 27
0.0
 37
0.0
 40
431.5143174434719
 41
1.968879668049792
 42
50.0
 43
0.0
 44
0.0
 50
0.0
 51
0.0
 71
     0
 72
   100
 73
     1
 74
     3
 75
     0
 76
     0
 77
     0
 78
     0
281
     0
 65
     1
110
0.0
120
0.0
130
0.0
111
1.0
121
0.0
131
0.0
112
0.0
122
1.0
132
0.0
 79
     0
146
0.0
  0
ENDTAB
  0
TABLE
  2
LTYPE
  5
5
330
0
100
AcDbSymbolTable
 70
     5
  0
LTYPE
  5
14
330
5
100
AcDbSymbolTableRecord
100
AcDbLinetypeTableRecord
  2
ByBlock
 70
     0
  3

 72
    65
 73
     0
 40
0.0
  0
LTYPE
  5
15
330
5
100
AcDbSymbolTableRecord
100
AcDbLinetypeTableRecord
  2
ByLayer
 70
     0
  3

 72
    65
 73
     0
 40
0.0
  0
LTYPE
  5
16
330
5
100
AcDbSymbolTableRecord
100
AcDbLinetypeTableRecord
  2
Continuous
 70
     0
  3
Solid line
 72
    65
 73
     0
 40
0.0
  0
LTYPE
  5
33
330
5
100
AcDbSymbolTableRecord
100
AcDbLinetypeTableRecord
  2
DASHED2
 70
     0
  3
Dashed (.5x) _ _ _ _ _ _ _ _ _ _ _ _ _ _ _ _ _
 72
    65
 73
     2
 40
9.524999999999998
 49
6.349999999999999
 74
     0
 49
-3.174999999999999
 74
     0
  0
LTYPE
  5
34
330
5
100
AcDbSymbolTableRecord
100
AcDbLinetypeTableRecord
  2
CENTER2
 70
     0
  3
Center (.5x) ___ _ ___ _ ___ _ ___ _ ___ _ ___
 72
    65
 73
     4
 40
28.57499999999999
 49
19.05
 74
     0
 49
-3.174999999999999
 74
     0
 49
3.174999999999999
 74
     0
 49
-3.174999999999999
 74
     0
  0
LTYPE
  5
35
330
5
100
AcDbSymbolTableRecord
100
AcDbLinetypeTableRecord
  2
PHANTOM2
 70
     0
  3
Phantom (.5x) ___ _ _ ___ _ _ ___ _ _ ___ _ _
 72
    65
 73
     6
 40
31.75
 49
15.875
 74
     0
 49
-3.174999999999999
 74
     0
 49
3.174999999999999
 74
     0
 49
-3.174999999999999
 74
     0
 49
3.174999999999999
 74
     0
 49
-3.174999999999999
 74
     0
  0
LTYPE
  5
36
330
5
100
AcDbSymbolTableRecord
100
AcDbLinetypeTableRecord
  2
HIDDEN2
 70
     0
  3
Hidden (.5x) _ _ _ _ _ _ _ _ _ _ _ _ _ _ _ _ _
 72
    65
 73
     2
 40
4.762499999999999
 49
3.174999999999999
 74
     0
 49
-1.587499999999999
 74
     0
  0
ENDTAB
  0
TABLE
  2
LAYER
  5
2
330
0
100
AcDbSymbolTable
 70
    13
  0
LAYER
  5
10
330
2
100
AcDbSymbolTableRecord
100
AcDbLayerTableRecord
  2
0
 70
     0
 62
     7
  6
Continuous
370
    -3
390
F
  0
LAYER
  5
40
330
2
100
AcDbSymbolTableRecord
100
AcDbLayerTableRecord
  2
50-0-CON
 70
     0
 62
     4
  6
Continuous
370
    50
390
F
  0
LAYER
  5
41
330
2
100
AcDbSymbolTableRecord
100
AcDbLayerTableRecord
  2
70-0-CON
 70
     0
 62
   202
  6
Continuous
370
    70
390
F
  0
LAYER
  5
4E
330
2
100
AcDbSymbolTableRecord
100
AcDbLayerTableRecord
  2
極太線
 70
     0
 62
     7
  6
Continuous
370
    70
390
F
  0
LAYER
  5
4F
330
2
100
AcDbSymbolTableRecord
100
AcDbLayerTableRecord
  2
細線
 70
     0
 62
     8
  6
Continuous
370
    18
390
F
  0
LAYER
  5
AB
330
2
100
AcDbSymbolTableRecord
100
AcDbLayerTableRecord
  2
構築線
 70
     0
 62
    -2
  6
Continuous
290
     0
370
    18
390
F
  0
LAYER
  5
B8
330
2
100
AcDbSymbolTableRecord
100
AcDbLayerTableRecord
  2
太線
 70
     0
 62
     7
  6
Continuous
370
    35
390
F
  0
LAYER
  5
B9
330
2
100
AcDbSymbolTableRecord
100
AcDbLayerTableRecord
  2
寸法線
 70
     0
 62
     5
  6
Continuous
370
    18
390
F
  0
LAYER
  5
BA
330
2
100
AcDbSymbolTableRecord
100
AcDbLayerTableRecord
  2
破線
 70
     0
 62
     8
  6
HIDDEN2
370
    18
390
F
  0
LAYER
  5
BB
330
2
100
AcDbSymbolTableRecord
100
AcDbLayerTableRecord
  2
中心線
 70
     0
 62
     1
  6
CENTER2
370
    18
390
F
  0
LAYER
  5
BC
330
2
100
AcDbSymbolTableRecord
100
AcDbLayerTableRecord
  2
想像線
 70
     0
 62
     8
  6
PHANTOM2
370
    18
390
F
  0
LAYER
  5
BD
330
2
100
AcDbSymbolTableRecord
100
AcDbLayerTableRecord
  2
文字
 70
     0
 62
     7
  6
Continuous
370
    18
390
F
  0
LAYER
  5
180
330
2
100
AcDbSymbolTableRecord
100
AcDbLayerTableRecord
  2
Defpoints
 70
     0
 62
     7
  6
Continuous
290
     0
370
    -3
390
F
  0
ENDTAB
  0
TABLE
  2
STYLE
  5
3
330
0
100
AcDbSymbolTable
 70
     3
  0
STYLE
  5
11
330
3
100
AcDbSymbolTableRecord
100
AcDbTextStyleTableRecord
  2
Standard
 70
     0
 40
0.0
 41
1.0
 50
0.0
 71
     0
 42
3.0
  3
txt
  4

  0
STYLE
  5
32
330
3
100
AcDbSymbolTableRecord
100
AcDbTextStyleTableRecord
  2

 70
     1
 40
0.0
 41
1.0
 50
0.0
 71
     0
 42
2.5
  3
ltypeshp.shx
  4

  0
STYLE
  5
50
330
3
100
AcDbSymbolTableRecord
100
AcDbTextStyleTableRecord
  2
OKANO
 70
     0
 40
0.0
 41
1.0
 50
15.0
 71
     0
 42
5.0
  3
isocp.shx
  4
bigfont.shx
  0
ENDTAB
  0
TABLE
  2
VIEW
  5
6
330
0
100
AcDbSymbolTable
 70
     0
  0
ENDTAB
  0
TABLE
  2
UCS
  5
7
330
0
100
AcDbSymbolTable
 70
     0
  0
ENDTAB
  0
TABLE
  2
APPID
  5
9
330
0
100
AcDbSymbolTable
 70
     1
  0
APPID
  5
12
330
9
100
AcDbSymbolTableRecord
100
AcDbRegAppTableRecord
  2
ACAD
 70
     0
  0
ENDTAB
  0
TABLE
  2
DIMSTYLE
  5
A
330
0
100
AcDbSymbolTable
 70
     2
100
AcDbDimStyleTable
 71
     2
340
A2
340
27
  0
DIMSTYLE
105
27
330
A
100
AcDbSymbolTableRecord
100
AcDbDimStyleTableRecord
  2
ISO-25
 70
     0
 41
2.5
 42
0.625
 43
3.75
 44
1.25
 73
     0
 74
     0
 77
     1
 78
     8
140
2.5
141
2.5
143
0.03937007874016
147
0.625
171
     3
172
     1
271
     2
272
     2
274
     3
283
     0
284
     8
340
11
  0
DIMSTYLE
105
A2
102
{ACAD_REACTORS
330
2A9D
330
2AD7
330
2AE4
330
2AFF
330
2B0C
330
2B1B
330
2B28
330
2B37
330
2B44
330
2B53
330
2B62
330
2B6F
330
2B7E
330
2B98
330
2F55
330
2F53
330
2FF5
330
300B
330
3019
330
3030
330
3046
102
}
330
A
100
AcDbSymbolTableRecord
100
AcDbDimStyleTableRecord
  2
sunpo
 70
     0
 40
0.0
 41
3.0
 42
2.0
 43
8.0
 44
3.0
 73
     0
 74
     0
 77
     1
 78
     8
140
5.0
141
2.5
143
0.03937007874016
147
1.0
171
     3
172
     1
271
     2
272
     2
274
     3
283
     0
284
     8
340
50
341
9B
342
9B
  0
ENDTAB
  0
TABLE
  2
BLOCK_RECORD
  5
1
330
0
100
AcDbSymbolTable
 70
    23
  0
BLOCK_RECORD
  5
1F
330
1
100
AcDbSymbolTableRecord
100
AcDbBlockTableRecord
  2
*Model_Space
340
22
  0
BLOCK_RECORD
  5
1B
330
1
100
AcDbSymbolTableRecord
100
AcDbBlockTableRecord
  2
*Paper_Space
340
1E
  0
BLOCK_RECORD
  5
9B
330
1
100
AcDbSymbolTableRecord
100
AcDbBlockTableRecord
  2
_Closed
340
0
102
{BLKREFS
331
3060
331
3061
331
306B
331
306C
331
3074
331
3075
331
307F
331
3080
331
3088
331
3089
331
3093
331
3094
331
309C
331
309D
331
30A5
331
30A6
331
30AE
331
30AF
331
30B7
331
30B8
331
30C0
331
30C1
331
30CB
331
30CC
331
30D6
331
30D7
331
30DE
331
30DF
331
30E9
331
30EA
331
30F2
331
30F3
331
30FB
331
30FC
331
3105
331
3106
331
310C
331
310D
331
3115
331
3116
331
311E
331
311F
331
3164
331
3165
331
316D
331
316E
331
3176
331
3177
331
317F
331
3180
331
3188
331
3189
331
3193
331
3194
331
319C
331
319D
331
31A7
331
31A8
331
31B2
331
31B3
331
31BD
331
31BE
331
31C6
331
31C7
331
31CF
331
31D0
331
31DA
331
31DB
102
}
  0
BLOCK_RECORD
  5
1510
330
1
100
AcDbSymbolTableRecord
100
AcDbBlockTableRecord
  2
A$C10A573AC
340
0
  0
BLOCK_RECORD
  5
2A9E
330
1
100
AcDbSymbolTableRecord
100
AcDbBlockTableRecord
  2
*D2
340
0
  0
BLOCK_RECORD
  5
2AD8
330
1
100
AcDbSymbolTableRecord
100
AcDbBlockTableRecord
  2
*D3
340
0
  0
BLOCK_RECORD
  5
2AE5
330
1
100
AcDbSymbolTableRecord
100
AcDbBlockTableRecord
  2
*D4
340
0
  0
BLOCK_RECORD
  5
2B00
330
1
100
AcDbSymbolTableRecord
100
AcDbBlockTableRecord
  2
*D5
340
0
  0
BLOCK_RECORD
  5
2B0D
330
1
100
AcDbSymbolTableRecord
100
AcDbBlockTableRecord
  2
*D6
340
0
  0
BLOCK_RECORD
  5
2B1C
330
1
100
AcDbSymbolTableRecord
100
AcDbBlockTableRecord
  2
*D7
340
0
  0
BLOCK_RECORD
  5
2B29
330
1
100
AcDbSymbolTableRecord
100
AcDbBlockTableRecord
  2
*D8
340
0
  0
BLOCK_RECORD
  5
2B38
330
1
100
AcDbSymbolTableRecord
100
AcDbBlockTableRecord
  2
*D9
340
0
  0
BLOCK_RECORD
  5
2B45
330
1
100
AcDbSymbolTableRecord
100
AcDbBlockTableRecord
  2
*D10
340
0
  0
BLOCK_RECORD
  5
2B54
330
1
100
AcDbSymbolTableRecord
100
AcDbBlockTableRecord
  2
*D11
340
0
  0
BLOCK_RECORD
  5
2B63
330
1
100
AcDbSymbolTableRecord
100
AcDbBlockTableRecord
  2
*D12
340
0
  0
BLOCK_RECORD
  5
2B70
330
1
100
AcDbSymbolTableRecord
100
AcDbBlockTableRecord
  2
*D13
340
0
  0
BLOCK_RECORD
  5
2B7F
330
1
100
AcDbSymbolTableRecord
100
AcDbBlockTableRecord
  2
*D14
340
0
  0
BLOCK_RECORD
  5
2B99
330
1
100
AcDbSymbolTableRecord
100
AcDbBlockTableRecord
  2
*D15
340
0
  0
BLOCK_RECORD
  5
2F5A
330
1
100
AcDbSymbolTableRecord
100
AcDbBlockTableRecord
  2
*D16
340
0
  0
BLOCK_RECORD
  5
2F66
330
1
100
AcDbSymbolTableRecord
100
AcDbBlockTableRecord
  2
*D17
340
0
  0
BLOCK_RECORD
  5
2FF6
330
1
100
AcDbSymbolTableRecord
100
AcDbBlockTableRecord
  2
*D18
340
0
  0
BLOCK_RECORD
  5
300C
330
1
100
AcDbSymbolTableRecord
100
AcDbBlockTableRecord
  2
*D19
340
0
  0
BLOCK_RECORD
  5
301A
330
1
100
AcDbSymbolTableRecord
100
AcDbBlockTableRecord
  2
*D20
340
0
  0
BLOCK_RECORD
  5
3031
330
1
100
AcDbSymbolTableRecord
100
AcDbBlockTableRecord
  2
*D21
340
0
  0
BLOCK_RECORD
  5
3047
330
1
100
AcDbSymbolTableRecord
100
AcDbBlockTableRecord
  2
*D22
340
0
  0
ENDTAB
  0
ENDSEC
  0
SECTION
  2
BLOCKS
  0
BLOCK
  5
20
330
1F
100
AcDbEntity
  8
0
100
AcDbBlockBegin
  2
*Model_Space
 70
     0
 10
0.0
 20
0.0
 30
0.0
  3
*Model_Space
  1

  0
ENDBLK
  5
21
330
1F
100
AcDbEntity
  8
0
100
AcDbBlockEnd
  0
BLOCK
  5
1C
330
1B
100
AcDbEntity
 67
     1
  8
0
100
AcDbBlockBegin
  2
*Paper_Space
 70
     0
 10
0.0
 20
0.0
 30
0.0
  3
*Paper_Space
  1

  0
ENDBLK
  5
1D
330
1B
100
AcDbEntity
 67
     1
  8
0
100
AcDbBlockEnd
  0
BLOCK
  5
A0
330
9B
100
AcDbEntity
  8
0
100
AcDbBlockBegin
  2
_Closed
 70
     0
 10
0.0
 20
0.0
 30
0.0
  3
_Closed
  1

  0
LINE
  5
9C
330
9B
100
AcDbEntity
  8
0
 62
     0
370
    -2
100
AcDbLine
 10
-1.0
 20
0.1666666666666666
 30
0.0
 11
0.0
 21
0.0
 31
0.0
  0
LINE
  5
9D
330
9B
100
AcDbEntity
  8
0
 62
     0
370
    -2
100
AcDbLine
 10
0.0
 20
0.0
 30
0.0
 11
-1.0
 21
-0.1666666666666666
 31
0.0
  0
LINE
  5
9E
330
9B
100
AcDbEntity
  8
0
 62
     0
370
    -2
100
AcDbLine
 10
-1.0
 20
0.1666666666666666
 30
0.0
 11
-1.0
 21
-0.1666666666666666
 31
0.0
  0
LINE
  5
9F
330
9B
100
AcDbEntity
  8
0
 62
     0
370
    -2
100
AcDbLine
 10
0.0
 20
0.0
 30
0.0
 11
-1.0
 21
0.0
 31
0.0
  0
ENDBLK
  5
A1
330
9B
100
AcDbEntity
  8
0
100
AcDbBlockEnd
  0
BLOCK
  5
155B
330
1510
100
AcDbEntity
  8
0
100
AcDbBlockBegin
  2
A$C10A573AC
 70
     0
 10
0.0
 20
0.0
 30
0.0
  3
A$C10A573AC
  1

  0
TEXT
  5
1511
330
1510
100
AcDbEntity
  8
文字
100
AcDbText
 10
0.9844302777919438
 20
5.224957122252135
 30
0.0
 40
3.0
  1
Materal : Steel.
 51
15.0
  7
OKANO
100
AcDbText
  0
TEXT
  5
1512
330
1510
100
AcDbEntity
  8
文字
100
AcDbText
 10
-0.1141909619694843
 20
0.7500001922403499
 30
0.0
 40
3.0
  1
Surface treatment : Electro galvanized.
 51
15.0
  7
OKANO
100
AcDbText
  0
TEXT
  5
1513
330
1510
100
AcDbEntity
  8
文字
100
AcDbText
 10
-0.4901926332574931
 20
9.159967445193728
 30
0.0
 40
3.0
  1
5 TORGUE SCREW  M5-6
 51
15.0
  7
OKANO
100
AcDbText
  0
TEXT
  5
1514
330
1510
100
AcDbEntity
  8
文字
100
AcDbText
 10
1.364713526390005
 20
78.88822913323082
 30
0.0
 40
3.0
  1
Special standard,
 51
15.0
  7
OKANO
100
AcDbText
  0
TEXT
  5
1515
330
1510
100
AcDbEntity
  8
文字
100
AcDbText
 10
92.88160823408942
 20
89.92753849837379
 30
0.0
 40
3.0
  1
Screw Type
 51
15.0
  7
OKANO
100
AcDbText
  0
LINE
  5
1516
330
1510
100
AcDbEntity
  8
太線
100
AcDbLine
 10
113.9464587597784
 20
81.93930390144641
 30
0.0
 11
112.4464587597784
 21
81.93930390144641
 31
0.0
  0
LINE
  5
1517
330
1510
100
AcDbEntity
  8
太線
100
AcDbLine
 10
112.4464587597784
 20
76.9393039014464
 30
0.0
 11
121.4644995438761
 21
76.9393039014464
 31
0.0
  0
TEXT
  5
1518
330
1510
100
AcDbEntity
  8
文字
100
AcDbText
 10
93.46068240437217
 20
77.96976862235396
 30
0.0
 40
2.0
  1
17-30
 51
15.0
  7
OKANO
100
AcDbText
  0
LINE
  5
1519
330
1510
100
AcDbEntity
  8
太線
100
AcDbLine
 10
111.9464587597784
 20
81.43930390144641
 30
0.0
 11
111.9464587597784
 21
77.4393039014464
 31
0.0
  0
LINE
  5
151A
330
1510
100
AcDbEntity
  8
太線
100
AcDbLine
 10
91.94645875977846
 20
81.43930390144641
 30
0.0
 11
91.94645875977846
 21
77.43930390144639
 31
0.0
  0
LINE
  5
151B
330
1510
100
AcDbEntity
  8
太線
100
AcDbLine
 10
101.9644995438761
 20
77.4393039014464
 30
0.0
 11
101.9644995438761
 21
81.43930390144641
 31
0.0
  0
LINE
  5
151C
330
1510
100
AcDbEntity
  8
太線
100
AcDbLine
 10
92.44645875977846
 20
76.9393039014464
 30
0.0
 11
101.4644995438761
 21
76.9393039014464
 31
0.0
  0
ARC
  5
151D
330
1510
100
AcDbEntity
  8
太線
100
AcDbCircle
 10
92.44645875977846
 20
77.43930390144639
 30
0.0
 40
0.5
100
AcDbArc
 50
180.0
 51
270.0
  0
ARC
  5
151E
330
1510
100
AcDbEntity
  8
太線
100
AcDbCircle
 10
101.4644995438761
 20
77.4393039014464
 30
0.0
 40
0.5
100
AcDbArc
 50
270.0
 51
0.0
  0
ARC
  5
151F
330
1510
100
AcDbEntity
  8
太線
100
AcDbCircle
 10
112.4464587597784
 20
77.4393039014464
 30
0.0
 40
0.5
100
AcDbArc
 50
180.0
 51
270.0
  0
LINE
  5
1520
330
1510
100
AcDbEntity
  8
想像線
100
AcDbLine
 10
93.94645875977847
 20
81.93930390144641
 30
0.0
 11
99.96449954387617
 21
81.93930390144641
 31
0.0
  0
LINE
  5
1521
330
1510
100
AcDbEntity
  8
極太線
100
AcDbLine
 10
96.38762957111168
 20
85.43930390144641
 30
0.0
 11
97.50528794844525
 21
85.43930390144641
 31
0.0
  0
CIRCLE
  5
1522
330
1510
100
AcDbEntity
  8
太線
100
AcDbCircle
 10
96.94645875977847
 20
85.43930390144641
 30
0.0
 40
0.5588291886667776
  0
LINE
  5
1523
330
1510
100
AcDbEntity
  8
太線
100
AcDbLine
 10
99.46449954387617
 20
86.93930390144641
 30
0.0
 11
94.44645875977846
 21
86.93930390144641
 31
0.0
  0
LINE
  5
1524
330
1510
100
AcDbEntity
  8
太線
100
AcDbLine
 10
93.94645875977847
 20
86.43930390144641
 30
0.0
 11
93.94645875977847
 21
81.93930390144641
 31
0.0
  0
ARC
  5
1525
330
1510
100
AcDbEntity
  8
太線
100
AcDbCircle
 10
92.44645875977846
 20
81.43930390144641
 30
0.0
 40
0.5
100
AcDbArc
 50
90.0
 51
180.0
  0
LINE
  5
1526
330
1510
100
AcDbEntity
  8
太線
100
AcDbLine
 10
93.94645875977847
 20
81.93930390144641
 30
0.0
 11
92.44645875977846
 21
81.93930390144641
 31
0.0
  0
ARC
  5
1527
330
1510
100
AcDbEntity
  8
太線
100
AcDbCircle
 10
94.44645875977846
 20
86.43930390144641
 30
0.0
 40
0.5
100
AcDbArc
 50
90.0
 51
180.0
  0
LINE
  5
1528
330
1510
100
AcDbEntity
  8
太線
100
AcDbLine
 10
99.96449954387617
 20
81.93930390144641
 30
0.0
 11
99.96449954387617
 21
86.43930390144641
 31
0.0
  0
LINE
  5
1529
330
1510
100
AcDbEntity
  8
太線
100
AcDbLine
 10
101.4644995438761
 20
81.93930390144641
 30
0.0
 11
99.96449954387617
 21
81.93930390144641
 31
0.0
  0
ARC
  5
152A
330
1510
100
AcDbEntity
  8
太線
100
AcDbCircle
 10
101.4644995438761
 20
81.43930390144641
 30
0.0
 40
0.5
100
AcDbArc
 50
0.0
 51
90.0
  0
ARC
  5
152B
330
1510
100
AcDbEntity
  8
太線
100
AcDbCircle
 10
99.46449954387617
 20
86.43930390144641
 30
0.0
 40
0.5
100
AcDbArc
 50
0.0
 51
90.0
  0
LINE
  5
152C
330
1510
100
AcDbEntity
  8
極太線
100
AcDbLine
 10
96.94645875977847
 20
85.99813309011318
 30
0.0
 11
96.94645875977847
 21
84.88047471277964
 31
0.0
  0
ARC
  5
152D
330
1510
100
AcDbEntity
  8
太線
100
AcDbCircle
 10
112.4464587597784
 20
81.43930390144641
 30
0.0
 40
0.5
100
AcDbArc
 50
90.0
 51
180.0
  0
TEXT
  5
152E
330
1510
100
AcDbEntity
  8
文字
100
AcDbText
 10
134.3819212586066
 20
78.16263579228063
 30
0.0
 40
2.0
  1
101
 51
15.0
  7
OKANO
100
AcDbText
  0
TEXT
  5
152F
330
1510
100
AcDbEntity
  8
文字
100
AcDbText
 10
113.3422276612066
 20
77.96976862235396
 30
0.0
 40
2.0
  1
38-83
 51
15.0
  7
OKANO
100
AcDbText
  0
LINE
  5
1530
330
1510
100
AcDbEntity
  8
太線
100
AcDbLine
 10
141.9825403279738
 20
77.4393039014464
 30
0.0
 11
141.9825403279738
 21
81.43930390144641
 31
0.0
  0
LINE
  5
1531
330
1510
100
AcDbEntity
  8
太線
100
AcDbLine
 10
131.9644995438761
 20
81.43930390144641
 30
0.0
 11
131.9644995438761
 21
77.4393039014464
 31
0.0
  0
LINE
  5
1532
330
1510
100
AcDbEntity
  8
太線
100
AcDbLine
 10
121.9644995438761
 20
77.4393039014464
 30
0.0
 11
121.9644995438761
 21
81.43930390144641
 31
0.0
  0
ARC
  5
1533
330
1510
100
AcDbEntity
  8
太線
100
AcDbCircle
 10
121.4644995438761
 20
77.4393039014464
 30
0.0
 40
0.5
100
AcDbArc
 50
270.0
 51
0.0
  0
LINE
  5
1534
330
1510
100
AcDbEntity
  8
太線
100
AcDbLine
 10
132.4644995438761
 20
76.9393039014464
 30
0.0
 11
141.4825403279738
 21
76.9393039014464
 31
0.0
  0
ARC
  5
1535
330
1510
100
AcDbEntity
  8
太線
100
AcDbCircle
 10
132.4644995438761
 20
77.4393039014464
 30
0.0
 40
0.5
100
AcDbArc
 50
180.0
 51
270.0
  0
ARC
  5
1536
330
1510
100
AcDbEntity
  8
太線
100
AcDbCircle
 10
141.4825403279738
 20
77.4393039014464
 30
0.0
 40
0.5
100
AcDbArc
 50
270.0
 51
0.0
  0
ARC
  5
1537
330
1510
100
AcDbEntity
  8
太線
100
AcDbCircle
 10
121.4644995438761
 20
81.43930390144641
 30
0.0
 40
0.5
100
AcDbArc
 50
0.0
 51
90.0
  0
LINE
  5
1538
330
1510
100
AcDbEntity
  8
太線
100
AcDbLine
 10
119.9644995438761
 20
81.93930390144641
 30
0.0
 11
119.9644995438761
 21
86.43930390144641
 31
0.0
  0
LINE
  5
1539
330
1510
100
AcDbEntity
  8
太線
100
AcDbLine
 10
113.9464587597784
 20
86.43930390144641
 30
0.0
 11
113.9464587597784
 21
81.93930390144641
 31
0.0
  0
LINE
  5
153A
330
1510
100
AcDbEntity
  8
想像線
100
AcDbLine
 10
113.9464587597784
 20
81.93930390144641
 30
0.0
 11
119.9644995438761
 21
81.93930390144641
 31
0.0
  0
LINE
  5
153B
330
1510
100
AcDbEntity
  8
太線
100
AcDbLine
 10
121.4644995438761
 20
81.93930390144641
 30
0.0
 11
119.9644995438761
 21
81.93930390144641
 31
0.0
  0
LINE
  5
153C
330
1510
100
AcDbEntity
  8
太線
100
AcDbLine
 10
119.4644995438761
 20
86.93930390144641
 30
0.0
 11
114.4464587597784
 21
86.93930390144641
 31
0.0
  0
ARC
  5
153D
330
1510
100
AcDbEntity
  8
太線
100
AcDbCircle
 10
114.4464587597784
 20
86.43930390144641
 30
0.0
 40
0.5
100
AcDbArc
 50
90.0
 51
180.0
  0
CIRCLE
  5
153E
330
1510
100
AcDbEntity
  8
太線
100
AcDbCircle
 10
115.4464587597784
 20
85.43930390144641
 30
0.0
 40
0.5588291886667776
  0
LINE
  5
153F
330
1510
100
AcDbEntity
  8
極太線
100
AcDbLine
 10
115.4464587597784
 20
85.99813309011318
 30
0.0
 11
115.4464587597784
 21
84.88047471277964
 31
0.0
  0
LINE
  5
1540
330
1510
100
AcDbEntity
  8
極太線
100
AcDbLine
 10
114.8876295711116
 20
85.43930390144641
 30
0.0
 11
116.0052879484452
 21
85.43930390144641
 31
0.0
  0
ARC
  5
1541
330
1510
100
AcDbEntity
  8
太線
100
AcDbCircle
 10
119.4644995438761
 20
86.43930390144641
 30
0.0
 40
0.5
100
AcDbArc
 50
0.0
 51
90.0
  0
LINE
  5
1542
330
1510
100
AcDbEntity
  8
極太線
100
AcDbLine
 10
117.9056703552094
 20
85.43930390144641
 30
0.0
 11
119.0233287325429
 21
85.43930390144641
 31
0.0
  0
LINE
  5
1543
330
1510
100
AcDbEntity
  8
極太線
100
AcDbLine
 10
118.4644995438761
 20
85.99813309011318
 30
0.0
 11
118.4644995438761
 21
84.88047471277964
 31
0.0
  0
CIRCLE
  5
1544
330
1510
100
AcDbEntity
  8
太線
100
AcDbCircle
 10
118.4644995438761
 20
85.43930390144641
 30
0.0
 40
0.5588291886667776
  0
LINE
  5
1545
330
1510
100
AcDbEntity
  8
想像線
100
AcDbLine
 10
133.9644995438761
 20
81.93930390144641
 30
0.0
 11
139.9825403279738
 21
81.93930390144641
 31
0.0
  0
LINE
  5
1546
330
1510
100
AcDbEntity
  8
極太線
100
AcDbLine
 10
137.9237111393071
 20
85.43930390144641
 30
0.0
 11
139.0413695166406
 21
85.43930390144641
 31
0.0
  0
CIRCLE
  5
1547
330
1510
100
AcDbEntity
  8
太線
100
AcDbCircle
 10
138.4825403279738
 20
85.43930390144641
 30
0.0
 40
0.5588291886667776
  0
CIRCLE
  5
1548
330
1510
100
AcDbEntity
  8
太線
100
AcDbCircle
 10
138.4825403279738
 20
83.26342923362075
 30
0.0
 40
0.5588291886667776
  0
LINE
  5
1549
330
1510
100
AcDbEntity
  8
極太線
100
AcDbLine
 10
137.9237111393071
 20
83.26342923362075
 30
0.0
 11
139.0413695166406
 21
83.26342923362075
 31
0.0
  0
LINE
  5
154A
330
1510
100
AcDbEntity
  8
太線
100
AcDbLine
 10
139.4825403279738
 20
86.93930390144641
 30
0.0
 11
134.4644995438761
 21
86.93930390144641
 31
0.0
  0
LINE
  5
154B
330
1510
100
AcDbEntity
  8
太線
100
AcDbLine
 10
133.9644995438761
 20
86.43930390144641
 30
0.0
 11
133.9644995438761
 21
81.93930390144641
 31
0.0
  0
ARC
  5
154C
330
1510
100
AcDbEntity
  8
太線
100
AcDbCircle
 10
132.4644995438761
 20
81.43930390144641
 30
0.0
 40
0.5
100
AcDbArc
 50
90.0
 51
180.0
  0
LINE
  5
154D
330
1510
100
AcDbEntity
  8
太線
100
AcDbLine
 10
133.9644995438761
 20
81.93930390144641
 30
0.0
 11
132.4644995438761
 21
81.93930390144641
 31
0.0
  0
LINE
  5
154E
330
1510
100
AcDbEntity
  8
極太線
100
AcDbLine
 10
134.9056703552093
 20
83.26342923362075
 30
0.0
 11
136.0233287325429
 21
83.26342923362075
 31
0.0
  0
LINE
  5
154F
330
1510
100
AcDbEntity
  8
極太線
100
AcDbLine
 10
135.4644995438761
 20
83.82225842228752
 30
0.0
 11
135.4644995438761
 21
82.70460004495395
 31
0.0
  0
CIRCLE
  5
1550
330
1510
100
AcDbEntity
  8
太線
100
AcDbCircle
 10
135.4644995438761
 20
83.26342923362075
 30
0.0
 40
0.5588291886667776
  0
ARC
  5
1551
330
1510
100
AcDbEntity
  8
太線
100
AcDbCircle
 10
134.4644995438761
 20
86.43930390144641
 30
0.0
 40
0.5
100
AcDbArc
 50
90.0
 51
180.0
  0
CIRCLE
  5
1552
330
1510
100
AcDbEntity
  8
太線
100
AcDbCircle
 10
135.4644995438761
 20
85.43930390144641
 30
0.0
 40
0.5588291886667776
  0
LINE
  5
1553
330
1510
100
AcDbEntity
  8
極太線
100
AcDbLine
 10
135.4644995438761
 20
85.99813309011318
 30
0.0
 11
135.4644995438761
 21
84.88047471277964
 31
0.0
  0
LINE
  5
1554
330
1510
100
AcDbEntity
  8
極太線
100
AcDbLine
 10
134.9056703552093
 20
85.43930390144641
 30
0.0
 11
136.0233287325429
 21
85.43930390144641
 31
0.0
  0
LINE
  5
1555
330
1510
100
AcDbEntity
  8
太線
100
AcDbLine
 10
139.9825403279738
 20
81.93930390144641
 30
0.0
 11
139.9825403279738
 21
86.43930390144641
 31
0.0
  0
ARC
  5
1556
330
1510
100
AcDbEntity
  8
太線
100
AcDbCircle
 10
141.4825403279738
 20
81.43930390144641
 30
0.0
 40
0.5
100
AcDbArc
 50
0.0
 51
90.0
  0
LINE
  5
1557
330
1510
100
AcDbEntity
  8
極太線
100
AcDbLine
 10
138.4825403279738
 20
83.82225842228752
 30
0.0
 11
138.4825403279738
 21
82.70460004495395
 31
0.0
  0
LINE
  5
1558
330
1510
100
AcDbEntity
  8
太線
100
AcDbLine
 10
141.4825403279738
 20
81.93930390144641
 30
0.0
 11
139.9825403279738
 21
81.93930390144641
 31
0.0
  0
ARC
  5
1559
330
1510
100
AcDbEntity
  8
太線
100
AcDbCircle
 10
139.4825403279738
 20
86.43930390144641
 30
0.0
 40
0.5
100
AcDbArc
 50
0.0
 51
90.0
  0
LINE
  5
155A
330
1510
100
AcDbEntity
  8
極太線
100
AcDbLine
 10
138.4825403279738
 20
85.99813309011318
 30
0.0
 11
138.4825403279738
 21
84.88047471277964
 31
0.0
  0
ENDBLK
  5
155C
330
1510
100
AcDbEntity
  8
0
100
AcDbBlockEnd
  0
BLOCK
  5
2AA7
330
2A9E
100
AcDbEntity
  8
0
100
AcDbBlockBegin
  2
*D2
 70
     1
 10
0.0
 20
0.0
 30
0.0
  3
*D2
  1

  0
LINE
  5
3101
330
2A9E
100
AcDbEntity
  8
寸法線
 62
     0
370
    -2
100
AcDbLine
 10
108.4102855131945
 20
46.52694694585777
 30
0.0
 11
122.7258609682231
 21
62.49147825431357
 31
0.0
  0
LINE
  5
3102
330
2A9E
100
AcDbEntity
  8
寸法線
 62
     0
370
    -2
100
AcDbLine
 10
130.7371914421451
 20
71.42560294773535
 30
0.0
 11
132.7400240606255
 21
73.6591341210908
 31
0.0
  0
MTEXT
  5
3103
330
2A9E
100
AcDbEntity
  8
寸法線
 62
     0
100
AcDbMText
 10
108.8139064440024
 20
52.21963430573723
 30
0.0
 40
5.0
 41
0.0
 71
     5
 72
     1
  1
\U+22056
  7
OKANO
 11
0.6676108728268328
 21
0.7445103911184817
 31
0.0
 73
     1
 44
1.0
  0
LINE
  5
3104
330
2A9E
100
AcDbEntity
  8
寸法線
 62
     0
370
    -2
100
AcDbLine
 10
128.7343588236645
 20
69.19207177437991
 30
0.0
 11
124.7286935867035
 21
64.72500942766902
 31
0.0
  0
INSERT
  5
3105
330
2A9E
100
AcDbEntity
  8
寸法線
 62
     0
370
    -2
100
AcDbBlockReference
  2
_Closed
 10
128.7343588236645
 20
69.19207177437991
 30
0.0
 41
3.0
 42
3.0
 43
3.0
 50
228.1170624565534
  0
INSERT
  5
3106
330
2A9E
100
AcDbEntity
  8
寸法線
 62
     0
370
    -2
100
AcDbBlockReference
  2
_Closed
 10
124.7286935867035
 20
64.72500942766902
 30
0.0
 41
3.0
 42
3.0
 43
3.0
 50
48.1170624565534
  0
POINT
  5
3107
330
2A9E
100
AcDbEntity
  8
Defpoints
 62
     0
100
AcDbPoint
 10
124.7286935867035
 20
64.72500942766902
 30
0.0
  0
POINT
  5
3108
330
2A9E
100
AcDbEntity
  8
Defpoints
 62
     0
100
AcDbPoint
 10
128.7343588236645
 20
69.19207177437991
 30
0.0
  0
ENDBLK
  5
2AA8
330
2A9E
100
AcDbEntity
  8
0
100
AcDbBlockEnd
  0
BLOCK
  5
2AE2
330
2AD8
100
AcDbEntity
  8
0
100
AcDbBlockBegin
  2
*D3
 70
     1
 10
0.0
 20
0.0
 30
0.0
  3
*D3
  1

  0
LINE
  5
31CC
330
2AD8
100
AcDbEntity
  8
寸法線
 62
     0
370
    -2
100
AcDbLine
 10
317.5923372384745
 20
138.1807740576035
 30
0.0
 11
317.5923372384745
 21
151.3175930725273
 31
0.0
  0
LINE
  5
31CD
330
2AD8
100
AcDbEntity
  8
寸法線
 62
     0
370
    -2
100
AcDbLine
 10
352.5923372384745
 20
133.1807740576035
 30
0.0
 11
352.5923372384745
 21
151.3175930725273
 31
0.0
  0
LINE
  5
31CE
330
2AD8
100
AcDbEntity
  8
寸法線
 62
     0
370
    -2
100
AcDbLine
 10
320.5923372384745
 20
148.3175930725273
 30
0.0
 11
349.5923372384745
 21
148.3175930725273
 31
0.0
  0
INSERT
  5
31CF
330
2AD8
100
AcDbEntity
  8
寸法線
 62
     0
370
    -2
100
AcDbBlockReference
  2
_Closed
 10
317.5923372384745
 20
148.3175930725273
 30
0.0
 41
3.0
 42
3.0
 43
3.0
 50
180.0
  0
INSERT
  5
31D0
330
2AD8
100
AcDbEntity
  8
寸法線
 62
     0
370
    -2
100
AcDbBlockReference
  2
_Closed
 10
352.5923372384745
 20
148.3175930725273
 30
0.0
 41
3.0
 42
3.0
 43
3.0
  0
MTEXT
  5
31D1
330
2AD8
100
AcDbEntity
  8
寸法線
 62
     0
100
AcDbMText
 10
335.0923372384745
 20
151.8175930725273
 30
0.0
 40
5.0
 41
0.0
 71
     5
 72
     1
  1
35
  7
OKANO
 73
     1
 44
1.0
  0
POINT
  5
31D2
330
2AD8
100
AcDbEntity
  8
Defpoints
 62
     0
100
AcDbPoint
 10
317.5923372384745
 20
136.1807740576035
 30
0.0
  0
POINT
  5
31D3
330
2AD8
100
AcDbEntity
  8
Defpoints
 62
     0
100
AcDbPoint
 10
352.5923372384745
 20
131.1807740576035
 30
0.0
  0
POINT
  5
31D4
330
2AD8
100
AcDbEntity
  8
Defpoints
 62
     0
100
AcDbPoint
 10
352.5923372384745
 20
148.3175930725273
 30
0.0
  0
ENDBLK
  5
2AE3
330
2AD8
100
AcDbEntity
  8
0
100
AcDbBlockEnd
  0
BLOCK
  5
2AEF
330
2AE5
100
AcDbEntity
  8
0
100
AcDbBlockBegin
  2
*D4
 70
     1
 10
0.0
 20
0.0
 30
0.0
  3
*D4
  1

  0
LINE
  5
31C3
330
2AE5
100
AcDbEntity
  8
寸法線
 62
     0
370
    -2
100
AcDbLine
 10
352.5923372384745
 20
133.1807740576035
 30
0.0
 11
352.5923372384745
 21
151.3175930725273
 31
0.0
  0
LINE
  5
31C4
330
2AE5
100
AcDbEntity
  8
寸法線
 62
     0
370
    -2
100
AcDbLine
 10
412.5923372384745
 20
108.1807740576035
 30
0.0
 11
412.5923372384745
 21
151.3175930725273
 31
0.0
  0
LINE
  5
31C5
330
2AE5
100
AcDbEntity
  8
寸法線
 62
     0
370
    -2
100
AcDbLine
 10
355.5923372384745
 20
148.3175930725273
 30
0.0
 11
409.5923372384745
 21
148.3175930725273
 31
0.0
  0
INSERT
  5
31C6
330
2AE5
100
AcDbEntity
  8
寸法線
 62
     0
370
    -2
100
AcDbBlockReference
  2
_Closed
 10
352.5923372384745
 20
148.3175930725273
 30
0.0
 41
3.0
 42
3.0
 43
3.0
 50
180.0
  0
INSERT
  5
31C7
330
2AE5
100
AcDbEntity
  8
寸法線
 62
     0
370
    -2
100
AcDbBlockReference
  2
_Closed
 10
412.5923372384745
 20
148.3175930725273
 30
0.0
 41
3.0
 42
3.0
 43
3.0
  0
MTEXT
  5
31C8
330
2AE5
100
AcDbEntity
  8
寸法線
 62
     0
100
AcDbMText
 10
382.5923372384745
 20
151.8175930725273
 30
0.0
 40
5.0
 41
0.0
 71
     5
 72
     1
  1
57.3
  7
OKANO
 73
     1
 44
1.0
  0
POINT
  5
31C9
330
2AE5
100
AcDbEntity
  8
Defpoints
 62
     0
100
AcDbPoint
 10
352.5923372384745
 20
131.1807740576035
 30
0.0
  0
POINT
  5
31CA
330
2AE5
100
AcDbEntity
  8
Defpoints
 62
     0
100
AcDbPoint
 10
412.5923372384745
 20
106.1807740576035
 30
0.0
  0
POINT
  5
31CB
330
2AE5
100
AcDbEntity
  8
Defpoints
 62
     0
100
AcDbPoint
 10
412.5923372384745
 20
148.3175930725273
 30
0.0
  0
ENDBLK
  5
2AF0
330
2AE5
100
AcDbEntity
  8
0
100
AcDbBlockEnd
  0
BLOCK
  5
2B0A
330
2B00
100
AcDbEntity
  8
0
100
AcDbBlockBegin
  2
*D5
 70
     1
 10
0.0
 20
0.0
 30
0.0
  3
*D5
  1

  0
LINE
  5
316A
330
2B00
100
AcDbEntity
  8
寸法線
 62
     0
370
    -2
100
AcDbLine
 10
384.7398575509557
 20
135.7781239312081
 30
0.0
 11
433.1114388712651
 21
135.7781239312081
 31
0.0
  0
LINE
  5
316B
330
2B00
100
AcDbEntity
  8
寸法線
 62
     0
370
    -2
100
AcDbLine
 10
414.5923372384745
 20
41.18077405760352
 30
0.0
 11
433.1114388712651
 21
41.18077405760351
 31
0.0
  0
LINE
  5
316C
330
2B00
100
AcDbEntity
  8
寸法線
 62
     0
370
    -2
100
AcDbLine
 10
430.1114388712652
 20
132.7781239312081
 30
0.0
 11
430.1114388712651
 21
44.18077405760352
 31
0.0
  0
INSERT
  5
316D
330
2B00
100
AcDbEntity
  8
寸法線
 62
     0
370
    -2
100
AcDbBlockReference
  2
_Closed
 10
430.1114388712652
 20
135.7781239312081
 30
0.0
 41
3.0
 42
3.0
 43
3.0
 50
90.0
  0
INSERT
  5
316E
330
2B00
100
AcDbEntity
  8
寸法線
 62
     0
370
    -2
100
AcDbBlockReference
  2
_Closed
 10
430.1114388712651
 20
41.18077405760352
 30
0.0
 41
3.0
 42
3.0
 43
3.0
 50
270.0
  0
MTEXT
  5
316F
330
2B00
100
AcDbEntity
  8
寸法線
 62
     0
100
AcDbMText
 10
426.6097383477316
 20
88.47944899440591
 30
0.0
 40
5.0
 41
0.0
 71
     5
 72
     1
  1
92.3
  7
OKANO
 11
0.0000000000000001
 21
1.0
 31
0.0
 73
     1
 44
1.0
  0
POINT
  5
3170
330
2B00
100
AcDbEntity
  8
Defpoints
 62
     0
100
AcDbPoint
 10
382.7398575509557
 20
135.7781239312081
 30
0.0
  0
POINT
  5
3171
330
2B00
100
AcDbEntity
  8
Defpoints
 62
     0
100
AcDbPoint
 10
412.5923372384745
 20
41.18077405760352
 30
0.0
  0
POINT
  5
3172
330
2B00
100
AcDbEntity
  8
Defpoints
 62
     0
100
AcDbPoint
 10
430.1114388712651
 20
41.18077405760352
 30
0.0
  0
ENDBLK
  5
2B0B
330
2B00
100
AcDbEntity
  8
0
100
AcDbBlockEnd
  0
BLOCK
  5
2B19
330
2B0D
100
AcDbEntity
  8
0
100
AcDbBlockBegin
  2
*D6
 70
     1
 10
0.0
 20
0.0
 30
0.0
  3
*D6
  1

  0
LINE
  5
31B8
330
2B0D
100
AcDbEntity
  8
寸法線
 62
     0
370
    -2
100
AcDbLine
 10
412.5923372384745
 20
39.18077405760353
 30
0.0
 11
412.5923372384745
 21
27.15363966253406
 31
0.0
  0
LINE
  5
31B9
330
2B0D
100
AcDbEntity
  8
寸法線
 62
     0
370
    -2
100
AcDbLine
 10
407.5923372384745
 20
39.18077405760354
 30
0.0
 11
407.5923372384745
 21
27.15363966253406
 31
0.0
  0
LINE
  5
31BA
330
2B0D
100
AcDbEntity
  8
寸法線
 62
     0
370
    -2
100
AcDbLine
 10
415.5923372384745
 20
30.15363966253406
 30
0.0
 11
418.5923372384745
 21
30.15363966253406
 31
0.0
  0
LINE
  5
31BB
330
2B0D
100
AcDbEntity
  8
寸法線
 62
     0
370
    -2
100
AcDbLine
 10
404.5923372384745
 20
30.15363966253406
 30
0.0
 11
401.5923372384746
 21
30.15363966253406
 31
0.0
  0
LINE
  5
31BC
330
2B0D
100
AcDbEntity
  8
寸法線
 62
     0
370
    -2
100
AcDbLine
 10
412.5923372384745
 20
30.15363966253406
 30
0.0
 11
407.5923372384745
 21
30.15363966253406
 31
0.0
  0
INSERT
  5
31BD
330
2B0D
100
AcDbEntity
  8
寸法線
 62
     0
370
    -2
100
AcDbBlockReference
  2
_Closed
 10
412.5923372384745
 20
30.15363966253406
 30
0.0
 41
3.0
 42
3.0
 43
3.0
 50
180.0
  0
INSERT
  5
31BE
330
2B0D
100
AcDbEntity
  8
寸法線
 62
     0
370
    -2
100
AcDbBlockReference
  2
_Closed
 10
407.5923372384745
 20
30.15363966253406
 30
0.0
 41
3.0
 42
3.0
 43
3.0
  0
MTEXT
  5
31BF
330
2B0D
100
AcDbEntity
  8
寸法線
 62
     0
100
AcDbMText
 10
410.0923372384746
 20
33.65363966253406
 30
0.0
 40
5.0
 41
0.0
 71
     5
 72
     1
  1
4
  7
OKANO
 73
     1
 44
1.0
  0
POINT
  5
31C0
330
2B0D
100
AcDbEntity
  8
Defpoints
 62
     0
100
AcDbPoint
 10
412.5923372384745
 20
41.18077405760352
 30
0.0
  0
POINT
  5
31C1
330
2B0D
100
AcDbEntity
  8
Defpoints
 62
     0
100
AcDbPoint
 10
407.5923372384745
 20
41.18077405760354
 30
0.0
  0
POINT
  5
31C2
330
2B0D
100
AcDbEntity
  8
Defpoints
 62
     0
100
AcDbPoint
 10
407.5923372384745
 20
30.15363966253406
 30
0.0
  0
ENDBLK
  5
2B1A
330
2B0D
100
AcDbEntity
  8
0
100
AcDbBlockEnd
  0
BLOCK
  5
2B26
330
2B1C
100
AcDbEntity
  8
0
100
AcDbBlockBegin
  2
*D7
 70
     1
 10
0.0
 20
0.0
 30
0.0
  3
*D7
  1

  0
LINE
  5
317C
330
2B1C
100
AcDbEntity
  8
寸法線
 62
     0
370
    -2
100
AcDbLine
 10
407.5923372384745
 20
39.18077405760354
 30
0.0
 11
407.5923372384745
 21
27.15363966253406
 31
0.0
  0
LINE
  5
317D
330
2B1C
100
AcDbEntity
  8
寸法線
 62
     0
370
    -2
100
AcDbLine
 10
357.5923372384745
 20
39.18077405760354
 30
0.0
 11
357.5923372384745
 21
27.15363966253406
 31
0.0
  0
LINE
  5
317E
330
2B1C
100
AcDbEntity
  8
寸法線
 62
     0
370
    -2
100
AcDbLine
 10
404.5923372384745
 20
30.15363966253406
 30
0.0
 11
360.5923372384745
 21
30.15363966253406
 31
0.0
  0
INSERT
  5
317F
330
2B1C
100
AcDbEntity
  8
寸法線
 62
     0
370
    -2
100
AcDbBlockReference
  2
_Closed
 10
407.5923372384745
 20
30.15363966253406
 30
0.0
 41
3.0
 42
3.0
 43
3.0
  0
INSERT
  5
3180
330
2B1C
100
AcDbEntity
  8
寸法線
 62
     0
370
    -2
100
AcDbBlockReference
  2
_Closed
 10
357.5923372384745
 20
30.15363966253406
 30
0.0
 41
3.0
 42
3.0
 43
3.0
 50
180.0
  0
MTEXT
  5
3181
330
2B1C
100
AcDbEntity
  8
寸法線
 62
     0
100
AcDbMText
 10
382.5923372384745
 20
33.65363966253406
 30
0.0
 40
5.0
 41
0.0
 71
     5
 72
     1
  1
49.3
  7
OKANO
 73
     1
 44
1.0
  0
POINT
  5
3182
330
2B1C
100
AcDbEntity
  8
Defpoints
 62
     0
100
AcDbPoint
 10
407.5923372384745
 20
41.18077405760354
 30
0.0
  0
POINT
  5
3183
330
2B1C
100
AcDbEntity
  8
Defpoints
 62
     0
100
AcDbPoint
 10
357.5923372384745
 20
41.18077405760354
 30
0.0
  0
POINT
  5
3184
330
2B1C
100
AcDbEntity
  8
Defpoints
 62
     0
100
AcDbPoint
 10
357.5923372384745
 20
30.15363966253406
 30
0.0
  0
ENDBLK
  5
2B27
330
2B1C
100
AcDbEntity
  8
0
100
AcDbBlockEnd
  0
BLOCK
  5
2B35
330
2B29
100
AcDbEntity
  8
0
100
AcDbBlockBegin
  2
*D8
 70
     1
 10
0.0
 20
0.0
 30
0.0
  3
*D8
  1

  0
LINE
  5
318E
330
2B29
100
AcDbEntity
  8
寸法線
 62
     0
370
    -2
100
AcDbLine
 10
357.5923372384745
 20
39.18077405760354
 30
0.0
 11
357.5923372384745
 21
27.15363966253406
 31
0.0
  0
LINE
  5
318F
330
2B29
100
AcDbEntity
  8
寸法線
 62
     0
370
    -2
100
AcDbLine
 10
352.5923372384745
 20
39.18077405760354
 30
0.0
 11
352.5923372384745
 21
27.15363966253406
 31
0.0
  0
LINE
  5
3190
330
2B29
100
AcDbEntity
  8
寸法線
 62
     0
370
    -2
100
AcDbLine
 10
360.5923372384745
 20
30.15363966253406
 30
0.0
 11
363.5923372384745
 21
30.15363966253406
 31
0.0
  0
LINE
  5
3191
330
2B29
100
AcDbEntity
  8
寸法線
 62
     0
370
    -2
100
AcDbLine
 10
349.5923372384745
 20
30.15363966253406
 30
0.0
 11
346.5923372384745
 21
30.15363966253406
 31
0.0
  0
LINE
  5
3192
330
2B29
100
AcDbEntity
  8
寸法線
 62
     0
370
    -2
100
AcDbLine
 10
357.5923372384745
 20
30.15363966253406
 30
0.0
 11
352.5923372384745
 21
30.15363966253406
 31
0.0
  0
INSERT
  5
3193
330
2B29
100
AcDbEntity
  8
寸法線
 62
     0
370
    -2
100
AcDbBlockReference
  2
_Closed
 10
357.5923372384745
 20
30.15363966253406
 30
0.0
 41
3.0
 42
3.0
 43
3.0
 50
180.0
  0
INSERT
  5
3194
330
2B29
100
AcDbEntity
  8
寸法線
 62
     0
370
    -2
100
AcDbBlockReference
  2
_Closed
 10
352.5923372384745
 20
30.15363966253406
 30
0.0
 41
3.0
 42
3.0
 43
3.0
  0
MTEXT
  5
3195
330
2B29
100
AcDbEntity
  8
寸法線
 62
     0
100
AcDbMText
 10
355.0923372384745
 20
33.65363966253406
 30
0.0
 40
5.0
 41
0.0
 71
     5
 72
     1
  1
4
  7
OKANO
 73
     1
 44
1.0
  0
POINT
  5
3196
330
2B29
100
AcDbEntity
  8
Defpoints
 62
     0
100
AcDbPoint
 10
357.5923372384745
 20
41.18077405760354
 30
0.0
  0
POINT
  5
3197
330
2B29
100
AcDbEntity
  8
Defpoints
 62
     0
100
AcDbPoint
 10
352.5923372384745
 20
41.18077405760354
 30
0.0
  0
POINT
  5
3198
330
2B29
100
AcDbEntity
  8
Defpoints
 62
     0
100
AcDbPoint
 10
352.5923372384745
 20
30.15363966253406
 30
0.0
  0
ENDBLK
  5
2B36
330
2B29
100
AcDbEntity
  8
0
100
AcDbBlockEnd
  0
BLOCK
  5
2B42
330
2B38
100
AcDbEntity
  8
0
100
AcDbBlockBegin
  2
*D9
 70
     1
 10
0.0
 20
0.0
 30
0.0
  3
*D9
  1

  0
LINE
  5
3185
330
2B38
100
AcDbEntity
  8
寸法線
 62
     0
370
    -2
100
AcDbLine
 10
352.5923372384745
 20
39.18077405760354
 30
0.0
 11
352.5923372384745
 21
27.15363966253406
 31
0.0
  0
LINE
  5
3186
330
2B38
100
AcDbEntity
  8
寸法線
 62
     0
370
    -2
100
AcDbLine
 10
327.5923372384745
 20
74.18077405760354
 30
0.0
 11
327.5923372384745
 21
27.15363966253406
 31
0.0
  0
LINE
  5
3187
330
2B38
100
AcDbEntity
  8
寸法線
 62
     0
370
    -2
100
AcDbLine
 10
349.5923372384745
 20
30.15363966253406
 30
0.0
 11
330.5923372384745
 21
30.15363966253406
 31
0.0
  0
INSERT
  5
3188
330
2B38
100
AcDbEntity
  8
寸法線
 62
     0
370
    -2
100
AcDbBlockReference
  2
_Closed
 10
352.5923372384745
 20
30.15363966253406
 30
0.0
 41
3.0
 42
3.0
 43
3.0
  0
INSERT
  5
3189
330
2B38
100
AcDbEntity
  8
寸法線
 62
     0
370
    -2
100
AcDbBlockReference
  2
_Closed
 10
327.5923372384745
 20
30.15363966253406
 30
0.0
 41
3.0
 42
3.0
 43
3.0
 50
180.0
  0
MTEXT
  5
318A
330
2B38
100
AcDbEntity
  8
寸法線
 62
     0
100
AcDbMText
 10
340.0923372384745
 20
33.65413178851831
 30
0.0
 40
5.0
 41
0.0
 71
     5
 72
     1
  1
25
  7
OKANO
 73
     1
 44
1.0
  0
POINT
  5
318B
330
2B38
100
AcDbEntity
  8
Defpoints
 62
     0
100
AcDbPoint
 10
352.5923372384745
 20
41.18077405760354
 30
0.0
  0
POINT
  5
318C
330
2B38
100
AcDbEntity
  8
Defpoints
 62
     0
100
AcDbPoint
 10
327.5923372384745
 20
76.18077405760354
 30
0.0
  0
POINT
  5
318D
330
2B38
100
AcDbEntity
  8
Defpoints
 62
     0
100
AcDbPoint
 10
327.5923372384745
 20
30.15363966253406
 30
0.0
  0
ENDBLK
  5
2B43
330
2B38
100
AcDbEntity
  8
0
100
AcDbBlockEnd
  0
BLOCK
  5
2B51
330
2B45
100
AcDbEntity
  8
0
100
AcDbBlockBegin
  2
*D10
 70
     1
 10
0.0
 20
0.0
 30
0.0
  3
*D10
  1

  0
LINE
  5
31AD
330
2B45
100
AcDbEntity
  8
寸法線
 62
     0
370
    -2
100
AcDbLine
 10
380.0923372384745
 20
49.18077405760354
 30
0.0
 11
380.0923372384745
 21
40.42884764065061
 31
0.0
  0
LINE
  5
31AE
330
2B45
100
AcDbEntity
  8
寸法線
 62
     0
370
    -2
100
AcDbLine
 10
385.0923372384745
 20
49.18077405760354
 30
0.0
 11
385.0923372384745
 21
40.42884764065061
 31
0.0
  0
LINE
  5
31AF
330
2B45
100
AcDbEntity
  8
寸法線
 62
     0
370
    -2
100
AcDbLine
 10
377.0923372384745
 20
43.42884764065061
 30
0.0
 11
374.0923372384745
 21
43.42884764065061
 31
0.0
  0
LINE
  5
31B0
330
2B45
100
AcDbEntity
  8
寸法線
 62
     0
370
    -2
100
AcDbLine
 10
388.0923372384745
 20
43.42884764065061
 30
0.0
 11
391.0923372384745
 21
43.42884764065061
 31
0.0
  0
LINE
  5
31B1
330
2B45
100
AcDbEntity
  8
寸法線
 62
     0
370
    -2
100
AcDbLine
 10
380.0923372384745
 20
43.42884764065061
 30
0.0
 11
385.0923372384745
 21
43.42884764065061
 31
0.0
  0
INSERT
  5
31B2
330
2B45
100
AcDbEntity
  8
寸法線
 62
     0
370
    -2
100
AcDbBlockReference
  2
_Closed
 10
380.0923372384745
 20
43.42884764065061
 30
0.0
 41
3.0
 42
3.0
 43
3.0
  0
INSERT
  5
31B3
330
2B45
100
AcDbEntity
  8
寸法線
 62
     0
370
    -2
100
AcDbBlockReference
  2
_Closed
 10
385.0923372384745
 20
43.42884764065061
 30
0.0
 41
3.0
 42
3.0
 43
3.0
 50
180.0
  0
MTEXT
  5
31B4
330
2B45
100
AcDbEntity
  8
寸法線
 62
     0
100
AcDbMText
 10
382.5923372384745
 20
46.92884764065062
 30
0.0
 40
5.0
 41
0.0
 71
     5
 72
     1
  1
4
  7
OKANO
 73
     1
 44
1.0
  0
POINT
  5
31B5
330
2B45
100
AcDbEntity
  8
Defpoints
 62
     0
100
AcDbPoint
 10
380.0923372384745
 20
51.18077405760354
 30
0.0
  0
POINT
  5
31B6
330
2B45
100
AcDbEntity
  8
Defpoints
 62
     0
100
AcDbPoint
 10
385.0923372384745
 20
51.18077405760354
 30
0.0
  0
POINT
  5
31B7
330
2B45
100
AcDbEntity
  8
Defpoints
 62
     0
100
AcDbPoint
 10
385.0923372384745
 20
43.42884764065061
 30
0.0
  0
ENDBLK
  5
2B52
330
2B45
100
AcDbEntity
  8
0
100
AcDbBlockEnd
  0
BLOCK
  5
2B60
330
2B54
100
AcDbEntity
  8
0
100
AcDbBlockBegin
  2
*D11
 70
     1
 10
0.0
 20
0.0
 30
0.0
  3
*D11
  1

  0
LINE
  5
31D5
330
2B54
100
AcDbEntity
  8
寸法線
 62
     0
370
    -2
100
AcDbLine
 10
315.5923372384745
 20
136.1807740576035
 30
0.0
 11
307.6888642680621
 21
136.1807740576035
 31
0.0
  0
LINE
  5
31D6
330
2B54
100
AcDbEntity
  8
寸法線
 62
     0
370
    -2
100
AcDbLine
 10
315.5923372384745
 20
131.1807740576035
 30
0.0
 11
307.6888642680621
 21
131.1807740576035
 31
0.0
  0
LINE
  5
31D7
330
2B54
100
AcDbEntity
  8
寸法線
 62
     0
370
    -2
100
AcDbLine
 10
310.6888642680621
 20
139.1807740576035
 30
0.0
 11
310.6888642680621
 21
142.1807740576035
 31
0.0
  0
LINE
  5
31D8
330
2B54
100
AcDbEntity
  8
寸法線
 62
     0
370
    -2
100
AcDbLine
 10
310.6888642680621
 20
128.1807740576035
 30
0.0
 11
310.6888642680621
 21
125.1807740576035
 31
0.0
  0
LINE
  5
31D9
330
2B54
100
AcDbEntity
  8
寸法線
 62
     0
370
    -2
100
AcDbLine
 10
310.6888642680621
 20
136.1807740576035
 30
0.0
 11
310.6888642680621
 21
131.1807740576035
 31
0.0
  0
INSERT
  5
31DA
330
2B54
100
AcDbEntity
  8
寸法線
 62
     0
370
    -2
100
AcDbBlockReference
  2
_Closed
 10
310.6888642680621
 20
136.1807740576035
 30
0.0
 41
3.0
 42
3.0
 43
3.0
 50
270.0
  0
INSERT
  5
31DB
330
2B54
100
AcDbEntity
  8
寸法線
 62
     0
370
    -2
100
AcDbBlockReference
  2
_Closed
 10
310.6888642680621
 20
131.1807740576035
 30
0.0
 41
3.0
 42
3.0
 43
3.0
 50
90.0
  0
MTEXT
  5
31DC
330
2B54
100
AcDbEntity
  8
寸法線
 62
     0
100
AcDbMText
 10
307.1888642680621
 20
133.6807740576035
 30
0.0
 40
5.0
 41
0.0
 71
     5
 72
     1
  1
4
  7
OKANO
 11
0.0000000000000001
 21
1.0
 31
0.0
 73
     1
 44
1.0
  0
POINT
  5
31DD
330
2B54
100
AcDbEntity
  8
Defpoints
 62
     0
100
AcDbPoint
 10
317.5923372384745
 20
136.1807740576035
 30
0.0
  0
POINT
  5
31DE
330
2B54
100
AcDbEntity
  8
Defpoints
 62
     0
100
AcDbPoint
 10
317.5923372384745
 20
131.1807740576035
 30
0.0
  0
POINT
  5
31DF
330
2B54
100
AcDbEntity
  8
Defpoints
 62
     0
100
AcDbPoint
 10
310.6888642680621
 20
131.1807740576035
 30
0.0
  0
ENDBLK
  5
2B61
330
2B54
100
AcDbEntity
  8
0
100
AcDbBlockEnd
  0
BLOCK
  5
2B6D
330
2B63
100
AcDbEntity
  8
0
100
AcDbBlockBegin
  2
*D12
 70
     1
 10
0.0
 20
0.0
 30
0.0
  3
*D12
  1

  0
LINE
  5
3161
330
2B63
100
AcDbEntity
  8
寸法線
 62
     0
370
    -2
100
AcDbLine
 10
315.5923372384745
 20
131.1807740576035
 30
0.0
 11
307.6888642680622
 21
131.1807740576035
 31
0.0
  0
LINE
  5
3162
330
2B63
100
AcDbEntity
  8
寸法線
 62
     0
370
    -2
100
AcDbLine
 10
315.5923372384745
 20
81.18077405760354
 30
0.0
 11
307.6888642680621
 21
81.18077405760354
 31
0.0
  0
LINE
  5
3163
330
2B63
100
AcDbEntity
  8
寸法線
 62
     0
370
    -2
100
AcDbLine
 10
310.6888642680622
 20
128.1807740576035
 30
0.0
 11
310.6888642680621
 21
84.18077405760355
 31
0.0
  0
INSERT
  5
3164
330
2B63
100
AcDbEntity
  8
寸法線
 62
     0
370
    -2
100
AcDbBlockReference
  2
_Closed
 10
310.6888642680622
 20
131.1807740576035
 30
0.0
 41
3.0
 42
3.0
 43
3.0
 50
90.0
  0
INSERT
  5
3165
330
2B63
100
AcDbEntity
  8
寸法線
 62
     0
370
    -2
100
AcDbBlockReference
  2
_Closed
 10
310.6888642680621
 20
81.18077405760354
 30
0.0
 41
3.0
 42
3.0
 43
3.0
 50
270.0
  0
MTEXT
  5
3166
330
2B63
100
AcDbEntity
  8
寸法線
 62
     0
100
AcDbMText
 10
307.1888642680621
 20
106.1807740576035
 30
0.0
 40
5.0
 41
0.0
 71
     5
 72
     1
  1
49.3
  7
OKANO
 11
0.0000000000000001
 21
1.0
 31
0.0
 73
     1
 44
1.0
  0
POINT
  5
3167
330
2B63
100
AcDbEntity
  8
Defpoints
 62
     0
100
AcDbPoint
 10
317.5923372384745
 20
131.1807740576035
 30
0.0
  0
POINT
  5
3168
330
2B63
100
AcDbEntity
  8
Defpoints
 62
     0
100
AcDbPoint
 10
317.5923372384745
 20
81.18077405760354
 30
0.0
  0
POINT
  5
3169
330
2B63
100
AcDbEntity
  8
Defpoints
 62
     0
100
AcDbPoint
 10
310.6888642680621
 20
81.18077405760354
 30
0.0
  0
ENDBLK
  5
2B6E
330
2B63
100
AcDbEntity
  8
0
100
AcDbBlockEnd
  0
BLOCK
  5
2B7C
330
2B70
100
AcDbEntity
  8
0
100
AcDbBlockBegin
  2
*D13
 70
     1
 10
0.0
 20
0.0
 30
0.0
  3
*D13
  1

  0
LINE
  5
31A2
330
2B70
100
AcDbEntity
  8
寸法線
 62
     0
370
    -2
100
AcDbLine
 10
315.5923372384745
 20
81.18077405760354
 30
0.0
 11
307.6888642680621
 21
81.18077405760354
 31
0.0
  0
LINE
  5
31A3
330
2B70
100
AcDbEntity
  8
寸法線
 62
     0
370
    -2
100
AcDbLine
 10
315.5923372384745
 20
76.18077405760354
 30
0.0
 11
307.6888642680621
 21
76.18077405760354
 31
0.0
  0
LINE
  5
31A4
330
2B70
100
AcDbEntity
  8
寸法線
 62
     0
370
    -2
100
AcDbLine
 10
310.6888642680621
 20
84.18077405760355
 30
0.0
 11
310.6888642680621
 21
87.18077405760354
 31
0.0
  0
LINE
  5
31A5
330
2B70
100
AcDbEntity
  8
寸法線
 62
     0
370
    -2
100
AcDbLine
 10
310.6888642680621
 20
73.18077405760354
 30
0.0
 11
310.6888642680621
 21
70.18077405760354
 31
0.0
  0
LINE
  5
31A6
330
2B70
100
AcDbEntity
  8
寸法線
 62
     0
370
    -2
100
AcDbLine
 10
310.6888642680621
 20
81.18077405760354
 30
0.0
 11
310.6888642680621
 21
76.18077405760354
 31
0.0
  0
INSERT
  5
31A7
330
2B70
100
AcDbEntity
  8
寸法線
 62
     0
370
    -2
100
AcDbBlockReference
  2
_Closed
 10
310.6888642680621
 20
81.18077405760354
 30
0.0
 41
3.0
 42
3.0
 43
3.0
 50
270.0
  0
INSERT
  5
31A8
330
2B70
100
AcDbEntity
  8
寸法線
 62
     0
370
    -2
100
AcDbBlockReference
  2
_Closed
 10
310.6888642680621
 20
76.18077405760354
 30
0.0
 41
3.0
 42
3.0
 43
3.0
 50
90.0
  0
MTEXT
  5
31A9
330
2B70
100
AcDbEntity
  8
寸法線
 62
     0
100
AcDbMText
 10
307.1888642680621
 20
78.68077405760359
 30
0.0
 40
5.0
 41
0.0
 71
     5
 72
     1
  1
4
  7
OKANO
 11
0.0000000000000001
 21
1.0
 31
0.0
 73
     1
 44
1.0
  0
POINT
  5
31AA
330
2B70
100
AcDbEntity
  8
Defpoints
 62
     0
100
AcDbPoint
 10
317.5923372384745
 20
81.18077405760354
 30
0.0
  0
POINT
  5
31AB
330
2B70
100
AcDbEntity
  8
Defpoints
 62
     0
100
AcDbPoint
 10
317.5923372384745
 20
76.18077405760354
 30
0.0
  0
POINT
  5
31AC
330
2B70
100
AcDbEntity
  8
Defpoints
 62
     0
100
AcDbPoint
 10
310.6888642680621
 20
76.18077405760354
 30
0.0
  0
ENDBLK
  5
2B7D
330
2B70
100
AcDbEntity
  8
0
100
AcDbBlockEnd
  0
BLOCK
  5
2B89
330
2B7F
100
AcDbEntity
  8
0
100
AcDbBlockBegin
  2
*D14
 70
     1
 10
0.0
 20
0.0
 30
0.0
  3
*D14
  1

  0
LINE
  5
3199
330
2B7F
100
AcDbEntity
  8
寸法線
 62
     0
370
    -2
100
AcDbLine
 10
315.5923372384745
 20
76.18077405760354
 30
0.0
 11
307.6888642680621
 21
76.18077405760354
 31
0.0
  0
LINE
  5
319A
330
2B7F
100
AcDbEntity
  8
寸法線
 62
     0
370
    -2
100
AcDbLine
 10
350.5923372384745
 20
51.18077405760354
 30
0.0
 11
307.6888642680621
 21
51.18077405760355
 31
0.0
  0
LINE
  5
319B
330
2B7F
100
AcDbEntity
  8
寸法線
 62
     0
370
    -2
100
AcDbLine
 10
310.6888642680621
 20
73.18077405760354
 30
0.0
 11
310.6888642680621
 21
54.18077405760355
 31
0.0
  0
INSERT
  5
319C
330
2B7F
100
AcDbEntity
  8
寸法線
 62
     0
370
    -2
100
AcDbBlockReference
  2
_Closed
 10
310.6888642680621
 20
76.18077405760354
 30
0.0
 41
3.0
 42
3.0
 43
3.0
 50
90.0
  0
INSERT
  5
319D
330
2B7F
100
AcDbEntity
  8
寸法線
 62
     0
370
    -2
100
AcDbBlockReference
  2
_Closed
 10
310.6888642680621
 20
51.18077405760355
 30
0.0
 41
3.0
 42
3.0
 43
3.0
 50
270.0
  0
MTEXT
  5
319E
330
2B7F
100
AcDbEntity
  8
寸法線
 62
     0
100
AcDbMText
 10
307.1883721420779
 20
63.68077405760359
 30
0.0
 40
5.0
 41
0.0
 71
     5
 72
     1
  1
25
  7
OKANO
 11
0.0000000000000001
 21
1.0
 31
0.0
 73
     1
 44
1.0
  0
POINT
  5
319F
330
2B7F
100
AcDbEntity
  8
Defpoints
 62
     0
100
AcDbPoint
 10
317.5923372384745
 20
76.18077405760354
 30
0.0
  0
POINT
  5
31A0
330
2B7F
100
AcDbEntity
  8
Defpoints
 62
     0
100
AcDbPoint
 10
352.5923372384745
 20
51.18077405760354
 30
0.0
  0
POINT
  5
31A1
330
2B7F
100
AcDbEntity
  8
Defpoints
 62
     0
100
AcDbPoint
 10
310.6888642680621
 20
51.18077405760355
 30
0.0
  0
ENDBLK
  5
2B8A
330
2B7F
100
AcDbEntity
  8
0
100
AcDbBlockEnd
  0
BLOCK
  5
2BA3
330
2B99
100
AcDbEntity
  8
0
100
AcDbBlockBegin
  2
*D15
 70
     1
 10
0.0
 20
0.0
 30
0.0
  3
*D15
  1

  0
LINE
  5
3173
330
2B99
100
AcDbEntity
  8
寸法線
 62
     0
370
    -2
100
AcDbLine
 10
357.5923372384745
 20
78.18077405760354
 30
0.0
 11
357.5923372384745
 21
91.16052845494634
 31
0.0
  0
LINE
  5
3174
330
2B99
100
AcDbEntity
  8
寸法線
 62
     0
370
    -2
100
AcDbLine
 10
407.5923372384745
 20
78.18077405760354
 30
0.0
 11
407.5923372384745
 21
91.16052845494634
 31
0.0
  0
LINE
  5
3175
330
2B99
100
AcDbEntity
  8
寸法線
 62
     0
370
    -2
100
AcDbLine
 10
360.5923372384745
 20
88.16052845494633
 30
0.0
 11
404.5923372384745
 21
88.16052845494633
 31
0.0
  0
INSERT
  5
3176
330
2B99
100
AcDbEntity
  8
寸法線
 62
     0
370
    -2
100
AcDbBlockReference
  2
_Closed
 10
357.5923372384745
 20
88.16052845494633
 30
0.0
 41
3.0
 42
3.0
 43
3.0
 50
180.0
  0
INSERT
  5
3177
330
2B99
100
AcDbEntity
  8
寸法線
 62
     0
370
    -2
100
AcDbBlockReference
  2
_Closed
 10
407.5923372384745
 20
88.16052845494633
 30
0.0
 41
3.0
 42
3.0
 43
3.0
  0
MTEXT
  5
3178
330
2B99
100
AcDbEntity
  8
寸法線
 62
     0
100
AcDbMText
 10
382.5923372384745
 20
91.66052845494633
 30
0.0
 40
5.0
 41
0.0
 71
     5
 72
     1
  1
49.0
  7
OKANO
 73
     1
 44
1.0
  0
POINT
  5
3179
330
2B99
100
AcDbEntity
  8
Defpoints
 62
     0
100
AcDbPoint
 10
357.5923372384745
 20
76.18077405760354
 30
0.0
  0
POINT
  5
317A
330
2B99
100
AcDbEntity
  8
Defpoints
 62
     0
100
AcDbPoint
 10
407.5923372384745
 20
76.18077405760354
 30
0.0
  0
POINT
  5
317B
330
2B99
100
AcDbEntity
  8
Defpoints
 62
     0
100
AcDbPoint
 10
407.5923372384745
 20
88.16052845494633
 30
0.0
  0
ENDBLK
  5
2BA4
330
2B99
100
AcDbEntity
  8
0
100
AcDbBlockEnd
  0
BLOCK
  5
2F64
330
2F5A
100
AcDbEntity
  8
0
100
AcDbBlockBegin
  2
*D16
 70
     1
 10
0.0
 20
0.0
 30
0.0
  3
*D16
  1

  0
LINE
  5
3109
330
2F5A
100
AcDbEntity
  8
寸法線
 62
     0
370
    -2
100
AcDbLine
 10
217.8516453502844
 20
169.3545430681116
 30
0.0
 11
227.6647095151516
 21
154.676913553526
 31
0.0
  0
LINE
  5
310A
330
2F5A
100
AcDbEntity
  8
寸法線
 62
     0
370
    -2
100
AcDbLine
 10
195.5960508742251
 20
154.475057494245
 30
0.0
 11
205.4091150390923
 21
139.7974279796594
 31
0.0
  0
LINE
  5
310B
330
2F5A
100
AcDbEntity
  8
寸法線
 62
     0
370
    -2
100
AcDbLine
 10
223.5033646145898
 20
155.5034778998223
 30
0.0
 11
206.2356793853886
 21
143.9587728802213
 31
0.0
  0
INSERT
  5
310C
330
2F5A
100
AcDbEntity
  8
寸法線
 62
     0
370
    -2
100
AcDbBlockReference
  2
_Closed
 10
225.9973192380189
 20
157.1708681769551
 30
0.0
 41
3.0
 42
3.0
 43
3.0
 50
33.76561111396753
  0
INSERT
  5
310D
330
2F5A
100
AcDbEntity
  8
寸法線
 62
     0
370
    -2
100
AcDbBlockReference
  2
_Closed
 10
203.7417247619595
 20
142.2913826030885
 30
0.0
 41
3.0
 42
3.0
 43
3.0
 50
213.7656111139675
  0
MTEXT
  5
310E
330
2F5A
100
AcDbEntity
  8
寸法線
 62
     0
100
AcDbMText
 10
212.9242333433343
 20
152.6407391173557
 30
0.0
 40
5.0
 41
0.0
 71
     5
 72
     1
  1
30
  7
OKANO
 11
0.831318207809687
 21
0.5557967590442483
 31
0.0
 73
     1
 44
1.0
  0
POINT
  5
310F
330
2F5A
100
AcDbEntity
  8
Defpoints
 62
     0
100
AcDbPoint
 10
216.7400518321959
 20
171.0171794837309
 30
0.0
  0
POINT
  5
3110
330
2F5A
100
AcDbEntity
  8
Defpoints
 62
     0
100
AcDbPoint
 10
194.4844573561366
 20
156.1376939098644
 30
0.0
  0
POINT
  5
3111
330
2F5A
100
AcDbEntity
  8
Defpoints
 62
     0
100
AcDbPoint
 10
203.7417247619595
 20
142.2913826030885
 30
0.0
  0
ENDBLK
  5
2F65
330
2F5A
100
AcDbEntity
  8
0
100
AcDbBlockEnd
  0
BLOCK
  5
2F70
330
2F66
100
AcDbEntity
  8
0
100
AcDbBlockBegin
  2
*D17
 70
     1
 10
0.0
 20
0.0
 30
0.0
  3
*D17
  1

  0
LINE
  5
3112
330
2F66
100
AcDbEntity
  8
寸法線
 62
     0
370
    -2
100
AcDbLine
 10
193.5612935434542
 20
163.7774190930905
 30
0.0
 11
177.4560229127781
 21
154.0664999485647
 31
0.0
  0
LINE
  5
3113
330
2F66
100
AcDbEntity
  8
寸法線
 62
     0
370
    -2
100
AcDbLine
 10
199.6484710943836
 20
153.6820161373405
 30
0.0
 11
183.5432004637075
 21
143.9710969928147
 31
0.0
  0
LINE
  5
3114
330
2F66
100
AcDbEntity
  8
寸法線
 62
     0
370
    -2
100
AcDbLine
 10
181.5742198323894
 20
153.0464734139569
 30
0.0
 11
184.5632269983153
 21
148.089293912426
 31
0.0
  0
INSERT
  5
3115
330
2F66
100
AcDbEntity
  8
寸法線
 62
     0
370
    -2
100
AcDbBlockReference
  2
_Closed
 10
180.0251346398876
 20
155.6155851410665
 30
0.0
 41
3.0
 42
3.0
 43
3.0
 50
121.0885184785517
  0
INSERT
  5
3116
330
2F66
100
AcDbEntity
  8
寸法線
 62
     0
370
    -2
100
AcDbBlockReference
  2
_Closed
 10
186.1123121908171
 20
145.5201821853165
 30
0.0
 41
3.0
 42
3.0
 43
3.0
 50
301.0885184785518
  0
MTEXT
  5
3117
330
2F66
100
AcDbEntity
  8
寸法線
 62
     0
100
AcDbMText
 10
186.066441872526
 20
152.3754038361352
 30
0.0
 40
5.0
 41
0.0
 71
     5
 72
     1
  1
12
  7
OKANO
 11
0.5163617308339187
 21
-0.8563705757031822
 31
0.0
 73
     1
 44
1.0
  0
POINT
  5
3118
330
2F66
100
AcDbEntity
  8
Defpoints
 62
     0
100
AcDbPoint
 10
195.2740346948606
 20
164.8101425547583
 30
0.0
  0
POINT
  5
3119
330
2F66
100
AcDbEntity
  8
Defpoints
 62
     0
100
AcDbPoint
 10
201.3612122457899
 20
154.7147395990083
 30
0.0
  0
POINT
  5
311A
330
2F66
100
AcDbEntity
  8
Defpoints
 62
     0
100
AcDbPoint
 10
186.1123121908171
 20
145.5201821853165
 30
0.0
  0
ENDBLK
  5
2F71
330
2F66
100
AcDbEntity
  8
0
100
AcDbBlockEnd
  0
BLOCK
  5
3000
330
2FF6
100
AcDbEntity
  8
0
100
AcDbBlockBegin
  2
*D18
 70
     1
 10
0.0
 20
0.0
 30
0.0
  3
*D18
  1

  0
LINE
  5
30EF
330
2FF6
100
AcDbEntity
  8
寸法線
 62
     0
370
    -2
100
AcDbLine
 10
61.90661525727481
 20
103.466259900917
 30
0.0
 11
61.90661525727481
 21
220.9920019727508
 31
0.0
  0
LINE
  5
30F0
330
2FF6
100
AcDbEntity
  8
寸法線
 62
     0
370
    -2
100
AcDbLine
 10
230.184848521925
 20
103.466259900917
 30
0.0
 11
230.184848521925
 21
220.9920019727508
 31
0.0
  0
LINE
  5
30F1
330
2FF6
100
AcDbEntity
  8
寸法線
 62
     0
370
    -2
100
AcDbLine
 10
64.90661525727481
 20
217.9920019727508
 30
0.0
 11
227.1848485219249
 21
217.9920019727508
 31
0.0
  0
INSERT
  5
30F2
330
2FF6
100
AcDbEntity
  8
寸法線
 62
     0
370
    -2
100
AcDbBlockReference
  2
_Closed
 10
61.90661525727481
 20
217.9920019727508
 30
0.0
 41
3.0
 42
3.0
 43
3.0
 50
180.0
  0
INSERT
  5
30F3
330
2FF6
100
AcDbEntity
  8
寸法線
 62
     0
370
    -2
100
AcDbBlockReference
  2
_Closed
 10
230.184848521925
 20
217.9920019727508
 30
0.0
 41
3.0
 42
3.0
 43
3.0
  0
MTEXT
  5
30F4
330
2FF6
100
AcDbEntity
  8
寸法線
 62
     0
100
AcDbMText
 10
146.0457318895999
 20
221.4920019727508
 30
0.0
 40
5.0
 41
0.0
 71
     5
 72
     1
  1
165
  7
OKANO
 73
     1
 44
1.0
  0
POINT
  5
30F5
330
2FF6
100
AcDbEntity
  8
Defpoints
 62
     0
100
AcDbPoint
 10
61.90661525727481
 20
101.466259900917
 30
0.0
  0
POINT
  5
30F6
330
2FF6
100
AcDbEntity
  8
Defpoints
 62
     0
100
AcDbPoint
 10
230.184848521925
 20
101.466259900917
 30
0.0
  0
POINT
  5
30F7
330
2FF6
100
AcDbEntity
  8
Defpoints
 62
     0
100
AcDbPoint
 10
230.184848521925
 20
217.9920019727508
 30
0.0
  0
ENDBLK
  5
3001
330
2FF6
100
AcDbEntity
  8
0
100
AcDbBlockEnd
  0
BLOCK
  5
3017
330
300C
100
AcDbEntity
  8
0
100
AcDbBlockBegin
  2
*D19
 70
     1
 10
0.0
 20
0.0
 30
0.0
  3
*D19
  1

  0
LINE
  5
30DC
330
300C
100
AcDbEntity
  8
寸法線
 62
     0
370
    -2
100
AcDbLine
 10
61.90661525727481
 20
118.6875825088773
 30
0.0
 11
61.90661525727483
 21
186.9421682405783
 31
0.0
  0
ARC
  5
30DD
330
300C
100
AcDbEntity
  8
寸法線
 62
     0
370
    -2
100
AcDbCircle
 10
61.90661525727481
 20
116.6875825088773
 30
0.0
 40
67.25458573170094
100
AcDbArc
 50
32.06951736866432
 51
87.44401678486477
  0
INSERT
  5
30DE
330
300C
100
AcDbEntity
  8
寸法線
 62
     0
370
    -2
100
AcDbBlockReference
  2
_Closed
 10
120.4342024684829
 20
149.8191510980211
 30
0.0
 41
3.0
 42
3.0
 43
3.0
 50
300.7915257610967
  0
INSERT
  5
30DF
330
300C
100
AcDbEntity
  8
寸法線
 62
     0
370
    -2
100
AcDbBlockReference
  2
_Closed
 10
61.90661525727481
 20
183.9421682405783
 30
0.0
 41
3.0
 42
3.0
 43
3.0
 50
178.7220083924323
  0
MTEXT
  5
30E0
330
300C
100
AcDbEntity
  8
寸法線
 62
     0
100
AcDbMText
 10
97.54371527184515
 20
177.8121152646876
 30
0.0
 40
5.0
 41
0.0
 71
     5
 72
     1
  1
60°
  7
OKANO
 11
0.8638949988003965
 21
-0.5036719478466742
 31
0.0
 73
     1
 44
1.0
  0
POINT
  5
30E1
330
300C
100
AcDbEntity
  8
Defpoints
 62
     0
100
AcDbPoint
 10
105.4279535817385
 20
167.9620636119589
 30
0.0
  0
POINT
  5
30E2
330
300C
100
AcDbEntity
  8
Defpoints
 62
     0
100
AcDbPoint
 10
61.9066152572748
 20
101.466259900917
 30
0.0
  0
POINT
  5
30E3
330
300C
100
AcDbEntity
  8
Defpoints
 62
     0
100
AcDbPoint
 10
189.4627597987024
 20
188.8951576578448
 30
0.0
  0
POINT
  5
30E4
330
300C
100
AcDbEntity
  8
Defpoints
 62
     0
100
AcDbPoint
 10
87.40866415333263
 20
131.1239008746827
 30
0.0
  0
POINT
  5
30E5
330
300C
100
AcDbEntity
  8
Defpoints
 62
     0
100
AcDbPoint
 10
61.90661525727481
 20
36.00482058376037
 30
0.0
  0
ENDBLK
  5
3018
330
300C
100
AcDbEntity
  8
0
100
AcDbBlockEnd
  0
BLOCK
  5
3025
330
301A
100
AcDbEntity
  8
0
100
AcDbBlockBegin
  2
*D20
 70
     1
 10
0.0
 20
0.0
 30
0.0
  3
*D20
  1

  0
LINE
  5
311B
330
301A
100
AcDbEntity
  8
寸法線
 62
     0
370
    -2
100
AcDbLine
 10
216.1606084972171
 20
173.2072164292849
 30
0.0
 11
202.8953825471427
 21
199.7631414772643
 31
0.0
  0
LINE
  5
311C
330
301A
100
AcDbEntity
  8
寸法線
 62
     0
370
    -2
100
AcDbLine
 10
224.9138304552385
 20
177.5796292469338
 30
0.0
 11
211.6486045051641
 21
204.1355542949131
 31
0.0
  0
LINE
  5
311D
330
301A
100
AcDbEntity
  8
寸法線
 62
     0
370
    -2
100
AcDbLine
 10
206.9197897365446
 20
198.4199561684217
 30
0.0
 11
210.3054191963216
 21
200.1111471055112
 31
0.0
  0
INSERT
  5
311E
330
301A
100
AcDbEntity
  8
寸法線
 62
     0
370
    -2
100
AcDbBlockReference
  2
_Closed
 10
204.2359934874224
 20
197.079345228142
 30
0.0
 41
3.0
 42
3.0
 43
3.0
 50
206.5430631071465
  0
INSERT
  5
311F
330
301A
100
AcDbEntity
  8
寸法線
 62
     0
370
    -2
100
AcDbBlockReference
  2
_Closed
 10
212.9892154454438
 20
201.4517580457909
 30
0.0
 41
3.0
 42
3.0
 43
3.0
 50
26.54306310714655
  0
MTEXT
  5
3120
330
301A
100
AcDbEntity
  8
寸法線
 62
     0
100
AcDbMText
 10
207.0485583694401
 20
202.3966472609423
 30
0.0
 40
5.0
 41
0.0
 71
     5
 72
     1
  1
10
  7
OKANO
 11
0.8945987497074018
 21
0.4468703134265617
 31
0.0
 73
     1
 44
1.0
  0
POINT
  5
3121
330
301A
100
AcDbEntity
  8
Defpoints
 62
     0
100
AcDbPoint
 10
217.0543491240703
 20
171.4180189298701
 30
0.0
  0
POINT
  5
3122
330
301A
100
AcDbEntity
  8
Defpoints
 62
     0
100
AcDbPoint
 10
225.8075710820917
 20
175.790431747519
 30
0.0
  0
POINT
  5
3123
330
301A
100
AcDbEntity
  8
Defpoints
 62
     0
100
AcDbPoint
 10
212.9892154454438
 20
201.4517580457909
 30
0.0
  0
ENDBLK
  5
3026
330
301A
100
AcDbEntity
  8
0
100
AcDbBlockEnd
  0
BLOCK
  5
303B
330
3031
100
AcDbEntity
  8
0
100
AcDbBlockBegin
  2
*D21
 70
     1
 10
0.0
 20
0.0
 30
0.0
  3
*D21
  1

  0
LINE
  5
30E6
330
3031
100
AcDbEntity
  8
寸法線
 62
     0
370
    -2
100
AcDbLine
 10
122.6838867109843
 20
121.8478814830566
 30
0.0
 11
122.6838867109843
 21
113.5888412718913
 31
0.0
  0
LINE
  5
30E7
330
3031
100
AcDbEntity
  8
寸法線
 62
     0
370
    -2
100
AcDbLine
 10
209.8760034926783
 20
123.1677073510293
 30
0.0
 11
209.8760034926783
 21
113.5888412718913
 31
0.0
  0
LINE
  5
30E8
330
3031
100
AcDbEntity
  8
寸法線
 62
     0
370
    -2
100
AcDbLine
 10
125.6838867109843
 20
116.5888412718913
 30
0.0
 11
206.8760034926783
 21
116.5888412718913
 31
0.0
  0
INSERT
  5
30E9
330
3031
100
AcDbEntity
  8
寸法線
 62
     0
370
    -2
100
AcDbBlockReference
  2
_Closed
 10
122.6838867109843
 20
116.5888412718913
 30
0.0
 41
3.0
 42
3.0
 43
3.0
 50
180.0
  0
INSERT
  5
30EA
330
3031
100
AcDbEntity
  8
寸法線
 62
     0
370
    -2
100
AcDbBlockReference
  2
_Closed
 10
209.8760034926783
 20
116.5888412718913
 30
0.0
 41
3.0
 42
3.0
 43
3.0
  0
MTEXT
  5
30EB
330
3031
100
AcDbEntity
  8
寸法線
 62
     0
100
AcDbMText
 10
166.2799451018313
 20
120.0893333978756
 30
0.0
 40
5.0
 41
0.0
 71
     5
 72
     1
  1
8.2
  7
OKANO
 73
     1
 44
1.0
  0
POINT
  5
30EC
330
3031
100
AcDbEntity
  8
Defpoints
 62
     0
100
AcDbPoint
 10
122.6838867109843
 20
123.8478814830566
 30
0.0
  0
POINT
  5
30ED
330
3031
100
AcDbEntity
  8
Defpoints
 62
     0
100
AcDbPoint
 10
209.8760034926783
 20
125.1677073510293
 30
0.0
  0
POINT
  5
30EE
330
3031
100
AcDbEntity
  8
Defpoints
 62
     0
100
AcDbPoint
 10
209.8760034926783
 20
116.5888412718913
 30
0.0
  0
ENDBLK
  5
303C
330
3031
100
AcDbEntity
  8
0
100
AcDbBlockEnd
  0
BLOCK
  5
3051
330
3047
100
AcDbEntity
  8
0
100
AcDbBlockBegin
  2
*D22
 70
     1
 10
0.0
 20
0.0
 30
0.0
  3
*D22
  1

  0
LINE
  5
30F8
330
3047
100
AcDbEntity
  8
寸法線
 62
     0
370
    -2
100
AcDbLine
 10
121.875046334457
 20
79.16710392576601
 30
0.0
 11
121.875046334457
 21
84.12217872732027
 31
0.0
  0
LINE
  5
30F9
330
3047
100
AcDbEntity
  8
寸法線
 62
     0
370
    -2
100
AcDbLine
 10
157.5049024324045
 20
78.6020930924949
 30
0.0
 11
157.5049024324045
 21
84.12217872732027
 31
0.0
  0
LINE
  5
30FA
330
3047
100
AcDbEntity
  8
寸法線
 62
     0
370
    -2
100
AcDbLine
 10
124.875046334457
 20
81.12217872732026
 30
0.0
 11
154.5049024324046
 21
81.12217872732026
 31
0.0
  0
INSERT
  5
30FB
330
3047
100
AcDbEntity
  8
寸法線
 62
     0
370
    -2
100
AcDbBlockReference
  2
_Closed
 10
121.875046334457
 20
81.12217872732026
 30
0.0
 41
3.0
 42
3.0
 43
3.0
 50
180.0
  0
INSERT
  5
30FC
330
3047
100
AcDbEntity
  8
寸法線
 62
     0
370
    -2
100
AcDbBlockReference
  2
_Closed
 10
157.5049024324045
 20
81.12217872732026
 30
0.0
 41
3.0
 42
3.0
 43
3.0
  0
MTEXT
  5
30FD
330
3047
100
AcDbEntity
  8
寸法線
 62
     0
100
AcDbMText
 10
139.6899743834308
 20
84.62217872732026
 30
0.0
 40
5.0
 41
0.0
 71
     5
 72
     1
  1
35
  7
OKANO
 73
     1
 44
1.0
  0
POINT
  5
30FE
330
3047
100
AcDbEntity
  8
Defpoints
 62
     0
100
AcDbPoint
 10
121.875046334457
 20
77.16710392576601
 30
0.0
  0
POINT
  5
30FF
330
3047
100
AcDbEntity
  8
Defpoints
 62
     0
100
AcDbPoint
 10
157.5049024324045
 20
76.6020930924949
 30
0.0
  0
POINT
  5
3100
330
3047
100
AcDbEntity
  8
Defpoints
 62
     0
100
AcDbPoint
 10
157.5049024324045
 20
81.12217872732026
 30
0.0
  0
ENDBLK
  5
3052
330
3047
100
AcDbEntity
  8
0
100
AcDbBlockEnd
  0
ENDSEC
  0
SECTION
  2
ENTITIES
  0
LINE
  5
28E2
330
1F
100
AcDbEntity
  8
太線
100
AcDbLine
 10
121.9863484212821
 20
36.00482058376036
 30
0.0
 11
121.9863484212821
 21
71.00482058376036
 31
0.0
  0
LINE
  5
28E3
330
1F
100
AcDbEntity
  8
太線
100
AcDbLine
 10
121.9863484212821
 20
71.00482058376036
 30
0.0
 11
156.9863484212822
 21
71.00482058376036
 31
0.0
  0
CIRCLE
  5
28F0
330
1F
100
AcDbEntity
  8
太線
100
AcDbCircle
 10
382.5923372384745
 20
106.1807740576035
 30
0.0
 40
25.0
  0
CIRCLE
  5
28F1
330
1F
100
AcDbEntity
  8
太線
100
AcDbCircle
 10
382.5923372384745
 20
106.1807740576035
 30
0.0
 40
30.0
  0
LINE
  5
28F4
330
1F
100
AcDbEntity
  8
太線
100
AcDbLine
 10
412.5923372384745
 20
41.18077405760352
 30
0.0
 11
412.5923372384745
 21
106.1807740576035
 31
0.0
  0
LINE
  5
28F9
330
1F
100
AcDbEntity
  8
想像線
100
AcDbLine
 10
66.9863484212822
 20
71.00482058376036
 30
0.0
 11
116.9863484212821
 21
71.00482058376036
 31
0.0
  0
LINE
  5
28FA
330
1F
100
AcDbEntity
  8
想像線
100
AcDbLine
 10
116.9863484212821
 20
71.00482058376036
 30
0.0
 11
116.9863484212821
 21
36.00482058376036
 31
0.0
  0
LINE
  5
28FB
330
1F
100
AcDbEntity
  8
想像線
100
AcDbLine
 10
161.5853447067637
 20
76.00482058376039
 30
0.0
 11
121.9863484212821
 21
76.00482058376036
 31
0.0
  0
LINE
  5
28FC
330
1F
100
AcDbEntity
  8
想像線
100
AcDbLine
 10
121.9863484212821
 20
76.00482058376036
 30
0.0
 11
121.9863484212821
 21
126.0048205837603
 31
0.0
  0
LINE
  5
28FD
330
1F
100
AcDbEntity
  8
想像線
100
AcDbLine
 10
121.9863471239955
 20
126.0048205837602
 30
0.0
 11
207.5753075615789
 21
126.0048205837601
 31
0.0
  0
LINE
  5
28FE
330
1F
100
AcDbEntity
  8
想像線
100
AcDbLine
 10
357.5923372384745
 20
41.18077405760354
 30
0.0
 11
357.5923372384745
 21
76.18077405760354
 31
0.0
  0
LINE
  5
28FF
330
1F
100
AcDbEntity
  8
想像線
100
AcDbLine
 10
357.5923372384745
 20
76.18077405760354
 30
0.0
 11
407.5923372384745
 21
76.18077405760354
 31
0.0
  0
LINE
  5
2900
330
1F
100
AcDbEntity
  8
想像線
100
AcDbLine
 10
407.5923372384745
 20
76.18077405760354
 30
0.0
 11
407.5923372384745
 21
41.18077405760354
 31
0.0
  0
LINE
  5
290E
330
1F
100
AcDbEntity
  8
太線
100
AcDbLine
 10
226.3606732332905
 20
-60.02448318897586
 30
0.0
 11
161.3606732332905
 21
-60.02448318897588
 31
0.0
  0
LINE
  5
2912
330
1F
100
AcDbEntity
  8
想像線
100
AcDbLine
 10
226.3606732332905
 20
-5.024483188975871
 30
0.0
 11
191.9504499772908
 21
-5.024483188975871
 31
0.0
  0
LINE
  5
2913
330
1F
100
AcDbEntity
  8
想像線
100
AcDbLine
 10
191.9504499772908
 20
-5.024483188975871
 30
0.0
 11
191.3606732332905
 21
-55.02448318897586
 31
0.0
  0
LINE
  5
2914
330
1F
100
AcDbEntity
  8
想像線
100
AcDbLine
 10
191.3606732332905
 20
-55.02448318897586
 30
0.0
 11
226.3606732332905
 21
-55.02448318897586
 31
0.0
  0
TEXT
  5
29C2
330
1F
100
AcDbEntity
  8
文字
100
AcDbText
 10
361.4466824579557
 20
-68.33780884827584
 30
0.0
 40
5.759999999999999
  1
joint kogyo T.okano
 51
15.0
  7
OKANO
100
AcDbText
  0
TEXT
  5
29C3
330
1F
100
AcDbEntity
  8
文字
100
AcDbText
 10
352.4607068437995
 20
-50.6349630395305
 30
0.0
 40
5.759999999999999
  1
F-999-20050127 Auto CAD
 51
15.0
  7
OKANO
100
AcDbText
  0
LINE
  5
29C4
330
1F
100
AcDbEntity
  8
太線
100
AcDbLine
 10
319.5540330258628
 20
-51.73993222004694
 30
0.0
 11
449.1540330258628
 21
-51.73993222004694
 31
0.0
  0
LWPOLYLINE
  5
29C5
330
1F
100
AcDbEntity
  8
太線
100
AcDbPolyline
 90
        4
 70
     1
 43
0.0
 10
319.5540330258628
 20
-41.65993222004694
 10
449.1540330258628
 20
-41.65993222004694
 10
449.1540330258628
 20
-71.89993222004694
 10
319.5540330258628
 20
-71.89993222004694
  0
TEXT
  5
29C6
330
1F
100
AcDbEntity
  8
文字
100
AcDbText
 10
324.2008933051319
 20
-61.57214637866776
 30
0.0
 40
2.879999999999999
  1
CHECK
 51
15.0
  7
OKANO
100
AcDbText
  0
LINE
  5
29C7
330
1F
100
AcDbEntity
  8
太線
100
AcDbLine
 10
348.3540330258628
 20
-41.65993222004694
 30
0.0
 11
348.3540330258628
 21
-71.89993222004694
 31
0.0
  0
TEXT
  5
29C8
330
1F
100
AcDbEntity
  8
文字
100
AcDbText
 10
324.2008933051319
 20
-69.87545950612674
 30
0.0
 40
2.879999999999999
  1
ISSUED
 51
15.0
  7
OKANO
100
AcDbText
  0
TEXT
  5
29C9
330
1F
100
AcDbEntity
  8
文字
100
AcDbText
 10
324.5087106246127
 20
-65.87756807900497
 30
0.0
 40
2.879999999999999
  1
APPR
 51
15.0
  7
OKANO
100
AcDbText
  0
TEXT
  5
29CA
330
1F
100
AcDbEntity
  8
文字
100
AcDbText
 10
322.046178643109
 20
-49.57847280552875
 30
0.0
 40
2.879999999999999
  1
FILM NAME
 51
15.0
  7
OKANO
100
AcDbText
  0
TEXT
  5
29CB
330
1F
100
AcDbEntity
  8
文字
100
AcDbText
 10
323.5852612959074
 20
-57.26672538655691
 30
0.0
 40
2.879999999999999
  1
DRAWN
 51
15.0
  7
OKANO
100
AcDbText
  0
TEXT
  5
29CC
330
1F
100
AcDbEntity
  8
文字
100
AcDbText
 10
357.710233802368
 20
-59.41943588261233
 30
0.0
 40
5.759999999999999
  1
W-5-3Y R
 51
15.0
  7
OKANO
100
AcDbText
  0
CIRCLE
  5
29D7
330
1F
100
AcDbEntity
  8
太線
100
AcDbCircle
 10
161.3606732332905
 20
-30.02448318897587
 30
0.0
 40
30.0
  0
CIRCLE
  5
29D8
330
1F
100
AcDbEntity
  8
太線
100
AcDbCircle
 10
161.3606732332905
 20
-30.02448318897587
 30
0.0
 40
25.0
  0
CIRCLE
  5
29DA
330
1F
100
AcDbEntity
  8
太線
100
AcDbCircle
 10
91.98634842128219
 20
101.0048205837603
 30
0.0
 40
30.10002455617537
  0
CIRCLE
  5
29DB
330
1F
100
AcDbEntity
  8
太線
100
AcDbCircle
 10
91.98634842128219
 20
101.0048205837603
 30
0.0
 40
25.0
  0
LINE
  5
29DF
330
1F
100
AcDbEntity
  8
太線
100
AcDbLine
 10
317.5923372384745
 20
76.18077405760354
 30
0.0
 11
352.5923372384745
 21
76.18077405760354
 31
0.0
  0
LINE
  5
29E1
330
1F
100
AcDbEntity
  8
想像線
100
AcDbLine
 10
317.5923372384745
 20
131.1807740576035
 30
0.0
 11
352.5923372384745
 21
131.1807740576035
 31
0.0
  0
LINE
  5
29E2
330
1F
100
AcDbEntity
  8
想像線
100
AcDbLine
 10
352.5923372384745
 20
131.1807740576035
 30
0.0
 11
352.5923372384745
 21
106.1807740576035
 31
0.0
  0
LINE
  5
29E6
330
1F
100
AcDbEntity
  8
太線
100
AcDbLine
 10
131.4445934501909
 20
34.97551681102413
 30
0.0
 11
131.7802743177924
 21
-25.02448318897586
 31
0.0
  0
LINE
  5
29E7
330
1F
100
AcDbEntity
  8
想像線
100
AcDbLine
 10
136.3606732332905
 20
34.97551681102413
 30
0.0
 11
136.3606732332905
 21
-0.0244831889758643
 31
0.0
  0
LINE
  5
29E8
330
1F
100
AcDbEntity
  8
想像線
100
AcDbLine
 10
136.3606732332905
 20
-0.0244831889758643
 30
0.0
 11
186.3606732332905
 21
-0.0244831889758643
 31
0.0
  0
LINE
  5
29E9
330
1F
100
AcDbEntity
  8
想像線
100
AcDbLine
 10
186.3606732332905
 20
-0.0244831889758643
 30
0.0
 11
186.3606732332905
 21
34.97551681102413
 31
0.0
  0
LINE
  5
29EA
330
1F
100
AcDbEntity
  8
想像線
100
AcDbLine
 10
317.5923372384745
 20
81.18077405760354
 30
0.0
 11
352.5923372384745
 21
81.18077405760354
 31
0.0
  0
LINE
  5
29EB
330
1F
100
AcDbEntity
  8
想像線
100
AcDbLine
 10
352.5923372384745
 20
81.18077405760354
 30
0.0
 11
352.5923372384745
 21
106.1807740576035
 31
0.0
  0
LINE
  5
29EC
330
1F
100
AcDbEntity
  8
太線
100
AcDbLine
 10
191.3606732332905
 20
-0.0244831889758643
 30
0.0
 11
226.3606732332905
 21
-0.0244831889758643
 31
0.0
  0
LINE
  5
29ED
330
1F
100
AcDbEntity
  8
太線
100
AcDbLine
 10
352.5923372384745
 20
76.18077405760354
 30
0.0
 11
352.5923372384745
 21
41.18077405760354
 31
0.0
  0
LINE
  5
2A60
330
1F
100
AcDbEntity
  8
太線
100
AcDbLine
 10
146.9863484212821
 20
71.00482058376036
 30
0.0
 11
121.9863484212821
 21
46.00482058376036
 31
0.0
  0
LINE
  5
2A61
330
1F
100
AcDbEntity
  8
太線
100
AcDbLine
 10
89.48634842128219
 20
71.00482058376036
 30
0.0
 11
89.48634842128219
 21
46.00482058376036
 31
0.0
  0
LINE
  5
2A62
330
1F
100
AcDbEntity
  8
太線
100
AcDbLine
 10
89.48634842128219
 20
46.00482058376036
 30
0.0
 11
94.48634842128219
 21
46.00482058376036
 31
0.0
  0
LINE
  5
2A63
330
1F
100
AcDbEntity
  8
太線
100
AcDbLine
 10
94.48634842128219
 20
46.00482058376036
 30
0.0
 11
94.43818003914683
 21
71.00482058376036
 31
0.0
  0
LINE
  5
2A64
330
1F
100
AcDbEntity
  8
太線
100
AcDbLine
 10
327.5923372384745
 20
76.18077405760354
 30
0.0
 11
352.5923372384745
 21
51.18077405760354
 31
0.0
  0
LINE
  5
2A65
330
1F
100
AcDbEntity
  8
太線
100
AcDbLine
 10
380.0923372384745
 20
76.18077405760354
 30
0.0
 11
380.0923372384745
 21
51.18077405760354
 31
0.0
  0
LINE
  5
2A66
330
1F
100
AcDbEntity
  8
太線
100
AcDbLine
 10
380.0923372384745
 20
51.18077405760354
 30
0.0
 11
385.0923372384745
 21
51.18077405760354
 31
0.0
  0
LINE
  5
2A67
330
1F
100
AcDbEntity
  8
太線
100
AcDbLine
 10
385.0923372384745
 20
51.18077405760354
 30
0.0
 11
385.0923372384745
 21
76.18077405760354
 31
0.0
  0
LINE
  5
2A68
330
1F
100
AcDbEntity
  8
太線
100
AcDbLine
 10
352.696685380721
 20
108.6807740576035
 30
0.0
 11
327.5923372384745
 21
108.6807740576035
 31
0.0
  0
LINE
  5
2A69
330
1F
100
AcDbEntity
  8
太線
100
AcDbLine
 10
327.5923372384745
 20
108.6807740576035
 30
0.0
 11
327.5923372384745
 21
103.6807740576035
 31
0.0
  0
LINE
  5
2A6A
330
1F
100
AcDbEntity
  8
太線
100
AcDbLine
 10
327.5923372384745
 20
103.6807740576035
 30
0.0
 11
352.5923372384745
 21
103.6807740576035
 31
0.0
  0
LINE
  5
2A6B
330
1F
100
AcDbEntity
  8
太線
100
AcDbLine
 10
121.9863484212821
 20
103.4566522016249
 30
0.0
 11
146.9863484212821
 21
103.5048205837603
 31
0.0
  0
LINE
  5
2A6C
330
1F
100
AcDbEntity
  8
太線
100
AcDbLine
 10
146.9863484212821
 20
103.5048205837603
 30
0.0
 11
146.9863484212821
 21
98.55298896589573
 31
0.0
  0
LINE
  5
2A6D
330
1F
100
AcDbEntity
  8
太線
100
AcDbLine
 10
146.9863484212821
 20
98.55298896589573
 30
0.0
 11
121.9863484212821
 21
98.50482058376037
 31
0.0
  0
LINE
  5
2A6E
330
1F
100
AcDbEntity
  8
太線
100
AcDbLine
 10
191.9504499772908
 20
24.97551681102413
 30
0.0
 11
216.3606732332905
 21
-0.0244831889758643
 31
0.0
  0
LINE
  5
2A6F
330
1F
100
AcDbEntity
  8
太線
100
AcDbLine
 10
158.8606732332905
 20
-0.0244831889758643
 30
0.0
 11
158.8606732332905
 21
24.97551681102413
 31
0.0
  0
LINE
  5
2A70
330
1F
100
AcDbEntity
  8
太線
100
AcDbLine
 10
158.8606732332905
 20
24.97551681102413
 30
0.0
 11
163.8606732332905
 21
24.97551681102413
 31
0.0
  0
LINE
  5
2A71
330
1F
100
AcDbEntity
  8
太線
100
AcDbLine
 10
163.8606732332905
 20
24.97551681102413
 30
0.0
 11
163.8606732332905
 21
-0.0244831889758643
 31
0.0
  0
LINE
  5
2A72
330
1F
100
AcDbEntity
  8
太線
100
AcDbLine
 10
191.256325091044
 20
-27.52448318897586
 30
0.0
 11
216.3606732332905
 21
-27.52448318897586
 31
0.0
  0
LINE
  5
2A73
330
1F
100
AcDbEntity
  8
太線
100
AcDbLine
 10
216.3606732332905
 20
-27.52448318897586
 30
0.0
 11
216.3606732332905
 21
-32.52448318897586
 31
0.0
  0
LINE
  5
2A74
330
1F
100
AcDbEntity
  8
太線
100
AcDbLine
 10
216.3606732332905
 20
-32.52448318897586
 30
0.0
 11
191.9504499772908
 21
-32.52448318897586
 31
0.0
  0
CIRCLE
  5
2A75
330
1F
100
AcDbEntity
  8
太線
100
AcDbCircle
 10
126.3824908895758
 20
66.26102061253397
 30
0.0
 40
3.0
  0
CIRCLE
  5
2A76
330
1F
100
AcDbEntity
  8
太線
100
AcDbCircle
 10
347.8471582487116
 20
71.08821409213177
 30
0.0
 40
3.0
  0
CIRCLE
  5
2A77
330
1F
100
AcDbEntity
  8
太線
100
AcDbCircle
 10
196.80392285427
 20
4.71931678225053
 30
0.0
 40
3.0
  0
LINE
  5
2A7B
330
1F
100
AcDbEntity
  8
破線
100
AcDbLine
 10
199.5873911838116
 20
-32.52448318897586
 30
0.0
 11
199.5873911838116
 21
-27.52448318897586
 31
0.0
  0
LINE
  5
2A7C
330
1F
100
AcDbEntity
  8
破線
100
AcDbLine
 10
158.8606732332905
 20
7.706040702904488
 30
0.0
 11
163.8606732332905
 21
7.706040702904488
 31
0.0
  0
LINE
  5
2A7D
330
1F
100
AcDbEntity
  8
破線
100
AcDbLine
 10
380.0923372384745
 20
68.43697408637703
 30
0.0
 11
385.0923372384745
 21
68.43697408637703
 31
0.0
  0
LINE
  5
2A7E
330
1F
100
AcDbEntity
  8
破線
100
AcDbLine
 10
129.7182400265917
 20
103.4682126133374
 30
0.0
 11
129.7182400265917
 21
98.55298896589573
 31
0.0
  0
LINE
  5
2A7F
330
1F
100
AcDbEntity
  8
破線
100
AcDbLine
 10
89.48634842128219
 20
63.27429669188001
 30
0.0
 11
94.44974045085933
 21
63.27429669188001
 31
0.0
  0
LINE
  5
2A82
330
1F
100
AcDbEntity
  8
破線
100
AcDbLine
 10
344.8604456331647
 20
108.6807740576035
 30
0.0
 11
344.8604456331647
 21
103.6807740576035
 31
0.0
  0
DIMENSION
  5
2A9D
330
1F
100
AcDbEntity
  8
寸法線
100
AcDbDimension
  2
*D2
 10
128.7343588236645
 20
69.19207177437991
 30
0.0
 11
111.4196928129171
 21
49.88299625084332
 31
0.0
 70
   163
 71
     5
 42
6.0
  3
sunpo
100
AcDbDiametricDimension
 15
124.7286935867035
 25
64.72500942766902
 35
0.0
 40
0.0
1001
ACAD
1000
DSTYLE
1002
{
1070
    40
1040
1.0
1070
   288
1070
     1
1002
}
  0
LINE
  5
2AB9
330
1F
100
AcDbEntity
  8
破線
100
AcDbLine
 10
380.4413725540828
 20
74.36589329984641
 30
0.0
 11
385.4413725540828
 21
74.36589329984641
 31
0.0
  0
LINE
  5
2ABA
330
1F
100
AcDbEntity
  8
破線
100
AcDbLine
 10
89.48634842128219
 20
68.96030297811506
 30
0.0
 11
94.44974045085933
 21
68.96030297811506
 31
0.0
  0
LINE
  5
2ABB
330
1F
100
AcDbEntity
  8
破線
100
AcDbLine
 10
123.7803262957761
 20
103.4682126133374
 30
0.0
 11
123.7803262957761
 21
98.55298896589573
 31
0.0
  0
LINE
  5
2ABC
330
1F
100
AcDbEntity
  8
破線
100
AcDbLine
 10
351.0457731395167
 20
108.6807740576035
 30
0.0
 11
351.0457731395167
 21
103.6807740576035
 31
0.0
  0
LINE
  5
2ABD
330
1F
100
AcDbEntity
  8
破線
100
AcDbLine
 10
193.1546511077845
 20
-32.52448318897586
 30
0.0
 11
193.1546511077845
 21
-27.52448318897586
 31
0.0
  0
LINE
  5
2ABE
330
1F
100
AcDbEntity
  8
破線
100
AcDbLine
 10
158.8606732332905
 20
1.525599117375008
 30
0.0
 11
163.8606732332905
 21
1.525599117375008
 31
0.0
  0
CIRCLE
  5
2AC6
330
1F
100
AcDbEntity
  8
細線
100
AcDbCircle
 10
382.5923372384745
 20
106.1807740576035
 30
0.0
 40
24.31196236442923
  0
CIRCLE
  5
2AC7
330
1F
100
AcDbEntity
  8
細線
100
AcDbCircle
 10
91.98634842128219
 20
101.0048205837603
 30
0.0
 40
23.87134301692339
  0
CIRCLE
  5
2AC8
330
1F
100
AcDbEntity
  8
細線
100
AcDbCircle
 10
161.3606732332905
 20
-30.02448318897587
 30
0.0
 40
24.03857690457265
  0
LINE
  5
2ACF
330
1F
100
AcDbEntity
  8
太線
100
AcDbLine
 10
317.5923372384745
 20
136.1807740576035
 30
0.0
 11
317.5923372384745
 21
76.18077405760354
 31
0.0
  0
LINE
  5
2AD0
330
1F
100
AcDbEntity
  8
太線
100
AcDbLine
 10
352.5923372384745
 20
41.18077405760354
 30
0.0
 11
412.5923372384745
 21
41.18077405760354
 31
0.0
  0
LINE
  5
2AD2
330
1F
100
AcDbEntity
  8
太線
100
AcDbLine
 10
131.4445934501909
 20
34.97551681102413
 30
0.0
 11
191.3606732332905
 21
34.97551681102413
 31
0.0
  0
LINE
  5
2AD3
330
1F
100
AcDbEntity
  8
太線
100
AcDbLine
 10
226.3606732332905
 20
-0.0244831889758643
 30
0.0
 11
226.3606732332905
 21
-60.02448318897586
 31
0.0
  0
LINE
  5
2AD6
330
1F
100
AcDbEntity
  8
太線
100
AcDbLine
 10
191.3606732332905
 20
34.97551681102413
 30
0.0
 11
191.3606732332905
 21
-0.0244831889758643
 31
0.0
  0
DIMENSION
  5
2AD7
330
1F
100
AcDbEntity
  8
寸法線
100
AcDbDimension
  2
*D3
 10
352.5923372384745
 20
148.3175930725273
 30
0.0
 11
335.0923372384745
 21
151.8175930725273
 31
0.0
 70
    32
 71
     5
 42
35.0
  3
sunpo
100
AcDbAlignedDimension
 13
317.5923372384745
 23
136.1807740576035
 33
0.0
 14
352.5923372384745
 24
131.1807740576035
 34
0.0
100
AcDbRotatedDimension
1001
ACAD
1000
DSTYLE
1002
{
1070
    40
1040
1.0
1002
}
  0
DIMENSION
  5
2AE4
330
1F
100
AcDbEntity
  8
寸法線
100
AcDbDimension
  2
*D4
 10
412.5923372384745
 20
148.3175930725273
 30
0.0
 11
382.5923372384745
 21
151.8175930725273
 31
0.0
 70
    32
  1
57.3
 71
     5
 42
60.0
  3
sunpo
100
AcDbAlignedDimension
 13
352.5923372384745
 23
131.1807740576035
 33
0.0
 14
412.5923372384745
 24
106.1807740576035
 34
0.0
100
AcDbRotatedDimension
1001
ACAD
1000
DSTYLE
1002
{
1070
    40
1040
1.0
1070
   279
1070
     1
1002
}
  0
LINE
  5
2AFE
330
1F
100
AcDbEntity
  8
太線
100
AcDbLine
 10
382.7398575509557
 20
135.7781239312081
 30
0.0
 11
317.5923372384745
 21
136.1807740576035
 31
0.0
  0
DIMENSION
  5
2AFF
330
1F
100
AcDbEntity
  8
寸法線
100
AcDbDimension
  2
*D5
 10
430.1114388712651
 20
41.18077405760352
 30
0.0
 11
426.6097383477316
 21
88.47944899440591
 31
0.0
 70
    32
  1
92.3
 71
     5
 42
94.59734987360462
  3
sunpo
100
AcDbAlignedDimension
 13
382.7398575509557
 23
135.7781239312081
 33
0.0
 14
412.5923372384745
 24
41.18077405760352
 34
0.0
 50
90.0
100
AcDbRotatedDimension
1001
ACAD
1000
DSTYLE
1002
{
1070
    40
1040
1.0
1002
}
  0
DIMENSION
  5
2B0C
330
1F
100
AcDbEntity
  8
寸法線
100
AcDbDimension
  2
*D6
 10
407.5923372384745
 20
30.15363966253406
 30
0.0
 11
410.0923372384746
 21
33.65363966253406
 31
0.0
 70
    32
  1
4
 71
     5
 42
5.0
  3
sunpo
100
AcDbAlignedDimension
 13
412.5923372384745
 23
41.18077405760352
 33
0.0
 14
407.5923372384745
 24
41.18077405760354
 34
0.0
100
AcDbRotatedDimension
1001
ACAD
1000
DSTYLE
1002
{
1070
    40
1040
1.0
1002
}
  0
DIMENSION
  5
2B1B
330
1F
100
AcDbEntity
  8
寸法線
100
AcDbDimension
  2
*D7
 10
357.5923372384745
 20
30.15363966253406
 30
0.0
 11
382.5923372384745
 21
33.65363966253406
 31
0.0
 70
    32
  1
49.3
 71
     5
 42
50.0
  3
sunpo
100
AcDbAlignedDimension
 13
407.5923372384745
 23
41.18077405760354
 33
0.0
 14
357.5923372384745
 24
41.18077405760354
 34
0.0
100
AcDbRotatedDimension
1001
ACAD
1000
DSTYLE
1002
{
1070
    40
1040
1.0
1070
   279
1070
     1
1002
}
  0
DIMENSION
  5
2B28
330
1F
100
AcDbEntity
  8
寸法線
100
AcDbDimension
  2
*D8
 10
352.5923372384745
 20
30.15363966253406
 30
0.0
 11
355.0923372384745
 21
33.65363966253406
 31
0.0
 70
    32
  1
4
 71
     5
 42
5.0
  3
sunpo
100
AcDbAlignedDimension
 13
357.5923372384745
 23
41.18077405760354
 33
0.0
 14
352.5923372384745
 24
41.18077405760354
 34
0.0
100
AcDbRotatedDimension
1001
ACAD
1000
DSTYLE
1002
{
1070
    40
1040
1.0
1070
   279
1070
     1
1002
}
  0
DIMENSION
  5
2B37
330
1F
100
AcDbEntity
  8
寸法線
100
AcDbDimension
  2
*D9
 10
327.5923372384745
 20
30.15363966253406
 30
0.0
 11
340.0923372384745
 21
33.65413178851831
 31
0.0
 70
    32
 71
     5
 42
25.0
  3
sunpo
100
AcDbAlignedDimension
 13
352.5923372384745
 23
41.18077405760354
 33
0.0
 14
327.5923372384745
 24
76.18077405760354
 34
0.0
100
AcDbRotatedDimension
1001
ACAD
1000
DSTYLE
1002
{
1070
    40
1040
1.0
1070
   279
1070
     1
1002
}
  0
DIMENSION
  5
2B44
330
1F
100
AcDbEntity
  8
寸法線
100
AcDbDimension
  2
*D10
 10
385.0923372384745
 20
43.42884764065061
 30
0.0
 11
382.5923372384745
 21
46.92884764065062
 31
0.0
 70
    32
  1
4
 71
     5
 42
5.0
  3
sunpo
100
AcDbAlignedDimension
 13
380.0923372384745
 23
51.18077405760354
 33
0.0
 14
385.0923372384745
 24
51.18077405760354
 34
0.0
100
AcDbRotatedDimension
1001
ACAD
1000
DSTYLE
1002
{
1070
    40
1040
1.0
1002
}
  0
DIMENSION
  5
2B53
330
1F
100
AcDbEntity
  8
寸法線
100
AcDbDimension
  2
*D11
 10
310.6888642680621
 20
131.1807740576035
 30
0.0
 11
307.1888642680621
 21
133.6807740576035
 31
0.0
 70
    32
  1
4
 71
     5
 42
5.000000000000028
  3
sunpo
100
AcDbAlignedDimension
 13
317.5923372384745
 23
136.1807740576035
 33
0.0
 14
317.5923372384745
 24
131.1807740576035
 34
0.0
 50
90.0
100
AcDbRotatedDimension
1001
ACAD
1000
DSTYLE
1002
{
1070
    40
1040
1.0
1002
}
  0
DIMENSION
  5
2B62
330
1F
100
AcDbEntity
  8
寸法線
100
AcDbDimension
  2
*D12
 10
310.6888642680621
 20
81.18077405760354
 30
0.0
 11
307.1888642680621
 21
106.1807740576035
 31
0.0
 70
    32
  1
49.3
 71
     5
 42
49.99999999999996
  3
sunpo
100
AcDbAlignedDimension
 13
317.5923372384745
 23
131.1807740576035
 33
0.0
 14
317.5923372384745
 24
81.18077405760354
 34
0.0
 50
90.0
100
AcDbRotatedDimension
1001
ACAD
1000
DSTYLE
1002
{
1070
    40
1040
1.0
1070
   279
1070
     1
1002
}
  0
DIMENSION
  5
2B6F
330
1F
100
AcDbEntity
  8
寸法線
100
AcDbDimension
  2
*D13
 10
310.6888642680621
 20
76.18077405760354
 30
0.0
 11
307.1888642680621
 21
78.68077405760359
 31
0.0
 70
    32
  1
4
 71
     5
 42
5.0
  3
sunpo
100
AcDbAlignedDimension
 13
317.5923372384745
 23
81.18077405760354
 33
0.0
 14
317.5923372384745
 24
76.18077405760354
 34
0.0
 50
90.0
100
AcDbRotatedDimension
1001
ACAD
1000
DSTYLE
1002
{
1070
    40
1040
1.0
1070
   279
1070
     1
1002
}
  0
DIMENSION
  5
2B7E
330
1F
100
AcDbEntity
  8
寸法線
100
AcDbDimension
  2
*D14
 10
310.6888642680621
 20
51.18077405760355
 30
0.0
 11
307.1883721420779
 21
63.68077405760359
 31
0.0
 70
    32
 71
     5
 42
24.99999999999999
  3
sunpo
100
AcDbAlignedDimension
 13
317.5923372384745
 23
76.18077405760354
 33
0.0
 14
352.5923372384745
 24
51.18077405760354
 34
0.0
 50
90.0
100
AcDbRotatedDimension
1001
ACAD
1000
DSTYLE
1002
{
1070
    40
1040
1.0
1070
   279
1070
     1
1002
}
  0
DIMENSION
  5
2B98
330
1F
100
AcDbEntity
  8
寸法線
100
AcDbDimension
  2
*D15
 10
407.5923372384745
 20
88.16052845494633
 30
0.0
 11
382.5923372384745
 21
91.66052845494633
 31
0.0
 70
    32
  1
49.0
 71
     5
 42
50.0
  3
sunpo
100
AcDbAlignedDimension
 13
357.5923372384745
 23
76.18077405760354
 33
0.0
 14
407.5923372384745
 24
76.18077405760354
 34
0.0
100
AcDbRotatedDimension
1001
ACAD
1000
DSTYLE
1002
{
1070
    40
1040
1.0
1002
}
  0
LINE
  5
2C20
330
1F
100
AcDbEntity
  8
想像線
100
AcDbLine
 10
161.3606732332905
 20
-54.06306009354853
 30
0.0
 11
191.3606732332905
 21
-54.06306009354853
 31
0.0
  0
LINE
  5
2C21
330
1F
100
AcDbEntity
  8
想像線
100
AcDbLine
 10
161.3606732332905
 20
-5.985906284403213
 30
0.0
 11
191.9391094776343
 21
-5.985906284403213
 31
0.0
  0
LINE
  5
2C22
330
1F
100
AcDbEntity
  8
想像線
100
AcDbLine
 10
185.3992501378631
 20
-0.0244831889758643
 30
0.0
 11
185.3992501378631
 21
-30.02448318897587
 31
0.0
  0
LINE
  5
2C23
330
1F
100
AcDbEntity
  8
想像線
100
AcDbLine
 10
137.3220963287178
 20
-0.0244831889758643
 30
0.0
 11
137.3220963287178
 21
-30.02448318897587
 31
0.0
  0
LINE
  5
2C24
330
1F
100
AcDbEntity
  8
想像線
100
AcDbLine
 10
115.8576914382055
 20
101.0048205837603
 30
0.0
 11
116.0249253258548
 21
71.00482058376036
 31
0.0
  0
LINE
  5
2C26
330
1F
100
AcDbEntity
  8
想像線
100
AcDbLine
 10
91.98634712399556
 20
124.8761636006836
 30
0.0
 11
121.9863471239955
 21
124.8761636006836
 31
0.0
  0
LINE
  5
2C27
330
1F
100
AcDbEntity
  8
想像線
100
AcDbLine
 10
91.98634842128219
 20
77.13347756683697
 30
0.0
 11
121.9863484212821
 21
77.13347756683697
 31
0.0
  0
LINE
  5
2C28
330
1F
100
AcDbEntity
  8
想像線
100
AcDbLine
 10
352.5923372384745
 20
130.0521170745269
 30
0.0
 11
382.5923372384745
 21
130.0521170745269
 31
0.0
  0
LINE
  5
2C2A
330
1F
100
AcDbEntity
  8
想像線
100
AcDbLine
 10
352.5923372384745
 20
82.30943104068016
 30
0.0
 11
382.5923372384745
 21
81.8688116931743
 31
0.0
  0
LINE
  5
2C2B
330
1F
100
AcDbEntity
  8
想像線
100
AcDbLine
 10
406.9042996029038
 20
106.1807740576035
 30
0.0
 11
406.9042996029038
 21
76.18077405760354
 31
0.0
  0
LINE
  5
2C2C
330
1F
100
AcDbEntity
  8
想像線
100
AcDbLine
 10
358.2803748740453
 20
106.1807740576035
 30
0.0
 11
358.2803748740453
 21
76.18077405760354
 31
0.0
  0
TEXT
  5
2F16
330
1F
100
AcDbEntity
  8
文字
100
AcDbText
 10
152.6998492047323
 20
144.9688587404577
 30
0.0
 40
10.0
  1
L
 51
15.0
  7
OKANO
100
AcDbText
  0
LINE
  5
2F39
330
1F
100
AcDbEntity
  8
太線
100
AcDbLine
 10
61.90661525727481
 20
101.466259900917
 30
0.0
 11
61.90661525727481
 21
36.00482058376037
 31
0.0
  0
LINE
  5
2F3A
330
1F
100
AcDbEntity
  8
太線
100
AcDbLine
 10
121.9863484212821
 20
36.00482058376036
 30
0.0
 11
61.90661525727481
 21
36.00482058376036
 31
0.0
  0
LINE
  5
2F3B
330
1F
100
AcDbEntity
  8
想像線
100
AcDbLine
 10
66.9863484212822
 20
71.00482058376036
 30
0.0
 11
66.9863484212822
 21
35.52356646849807
 31
0.0
  0
LINE
  5
2F4C
330
1F
100
AcDbEntity
  8
太線
100
AcDbLine
 10
210.5414265485981
 20
132.7972161946666
 30
0.0
 11
208.0204873050488
 21
126.4888172167595
 31
0.0
  0
LINE
  5
2F4D
330
1F
100
AcDbEntity
  8
太線
100
AcDbLine
 10
92.63137212716614
 20
131.2266995061297
 30
0.0
 11
157.6313721271661
 21
131.2266995061297
 31
0.0
  0
LINE
  5
2F4E
330
1F
100
AcDbEntity
  8
太線
100
AcDbLine
 10
189.4627597987024
 20
188.8951576578448
 30
0.0
 11
87.40866415333263
 21
131.1239008746827
 31
0.0
  0
LINE
  5
2F4F
330
1F
100
AcDbEntity
  8
太線
100
AcDbLine
 10
160.990959950767
 20
131.2532256980231
 30
0.0
 11
87.40866415333263
 21
131.1239008746827
 31
0.0
  0
LINE
  5
2F51
330
1F
100
AcDbEntity
  8
太線
100
AcDbLine
 10
160.990959950767
 20
131.2532256980231
 30
0.0
 11
209.4624107486453
 21
131.3384168672242
 31
0.0
  0
ARC
  5
2F52
330
1F
100
AcDbEntity
  8
太線
100
AcDbCircle
 10
200.5587683349278
 20
161.0226157112621
 30
0.0
 40
30.0
100
AcDbArc
 50
288.3343887146911
 51
111.7074120557398
  0
DIMENSION
  5
2F53
330
1F
100
AcDbEntity
  8
寸法線
100
AcDbDimension
  2
*D17
 10
186.1123121908171
 20
145.5201821853165
 30
0.0
 11
186.066441872526
 21
152.3754038361352
 31
0.0
 70
    33
  1
12
 71
     5
 42
11.7885915772625
  3
sunpo
100
AcDbAlignedDimension
 13
195.2740346948606
 23
164.8101425547583
 33
0.0
 14
201.36121224579
 24
154.7147395990084
 34
0.0
1001
ACAD
1000
DSTYLE
1002
{
1070
    40
1040
1.0
1002
}
  0
ARC
  5
2F54
330
1F
100
AcDbEntity
  8
細線
 62
     0
100
AcDbCircle
 10
211.1914383340242
 20
167.6992732724004
 30
0.0
 40
6.0
100
AcDbArc
 50
301.0885140216032
 51
121.0885140216032
  0
DIMENSION
  5
2F55
330
1F
100
AcDbEntity
  8
寸法線
100
AcDbDimension
  2
*D16
 10
203.7417247619595
 20
142.2913826030885
 30
0.0
 11
212.9242333433343
 21
152.6407391173557
 31
0.0
 70
    33
  1
30
 71
     5
 42
26.77145077177746
  3
sunpo
100
AcDbAlignedDimension
 13
216.7400518321958
 23
171.0171794837309
 33
0.0
 14
194.4844573561366
 24
156.1376939098644
 34
0.0
1001
ACAD
1000
DSTYLE
1002
{
1070
    40
1040
1.0
1002
}
  0
LINE
  5
2F56
330
1F
100
AcDbEntity
  8
太線
100
AcDbLine
 10
200.9252295342567
 20
154.3778177929051
 30
0.0
 11
216.0799846435101
 21
163.5156074648241
 31
0.0
  0
ARC
  5
2F57
330
1F
100
AcDbEntity
  8
細線
 62
     0
100
AcDbCircle
 10
197.8270595489477
 20
159.516041488126
 30
0.0
 40
6.0
100
AcDbArc
 50
121.0885140216032
 51
301.0885140216032
  0
LINE
  5
2F58
330
1F
100
AcDbEntity
  8
太線
100
AcDbLine
 10
194.7288895636385
 20
164.6542651833469
 30
0.0
 11
209.8836446728919
 21
173.7920548552659
 31
0.0
  0
LINE
  5
2FCF
330
1F
100
AcDbEntity
  8
太線
100
AcDbLine
 10
208.0204873050488
 20
126.4888172167595
 30
0.0
 11
156.9863484212822
 21
71.00482058376036
 31
0.0
  0
LINE
  5
2FED
330
1F
100
AcDbEntity
  8
太線
100
AcDbLine
 10
317.5923372384745
 20
76.18077405760354
 30
0.0
 11
270.5923372384745
 21
76.18077405760354
 31
0.0
  0
LINE
  5
2FEE
330
1F
100
AcDbEntity
  8
太線
100
AcDbLine
 10
270.5923372384745
 20
76.18077405760354
 30
0.0
 11
270.5923372384745
 21
136.1807740576035
 31
0.0
  0
LINE
  5
2FEF
330
1F
100
AcDbEntity
  8
太線
100
AcDbLine
 10
270.5923372384745
 20
136.1807740576035
 30
0.0
 11
317.5923372384745
 21
136.1807740576035
 31
0.0
  0
LINE
  5
2FF0
330
1F
100
AcDbEntity
  8
太線
100
AcDbLine
 10
270.5923372384745
 20
108.6807740576035
 30
0.0
 11
247.5923372384745
 21
108.6807740576035
 31
0.0
  0
LINE
  5
2FF1
330
1F
100
AcDbEntity
  8
太線
100
AcDbLine
 10
247.5923372384745
 20
108.6807740576035
 30
0.0
 11
247.5923372384745
 21
103.6807740576035
 31
0.0
  0
LINE
  5
2FF2
330
1F
100
AcDbEntity
  8
太線
100
AcDbLine
 10
247.5923372384745
 20
103.6807740576035
 30
0.0
 11
270.5923372384745
 21
103.6807740576035
 31
0.0
  0
LINE
  5
2FF3
330
1F
100
AcDbEntity
  8
想像線
100
AcDbLine
 10
270.5923372384745
 20
108.6807740576035
 30
0.0
 11
327.5923372384745
 21
108.6807740576035
 31
0.0
  0
LINE
  5
2FF4
330
1F
100
AcDbEntity
  8
想像線
100
AcDbLine
 10
270.5923372384745
 20
103.6807740576035
 30
0.0
 11
327.5923372384745
 21
103.6807740576035
 31
0.0
  0
DIMENSION
  5
2FF5
330
1F
100
AcDbEntity
  8
寸法線
100
AcDbDimension
  2
*D18
 10
230.184848521925
 20
217.9920019727508
 30
0.0
 11
146.0457318895999
 21
221.4920019727508
 31
0.0
 70
    32
  1
165
 71
     5
 42
168.2782332646501
  3
sunpo
100
AcDbAlignedDimension
 13
61.90661525727481
 23
101.466259900917
 33
0.0
 14
230.184848521925
 24
101.466259900917
 34
0.0
100
AcDbRotatedDimension
1001
ACAD
1000
DSTYLE
1002
{
1070
    40
1040
1.0
1002
}
  0
DIMENSION
  5
300B
330
1F
100
AcDbEntity
  8
寸法線
100
AcDbDimension
  2
*D19
 10
61.90661525727481
 20
36.00482058376037
 30
0.0
 11
97.54371527184517
 21
177.8121152646876
 31
0.0
 70
    34
 71
     5
 42
1.055687981916016
  3
sunpo
100
AcDb2LineAngularDimension
 13
189.4627597987024
 23
188.8951576578448
 33
0.0
 14
87.40866415333263
 24
131.1239008746827
 34
0.0
 15
61.90661525727481
 25
101.466259900917
 35
0.0
 16
105.4279535817385
 26
167.9620636119589
 36
0.0
1001
ACAD
1000
DSTYLE
1002
{
1070
    40
1040
1.0
1002
}
  0
DIMENSION
  5
3019
330
1F
100
AcDbEntity
  8
寸法線
100
AcDbDimension
  2
*D20
 10
212.9892154454438
 20
201.4517580457909
 30
0.0
 11
207.0485583694401
 21
202.3966472609423
 31
0.0
 70
    33
  1
10
 71
     5
 42
9.784522905810376
  3
sunpo
100
AcDbAlignedDimension
 13
217.0543491240703
 23
171.4180189298701
 33
0.0
 14
225.8075710820917
 24
175.790431747519
 34
0.0
1001
ACAD
1000
DSTYLE
1002
{
1070
    40
1040
1.0
1002
}
  0
DIMENSION
  5
3030
330
1F
100
AcDbEntity
  8
寸法線
100
AcDbDimension
  2
*D21
 10
209.8760034926783
 20
116.5888412718913
 30
0.0
 11
166.2799451018313
 21
120.0893333978756
 31
0.0
 70
    32
  1
8.2
 71
     5
 42
87.19211678169404
  3
sunpo
100
AcDbAlignedDimension
 13
122.6838867109843
 23
123.8478814830566
 33
0.0
 14
209.8760034926783
 24
125.1677073510293
 34
0.0
100
AcDbRotatedDimension
1001
ACAD
1000
DSTYLE
1002
{
1070
    40
1040
1.0
1002
}
  0
DIMENSION
  5
3046
330
1F
100
AcDbEntity
  8
寸法線
100
AcDbDimension
  2
*D22
 10
157.5049024324045
 20
81.12217872732026
 30
0.0
 11
139.6899743834308
 21
84.62217872732026
 31
0.0
 70
    32
  1
35
 71
     5
 42
35.62985609794759
  3
sunpo
100
AcDbAlignedDimension
 13
121.875046334457
 23
77.16710392576601
 33
0.0
 14
157.5049024324045
 24
76.6020930924949
 34
0.0
100
AcDbRotatedDimension
1001
ACAD
1000
DSTYLE
1002
{
1070
    40
1040
1.0
1002
}
  0
TEXT
  5
3130
330
1F
100
AcDbEntity
  8
文字
100
AcDbText
 10
365.9318612758383
 20
-36.31868189582676
 30
0.0
 40
4.799999999999999
  1
JAN 4562182302052
 51
15.0
  7
OKANO
100
AcDbText
  0
TEXT
  5
3145
330
1F
100
AcDbEntity
  8
文字
100
AcDbText
 10
249.25555828143
 20
14.78440727081863
 30
0.0
 40
8.0
  1
勾配は、柄(ﾂｶ）の長さと
 51
15.0
  7
OKANO
100
AcDbText
  0
TEXT
  5
3146
330
1F
100
AcDbEntity
  8
文字
100
AcDbText
 10
249.25555828143
 20
1.943290899029079
 30
0.0
 40
8.0
  1
梁(ﾊﾘ）の長さにより自由
 51
15.0
  7
OKANO
100
AcDbText
  0
TEXT
  5
3147
330
1F
100
AcDbEntity
  8
文字
100
AcDbText
 10
249.25555828143
 20
-10.89782547276058
 30
0.0
 40
8.0
  1
設定出来ます。
 51
15.0
  7
OKANO
100
AcDbText
  0
XLINE
  5
315A
330
1F
100
AcDbEntity
  8
構築線
100
AcDbXline
 10
91.98634842128219
 20
101.0048205837603
 30
0.0
 11
0.9998414236931264
 21
0.0178080730934702
 31
0.0
  0
XLINE
  5
315B
330
1F
100
AcDbEntity
  8
構築線
100
AcDbXline
 10
91.98634842128219
 20
101.0048205837603
 30
0.0
 11
0.0
 21
-1.0
 31
0.0
  0
XLINE
  5
315C
330
1F
100
AcDbEntity
  8
構築線
100
AcDbXline
 10
161.3606732332905
 20
-30.02448318897587
 30
0.0
 11
0.0
 21
-1.0
 31
0.0
  0
XLINE
  5
315D
330
1F
100
AcDbEntity
  8
構築線
100
AcDbXline
 10
161.3606732332905
 20
-30.02448318897587
 30
0.0
 11
-1.0
 21
0.0
 31
0.0
  0
XLINE
  5
315E
330
1F
100
AcDbEntity
  8
構築線
100
AcDbXline
 10
382.5923372384745
 20
116.3562705112068
 30
0.0
 11
0.0
 21
1.0
 31
0.0
  0
XLINE
  5
3160
330
1F
100
AcDbEntity
  8
構築線
100
AcDbXline
 10
382.5923372384745
 20
116.3562705112068
 30
0.0
 11
0.0
 21
-1.0
 31
0.0
  0
VIEWPORT
  5
2E
330
1B
100
AcDbEntity
 67
     1
  8
0
100
AcDbViewport
 10
350.0559082104854
 20
147.3208973234506
 30
0.0
 40
1014.551335784855
 41
515.2937237600637
 68
     2
 69
     1
 12
350.0559082104854
 22
147.3208973234506
 13
0.0
 23
0.0
 14
10.0
 24
10.0
 15
10.0
 25
10.0
 16
0.0
 26
0.0
 36
1.0
 17
0.0
 27
0.0
 37
0.0
 42
50.0
 43
0.0
 44
0.0
 45
515.2937237600637
 50
0.0
 51
0.0
 72
   100
 90
    32800
  1

281
     0
 71
     1
 74
     0
110
0.0
120
0.0
130
0.0
111
1.0
121
0.0
131
0.0
112
0.0
122
1.0
132
0.0
 79
     0
146
0.0
  0
VIEWPORT
  5
30
330
1B
100
AcDbEntity
 67
     1
  8
70-0-CON
100
AcDbViewport
 10
141.8594093064315
 20
100.3480256368386
 30
0.0
 40
261.6199023344245
 41
192.6196987113174
 68
     1
 69
     2
 12
244.1429707351933
 22
78.49491662406467
 13
0.0
 23
0.0
 14
5.0
 24
5.0
 15
10.0
 25
10.0
 16
0.0
 26
0.0
 36
1.0
 17
0.0
 27
0.0
 37
0.0
 42
50.0
 43
0.0
 44
0.0
 45
322.671754908987
 50
0.0
 51
0.0
 72
   100
 90
    32864
  1

281
     0
 71
     1
 74
     0
110
0.0
120
0.0
130
0.0
111
1.0
121
0.0
131
0.0
112
0.0
122
1.0
132
0.0
 79
     0
146
0.0
  0
LWPOLYLINE
  5
45
330
1B
100
AcDbEntity
 67
     1
  8
50-0-CON
100
AcDbPolyline
 90
        4
 70
     1
 43
0.0
 10
11.04945813921926
 20
4.038176281179858
 10
272.2125713060605
 20
4.033520706629644
 10
273.4987754093466
 20
195.9297862125246
 10
11.04945813921926
 20
196.6578749924973
  0
LINE
  5
4A
330
1B
100
AcDbEntity
 67
     1
  8
50-0-CON
100
AcDbLine
 10
10.38768783662635
 20
100.3480256368386
 30
0.0
 11
-4.391850629656119
 21
100.3480256368386
 31
0.0
  0
LINE
  5
4B
330
1B
100
AcDbEntity
 67
     1
  8
50-0-CON
100
AcDbLine
 10
141.8594093064315
 20
197.098652626247
 30
0.0
 11
141.8594093064315
 21
202.387980773708
 31
0.0
  0
LINE
  5
4C
330
1B
100
AcDbEntity
 67
     1
  8
50-0-CON
100
AcDbLine
 10
272.4487699456857
 20
100.7888032705883
 30
0.0
 11
278.8458837249377
 21
100.7888032705883
 31
0.0
  0
LINE
  5
4D
330
1B
100
AcDbEntity
 67
     1
  8
50-0-CON
100
AcDbLine
 10
140.9770484758805
 20
4.038176281179858
 30
0.0
 11
140.9770484758805
 21
-3.455038652015446
 31
0.0
  0
ENDSEC
  0
SECTION
  2
OBJECTS
  0
DICTIONARY
  5
C
330
0
100
AcDbDictionary
281
     1
  3
ACAD_GROUP
350
D
  3
ACAD_LAYOUT
350
1A
  3
ACAD_MLINESTYLE
350
17
  3
ACAD_PLOTSETTINGS
350
19
  3
ACAD_PLOTSTYLENAME
350
E
  3
AcadDim
350
13D0
  3
AcDbVariableDictionary
350
6AD
  3
DWGPROPS
350
30F
  0
DICTIONARY
  5
D
102
{ACAD_REACTORS
330
C
102
}
330
C
100
AcDbDictionary
281
     1
  0
DICTIONARY
  5
1A
102
{ACAD_REACTORS
330
C
102
}
330
C
100
AcDbDictionary
281
     1
  3
A4
350
1E
  3
Model
350
22
  0
DICTIONARY
  5
17
102
{ACAD_REACTORS
330
C
102
}
330
C
100
AcDbDictionary
281
     1
  3
Standard
350
18
  0
DICTIONARY
  5
19
102
{ACAD_REACTORS
330
C
102
}
330
C
100
AcDbDictionary
281
     1
  0
ACDBDICTIONARYWDFLT
  5
E
102
{ACAD_REACTORS
330
C
102
}
330
C
100
AcDbDictionary
281
     1
  3
Normal
350
F
100
AcDbDictionaryWithDefault
340
F
  0
XRECORD
  5
13D0
102
{ACAD_REACTORS
330
C
102
}
330
C
100
AcDbXrecord
280
     1
 90
   990106
  3

 60
     0
 61
     0
 62
     1
 63
     3
 64
     0
 65
     0
 66
     0
 67
     3
 68
     1
 69
     0
 70
     0
 71
     0
 72
     0
 40
0.0
170
     0
340
0
  0
DICTIONARY
  5
6AD
102
{ACAD_REACTORS
330
C
102
}
330
C
100
AcDbDictionary
281
     1
  3
SORTENTS
350
6AE
  0
XRECORD
  5
30F
102
{ACAD_REACTORS
330
C
102
}
330
C
100
AcDbXrecord
280
     1
  1
DWGPROPS COOKIE
  2

  3

  4

  6

  7

  8

  9

300
=
301
=
302
=
303
=
304
=
305
=
306
=
307
=
308
=
309
=
 40
0.3303803125
 41
2452362.482225463
 42
2452370.969861285
  1

 90
        0
  0
LAYOUT
  5
1E
102
{ACAD_REACTORS
330
1A
102
}
330
1A
100
AcDbPlotSettings
  1

  2
EPSON PM-920C
  4
A4
  6

 40
3.757083177566528
 41
14.7637300491333
 42
3.757080078125
 43
3.757080078125
 44
209.9733276367187
 45
296.9683227539062
 46
0.0
 47
0.0
 48
0.0
 49
0.0
140
0.0
141
0.0
142
1.0
143
1.0
 70
   688
 72
     1
 73
     1
 74
     5
  7
joint.ctb
 75
    16
147
1.0
148
0.0
149
0.0
100
AcDbLayout
  1
A4
 70
     1
 71
     1
 10
-3.757080078125
 20
-3.757083177566528
 11
293.2112426757812
 21
206.2162444591522
 12
0.0
 22
0.0
 32
0.0
 14
-4.391850629656119
 24
-3.455038652015446
 34
0.0
 15
278.8458837249377
 25
202.387980773708
 35
0.0
146
0.0
 13
0.0
 23
0.0
 33
0.0
 16
1.0
 26
0.0
 36
0.0
 17
0.0
 27
1.0
 37
0.0
 76
     0
330
1B
331
30
  0
LAYOUT
  5
22
102
{ACAD_REACTORS
330
1A
102
}
330
1A
100
AcDbPlotSettings
  1

  2
EPSON PM-920C
  4
A4
  6

 40
3.757083177566528
 41
14.7637300491333
 42
3.757080078125
 43
3.757080078125
 44
209.9733276367187
 45
296.9683227539062
 46
0.0
 47
0.0
 48
0.0
 49
0.0
140
0.0
141
0.0
142
1.0
143
1.0
 70
 11952
 72
     1
 73
     1
 74
     0
  7

 75
     0
147
1.0
148
-45.64199848979289
149
-84.48806419330498
100
AcDbLayout
  1
Model
 70
     1
 71
     0
 10
0.0
 20
0.0
 11
12.0
 21
9.0
 12
0.0
 22
0.0
 32
0.0
 14
0.0
 24
0.0
 34
0.0
 15
0.0
 25
0.0
 35
0.0
146
0.0
 13
0.0
 23
0.0
 33
0.0
 16
1.0
 26
0.0
 36
0.0
 17
0.0
 27
1.0
 37
0.0
 76
     0
330
1F
  0
MLINESTYLE
  5
18
102
{ACAD_REACTORS
330
17
102
}
330
17
100
AcDbMlineStyle
  2
STANDARD
 70
     0
  3

 62
   256
 51
90.0
 52
90.0
 71
     2
 49
0.5
 62
   256
  6
BYLAYER
 49
-0.5
 62
   256
  6
BYLAYER
  0
ACDBPLACEHOLDER
  5
F
102
{ACAD_REACTORS
330
E
102
}
330
E
  0
DICTIONARYVAR
  5
6AE
102
{ACAD_REACTORS
330
6AD
102
}
330
6AD
100
DictionaryVariables
280
     0
  1
96
  0
ENDSEC
  0
EOF
