  0
SECTION
  2
HEADER
  9
$ACADVER
  1
AC1015
  9
$ACADMAINTVER
 70
     6
  9
$DWGCODEPAGE
  3
ANSI_932
  9
$INSBASE
 10
0.0
 20
0.0
 30
0.0
  9
$EXTMIN
 10
7.505480681278839
 20
-40.60771966381378
 30
-0.00000001
  9
$EXTMAX
 10
385.3654071024951
 20
244.2485208023068
 30
0.00000001
  9
$LIMMIN
 10
0.0
 20
0.0
  9
$LIMMAX
 10
420.0
 20
297.0
  9
$ORTHOMODE
 70
     1
  9
$REGENMODE
 70
     1
  9
$FILLMODE
 70
     1
  9
$QTEXTMODE
 70
     0
  9
$MIRRTEXT
 70
     1
  9
$LTSCALE
 40
1.0
  9
$ATTMODE
 70
     1
  9
$TEXTSIZE
 40
5.0
  9
$TRACEWID
 40
1.0
  9
$TEXTSTYLE
  7
OKANO
  9
$CLAYER
  8
太線
  9
$CELTYPE
  6
ByLayer
  9
$CECOLOR
 62
   256
  9
$CELTSCALE
 40
1.0
  9
$DISPSILH
 70
     0
  9
$DIMSCALE
 40
0.0
  9
$DIMASZ
 40
3.0
  9
$DIMEXO
 40
2.0
  9
$DIMDLI
 40
8.0
  9
$DIMRND
 40
0.0
  9
$DIMDLE
 40
0.0
  9
$DIMEXE
 40
3.0
  9
$DIMTP
 40
0.0
  9
$DIMTM
 40
0.0
  9
$DIMTXT
 40
5.0
  9
$DIMCEN
 40
2.5
  9
$DIMTSZ
 40
0.0
  9
$DIMTOL
 70
     0
  9
$DIMLIM
 70
     0
  9
$DIMTIH
 70
     0
  9
$DIMTOH
 70
     0
  9
$DIMSE1
 70
     0
  9
$DIMSE2
 70
     0
  9
$DIMTAD
 70
     1
  9
$DIMZIN
 70
     8
  9
$DIMBLK
  1
Closed
  9
$DIMASO
 70
     1
  9
$DIMSHO
 70
     1
  9
$DIMPOST
  1

  9
$DIMAPOST
  1

  9
$DIMALT
 70
     0
  9
$DIMALTD
 70
     3
  9
$DIMALTF
 40
0.03937007874016
  9
$DIMLFAC
 40
1.0
  9
$DIMTOFL
 70
     1
  9
$DIMTVP
 40
0.0
  9
$DIMTIX
 70
     0
  9
$DIMSOXD
 70
     0
  9
$DIMSAH
 70
     0
  9
$DIMBLK1
  1

  9
$DIMBLK2
  1

  9
$DIMSTYLE
  2
sunpo
  9
$DIMCLRD
 70
     0
  9
$DIMCLRE
 70
     0
  9
$DIMCLRT
 70
     0
  9
$DIMTFAC
 40
1.0
  9
$DIMGAP
 40
1.0
  9
$DIMJUST
 70
     0
  9
$DIMSD1
 70
     0
  9
$DIMSD2
 70
     0
  9
$DIMTOLJ
 70
     0
  9
$DIMTZIN
 70
     8
  9
$DIMALTZ
 70
     0
  9
$DIMALTTZ
 70
     0
  9
$DIMUPT
 70
     0
  9
$DIMDEC
 70
     2
  9
$DIMTDEC
 70
     2
  9
$DIMALTU
 70
     2
  9
$DIMALTTD
 70
     3
  9
$DIMTXSTY
  7
OKANO
  9
$DIMAUNIT
 70
     0
  9
$DIMADEC
 70
     0
  9
$DIMALTRND
 40
0.0
  9
$DIMAZIN
 70
     0
  9
$DIMDSEP
 70
    46
  9
$DIMATFIT
 70
     3
  9
$DIMFRAC
 70
     0
  9
$DIMLDRBLK
  1
Closed
  9
$DIMLUNIT
 70
     2
  9
$DIMLWD
 70
    -2
  9
$DIMLWE
 70
    -2
  9
$DIMTMOVE
 70
     0
  9
$LUNITS
 70
     2
  9
$LUPREC
 70
     2
  9
$SKETCHINC
 40
1.0
  9
$FILLETRAD
 40
0.5
  9
$AUNITS
 70
     0
  9
$AUPREC
 70
     0
  9
$MENU
  1
.
  9
$ELEVATION
 40
0.0
  9
$PELEVATION
 40
0.0
  9
$THICKNESS
 40
0.0
  9
$LIMCHECK
 70
     0
  9
$CHAMFERA
 40
10.0
  9
$CHAMFERB
 40
10.0
  9
$CHAMFERC
 40
20.0
  9
$CHAMFERD
 40
0.0
  9
$SKPOLY
 70
     0
  9
$TDCREATE
 40
2452362.482225463
  9
$TDUCREATE
 40
2452362.107225463
  9
$TDUPDATE
 40
2455964.446831759
  9
$TDUUPDATE
 40
2455964.071831759
  9
$TDINDWG
 40
2.1303381829
  9
$TDUSRTIMER
 40
2.1303381829
  9
$USRTIMER
 70
     1
  9
$ANGBASE
 50
0.0
  9
$ANGDIR
 70
     0
  9
$PDMODE
 70
     0
  9
$PDSIZE
 40
0.0
  9
$PLINEWID
 40
0.0
  9
$SPLFRAME
 70
     0
  9
$SPLINETYPE
 70
     6
  9
$SPLINESEGS
 70
     8
  9
$HANDSEED
  5
31B4
  9
$SURFTAB1
 70
     6
  9
$SURFTAB2
 70
     6
  9
$SURFTYPE
 70
     6
  9
$SURFU
 70
     6
  9
$SURFV
 70
     6
  9
$UCSBASE
  2

  9
$UCSNAME
  2

  9
$UCSORG
 10
0.0
 20
0.0
 30
0.0
  9
$UCSXDIR
 10
1.0
 20
0.0
 30
0.0
  9
$UCSYDIR
 10
0.0
 20
1.0
 30
0.0
  9
$UCSORTHOREF
  2

  9
$UCSORTHOVIEW
 70
     0
  9
$UCSORGTOP
 10
0.0
 20
0.0
 30
0.0
  9
$UCSORGBOTTOM
 10
0.0
 20
0.0
 30
0.0
  9
$UCSORGLEFT
 10
0.0
 20
0.0
 30
0.0
  9
$UCSORGRIGHT
 10
0.0
 20
0.0
 30
0.0
  9
$UCSORGFRONT
 10
0.0
 20
0.0
 30
0.0
  9
$UCSORGBACK
 10
0.0
 20
0.0
 30
0.0
  9
$PUCSBASE
  2

  9
$PUCSNAME
  2

  9
$PUCSORG
 10
0.0
 20
0.0
 30
0.0
  9
$PUCSXDIR
 10
1.0
 20
0.0
 30
0.0
  9
$PUCSYDIR
 10
0.0
 20
1.0
 30
0.0
  9
$PUCSORTHOREF
  2

  9
$PUCSORTHOVIEW
 70
     0
  9
$PUCSORGTOP
 10
0.0
 20
0.0
 30
0.0
  9
$PUCSORGBOTTOM
 10
0.0
 20
0.0
 30
0.0
  9
$PUCSORGLEFT
 10
0.0
 20
0.0
 30
0.0
  9
$PUCSORGRIGHT
 10
0.0
 20
0.0
 30
0.0
  9
$PUCSORGFRONT
 10
0.0
 20
0.0
 30
0.0
  9
$PUCSORGBACK
 10
0.0
 20
0.0
 30
0.0
  9
$USERI1
 70
     0
  9
$USERI2
 70
     0
  9
$USERI3
 70
     0
  9
$USERI4
 70
     0
  9
$USERI5
 70
     0
  9
$USERR1
 40
0.0
  9
$USERR2
 40
0.0
  9
$USERR3
 40
0.0
  9
$USERR4
 40
0.0
  9
$USERR5
 40
0.0
  9
$WORLDVIEW
 70
     1
  9
$SHADEDGE
 70
     3
  9
$SHADEDIF
 70
    70
  9
$TILEMODE
 70
     0
  9
$MAXACTVP
 70
    64
  9
$PINSBASE
 10
0.0
 20
0.0
 30
0.0
  9
$PLIMCHECK
 70
     0
  9
$PEXTMIN
 10
-4.391850629656119
 20
-3.455038652015446
 30
0.0
  9
$PEXTMAX
 10
278.8458837249377
 20
202.387980773708
 30
0.0
  9
$PLIMMIN
 10
-3.757080078125
 20
-3.757083177566528
  9
$PLIMMAX
 10
293.2112426757812
 20
206.2162444591522
  9
$UNITMODE
 70
     0
  9
$VISRETAIN
 70
     1
  9
$PLINEGEN
 70
     0
  9
$PSLTSCALE
 70
     1
  9
$TREEDEPTH
 70
  3020
  9
$CMLSTYLE
  2
Standard
  9
$CMLJUST
 70
     0
  9
$CMLSCALE
 40
20.0
  9
$PROXYGRAPHICS
 70
     1
  9
$MEASUREMENT
 70
     1
  9
$CELWEIGHT
370
    -1
  9
$ENDCAPS
280
     0
  9
$JOINSTYLE
280
     0
  9
$LWDISPLAY
290
     0
  9
$INSUNITS
 70
     4
  9
$HYPERLINKBASE
  1

  9
$STYLESHEET
  1

  9
$XEDIT
290
     1
  9
$CEPSNTYPE
380
     0
  9
$PSTYLEMODE
290
     1
  9
$FINGERPRINTGUID
  2
{FF7F33C3-4233-11D6-AEE0-0000F45FD7F4}
  9
$VERSIONGUID
  2
{8BF28307-AD01-4EBA-AF8C-7AFCD541066A}
  9
$EXTNAMES
290
     1
  9
$PSVPSCALE
 40
0.0
  9
$OLESTARTUP
290
     0
  0
ENDSEC
  0
SECTION
  2
CLASSES
  0
CLASS
  1
ACDBDICTIONARYWDFLT
  2
AcDbDictionaryWithDefault
  3
AutoCAD 2000
 90
        0
280
     0
281
     0
  0
CLASS
  1
ACDBPLACEHOLDER
  2
AcDbPlaceHolder
  3
AutoCAD 2000
 90
        0
280
     0
281
     0
  0
CLASS
  1
LAYOUT
  2
AcDbLayout
  3
AutoCAD 2000
 90
        0
280
     0
281
     0
  0
CLASS
  1
DICTIONARYVAR
  2
AcDbDictionaryVar
  3
AutoCAD 2000
 90
        0
280
     0
281
     0
  0
ENDSEC
  0
SECTION
  2
TABLES
  0
TABLE
  2
VPORT
  5
8
330
0
100
AcDbSymbolTable
 70
     2
  0
VPORT
  5
31B3
330
8
100
AcDbSymbolTableRecord
100
AcDbViewportTableRecord
  2
*Active
 70
     0
 10
0.0
 20
0.0
 11
1.0
 21
1.0
 12
245.1495907984826
 22
117.2899560245269
 13
0.0
 23
0.0
 14
5.0
 24
5.0
 15
10.0
 25
10.0
 16
0.0
 26
0.0
 36
1.0
 17
0.0
 27
0.0
 37
0.0
 40
471.1545119654963
 41
1.968879668049792
 42
50.0
 43
0.0
 44
0.0
 50
0.0
 51
0.0
 71
     0
 72
   100
 73
     1
 74
     3
 75
     0
 76
     0
 77
     0
 78
     0
281
     0
 65
     1
110
0.0
120
0.0
130
0.0
111
1.0
121
0.0
131
0.0
112
0.0
122
1.0
132
0.0
 79
     0
146
0.0
  0
ENDTAB
  0
TABLE
  2
LTYPE
  5
5
330
0
100
AcDbSymbolTable
 70
     5
  0
LTYPE
  5
14
330
5
100
AcDbSymbolTableRecord
100
AcDbLinetypeTableRecord
  2
ByBlock
 70
     0
  3

 72
    65
 73
     0
 40
0.0
  0
LTYPE
  5
15
330
5
100
AcDbSymbolTableRecord
100
AcDbLinetypeTableRecord
  2
ByLayer
 70
     0
  3

 72
    65
 73
     0
 40
0.0
  0
LTYPE
  5
16
330
5
100
AcDbSymbolTableRecord
100
AcDbLinetypeTableRecord
  2
Continuous
 70
     0
  3
Solid line
 72
    65
 73
     0
 40
0.0
  0
LTYPE
  5
33
330
5
100
AcDbSymbolTableRecord
100
AcDbLinetypeTableRecord
  2
DASHED2
 70
     0
  3
Dashed (.5x) _ _ _ _ _ _ _ _ _ _ _ _ _ _ _ _ _
 72
    65
 73
     2
 40
9.524999999999998
 49
6.349999999999999
 74
     0
 49
-3.174999999999999
 74
     0
  0
LTYPE
  5
34
330
5
100
AcDbSymbolTableRecord
100
AcDbLinetypeTableRecord
  2
CENTER2
 70
     0
  3
Center (.5x) ___ _ ___ _ ___ _ ___ _ ___ _ ___
 72
    65
 73
     4
 40
28.57499999999999
 49
19.05
 74
     0
 49
-3.174999999999999
 74
     0
 49
3.174999999999999
 74
     0
 49
-3.174999999999999
 74
     0
  0
LTYPE
  5
35
330
5
100
AcDbSymbolTableRecord
100
AcDbLinetypeTableRecord
  2
PHANTOM2
 70
     0
  3
Phantom (.5x) ___ _ _ ___ _ _ ___ _ _ ___ _ _
 72
    65
 73
     6
 40
31.75
 49
15.875
 74
     0
 49
-3.174999999999999
 74
     0
 49
3.174999999999999
 74
     0
 49
-3.174999999999999
 74
     0
 49
3.174999999999999
 74
     0
 49
-3.174999999999999
 74
     0
  0
LTYPE
  5
36
330
5
100
AcDbSymbolTableRecord
100
AcDbLinetypeTableRecord
  2
HIDDEN2
 70
     0
  3
Hidden (.5x) _ _ _ _ _ _ _ _ _ _ _ _ _ _ _ _ _
 72
    65
 73
     2
 40
4.762499999999999
 49
3.174999999999999
 74
     0
 49
-1.587499999999999
 74
     0
  0
ENDTAB
  0
TABLE
  2
LAYER
  5
2
330
0
100
AcDbSymbolTable
 70
    13
  0
LAYER
  5
10
330
2
100
AcDbSymbolTableRecord
100
AcDbLayerTableRecord
  2
0
 70
     0
 62
     7
  6
Continuous
370
    -3
390
F
  0
LAYER
  5
40
330
2
100
AcDbSymbolTableRecord
100
AcDbLayerTableRecord
  2
50-0-CON
 70
     0
 62
     4
  6
Continuous
370
    50
390
F
  0
LAYER
  5
41
330
2
100
AcDbSymbolTableRecord
100
AcDbLayerTableRecord
  2
70-0-CON
 70
     0
 62
   202
  6
Continuous
370
    70
390
F
  0
LAYER
  5
4E
330
2
100
AcDbSymbolTableRecord
100
AcDbLayerTableRecord
  2
極太線
 70
     0
 62
     7
  6
Continuous
370
    70
390
F
  0
LAYER
  5
4F
330
2
100
AcDbSymbolTableRecord
100
AcDbLayerTableRecord
  2
細線
 70
     0
 62
     8
  6
Continuous
370
    18
390
F
  0
LAYER
  5
AB
330
2
100
AcDbSymbolTableRecord
100
AcDbLayerTableRecord
  2
構築線
 70
     0
 62
    -2
  6
Continuous
290
     0
370
    18
390
F
  0
LAYER
  5
B8
330
2
100
AcDbSymbolTableRecord
100
AcDbLayerTableRecord
  2
太線
 70
     0
 62
     7
  6
Continuous
370
    35
390
F
  0
LAYER
  5
B9
330
2
100
AcDbSymbolTableRecord
100
AcDbLayerTableRecord
  2
寸法線
 70
     0
 62
     5
  6
Continuous
370
    18
390
F
  0
LAYER
  5
BA
330
2
100
AcDbSymbolTableRecord
100
AcDbLayerTableRecord
  2
破線
 70
     0
 62
     8
  6
HIDDEN2
370
    18
390
F
  0
LAYER
  5
BB
330
2
100
AcDbSymbolTableRecord
100
AcDbLayerTableRecord
  2
中心線
 70
     0
 62
     1
  6
CENTER2
370
    18
390
F
  0
LAYER
  5
BC
330
2
100
AcDbSymbolTableRecord
100
AcDbLayerTableRecord
  2
想像線
 70
     0
 62
     8
  6
PHANTOM2
370
    18
390
F
  0
LAYER
  5
BD
330
2
100
AcDbSymbolTableRecord
100
AcDbLayerTableRecord
  2
文字
 70
     0
 62
     7
  6
Continuous
370
    18
390
F
  0
LAYER
  5
180
330
2
100
AcDbSymbolTableRecord
100
AcDbLayerTableRecord
  2
Defpoints
 70
     0
 62
     7
  6
Continuous
290
     0
370
    -3
390
F
  0
ENDTAB
  0
TABLE
  2
STYLE
  5
3
330
0
100
AcDbSymbolTable
 70
     3
  0
STYLE
  5
11
330
3
100
AcDbSymbolTableRecord
100
AcDbTextStyleTableRecord
  2
Standard
 70
     0
 40
0.0
 41
1.0
 50
0.0
 71
     0
 42
3.0
  3
txt
  4

  0
STYLE
  5
32
330
3
100
AcDbSymbolTableRecord
100
AcDbTextStyleTableRecord
  2

 70
     1
 40
0.0
 41
1.0
 50
0.0
 71
     0
 42
2.5
  3
ltypeshp.shx
  4

  0
STYLE
  5
50
330
3
100
AcDbSymbolTableRecord
100
AcDbTextStyleTableRecord
  2
OKANO
 70
     0
 40
0.0
 41
1.0
 50
15.0
 71
     0
 42
5.0
  3
isocp.shx
  4
bigfont.shx
  0
ENDTAB
  0
TABLE
  2
VIEW
  5
6
330
0
100
AcDbSymbolTable
 70
     0
  0
ENDTAB
  0
TABLE
  2
UCS
  5
7
330
0
100
AcDbSymbolTable
 70
     0
  0
ENDTAB
  0
TABLE
  2
APPID
  5
9
330
0
100
AcDbSymbolTable
 70
     1
  0
APPID
  5
12
330
9
100
AcDbSymbolTableRecord
100
AcDbRegAppTableRecord
  2
ACAD
 70
     0
  0
ENDTAB
  0
TABLE
  2
DIMSTYLE
  5
A
330
0
100
AcDbSymbolTable
 70
     2
100
AcDbDimStyleTable
 71
     2
340
A2
340
27
  0
DIMSTYLE
105
27
330
A
100
AcDbSymbolTableRecord
100
AcDbDimStyleTableRecord
  2
ISO-25
 70
     0
 41
2.5
 42
0.625
 43
3.75
 44
1.25
 73
     0
 74
     0
 77
     1
 78
     8
140
2.5
141
2.5
143
0.03937007874016
147
0.625
171
     3
172
     1
271
     2
272
     2
274
     3
283
     0
284
     8
340
11
  0
DIMSTYLE
105
A2
102
{ACAD_REACTORS
330
2B3D
330
2B62
330
2D92
330
2DA0
330
2DAE
330
2DC8
330
2DE7
330
2E07
330
2F84
330
3017
330
300A
330
2FE3
330
2FEB
330
2FF7
330
2FF8
330
3006
330
300D
330
2FE2
330
2FE1
330
3014
330
2FF9
330
2D6B
102
}
330
A
100
AcDbSymbolTableRecord
100
AcDbDimStyleTableRecord
  2
sunpo
 70
     0
 40
0.0
 41
3.0
 42
2.0
 43
8.0
 44
3.0
 73
     0
 74
     0
 77
     1
 78
     8
140
5.0
141
2.5
143
0.03937007874016
147
1.0
171
     3
172
     1
271
     2
272
     2
274
     3
283
     0
284
     8
340
50
341
9B
342
9B
  0
ENDTAB
  0
TABLE
  2
BLOCK_RECORD
  5
1
330
0
100
AcDbSymbolTable
 70
    24
  0
BLOCK_RECORD
  5
1F
330
1
100
AcDbSymbolTableRecord
100
AcDbBlockTableRecord
  2
*Model_Space
340
22
  0
BLOCK_RECORD
  5
1B
330
1
100
AcDbSymbolTableRecord
100
AcDbBlockTableRecord
  2
*Paper_Space
340
1E
  0
BLOCK_RECORD
  5
9B
330
1
100
AcDbSymbolTableRecord
100
AcDbBlockTableRecord
  2
_Closed
340
0
102
{BLKREFS
331
2B4D
331
2B4E
331
2B76
331
2B77
331
2D70
331
2D71
331
2D96
331
2D97
331
2DA4
331
2DA5
331
2DD8
331
2DD9
331
2DE1
331
2DE2
331
2DEC
331
2DED
331
2E17
331
2E18
331
2F95
331
2F96
331
3125
331
3126
331
312E
331
312F
331
3137
331
3138
331
3142
331
3143
331
314B
331
314C
331
3156
331
3157
331
3161
331
3162
331
316A
331
316B
331
3174
331
3175
331
317B
331
317C
331
3184
331
3185
331
318D
331
318E
102
}
  0
BLOCK_RECORD
  5
1510
330
1
100
AcDbSymbolTableRecord
100
AcDbBlockTableRecord
  2
A$C10A573AC
340
0
  0
BLOCK_RECORD
  5
2B3E
330
1
100
AcDbSymbolTableRecord
100
AcDbBlockTableRecord
  2
*D2
340
0
  0
BLOCK_RECORD
  5
2B63
330
1
100
AcDbSymbolTableRecord
100
AcDbBlockTableRecord
  2
*D3
340
0
  0
BLOCK_RECORD
  5
2D6C
330
1
100
AcDbSymbolTableRecord
100
AcDbBlockTableRecord
  2
*D4
340
0
  0
BLOCK_RECORD
  5
2D93
330
1
100
AcDbSymbolTableRecord
100
AcDbBlockTableRecord
  2
*D5
340
0
  0
BLOCK_RECORD
  5
2DA1
330
1
100
AcDbSymbolTableRecord
100
AcDbBlockTableRecord
  2
*D6
340
0
  0
BLOCK_RECORD
  5
2DAF
330
1
100
AcDbSymbolTableRecord
100
AcDbBlockTableRecord
  2
*D7
340
0
  0
BLOCK_RECORD
  5
2DC9
330
1
100
AcDbSymbolTableRecord
100
AcDbBlockTableRecord
  2
*D8
340
0
  0
BLOCK_RECORD
  5
2DE8
330
1
100
AcDbSymbolTableRecord
100
AcDbBlockTableRecord
  2
*D9
340
0
  0
BLOCK_RECORD
  5
2E08
330
1
100
AcDbSymbolTableRecord
100
AcDbBlockTableRecord
  2
*D10
340
0
  0
BLOCK_RECORD
  5
2F85
330
1
100
AcDbSymbolTableRecord
100
AcDbBlockTableRecord
  2
*D11
340
0
  0
BLOCK_RECORD
  5
301C
330
1
100
AcDbSymbolTableRecord
100
AcDbBlockTableRecord
  2
*D12
340
0
  0
BLOCK_RECORD
  5
3027
330
1
100
AcDbSymbolTableRecord
100
AcDbBlockTableRecord
  2
*D13
340
0
  0
BLOCK_RECORD
  5
3033
330
1
100
AcDbSymbolTableRecord
100
AcDbBlockTableRecord
  2
*D14
340
0
  0
BLOCK_RECORD
  5
303F
330
1
100
AcDbSymbolTableRecord
100
AcDbBlockTableRecord
  2
*D15
340
0
  0
BLOCK_RECORD
  5
304D
330
1
100
AcDbSymbolTableRecord
100
AcDbBlockTableRecord
  2
*D16
340
0
  0
BLOCK_RECORD
  5
3059
330
1
100
AcDbSymbolTableRecord
100
AcDbBlockTableRecord
  2
*D17
340
0
  0
BLOCK_RECORD
  5
3067
330
1
100
AcDbSymbolTableRecord
100
AcDbBlockTableRecord
  2
*D18
340
0
  0
BLOCK_RECORD
  5
3073
330
1
100
AcDbSymbolTableRecord
100
AcDbBlockTableRecord
  2
*D19
340
0
  0
BLOCK_RECORD
  5
307F
330
1
100
AcDbSymbolTableRecord
100
AcDbBlockTableRecord
  2
*D20
340
0
  0
BLOCK_RECORD
  5
308B
330
1
100
AcDbSymbolTableRecord
100
AcDbBlockTableRecord
  2
*D21
340
0
  0
BLOCK_RECORD
  5
3097
330
1
100
AcDbSymbolTableRecord
100
AcDbBlockTableRecord
  2
*D22
340
0
  0
BLOCK_RECORD
  5
30A3
330
1
100
AcDbSymbolTableRecord
100
AcDbBlockTableRecord
  2
*D23
340
0
  0
ENDTAB
  0
ENDSEC
  0
SECTION
  2
BLOCKS
  0
BLOCK
  5
20
330
1F
100
AcDbEntity
  8
0
100
AcDbBlockBegin
  2
*Model_Space
 70
     0
 10
0.0
 20
0.0
 30
0.0
  3
*Model_Space
  1

  0
ENDBLK
  5
21
330
1F
100
AcDbEntity
  8
0
100
AcDbBlockEnd
  0
BLOCK
  5
1C
330
1B
100
AcDbEntity
 67
     1
  8
0
100
AcDbBlockBegin
  2
*Paper_Space
 70
     0
 10
0.0
 20
0.0
 30
0.0
  3
*Paper_Space
  1

  0
ENDBLK
  5
1D
330
1B
100
AcDbEntity
 67
     1
  8
0
100
AcDbBlockEnd
  0
BLOCK
  5
A0
330
9B
100
AcDbEntity
  8
0
100
AcDbBlockBegin
  2
_Closed
 70
     0
 10
0.0
 20
0.0
 30
0.0
  3
_Closed
  1

  0
LINE
  5
9C
330
9B
100
AcDbEntity
  8
0
 62
     0
370
    -2
100
AcDbLine
 10
-1.0
 20
0.1666666666666666
 30
0.0
 11
0.0
 21
0.0
 31
0.0
  0
LINE
  5
9D
330
9B
100
AcDbEntity
  8
0
 62
     0
370
    -2
100
AcDbLine
 10
0.0
 20
0.0
 30
0.0
 11
-1.0
 21
-0.1666666666666666
 31
0.0
  0
LINE
  5
9E
330
9B
100
AcDbEntity
  8
0
 62
     0
370
    -2
100
AcDbLine
 10
-1.0
 20
0.1666666666666666
 30
0.0
 11
-1.0
 21
-0.1666666666666666
 31
0.0
  0
LINE
  5
9F
330
9B
100
AcDbEntity
  8
0
 62
     0
370
    -2
100
AcDbLine
 10
0.0
 20
0.0
 30
0.0
 11
-1.0
 21
0.0
 31
0.0
  0
ENDBLK
  5
A1
330
9B
100
AcDbEntity
  8
0
100
AcDbBlockEnd
  0
BLOCK
  5
155B
330
1510
100
AcDbEntity
  8
0
100
AcDbBlockBegin
  2
A$C10A573AC
 70
     0
 10
0.0
 20
0.0
 30
0.0
  3
A$C10A573AC
  1

  0
TEXT
  5
1511
330
1510
100
AcDbEntity
  8
文字
100
AcDbText
 10
0.9844302777919438
 20
5.224957122252135
 30
0.0
 40
3.0
  1
Materal : Steel.
 51
15.0
  7
OKANO
100
AcDbText
  0
TEXT
  5
1512
330
1510
100
AcDbEntity
  8
文字
100
AcDbText
 10
-0.1141909619694843
 20
0.7500001922403499
 30
0.0
 40
3.0
  1
Surface treatment : Electro galvanized.
 51
15.0
  7
OKANO
100
AcDbText
  0
TEXT
  5
1513
330
1510
100
AcDbEntity
  8
文字
100
AcDbText
 10
-0.4901926332574931
 20
9.159967445193728
 30
0.0
 40
3.0
  1
5 TORGUE SCREW  M5-6
 51
15.0
  7
OKANO
100
AcDbText
  0
TEXT
  5
1514
330
1510
100
AcDbEntity
  8
文字
100
AcDbText
 10
1.364713526390005
 20
78.88822913323082
 30
0.0
 40
3.0
  1
Special standard,
 51
15.0
  7
OKANO
100
AcDbText
  0
TEXT
  5
1515
330
1510
100
AcDbEntity
  8
文字
100
AcDbText
 10
92.88160823408942
 20
89.92753849837379
 30
0.0
 40
3.0
  1
Screw Type
 51
15.0
  7
OKANO
100
AcDbText
  0
LINE
  5
1516
330
1510
100
AcDbEntity
  8
太線
100
AcDbLine
 10
113.9464587597784
 20
81.93930390144641
 30
0.0
 11
112.4464587597784
 21
81.93930390144641
 31
0.0
  0
LINE
  5
1517
330
1510
100
AcDbEntity
  8
太線
100
AcDbLine
 10
112.4464587597784
 20
76.9393039014464
 30
0.0
 11
121.4644995438761
 21
76.9393039014464
 31
0.0
  0
TEXT
  5
1518
330
1510
100
AcDbEntity
  8
文字
100
AcDbText
 10
93.46068240437217
 20
77.96976862235396
 30
0.0
 40
2.0
  1
17-30
 51
15.0
  7
OKANO
100
AcDbText
  0
LINE
  5
1519
330
1510
100
AcDbEntity
  8
太線
100
AcDbLine
 10
111.9464587597784
 20
81.43930390144641
 30
0.0
 11
111.9464587597784
 21
77.4393039014464
 31
0.0
  0
LINE
  5
151A
330
1510
100
AcDbEntity
  8
太線
100
AcDbLine
 10
91.94645875977846
 20
81.43930390144641
 30
0.0
 11
91.94645875977846
 21
77.43930390144639
 31
0.0
  0
LINE
  5
151B
330
1510
100
AcDbEntity
  8
太線
100
AcDbLine
 10
101.9644995438761
 20
77.4393039014464
 30
0.0
 11
101.9644995438761
 21
81.43930390144641
 31
0.0
  0
LINE
  5
151C
330
1510
100
AcDbEntity
  8
太線
100
AcDbLine
 10
92.44645875977846
 20
76.9393039014464
 30
0.0
 11
101.4644995438761
 21
76.9393039014464
 31
0.0
  0
ARC
  5
151D
330
1510
100
AcDbEntity
  8
太線
100
AcDbCircle
 10
92.44645875977846
 20
77.43930390144639
 30
0.0
 40
0.5
100
AcDbArc
 50
180.0
 51
270.0
  0
ARC
  5
151E
330
1510
100
AcDbEntity
  8
太線
100
AcDbCircle
 10
101.4644995438761
 20
77.4393039014464
 30
0.0
 40
0.5
100
AcDbArc
 50
270.0
 51
0.0
  0
ARC
  5
151F
330
1510
100
AcDbEntity
  8
太線
100
AcDbCircle
 10
112.4464587597784
 20
77.4393039014464
 30
0.0
 40
0.5
100
AcDbArc
 50
180.0
 51
270.0
  0
LINE
  5
1520
330
1510
100
AcDbEntity
  8
想像線
100
AcDbLine
 10
93.94645875977847
 20
81.93930390144641
 30
0.0
 11
99.96449954387617
 21
81.93930390144641
 31
0.0
  0
LINE
  5
1521
330
1510
100
AcDbEntity
  8
極太線
100
AcDbLine
 10
96.38762957111168
 20
85.43930390144641
 30
0.0
 11
97.50528794844525
 21
85.43930390144641
 31
0.0
  0
CIRCLE
  5
1522
330
1510
100
AcDbEntity
  8
太線
100
AcDbCircle
 10
96.94645875977847
 20
85.43930390144641
 30
0.0
 40
0.5588291886667776
  0
LINE
  5
1523
330
1510
100
AcDbEntity
  8
太線
100
AcDbLine
 10
99.46449954387617
 20
86.93930390144641
 30
0.0
 11
94.44645875977846
 21
86.93930390144641
 31
0.0
  0
LINE
  5
1524
330
1510
100
AcDbEntity
  8
太線
100
AcDbLine
 10
93.94645875977847
 20
86.43930390144641
 30
0.0
 11
93.94645875977847
 21
81.93930390144641
 31
0.0
  0
ARC
  5
1525
330
1510
100
AcDbEntity
  8
太線
100
AcDbCircle
 10
92.44645875977846
 20
81.43930390144641
 30
0.0
 40
0.5
100
AcDbArc
 50
90.0
 51
180.0
  0
LINE
  5
1526
330
1510
100
AcDbEntity
  8
太線
100
AcDbLine
 10
93.94645875977847
 20
81.93930390144641
 30
0.0
 11
92.44645875977846
 21
81.93930390144641
 31
0.0
  0
ARC
  5
1527
330
1510
100
AcDbEntity
  8
太線
100
AcDbCircle
 10
94.44645875977846
 20
86.43930390144641
 30
0.0
 40
0.5
100
AcDbArc
 50
90.0
 51
180.0
  0
LINE
  5
1528
330
1510
100
AcDbEntity
  8
太線
100
AcDbLine
 10
99.96449954387617
 20
81.93930390144641
 30
0.0
 11
99.96449954387617
 21
86.43930390144641
 31
0.0
  0
LINE
  5
1529
330
1510
100
AcDbEntity
  8
太線
100
AcDbLine
 10
101.4644995438761
 20
81.93930390144641
 30
0.0
 11
99.96449954387617
 21
81.93930390144641
 31
0.0
  0
ARC
  5
152A
330
1510
100
AcDbEntity
  8
太線
100
AcDbCircle
 10
101.4644995438761
 20
81.43930390144641
 30
0.0
 40
0.5
100
AcDbArc
 50
0.0
 51
90.0
  0
ARC
  5
152B
330
1510
100
AcDbEntity
  8
太線
100
AcDbCircle
 10
99.46449954387617
 20
86.43930390144641
 30
0.0
 40
0.5
100
AcDbArc
 50
0.0
 51
90.0
  0
LINE
  5
152C
330
1510
100
AcDbEntity
  8
極太線
100
AcDbLine
 10
96.94645875977847
 20
85.99813309011318
 30
0.0
 11
96.94645875977847
 21
84.88047471277964
 31
0.0
  0
ARC
  5
152D
330
1510
100
AcDbEntity
  8
太線
100
AcDbCircle
 10
112.4464587597784
 20
81.43930390144641
 30
0.0
 40
0.5
100
AcDbArc
 50
90.0
 51
180.0
  0
TEXT
  5
152E
330
1510
100
AcDbEntity
  8
文字
100
AcDbText
 10
134.3819212586066
 20
78.16263579228063
 30
0.0
 40
2.0
  1
101
 51
15.0
  7
OKANO
100
AcDbText
  0
TEXT
  5
152F
330
1510
100
AcDbEntity
  8
文字
100
AcDbText
 10
113.3422276612066
 20
77.96976862235396
 30
0.0
 40
2.0
  1
38-83
 51
15.0
  7
OKANO
100
AcDbText
  0
LINE
  5
1530
330
1510
100
AcDbEntity
  8
太線
100
AcDbLine
 10
141.9825403279738
 20
77.4393039014464
 30
0.0
 11
141.9825403279738
 21
81.43930390144641
 31
0.0
  0
LINE
  5
1531
330
1510
100
AcDbEntity
  8
太線
100
AcDbLine
 10
131.9644995438761
 20
81.43930390144641
 30
0.0
 11
131.9644995438761
 21
77.4393039014464
 31
0.0
  0
LINE
  5
1532
330
1510
100
AcDbEntity
  8
太線
100
AcDbLine
 10
121.9644995438761
 20
77.4393039014464
 30
0.0
 11
121.9644995438761
 21
81.43930390144641
 31
0.0
  0
ARC
  5
1533
330
1510
100
AcDbEntity
  8
太線
100
AcDbCircle
 10
121.4644995438761
 20
77.4393039014464
 30
0.0
 40
0.5
100
AcDbArc
 50
270.0
 51
0.0
  0
LINE
  5
1534
330
1510
100
AcDbEntity
  8
太線
100
AcDbLine
 10
132.4644995438761
 20
76.9393039014464
 30
0.0
 11
141.4825403279738
 21
76.9393039014464
 31
0.0
  0
ARC
  5
1535
330
1510
100
AcDbEntity
  8
太線
100
AcDbCircle
 10
132.4644995438761
 20
77.4393039014464
 30
0.0
 40
0.5
100
AcDbArc
 50
180.0
 51
270.0
  0
ARC
  5
1536
330
1510
100
AcDbEntity
  8
太線
100
AcDbCircle
 10
141.4825403279738
 20
77.4393039014464
 30
0.0
 40
0.5
100
AcDbArc
 50
270.0
 51
0.0
  0
ARC
  5
1537
330
1510
100
AcDbEntity
  8
太線
100
AcDbCircle
 10
121.4644995438761
 20
81.43930390144641
 30
0.0
 40
0.5
100
AcDbArc
 50
0.0
 51
90.0
  0
LINE
  5
1538
330
1510
100
AcDbEntity
  8
太線
100
AcDbLine
 10
119.9644995438761
 20
81.93930390144641
 30
0.0
 11
119.9644995438761
 21
86.43930390144641
 31
0.0
  0
LINE
  5
1539
330
1510
100
AcDbEntity
  8
太線
100
AcDbLine
 10
113.9464587597784
 20
86.43930390144641
 30
0.0
 11
113.9464587597784
 21
81.93930390144641
 31
0.0
  0
LINE
  5
153A
330
1510
100
AcDbEntity
  8
想像線
100
AcDbLine
 10
113.9464587597784
 20
81.93930390144641
 30
0.0
 11
119.9644995438761
 21
81.93930390144641
 31
0.0
  0
LINE
  5
153B
330
1510
100
AcDbEntity
  8
太線
100
AcDbLine
 10
121.4644995438761
 20
81.93930390144641
 30
0.0
 11
119.9644995438761
 21
81.93930390144641
 31
0.0
  0
LINE
  5
153C
330
1510
100
AcDbEntity
  8
太線
100
AcDbLine
 10
119.4644995438761
 20
86.93930390144641
 30
0.0
 11
114.4464587597784
 21
86.93930390144641
 31
0.0
  0
ARC
  5
153D
330
1510
100
AcDbEntity
  8
太線
100
AcDbCircle
 10
114.4464587597784
 20
86.43930390144641
 30
0.0
 40
0.5
100
AcDbArc
 50
90.0
 51
180.0
  0
CIRCLE
  5
153E
330
1510
100
AcDbEntity
  8
太線
100
AcDbCircle
 10
115.4464587597784
 20
85.43930390144641
 30
0.0
 40
0.5588291886667776
  0
LINE
  5
153F
330
1510
100
AcDbEntity
  8
極太線
100
AcDbLine
 10
115.4464587597784
 20
85.99813309011318
 30
0.0
 11
115.4464587597784
 21
84.88047471277964
 31
0.0
  0
LINE
  5
1540
330
1510
100
AcDbEntity
  8
極太線
100
AcDbLine
 10
114.8876295711116
 20
85.43930390144641
 30
0.0
 11
116.0052879484452
 21
85.43930390144641
 31
0.0
  0
ARC
  5
1541
330
1510
100
AcDbEntity
  8
太線
100
AcDbCircle
 10
119.4644995438761
 20
86.43930390144641
 30
0.0
 40
0.5
100
AcDbArc
 50
0.0
 51
90.0
  0
LINE
  5
1542
330
1510
100
AcDbEntity
  8
極太線
100
AcDbLine
 10
117.9056703552094
 20
85.43930390144641
 30
0.0
 11
119.0233287325429
 21
85.43930390144641
 31
0.0
  0
LINE
  5
1543
330
1510
100
AcDbEntity
  8
極太線
100
AcDbLine
 10
118.4644995438761
 20
85.99813309011318
 30
0.0
 11
118.4644995438761
 21
84.88047471277964
 31
0.0
  0
CIRCLE
  5
1544
330
1510
100
AcDbEntity
  8
太線
100
AcDbCircle
 10
118.4644995438761
 20
85.43930390144641
 30
0.0
 40
0.5588291886667776
  0
LINE
  5
1545
330
1510
100
AcDbEntity
  8
想像線
100
AcDbLine
 10
133.9644995438761
 20
81.93930390144641
 30
0.0
 11
139.9825403279738
 21
81.93930390144641
 31
0.0
  0
LINE
  5
1546
330
1510
100
AcDbEntity
  8
極太線
100
AcDbLine
 10
137.9237111393071
 20
85.43930390144641
 30
0.0
 11
139.0413695166406
 21
85.43930390144641
 31
0.0
  0
CIRCLE
  5
1547
330
1510
100
AcDbEntity
  8
太線
100
AcDbCircle
 10
138.4825403279738
 20
85.43930390144641
 30
0.0
 40
0.5588291886667776
  0
CIRCLE
  5
1548
330
1510
100
AcDbEntity
  8
太線
100
AcDbCircle
 10
138.4825403279738
 20
83.26342923362075
 30
0.0
 40
0.5588291886667776
  0
LINE
  5
1549
330
1510
100
AcDbEntity
  8
極太線
100
AcDbLine
 10
137.9237111393071
 20
83.26342923362075
 30
0.0
 11
139.0413695166406
 21
83.26342923362075
 31
0.0
  0
LINE
  5
154A
330
1510
100
AcDbEntity
  8
太線
100
AcDbLine
 10
139.4825403279738
 20
86.93930390144641
 30
0.0
 11
134.4644995438761
 21
86.93930390144641
 31
0.0
  0
LINE
  5
154B
330
1510
100
AcDbEntity
  8
太線
100
AcDbLine
 10
133.9644995438761
 20
86.43930390144641
 30
0.0
 11
133.9644995438761
 21
81.93930390144641
 31
0.0
  0
ARC
  5
154C
330
1510
100
AcDbEntity
  8
太線
100
AcDbCircle
 10
132.4644995438761
 20
81.43930390144641
 30
0.0
 40
0.5
100
AcDbArc
 50
90.0
 51
180.0
  0
LINE
  5
154D
330
1510
100
AcDbEntity
  8
太線
100
AcDbLine
 10
133.9644995438761
 20
81.93930390144641
 30
0.0
 11
132.4644995438761
 21
81.93930390144641
 31
0.0
  0
LINE
  5
154E
330
1510
100
AcDbEntity
  8
極太線
100
AcDbLine
 10
134.9056703552093
 20
83.26342923362075
 30
0.0
 11
136.0233287325429
 21
83.26342923362075
 31
0.0
  0
LINE
  5
154F
330
1510
100
AcDbEntity
  8
極太線
100
AcDbLine
 10
135.4644995438761
 20
83.82225842228752
 30
0.0
 11
135.4644995438761
 21
82.70460004495395
 31
0.0
  0
CIRCLE
  5
1550
330
1510
100
AcDbEntity
  8
太線
100
AcDbCircle
 10
135.4644995438761
 20
83.26342923362075
 30
0.0
 40
0.5588291886667776
  0
ARC
  5
1551
330
1510
100
AcDbEntity
  8
太線
100
AcDbCircle
 10
134.4644995438761
 20
86.43930390144641
 30
0.0
 40
0.5
100
AcDbArc
 50
90.0
 51
180.0
  0
CIRCLE
  5
1552
330
1510
100
AcDbEntity
  8
太線
100
AcDbCircle
 10
135.4644995438761
 20
85.43930390144641
 30
0.0
 40
0.5588291886667776
  0
LINE
  5
1553
330
1510
100
AcDbEntity
  8
極太線
100
AcDbLine
 10
135.4644995438761
 20
85.99813309011318
 30
0.0
 11
135.4644995438761
 21
84.88047471277964
 31
0.0
  0
LINE
  5
1554
330
1510
100
AcDbEntity
  8
極太線
100
AcDbLine
 10
134.9056703552093
 20
85.43930390144641
 30
0.0
 11
136.0233287325429
 21
85.43930390144641
 31
0.0
  0
LINE
  5
1555
330
1510
100
AcDbEntity
  8
太線
100
AcDbLine
 10
139.9825403279738
 20
81.93930390144641
 30
0.0
 11
139.9825403279738
 21
86.43930390144641
 31
0.0
  0
ARC
  5
1556
330
1510
100
AcDbEntity
  8
太線
100
AcDbCircle
 10
141.4825403279738
 20
81.43930390144641
 30
0.0
 40
0.5
100
AcDbArc
 50
0.0
 51
90.0
  0
LINE
  5
1557
330
1510
100
AcDbEntity
  8
極太線
100
AcDbLine
 10
138.4825403279738
 20
83.82225842228752
 30
0.0
 11
138.4825403279738
 21
82.70460004495395
 31
0.0
  0
LINE
  5
1558
330
1510
100
AcDbEntity
  8
太線
100
AcDbLine
 10
141.4825403279738
 20
81.93930390144641
 30
0.0
 11
139.9825403279738
 21
81.93930390144641
 31
0.0
  0
ARC
  5
1559
330
1510
100
AcDbEntity
  8
太線
100
AcDbCircle
 10
139.4825403279738
 20
86.43930390144641
 30
0.0
 40
0.5
100
AcDbArc
 50
0.0
 51
90.0
  0
LINE
  5
155A
330
1510
100
AcDbEntity
  8
極太線
100
AcDbLine
 10
138.4825403279738
 20
85.99813309011318
 30
0.0
 11
138.4825403279738
 21
84.88047471277964
 31
0.0
  0
ENDBLK
  5
155C
330
1510
100
AcDbEntity
  8
0
100
AcDbBlockEnd
  0
BLOCK
  5
2B48
330
2B3E
100
AcDbEntity
  8
0
100
AcDbBlockBegin
  2
*D2
 70
     1
 10
0.0
 20
0.0
 30
0.0
  3
*D2
  1

  0
LINE
  5
2B4A
330
2B3E
100
AcDbEntity
  8
寸法線
 62
     0
370
    -2
100
AcDbLine
 10
217.6414745488584
 20
113.4711488256961
 30
0.0
 11
217.6414745488584
 21
94.20471689514227
 31
0.0
  0
LINE
  5
2B4B
330
2B3E
100
AcDbEntity
  8
寸法線
 62
     0
370
    -2
100
AcDbLine
 10
277.6414745488584
 20
113.4711488256961
 30
0.0
 11
277.6414745488584
 21
94.20471689514227
 31
0.0
  0
LINE
  5
2B4C
330
2B3E
100
AcDbEntity
  8
寸法線
 62
     0
370
    -2
100
AcDbLine
 10
220.6414745488584
 20
97.20471689514226
 30
0.0
 11
274.6414745488584
 21
97.20471689514226
 31
0.0
  0
INSERT
  5
2B4D
330
2B3E
100
AcDbEntity
  8
寸法線
 62
     0
370
    -2
100
AcDbBlockReference
  2
_Closed
 10
217.6414745488584
 20
97.20471689514226
 30
0.0
 41
3.0
 42
3.0
 43
3.0
 50
180.0
  0
INSERT
  5
2B4E
330
2B3E
100
AcDbEntity
  8
寸法線
 62
     0
370
    -2
100
AcDbBlockReference
  2
_Closed
 10
277.6414745488584
 20
97.20471689514226
 30
0.0
 41
3.0
 42
3.0
 43
3.0
  0
MTEXT
  5
2B4F
330
2B3E
100
AcDbEntity
  8
寸法線
 62
     0
100
AcDbMText
 10
247.6414745488584
 20
100.7047168951422
 30
0.0
 40
5.0
 41
0.0
 71
     5
 72
     1
  1
57.3
  7
OKANO
 73
     1
 44
1.0
  0
POINT
  5
2B50
330
2B3E
100
AcDbEntity
  8
Defpoints
 62
     0
100
AcDbPoint
 10
217.6414745488584
 20
115.4711488256961
 30
0.0
  0
POINT
  5
2B51
330
2B3E
100
AcDbEntity
  8
Defpoints
 62
     0
100
AcDbPoint
 10
277.6414745488584
 20
115.4711488256961
 30
0.0
  0
POINT
  5
2B52
330
2B3E
100
AcDbEntity
  8
Defpoints
 62
     0
100
AcDbPoint
 10
277.6414745488584
 20
97.20471689514226
 30
0.0
  0
ENDBLK
  5
2B49
330
2B3E
100
AcDbEntity
  8
0
100
AcDbBlockEnd
  0
BLOCK
  5
2B6F
330
2B63
100
AcDbEntity
  8
0
100
AcDbBlockBegin
  2
*D3
 70
     1
 10
0.0
 20
0.0
 30
0.0
  3
*D3
  1

  0
LINE
  5
2B71
330
2B63
100
AcDbEntity
  8
寸法線
 62
     0
370
    -2
100
AcDbLine
 10
245.1414745488584
 20
123.4711488256961
 30
0.0
 11
245.1414745488584
 21
113.9917521859024
 31
0.0
  0
LINE
  5
2B72
330
2B63
100
AcDbEntity
  8
寸法線
 62
     0
370
    -2
100
AcDbLine
 10
250.1414745488584
 20
123.4711488256961
 30
0.0
 11
250.1414745488584
 21
113.9917521859024
 31
0.0
  0
LINE
  5
2B73
330
2B63
100
AcDbEntity
  8
寸法線
 62
     0
370
    -2
100
AcDbLine
 10
242.1414745488584
 20
116.9917521859024
 30
0.0
 11
239.1414745488584
 21
116.9917521859024
 31
0.0
  0
LINE
  5
2B74
330
2B63
100
AcDbEntity
  8
寸法線
 62
     0
370
    -2
100
AcDbLine
 10
253.1414745488584
 20
116.9917521859024
 30
0.0
 11
256.1414745488584
 21
116.9917521859024
 31
0.0
  0
LINE
  5
2B75
330
2B63
100
AcDbEntity
  8
寸法線
 62
     0
370
    -2
100
AcDbLine
 10
245.1414745488584
 20
116.9917521859024
 30
0.0
 11
250.1414745488584
 21
116.9917521859024
 31
0.0
  0
INSERT
  5
2B76
330
2B63
100
AcDbEntity
  8
寸法線
 62
     0
370
    -2
100
AcDbBlockReference
  2
_Closed
 10
245.1414745488584
 20
116.9917521859024
 30
0.0
 41
3.0
 42
3.0
 43
3.0
  0
INSERT
  5
2B77
330
2B63
100
AcDbEntity
  8
寸法線
 62
     0
370
    -2
100
AcDbBlockReference
  2
_Closed
 10
250.1414745488584
 20
116.9917521859024
 30
0.0
 41
3.0
 42
3.0
 43
3.0
 50
180.0
  0
MTEXT
  5
2B78
330
2B63
100
AcDbEntity
  8
寸法線
 62
     0
100
AcDbMText
 10
247.6414745488584
 20
120.4917521859024
 30
0.0
 40
5.0
 41
0.0
 71
     5
 72
     1
  1
4
  7
OKANO
 73
     1
 44
1.0
  0
POINT
  5
2B79
330
2B63
100
AcDbEntity
  8
Defpoints
 62
     0
100
AcDbPoint
 10
245.1414745488584
 20
125.4711488256961
 30
0.0
  0
POINT
  5
2B7A
330
2B63
100
AcDbEntity
  8
Defpoints
 62
     0
100
AcDbPoint
 10
250.1414745488584
 20
125.4711488256961
 30
0.0
  0
POINT
  5
2B7B
330
2B63
100
AcDbEntity
  8
Defpoints
 62
     0
100
AcDbPoint
 10
250.1414745488584
 20
116.9917521859024
 30
0.0
  0
ENDBLK
  5
2B70
330
2B63
100
AcDbEntity
  8
0
100
AcDbBlockEnd
  0
BLOCK
  5
2D76
330
2D6C
100
AcDbEntity
  8
0
100
AcDbBlockBegin
  2
*D4
 70
     1
 10
0.0
 20
0.0
 30
0.0
  3
*D4
  1

  0
LINE
  5
2D6D
330
2D6C
100
AcDbEntity
  8
構築線
 62
     0
370
    -2
100
AcDbLine
 10
247.6414745488584
 20
182.4711488256961
 30
0.0
 11
247.6414745488584
 21
222.5159826440687
 31
0.0
  0
LINE
  5
2D6E
330
2D6C
100
AcDbEntity
  8
構築線
 62
     0
370
    -2
100
AcDbLine
 10
334.2357156188179
 20
182.4711488256961
 30
0.0
 11
334.2357156188179
 21
222.5159826440687
 31
0.0
  0
LINE
  5
2D6F
330
2D6C
100
AcDbEntity
  8
構築線
 62
     0
370
    -2
100
AcDbLine
 10
250.6414745488584
 20
219.5159826440688
 30
0.0
 11
331.2357156188178
 21
219.5159826440688
 31
0.0
  0
INSERT
  5
2D70
330
2D6C
100
AcDbEntity
  8
構築線
 62
     0
370
    -2
100
AcDbBlockReference
  2
_Closed
 10
247.6414745488584
 20
219.5159826440688
 30
0.0
 41
3.0
 42
3.0
 43
3.0
 50
180.0
  0
INSERT
  5
2D71
330
2D6C
100
AcDbEntity
  8
構築線
 62
     0
370
    -2
100
AcDbBlockReference
  2
_Closed
 10
334.2357156188179
 20
219.5159826440688
 30
0.0
 41
3.0
 42
3.0
 43
3.0
  0
MTEXT
  5
2D72
330
2D6C
100
AcDbEntity
  8
構築線
 62
     0
100
AcDbMText
 10
290.9385950838382
 20
223.0159826440687
 30
0.0
 40
5.0
 41
0.0
 71
     5
 72
     1
  1
86.59
  7
OKANO
 73
     1
 44
1.0
  0
POINT
  5
2D73
330
2D6C
100
AcDbEntity
  8
Defpoints
 62
     0
100
AcDbPoint
 10
247.6414745488584
 20
180.4711488256961
 30
0.0
  0
POINT
  5
2D74
330
2D6C
100
AcDbEntity
  8
Defpoints
 62
     0
100
AcDbPoint
 10
334.2357156188179
 20
180.4711488256961
 30
0.0
  0
POINT
  5
2D75
330
2D6C
100
AcDbEntity
  8
Defpoints
 62
     0
100
AcDbPoint
 10
334.2357156188179
 20
219.5159826440688
 30
0.0
  0
ENDBLK
  5
2D77
330
2D6C
100
AcDbEntity
  8
0
100
AcDbBlockEnd
  0
BLOCK
  5
2D9E
330
2D93
100
AcDbEntity
  8
0
100
AcDbBlockBegin
  2
*D5
 70
     1
 10
0.0
 20
0.0
 30
0.0
  3
*D5
  1

  0
LINE
  5
2D94
330
2D93
100
AcDbEntity
  8
寸法線
 62
     0
370
    -2
100
AcDbLine
 10
249.3735253564273
 20
216.0454199032598
 30
0.0
 11
298.2227290445672
 21
244.2485208023068
 31
0.0
  0
ARC
  5
2D95
330
2D93
100
AcDbEntity
  8
寸法線
 62
     0
370
    -2
100
AcDbCircle
 10
247.6414745488584
 20
215.0454199032597
 30
0.0
 40
55.40620179809318
100
AcDbArc
 50
333.1026913403928
 51
26.89730865960726
  0
INSERT
  5
2D96
330
2D93
100
AcDbEntity
  8
寸法線
 62
     0
370
    -2
100
AcDbBlockReference
  2
_Closed
 10
295.6246528332139
 20
187.3423190042127
 30
0.0
 41
3.0
 42
3.0
 43
3.0
 50
241.5513456701961
  0
INSERT
  5
2D97
330
2D93
100
AcDbEntity
  8
寸法線
 62
     0
370
    -2
100
AcDbBlockReference
  2
_Closed
 10
295.6246528332139
 20
242.7485208023068
 30
0.0
 41
3.0
 42
3.0
 43
3.0
 50
118.4486543298038
  0
MTEXT
  5
2D98
330
2D93
100
AcDbEntity
  8
寸法線
 62
     0
100
AcDbMText
 10
299.5476763469515
 20
215.0454199032598
 30
0.0
 40
5.0
 41
0.0
 71
     5
 72
     1
  1
60°
  7
OKANO
 11
0.0000000000000001
 21
1.0
 31
0.0
 73
     1
 44
1.0
  0
POINT
  5
2D99
330
2D93
100
AcDbEntity
  8
Defpoints
 62
     0
100
AcDbPoint
 10
302.2059316445794
 20
205.4242339295745
 30
0.0
  0
POINT
  5
2D9A
330
2D93
100
AcDbEntity
  8
Defpoints
 62
     0
100
AcDbPoint
 10
229.3262997895125
 20
204.4711488256961
 30
0.0
  0
POINT
  5
2D9B
330
2D93
100
AcDbEntity
  8
Defpoints
 62
     0
100
AcDbPoint
 10
265.9566493082043
 20
204.4711488256961
 30
0.0
  0
POINT
  5
2D9C
330
2D93
100
AcDbEntity
  8
Defpoints
 62
     0
100
AcDbPoint
 10
327.7358605832259
 20
168.8029045657389
 30
0.0
  0
POINT
  5
2D9D
330
2D93
100
AcDbEntity
  8
Defpoints
 62
     0
100
AcDbPoint
 10
167.547088514491
 20
168.8029045657389
 30
0.0
  0
ENDBLK
  5
2D9F
330
2D93
100
AcDbEntity
  8
0
100
AcDbBlockEnd
  0
BLOCK
  5
2DAC
330
2DA1
100
AcDbEntity
  8
0
100
AcDbBlockBegin
  2
*D6
 70
     1
 10
0.0
 20
0.0
 30
0.0
  3
*D6
  1

  0
LINE
  5
2DA2
330
2DA1
100
AcDbEntity
  8
寸法線
 62
     0
370
    -2
100
AcDbLine
 10
245.9094237412895
 20
216.0454199032598
 30
0.0
 11
197.2164715636879
 21
244.1583089506363
 31
0.0
  0
ARC
  5
2DA3
330
2DA1
100
AcDbEntity
  8
寸法線
 62
     0
370
    -2
100
AcDbCircle
 10
247.6414745488584
 20
215.0454199032597
 30
0.0
 40
55.2257780947521
100
AcDbArc
 50
153.1128303840056
 51
206.8871696159944
  0
INSERT
  5
2DA4
330
2DA1
100
AcDbEntity
  8
寸法線
 62
     0
370
    -2
100
AcDbBlockReference
  2
_Closed
 10
199.8145477750412
 20
242.6583089506363
 30
0.0
 41
3.0
 42
3.0
 43
3.0
 50
61.55641519200258
  0
INSERT
  5
2DA5
330
2DA1
100
AcDbEntity
  8
寸法線
 62
     0
370
    -2
100
AcDbBlockReference
  2
_Closed
 10
199.8145477750412
 20
187.4325308558832
 30
0.0
 41
3.0
 42
3.0
 43
3.0
 50
298.4435848079975
  0
MTEXT
  5
2DA6
330
2DA1
100
AcDbEntity
  8
寸法線
 62
     0
100
AcDbMText
 10
188.9156964541063
 20
215.0454199032598
 30
0.0
 40
5.0
 41
0.0
 71
     5
 72
     1
  1
60°
  7
OKANO
 11
0.0000000000000001
 21
1.0
 31
0.0
 73
     1
 44
1.0
  0
POINT
  5
2DA7
330
2DA1
100
AcDbEntity
  8
Defpoints
 62
     0
100
AcDbPoint
 10
193.2547001150148
 20
224.6352756296519
 30
0.0
  0
POINT
  5
2DA8
330
2DA1
100
AcDbEntity
  8
Defpoints
 62
     0
100
AcDbPoint
 10
265.9566493082043
 20
204.4711488256961
 30
0.0
  0
POINT
  5
2DA9
330
2DA1
100
AcDbEntity
  8
Defpoints
 62
     0
100
AcDbPoint
 10
229.3262997895125
 20
204.4711488256961
 30
0.0
  0
POINT
  5
2DAA
330
2DA1
100
AcDbEntity
  8
Defpoints
 62
     0
100
AcDbPoint
 10
167.547088514491
 20
168.8029045657389
 30
0.0
  0
POINT
  5
2DAB
330
2DA1
100
AcDbEntity
  8
Defpoints
 62
     0
100
AcDbPoint
 10
327.7358605832259
 20
168.8029045657389
 30
0.0
  0
ENDBLK
  5
2DAD
330
2DA1
100
AcDbEntity
  8
0
100
AcDbBlockEnd
  0
BLOCK
  5
2DB9
330
2DAF
100
AcDbEntity
  8
0
100
AcDbBlockBegin
  2
*D7
 70
     1
 10
0.0
 20
0.0
 30
0.0
  3
*D7
  1

  0
LINE
  5
2DDE
330
2DAF
100
AcDbEntity
  8
寸法線
 62
     0
370
    -2
100
AcDbLine
 10
277.6414745488584
 20
113.4711488256961
 30
0.0
 11
277.6414745488584
 21
94.25884392487649
 31
0.0
  0
LINE
  5
2DDF
330
2DAF
100
AcDbEntity
  8
寸法線
 62
     0
370
    -2
100
AcDbLine
 10
334.9065103940656
 20
135.3576164872655
 30
0.0
 11
334.9065103940656
 21
94.25884392487649
 31
0.0
  0
LINE
  5
2DE0
330
2DAF
100
AcDbEntity
  8
寸法線
 62
     0
370
    -2
100
AcDbLine
 10
280.6414745488584
 20
97.2588439248765
 30
0.0
 11
331.9065103940656
 21
97.2588439248765
 31
0.0
  0
INSERT
  5
2DE1
330
2DAF
100
AcDbEntity
  8
寸法線
 62
     0
370
    -2
100
AcDbBlockReference
  2
_Closed
 10
277.6414745488584
 20
97.2588439248765
 30
0.0
 41
3.0
 42
3.0
 43
3.0
 50
180.0
  0
INSERT
  5
2DE2
330
2DAF
100
AcDbEntity
  8
寸法線
 62
     0
370
    -2
100
AcDbBlockReference
  2
_Closed
 10
334.9065103940656
 20
97.2588439248765
 30
0.0
 41
3.0
 42
3.0
 43
3.0
  0
MTEXT
  5
2DE3
330
2DAF
100
AcDbEntity
  8
寸法線
 62
     0
100
AcDbMText
 10
306.273992471462
 20
100.7588439248764
 30
0.0
 40
5.0
 41
0.0
 71
     5
 72
     1
  1
57
  7
OKANO
 73
     1
 44
1.0
  0
POINT
  5
2DE4
330
2DAF
100
AcDbEntity
  8
Defpoints
 62
     0
100
AcDbPoint
 10
277.6414745488584
 20
115.4711488256961
 30
0.0
  0
POINT
  5
2DE5
330
2DAF
100
AcDbEntity
  8
Defpoints
 62
     0
100
AcDbPoint
 10
334.9065103940656
 20
137.3576164872655
 30
0.0
  0
POINT
  5
2DE6
330
2DAF
100
AcDbEntity
  8
Defpoints
 62
     0
100
AcDbPoint
 10
334.9065103940656
 20
97.2588439248765
 30
0.0
  0
ENDBLK
  5
2DBA
330
2DAF
100
AcDbEntity
  8
0
100
AcDbBlockEnd
  0
BLOCK
  5
2DD3
330
2DC9
100
AcDbEntity
  8
0
100
AcDbBlockBegin
  2
*D8
 70
     1
 10
0.0
 20
0.0
 30
0.0
  3
*D8
  1

  0
LINE
  5
2DD5
330
2DC9
100
AcDbEntity
  8
寸法線
 62
     0
370
    -2
100
AcDbLine
 10
292.3515081901832
 20
122.4213770729714
 30
0.0
 11
353.5808657809242
 21
84.35852160753261
 31
0.0
  0
LINE
  5
2DD6
330
2DC9
100
AcDbEntity
  8
寸法線
 62
     0
370
    -2
100
AcDbLine
 10
322.7115066899846
 20
171.2596258556095
 30
0.0
 11
383.9408642807256
 21
133.1967703901706
 31
0.0
  0
LINE
  5
2DD7
330
2DC9
100
AcDbEntity
  8
寸法線
 62
     0
370
    -2
100
AcDbLine
 10
352.6168785022965
 20
88.49019542411642
 30
0.0
 11
379.8091904641418
 21
132.232783111543
 31
0.0
  0
INSERT
  5
2DD8
330
2DC9
100
AcDbEntity
  8
寸法線
 62
     0
370
    -2
100
AcDbBlockReference
  2
_Closed
 10
351.0330352333185
 20
85.94236487651068
 30
0.0
 41
3.0
 42
3.0
 43
3.0
 50
238.1331024231591
  0
INSERT
  5
2DD9
330
2DC9
100
AcDbEntity
  8
寸法線
 62
     0
370
    -2
100
AcDbBlockReference
  2
_Closed
 10
381.3930337331198
 20
134.7806136591487
 30
0.0
 41
3.0
 42
3.0
 43
3.0
 50
58.13310242315916
  0
MTEXT
  5
2DDA
330
2DC9
100
AcDbEntity
  8
寸法線
 62
     0
100
AcDbMText
 10
363.2405655110125
 20
112.2093064149707
 30
0.0
 40
5.0
 41
0.0
 71
     5
 72
     1
  1
57
  7
OKANO
 11
0.5279477563260233
 21
0.8492768492019065
 31
0.0
 73
     1
 44
1.0
  0
POINT
  5
2DDB
330
2DC9
100
AcDbEntity
  8
Defpoints
 62
     0
100
AcDbPoint
 10
290.6529544917794
 20
123.4772725856235
 30
0.0
  0
POINT
  5
2DDC
330
2DC9
100
AcDbEntity
  8
Defpoints
 62
     0
100
AcDbPoint
 10
321.0129529915807
 20
172.3155213682615
 30
0.0
  0
POINT
  5
2DDD
330
2DC9
100
AcDbEntity
  8
Defpoints
 62
     0
100
AcDbPoint
 10
381.3930337331198
 20
134.7806136591487
 30
0.0
  0
ENDBLK
  5
2DD4
330
2DC9
100
AcDbEntity
  8
0
100
AcDbBlockEnd
  0
BLOCK
  5
2DF2
330
2DE8
100
AcDbEntity
  8
0
100
AcDbBlockBegin
  2
*D9
 70
     1
 10
0.0
 20
0.0
 30
0.0
  3
*D9
  1

  0
LINE
  5
2DE9
330
2DE8
100
AcDbEntity
  8
寸法線
 62
     0
370
    -2
100
AcDbLine
 10
294.741909983193
 20
148.2287793250191
 30
0.0
 11
283.4406591606427
 21
155.0159846602752
 31
0.0
  0
LINE
  5
2DEA
330
2DE8
100
AcDbEntity
  8
寸法線
 62
     0
370
    -2
100
AcDbLine
 10
300.9205907382682
 20
158.5167870566924
 30
0.0
 11
289.619339915718
 21
165.3039923919485
 31
0.0
  0
LINE
  5
2DEB
330
2DE8
100
AcDbEntity
  8
寸法線
 62
     0
370
    -2
100
AcDbLine
 10
287.5570568798244
 20
156.0432479261986
 30
0.0
 11
290.6466031816413
 21
161.1875946727668
 31
0.0
  0
INSERT
  5
2DEC
330
2DE8
100
AcDbEntity
  8
寸法線
 62
     0
370
    -2
100
AcDbBlockReference
  2
_Closed
 10
286.0124896531953
 20
153.471417433646
 30
0.0
 41
3.0
 42
3.0
 43
3.0
 50
239.0121869169892
  0
INSERT
  5
2DED
330
2DE8
100
AcDbEntity
  8
寸法線
 62
     0
370
    -2
100
AcDbBlockReference
  2
_Closed
 10
292.1911704082705
 20
163.7594251653193
 30
0.0
 41
3.0
 42
3.0
 43
3.0
 50
59.01218691698926
  0
MTEXT
  5
2DEE
330
2DE8
100
AcDbEntity
  8
寸法線
 62
     0
100
AcDbMText
 10
286.1009392345508
 20
160.4176697711055
 30
0.0
 40
5.0
 41
0.0
 71
     5
 72
     1
  1
12
  7
OKANO
 11
0.5148557422097201
 21
0.8572768308508507
 31
0.0
 73
     1
 44
1.0
  0
POINT
  5
2DEF
330
2DE8
100
AcDbEntity
  8
Defpoints
 62
     0
100
AcDbPoint
 10
296.4564636448947
 20
147.1990678405997
 30
0.0
  0
POINT
  5
2DF0
330
2DE8
100
AcDbEntity
  8
Defpoints
 62
     0
100
AcDbPoint
 10
302.6351443999699
 20
157.487075572273
 30
0.0
  0
POINT
  5
2DF1
330
2DE8
100
AcDbEntity
  8
Defpoints
 62
     0
100
AcDbPoint
 10
292.1911704082705
 20
163.7594251653193
 30
0.0
  0
ENDBLK
  5
2DF3
330
2DE8
100
AcDbEntity
  8
0
100
AcDbBlockEnd
  0
BLOCK
  5
2E12
330
2E08
100
AcDbEntity
  8
0
100
AcDbBlockBegin
  2
*D10
 70
     1
 10
0.0
 20
0.0
 30
0.0
  3
*D10
  1

  0
LINE
  5
2E14
330
2E08
100
AcDbEntity
  8
寸法線
 62
     0
370
    -2
100
AcDbLine
 10
295.6846774481374
 20
157.6961911425266
 30
0.0
 11
304.0952570388458
 21
171.2102377867387
 31
0.0
  0
LINE
  5
2E15
330
2E08
100
AcDbEntity
  8
寸法線
 62
     0
370
    -2
100
AcDbLine
 10
320.6531674962164
 20
142.1568432079006
 30
0.0
 11
329.0637470869248
 21
155.6708898521127
 31
0.0
  0
LINE
  5
2E16
330
2E08
100
AcDbEntity
  8
寸法線
 62
     0
370
    -2
100
AcDbLine
 10
305.0571157521223
 20
167.0780679190187
 30
0.0
 11
324.9315772192047
 21
154.7090311388361
 31
0.0
  0
INSERT
  5
2E17
330
2E08
100
AcDbEntity
  8
寸法線
 62
     0
370
    -2
100
AcDbBlockReference
  2
_Closed
 10
302.510101461624
 20
168.6632234962404
 30
0.0
 41
3.0
 42
3.0
 43
3.0
 50
148.103586422374
  0
INSERT
  5
2E18
330
2E08
100
AcDbEntity
  8
寸法線
 62
     0
370
    -2
100
AcDbBlockReference
  2
_Closed
 10
327.478591509703
 20
153.1238755616144
 30
0.0
 41
3.0
 42
3.0
 43
3.0
 50
328.103586422374
  0
MTEXT
  5
2E19
330
2E08
100
AcDbEntity
  8
寸法線
 62
     0
100
AcDbMText
 10
316.8436946590889
 20
163.8650662011754
 30
0.0
 40
5.0
 41
0.0
 71
     5
 72
     1
  1
30
  7
OKANO
 11
0.8490047634994459
 21
-0.528385192407253
 31
0.0
 73
     1
 44
1.0
  0
POINT
  5
2E1A
330
2E08
100
AcDbEntity
  8
Defpoints
 62
     0
100
AcDbPoint
 10
294.6279070633229
 20
155.9981816155278
 30
0.0
  0
POINT
  5
2E1B
330
2E08
100
AcDbEntity
  8
Defpoints
 62
     0
100
AcDbPoint
 10
319.5963971114019
 20
140.4588336809017
 30
0.0
  0
POINT
  5
2E1C
330
2E08
100
AcDbEntity
  8
Defpoints
 62
     0
100
AcDbPoint
 10
327.478591509703
 20
153.1238755616144
 30
0.0
  0
ENDBLK
  5
2E13
330
2E08
100
AcDbEntity
  8
0
100
AcDbBlockEnd
  0
BLOCK
  5
2F90
330
2F85
100
AcDbEntity
  8
0
100
AcDbBlockBegin
  2
*D11
 70
     1
 10
0.0
 20
0.0
 30
0.0
  3
*D11
  1

  0
LINE
  5
2F92
330
2F85
100
AcDbEntity
  8
寸法線
 62
     0
370
    -2
100
AcDbLine
 10
319.2468519036688
 20
140.8172116485174
 30
0.0
 11
351.5305572462097
 21
190.5317306790935
 31
0.0
  0
LINE
  5
2F93
330
2F85
100
AcDbEntity
  8
寸法線
 62
     0
370
    -2
100
AcDbLine
 10
329.2007361608559
 20
134.3533400745986
 30
0.0
 11
361.4844415033968
 21
184.0678591051747
 31
0.0
  0
LINE
  5
2F94
330
2F85
100
AcDbEntity
  8
寸法線
 62
     0
370
    -2
100
AcDbLine
 10
352.4127270468537
 20
186.3818178555716
 30
0.0
 11
357.3345286798749
 21
183.1856893045307
 31
0.0
  0
INSERT
  5
2F95
330
2F85
100
AcDbEntity
  8
寸法線
 62
     0
370
    -2
100
AcDbBlockReference
  2
_Closed
 10
349.8966857347708
 20
188.0156893670106
 30
0.0
 41
3.0
 42
3.0
 43
3.0
 50
147.0010382725287
  0
INSERT
  5
2F96
330
2F85
100
AcDbEntity
  8
寸法線
 62
     0
370
    -2
100
AcDbBlockReference
  2
_Closed
 10
359.8505699919579
 20
181.5518177930917
 30
0.0
 41
3.0
 42
3.0
 43
3.0
 50
327.0010382725287
  0
MTEXT
  5
2F97
330
2F85
100
AcDbEntity
  8
寸法線
 62
     0
100
AcDbMText
 10
356.7798112933765
 20
187.7191351108146
 30
0.0
 40
5.0
 41
0.0
 71
     5
 72
     1
  1
10
  7
OKANO
 11
0.8386804373609935
 21
-0.544623837146312
 31
0.0
 73
     1
 44
1.0
  0
POINT
  5
2F98
330
2F85
100
AcDbEntity
  8
Defpoints
 62
     0
100
AcDbPoint
 10
318.1576042293761
 20
139.1398507737955
 30
0.0
  0
POINT
  5
2F99
330
2F85
100
AcDbEntity
  8
Defpoints
 62
     0
100
AcDbPoint
 10
328.1114884865633
 20
132.6759791998766
 30
0.0
  0
POINT
  5
2F9A
330
2F85
100
AcDbEntity
  8
Defpoints
 62
     0
100
AcDbPoint
 10
359.8505699919579
 20
181.5518177930917
 30
0.0
  0
ENDBLK
  5
2F91
330
2F85
100
AcDbEntity
  8
0
100
AcDbBlockEnd
  0
BLOCK
  5
3025
330
301C
100
AcDbEntity
  8
0
100
AcDbBlockBegin
  2
*D12
 70
     1
 10
0.0
 20
0.0
 30
0.0
  3
*D12
  1

  0
LINE
  5
3170
330
301C
100
AcDbEntity
  8
寸法線
 62
     0
370
    -2
100
AcDbLine
 10
42.51303848901993
 20
166.301160804749
 30
0.0
 11
55.74975730634437
 21
150.2181350850343
 31
0.0
  0
LINE
  5
3171
330
301C
100
AcDbEntity
  8
寸法線
 62
     0
370
    -2
100
AcDbLine
 10
63.37545449445255
 20
140.9526754420765
 30
0.0
 11
65.2818787914796
 21
138.636310531337
 31
0.0
  0
MTEXT
  5
3172
330
301C
100
AcDbEntity
  8
寸法線
 62
     0
100
AcDbMText
 10
48.08001073243959
 20
165.0448092320939
 30
0.0
 40
5.0
 41
0.0
 71
     5
 72
     1
  1
\U+22056
  7
OKANO
 11
0.6354747656756804
 21
-0.7721216369131481
 31
0.0
 73
     1
 44
1.0
  0
LINE
  5
3173
330
301C
100
AcDbEntity
  8
寸法線
 62
     0
370
    -2
100
AcDbLine
 10
61.46903019742551
 20
143.2690403528159
 30
0.0
 11
57.6561816033714
 21
147.9017701742948
 31
0.0
  0
INSERT
  5
3174
330
301C
100
AcDbEntity
  8
寸法線
 62
     0
370
    -2
100
AcDbBlockReference
  2
_Closed
 10
61.46903019742551
 20
143.2690403528159
 30
0.0
 41
3.0
 42
3.0
 43
3.0
 50
129.4552058497551
  0
INSERT
  5
3175
330
301C
100
AcDbEntity
  8
寸法線
 62
     0
370
    -2
100
AcDbBlockReference
  2
_Closed
 10
57.6561816033714
 20
147.9017701742948
 30
0.0
 41
3.0
 42
3.0
 43
3.0
 50
309.4552058497551
  0
POINT
  5
3176
330
301C
100
AcDbEntity
  8
Defpoints
 62
     0
100
AcDbPoint
 10
57.6561816033714
 20
147.9017701742948
 30
0.0
  0
POINT
  5
3177
330
301C
100
AcDbEntity
  8
Defpoints
 62
     0
100
AcDbPoint
 10
61.46903019742551
 20
143.2690403528159
 30
0.0
  0
ENDBLK
  5
3026
330
301C
100
AcDbEntity
  8
0
100
AcDbBlockEnd
  0
BLOCK
  5
3031
330
3027
100
AcDbEntity
  8
0
100
AcDbBlockBegin
  2
*D13
 70
     1
 10
0.0
 20
0.0
 30
0.0
  3
*D13
  1

  0
LINE
  5
3167
330
3027
100
AcDbEntity
  8
寸法線
 62
     0
370
    -2
100
AcDbLine
 10
96.0723930448246
 20
210.4711488256961
 30
0.0
 11
143.8484065431398
 21
210.4711488256961
 31
0.0
  0
LINE
  5
3168
330
3027
100
AcDbEntity
  8
寸法線
 62
     0
370
    -2
100
AcDbLine
 10
120.0723930448245
 20
150.4711488256961
 30
0.0
 11
143.8484065431398
 21
150.4711488256961
 31
0.0
  0
LINE
  5
3169
330
3027
100
AcDbEntity
  8
寸法線
 62
     0
370
    -2
100
AcDbLine
 10
140.8484065431398
 20
207.4711488256961
 30
0.0
 11
140.8484065431398
 21
153.4711488256961
 31
0.0
  0
INSERT
  5
316A
330
3027
100
AcDbEntity
  8
寸法線
 62
     0
370
    -2
100
AcDbBlockReference
  2
_Closed
 10
140.8484065431398
 20
210.4711488256961
 30
0.0
 41
3.0
 42
3.0
 43
3.0
 50
90.0
  0
INSERT
  5
316B
330
3027
100
AcDbEntity
  8
寸法線
 62
     0
370
    -2
100
AcDbBlockReference
  2
_Closed
 10
140.8484065431398
 20
150.4711488256961
 30
0.0
 41
3.0
 42
3.0
 43
3.0
 50
270.0
  0
MTEXT
  5
316C
330
3027
100
AcDbEntity
  8
寸法線
 62
     0
100
AcDbMText
 10
137.3484065431398
 20
180.4711488256961
 30
0.0
 40
5.0
 41
0.0
 71
     5
 72
     1
  1
57.3
  7
OKANO
 11
0.0000000000000001
 21
1.0
 31
0.0
 73
     1
 44
1.0
  0
POINT
  5
316D
330
3027
100
AcDbEntity
  8
Defpoints
 62
     0
100
AcDbPoint
 10
94.07239304482459
 20
210.4711488256961
 30
0.0
  0
POINT
  5
316E
330
3027
100
AcDbEntity
  8
Defpoints
 62
     0
100
AcDbPoint
 10
118.0723930448245
 20
150.4711488256961
 30
0.0
  0
POINT
  5
316F
330
3027
100
AcDbEntity
  8
Defpoints
 62
     0
100
AcDbPoint
 10
140.8484065431398
 20
150.4711488256961
 30
0.0
  0
ENDBLK
  5
3032
330
3027
100
AcDbEntity
  8
0
100
AcDbBlockEnd
  0
BLOCK
  5
303D
330
3033
100
AcDbEntity
  8
0
100
AcDbBlockBegin
  2
*D14
 70
     1
 10
0.0
 20
0.0
 30
0.0
  3
*D14
  1

  0
LINE
  5
3122
330
3033
100
AcDbEntity
  8
寸法線
 62
     0
370
    -2
100
AcDbLine
 10
120.0723930448245
 20
150.4711488256961
 30
0.0
 11
143.8484065431398
 21
150.4711488256961
 31
0.0
  0
LINE
  5
3123
330
3033
100
AcDbEntity
  8
寸法線
 62
     0
370
    -2
100
AcDbLine
 10
126.0723930448246
 20
115.4711488256961
 30
0.0
 11
143.8484065431398
 21
115.4711488256961
 31
0.0
  0
LINE
  5
3124
330
3033
100
AcDbEntity
  8
寸法線
 62
     0
370
    -2
100
AcDbLine
 10
140.8484065431398
 20
147.4711488256961
 30
0.0
 11
140.8484065431398
 21
118.4711488256961
 31
0.0
  0
INSERT
  5
3125
330
3033
100
AcDbEntity
  8
寸法線
 62
     0
370
    -2
100
AcDbBlockReference
  2
_Closed
 10
140.8484065431398
 20
150.4711488256961
 30
0.0
 41
3.0
 42
3.0
 43
3.0
 50
90.0
  0
INSERT
  5
3126
330
3033
100
AcDbEntity
  8
寸法線
 62
     0
370
    -2
100
AcDbBlockReference
  2
_Closed
 10
140.8484065431398
 20
115.4711488256961
 30
0.0
 41
3.0
 42
3.0
 43
3.0
 50
270.0
  0
MTEXT
  5
3127
330
3033
100
AcDbEntity
  8
寸法線
 62
     0
100
AcDbMText
 10
137.3484065431398
 20
132.9711488256961
 30
0.0
 40
5.0
 41
0.0
 71
     5
 72
     1
  1
35
  7
OKANO
 11
0.0000000000000001
 21
1.0
 31
0.0
 73
     1
 44
1.0
  0
POINT
  5
3128
330
3033
100
AcDbEntity
  8
Defpoints
 62
     0
100
AcDbPoint
 10
118.0723930448245
 20
150.4711488256961
 30
0.0
  0
POINT
  5
3129
330
3033
100
AcDbEntity
  8
Defpoints
 62
     0
100
AcDbPoint
 10
124.0723930448246
 20
115.4711488256961
 30
0.0
  0
POINT
  5
312A
330
3033
100
AcDbEntity
  8
Defpoints
 62
     0
100
AcDbPoint
 10
140.8484065431398
 20
115.4711488256961
 30
0.0
  0
ENDBLK
  5
303E
330
3033
100
AcDbEntity
  8
0
100
AcDbBlockEnd
  0
BLOCK
  5
304B
330
303F
100
AcDbEntity
  8
0
100
AcDbBlockBegin
  2
*D15
 70
     1
 10
0.0
 20
0.0
 30
0.0
  3
*D15
  1

  0
LINE
  5
3151
330
303F
100
AcDbEntity
  8
寸法線
 62
     0
370
    -2
100
AcDbLine
 10
64.07239304482459
 20
113.4711488256961
 30
0.0
 11
64.07239304482459
 21
101.5868095881867
 31
0.0
  0
LINE
  5
3152
330
303F
100
AcDbEntity
  8
寸法線
 62
     0
370
    -2
100
AcDbLine
 10
69.07239304482459
 20
113.4711488256961
 30
0.0
 11
69.07239304482459
 21
101.5868095881867
 31
0.0
  0
LINE
  5
3153
330
303F
100
AcDbEntity
  8
寸法線
 62
     0
370
    -2
100
AcDbLine
 10
61.07239304482459
 20
104.5868095881867
 30
0.0
 11
58.07239304482459
 21
104.5868095881867
 31
0.0
  0
LINE
  5
3154
330
303F
100
AcDbEntity
  8
寸法線
 62
     0
370
    -2
100
AcDbLine
 10
72.0723930448246
 20
104.5868095881867
 30
0.0
 11
75.07239304482459
 21
104.5868095881867
 31
0.0
  0
LINE
  5
3155
330
303F
100
AcDbEntity
  8
寸法線
 62
     0
370
    -2
100
AcDbLine
 10
64.07239304482459
 20
104.5868095881867
 30
0.0
 11
69.07239304482459
 21
104.5868095881867
 31
0.0
  0
INSERT
  5
3156
330
303F
100
AcDbEntity
  8
寸法線
 62
     0
370
    -2
100
AcDbBlockReference
  2
_Closed
 10
64.07239304482459
 20
104.5868095881867
 30
0.0
 41
3.0
 42
3.0
 43
3.0
  0
INSERT
  5
3157
330
303F
100
AcDbEntity
  8
寸法線
 62
     0
370
    -2
100
AcDbBlockReference
  2
_Closed
 10
69.07239304482459
 20
104.5868095881867
 30
0.0
 41
3.0
 42
3.0
 43
3.0
 50
180.0
  0
MTEXT
  5
3158
330
303F
100
AcDbEntity
  8
寸法線
 62
     0
100
AcDbMText
 10
66.57239304482459
 20
108.0868095881867
 30
0.0
 40
5.0
 41
0.0
 71
     5
 72
     1
  1
4
  7
OKANO
 73
     1
 44
1.0
  0
POINT
  5
3159
330
303F
100
AcDbEntity
  8
Defpoints
 62
     0
100
AcDbPoint
 10
64.07239304482459
 20
115.4711488256961
 30
0.0
  0
POINT
  5
315A
330
303F
100
AcDbEntity
  8
Defpoints
 62
     0
100
AcDbPoint
 10
69.07239304482459
 20
115.4711488256961
 30
0.0
  0
POINT
  5
315B
330
303F
100
AcDbEntity
  8
Defpoints
 62
     0
100
AcDbPoint
 10
69.07239304482459
 20
104.5868095881867
 30
0.0
  0
ENDBLK
  5
304C
330
303F
100
AcDbEntity
  8
0
100
AcDbBlockEnd
  0
BLOCK
  5
3057
330
304D
100
AcDbEntity
  8
0
100
AcDbBlockBegin
  2
*D16
 70
     1
 10
0.0
 20
0.0
 30
0.0
  3
*D16
  1

  0
LINE
  5
3148
330
304D
100
AcDbEntity
  8
寸法線
 62
     0
370
    -2
100
AcDbLine
 10
69.07239304482459
 20
113.4711488256961
 30
0.0
 11
69.07239304482459
 21
101.5868095881867
 31
0.0
  0
LINE
  5
3149
330
304D
100
AcDbEntity
  8
寸法線
 62
     0
370
    -2
100
AcDbLine
 10
119.0723930448245
 20
113.4711488256961
 30
0.0
 11
119.0723930448245
 21
101.5868095881867
 31
0.0
  0
LINE
  5
314A
330
304D
100
AcDbEntity
  8
寸法線
 62
     0
370
    -2
100
AcDbLine
 10
72.0723930448246
 20
104.5868095881867
 30
0.0
 11
116.0723930448245
 21
104.5868095881867
 31
0.0
  0
INSERT
  5
314B
330
304D
100
AcDbEntity
  8
寸法線
 62
     0
370
    -2
100
AcDbBlockReference
  2
_Closed
 10
69.07239304482459
 20
104.5868095881867
 30
0.0
 41
3.0
 42
3.0
 43
3.0
 50
180.0
  0
INSERT
  5
314C
330
304D
100
AcDbEntity
  8
寸法線
 62
     0
370
    -2
100
AcDbBlockReference
  2
_Closed
 10
119.0723930448245
 20
104.5868095881867
 30
0.0
 41
3.0
 42
3.0
 43
3.0
  0
MTEXT
  5
314D
330
304D
100
AcDbEntity
  8
寸法線
 62
     0
100
AcDbMText
 10
94.07239304482459
 20
108.0868095881867
 30
0.0
 40
5.0
 41
0.0
 71
     5
 72
     1
  1
49.3
  7
OKANO
 73
     1
 44
1.0
  0
POINT
  5
314E
330
304D
100
AcDbEntity
  8
Defpoints
 62
     0
100
AcDbPoint
 10
69.07239304482459
 20
115.4711488256961
 30
0.0
  0
POINT
  5
314F
330
304D
100
AcDbEntity
  8
Defpoints
 62
     0
100
AcDbPoint
 10
119.0723930448245
 20
115.4711488256961
 30
0.0
  0
POINT
  5
3150
330
304D
100
AcDbEntity
  8
Defpoints
 62
     0
100
AcDbPoint
 10
119.0723930448245
 20
104.5868095881867
 30
0.0
  0
ENDBLK
  5
3058
330
304D
100
AcDbEntity
  8
0
100
AcDbBlockEnd
  0
BLOCK
  5
3065
330
3059
100
AcDbEntity
  8
0
100
AcDbBlockBegin
  2
*D17
 70
     1
 10
0.0
 20
0.0
 30
0.0
  3
*D17
  1

  0
LINE
  5
315C
330
3059
100
AcDbEntity
  8
寸法線
 62
     0
370
    -2
100
AcDbLine
 10
119.0723930448245
 20
113.4711488256961
 30
0.0
 11
119.0723930448245
 21
101.5868095881867
 31
0.0
  0
LINE
  5
315D
330
3059
100
AcDbEntity
  8
寸法線
 62
     0
370
    -2
100
AcDbLine
 10
124.0723930448246
 20
113.4711488256961
 30
0.0
 11
124.0723930448246
 21
101.5868095881867
 31
0.0
  0
LINE
  5
315E
330
3059
100
AcDbEntity
  8
寸法線
 62
     0
370
    -2
100
AcDbLine
 10
116.0723930448245
 20
104.5868095881867
 30
0.0
 11
113.0723930448245
 21
104.5868095881867
 31
0.0
  0
LINE
  5
315F
330
3059
100
AcDbEntity
  8
寸法線
 62
     0
370
    -2
100
AcDbLine
 10
127.0723930448246
 20
104.5868095881867
 30
0.0
 11
130.0723930448245
 21
104.5868095881867
 31
0.0
  0
LINE
  5
3160
330
3059
100
AcDbEntity
  8
寸法線
 62
     0
370
    -2
100
AcDbLine
 10
119.0723930448245
 20
104.5868095881867
 30
0.0
 11
124.0723930448246
 21
104.5868095881867
 31
0.0
  0
INSERT
  5
3161
330
3059
100
AcDbEntity
  8
寸法線
 62
     0
370
    -2
100
AcDbBlockReference
  2
_Closed
 10
119.0723930448245
 20
104.5868095881867
 30
0.0
 41
3.0
 42
3.0
 43
3.0
  0
INSERT
  5
3162
330
3059
100
AcDbEntity
  8
寸法線
 62
     0
370
    -2
100
AcDbBlockReference
  2
_Closed
 10
124.0723930448246
 20
104.5868095881867
 30
0.0
 41
3.0
 42
3.0
 43
3.0
 50
180.0
  0
MTEXT
  5
3163
330
3059
100
AcDbEntity
  8
寸法線
 62
     0
100
AcDbMText
 10
121.5723930448245
 20
108.0868095881867
 30
0.0
 40
5.0
 41
0.0
 71
     5
 72
     1
  1
4
  7
OKANO
 73
     1
 44
1.0
  0
POINT
  5
3164
330
3059
100
AcDbEntity
  8
Defpoints
 62
     0
100
AcDbPoint
 10
119.0723930448245
 20
115.4711488256961
 30
0.0
  0
POINT
  5
3165
330
3059
100
AcDbEntity
  8
Defpoints
 62
     0
100
AcDbPoint
 10
124.0723930448246
 20
115.4711488256961
 30
0.0
  0
POINT
  5
3166
330
3059
100
AcDbEntity
  8
Defpoints
 62
     0
100
AcDbPoint
 10
124.0723930448246
 20
104.5868095881867
 30
0.0
  0
ENDBLK
  5
3066
330
3059
100
AcDbEntity
  8
0
100
AcDbBlockEnd
  0
BLOCK
  5
3071
330
3067
100
AcDbEntity
  8
0
100
AcDbBlockBegin
  2
*D18
 70
     1
 10
0.0
 20
0.0
 30
0.0
  3
*D18
  1

  0
LINE
  5
3178
330
3067
100
AcDbEntity
  8
寸法線
 62
     0
370
    -2
100
AcDbLine
 10
124.0723930448246
 20
182.4711488256961
 30
0.0
 11
124.0723930448246
 21
226.1568078052726
 31
0.0
  0
LINE
  5
3179
330
3067
100
AcDbEntity
  8
寸法線
 62
     0
370
    -2
100
AcDbLine
 10
29.07239304482459
 20
212.4711488256961
 30
0.0
 11
29.07239304482459
 21
226.1568078052726
 31
0.0
  0
LINE
  5
317A
330
3067
100
AcDbEntity
  8
寸法線
 62
     0
370
    -2
100
AcDbLine
 10
121.0723930448245
 20
223.1568078052727
 30
0.0
 11
32.07239304482459
 21
223.1568078052727
 31
0.0
  0
INSERT
  5
317B
330
3067
100
AcDbEntity
  8
寸法線
 62
     0
370
    -2
100
AcDbBlockReference
  2
_Closed
 10
124.0723930448246
 20
223.1568078052727
 30
0.0
 41
3.0
 42
3.0
 43
3.0
  0
INSERT
  5
317C
330
3067
100
AcDbEntity
  8
寸法線
 62
     0
370
    -2
100
AcDbBlockReference
  2
_Closed
 10
29.07239304482459
 20
223.1568078052727
 30
0.0
 41
3.0
 42
3.0
 43
3.0
 50
180.0
  0
MTEXT
  5
317D
330
3067
100
AcDbEntity
  8
寸法線
 62
     0
100
AcDbMText
 10
76.57239304482459
 20
226.6585083288061
 30
0.0
 40
5.0
 41
0.0
 71
     5
 72
     1
  1
92.3
  7
OKANO
 73
     1
 44
1.0
  0
POINT
  5
317E
330
3067
100
AcDbEntity
  8
Defpoints
 62
     0
100
AcDbPoint
 10
124.0723930448246
 20
180.4711488256961
 30
0.0
  0
POINT
  5
317F
330
3067
100
AcDbEntity
  8
Defpoints
 62
     0
100
AcDbPoint
 10
29.07239304482459
 20
210.4711488256961
 30
0.0
  0
POINT
  5
3180
330
3067
100
AcDbEntity
  8
Defpoints
 62
     0
100
AcDbPoint
 10
29.07239304482459
 20
223.1568078052727
 30
0.0
  0
ENDBLK
  5
3072
330
3067
100
AcDbEntity
  8
0
100
AcDbBlockEnd
  0
BLOCK
  5
307D
330
3073
100
AcDbEntity
  8
0
100
AcDbBlockBegin
  2
*D19
 70
     1
 10
0.0
 20
0.0
 30
0.0
  3
*D19
  1

  0
LINE
  5
318A
330
3073
100
AcDbEntity
  8
寸法線
 62
     0
370
    -2
100
AcDbLine
 10
119.0723930448245
 20
152.4711488256961
 30
0.0
 11
119.0723930448245
 21
165.2736217044059
 31
0.0
  0
LINE
  5
318B
330
3073
100
AcDbEntity
  8
寸法線
 62
     0
370
    -2
100
AcDbLine
 10
70.07239304482459
 20
152.4711488256961
 30
0.0
 11
70.07239304482459
 21
165.2736217044059
 31
0.0
  0
LINE
  5
318C
330
3073
100
AcDbEntity
  8
寸法線
 62
     0
370
    -2
100
AcDbLine
 10
116.0723930448245
 20
162.2736217044059
 30
0.0
 11
73.07239304482459
 21
162.2736217044059
 31
0.0
  0
INSERT
  5
318D
330
3073
100
AcDbEntity
  8
寸法線
 62
     0
370
    -2
100
AcDbBlockReference
  2
_Closed
 10
119.0723930448245
 20
162.2736217044059
 30
0.0
 41
3.0
 42
3.0
 43
3.0
  0
INSERT
  5
318E
330
3073
100
AcDbEntity
  8
寸法線
 62
     0
370
    -2
100
AcDbBlockReference
  2
_Closed
 10
70.07239304482459
 20
162.2736217044059
 30
0.0
 41
3.0
 42
3.0
 43
3.0
 50
180.0
  0
MTEXT
  5
318F
330
3073
100
AcDbEntity
  8
寸法線
 62
     0
100
AcDbMText
 10
94.5723930448246
 20
165.7736217044059
 30
0.0
 40
5.0
 41
0.0
 71
     5
 72
     1
  1
49.0
  7
OKANO
 73
     1
 44
1.0
  0
POINT
  5
3190
330
3073
100
AcDbEntity
  8
Defpoints
 62
     0
100
AcDbPoint
 10
119.0723930448245
 20
150.4711488256961
 30
0.0
  0
POINT
  5
3191
330
3073
100
AcDbEntity
  8
Defpoints
 62
     0
100
AcDbPoint
 10
70.07239304482459
 20
150.4711488256961
 30
0.0
  0
POINT
  5
3192
330
3073
100
AcDbEntity
  8
Defpoints
 62
     0
100
AcDbPoint
 10
70.07239304482459
 20
162.2736217044059
 30
0.0
  0
ENDBLK
  5
307E
330
3073
100
AcDbEntity
  8
0
100
AcDbBlockEnd
  0
BLOCK
  5
3089
330
307F
100
AcDbEntity
  8
0
100
AcDbBlockBegin
  2
*D20
 70
     1
 10
0.0
 20
0.0
 30
0.0
  3
*D20
  1

  0
LINE
  5
312B
330
307F
100
AcDbEntity
  8
寸法線
 62
     0
370
    -2
100
AcDbLine
 10
64.07239304482459
 20
123.4711488256961
 30
0.0
 11
64.07239304482459
 21
116.9750373452174
 31
0.0
  0
LINE
  5
312C
330
307F
100
AcDbEntity
  8
寸法線
 62
     0
370
    -2
100
AcDbLine
 10
39.07239304482459
 20
148.4711488256961
 30
0.0
 11
39.07239304482459
 21
116.9750373452174
 31
0.0
  0
LINE
  5
312D
330
307F
100
AcDbEntity
  8
寸法線
 62
     0
370
    -2
100
AcDbLine
 10
61.07239304482459
 20
119.9750373452173
 30
0.0
 11
42.07239304482459
 21
119.9750373452173
 31
0.0
  0
INSERT
  5
312E
330
307F
100
AcDbEntity
  8
寸法線
 62
     0
370
    -2
100
AcDbBlockReference
  2
_Closed
 10
64.07239304482459
 20
119.9750373452173
 30
0.0
 41
3.0
 42
3.0
 43
3.0
  0
INSERT
  5
312F
330
307F
100
AcDbEntity
  8
寸法線
 62
     0
370
    -2
100
AcDbBlockReference
  2
_Closed
 10
39.07239304482459
 20
119.9750373452173
 30
0.0
 41
3.0
 42
3.0
 43
3.0
 50
180.0
  0
MTEXT
  5
3130
330
307F
100
AcDbEntity
  8
寸法線
 62
     0
100
AcDbMText
 10
51.57239304482459
 20
123.4755294712016
 30
0.0
 40
5.0
 41
0.0
 71
     5
 72
     1
  1
25
  7
OKANO
 73
     1
 44
1.0
  0
POINT
  5
3131
330
307F
100
AcDbEntity
  8
Defpoints
 62
     0
100
AcDbPoint
 10
64.07239304482459
 20
125.4711488256961
 30
0.0
  0
POINT
  5
3132
330
307F
100
AcDbEntity
  8
Defpoints
 62
     0
100
AcDbPoint
 10
39.07239304482459
 20
150.4711488256961
 30
0.0
  0
POINT
  5
3133
330
307F
100
AcDbEntity
  8
Defpoints
 62
     0
100
AcDbPoint
 10
39.07239304482459
 20
119.9750373452173
 30
0.0
  0
ENDBLK
  5
308A
330
307F
100
AcDbEntity
  8
0
100
AcDbBlockEnd
  0
BLOCK
  5
3095
330
308B
100
AcDbEntity
  8
0
100
AcDbBlockBegin
  2
*D21
 70
     1
 10
0.0
 20
0.0
 30
0.0
  3
*D21
  1

  0
LINE
  5
3134
330
308B
100
AcDbEntity
  8
寸法線
 62
     0
370
    -2
100
AcDbLine
 10
37.07239304482459
 20
150.4711488256961
 30
0.0
 11
29.30267033560836
 21
150.4711488256961
 31
0.0
  0
LINE
  5
3135
330
308B
100
AcDbEntity
  8
寸法線
 62
     0
370
    -2
100
AcDbLine
 10
62.0723930448246
 20
125.4711488256961
 30
0.0
 11
29.30267033560835
 21
125.4711488256961
 31
0.0
  0
LINE
  5
3136
330
308B
100
AcDbEntity
  8
寸法線
 62
     0
370
    -2
100
AcDbLine
 10
32.30267033560836
 20
147.4711488256961
 30
0.0
 11
32.30267033560835
 21
128.4711488256961
 31
0.0
  0
INSERT
  5
3137
330
308B
100
AcDbEntity
  8
寸法線
 62
     0
370
    -2
100
AcDbBlockReference
  2
_Closed
 10
32.30267033560836
 20
150.4711488256961
 30
0.0
 41
3.0
 42
3.0
 43
3.0
 50
90.0
  0
INSERT
  5
3138
330
308B
100
AcDbEntity
  8
寸法線
 62
     0
370
    -2
100
AcDbBlockReference
  2
_Closed
 10
32.30267033560835
 20
125.4711488256961
 30
0.0
 41
3.0
 42
3.0
 43
3.0
 50
270.0
  0
MTEXT
  5
3139
330
308B
100
AcDbEntity
  8
寸法線
 62
     0
100
AcDbMText
 10
28.80217820962408
 20
137.9711488256961
 30
0.0
 40
5.0
 41
0.0
 71
     5
 72
     1
  1
25
  7
OKANO
 11
0.0000000000000001
 21
1.0
 31
0.0
 73
     1
 44
1.0
  0
POINT
  5
313A
330
308B
100
AcDbEntity
  8
Defpoints
 62
     0
100
AcDbPoint
 10
39.07239304482459
 20
150.4711488256961
 30
0.0
  0
POINT
  5
313B
330
308B
100
AcDbEntity
  8
Defpoints
 62
     0
100
AcDbPoint
 10
64.07239304482459
 20
125.4711488256961
 30
0.0
  0
POINT
  5
313C
330
308B
100
AcDbEntity
  8
Defpoints
 62
     0
100
AcDbPoint
 10
32.30267033560835
 20
125.4711488256961
 30
0.0
  0
ENDBLK
  5
3096
330
308B
100
AcDbEntity
  8
0
100
AcDbBlockEnd
  0
BLOCK
  5
30A1
330
3097
100
AcDbEntity
  8
0
100
AcDbBlockBegin
  2
*D22
 70
     1
 10
0.0
 20
0.0
 30
0.0
  3
*D22
  1

  0
LINE
  5
3181
330
3097
100
AcDbEntity
  8
寸法線
 62
     0
370
    -2
100
AcDbLine
 10
27.07239304482459
 20
210.4711488256961
 30
0.0
 11
10.25548068127888
 21
210.4711488256961
 31
0.0
  0
LINE
  5
3182
330
3097
100
AcDbEntity
  8
寸法線
 62
     0
370
    -2
100
AcDbLine
 10
27.30267033560835
 20
150.4711488256961
 30
0.0
 11
10.25548068127887
 21
150.4711488256961
 31
0.0
  0
LINE
  5
3183
330
3097
100
AcDbEntity
  8
寸法線
 62
     0
370
    -2
100
AcDbLine
 10
13.25548068127888
 20
207.4711488256961
 30
0.0
 11
13.25548068127886
 21
153.4711488256961
 31
0.0
  0
INSERT
  5
3184
330
3097
100
AcDbEntity
  8
寸法線
 62
     0
370
    -2
100
AcDbBlockReference
  2
_Closed
 10
13.25548068127888
 20
210.4711488256961
 30
0.0
 41
3.0
 42
3.0
 43
3.0
 50
90.0
  0
INSERT
  5
3185
330
3097
100
AcDbEntity
  8
寸法線
 62
     0
370
    -2
100
AcDbBlockReference
  2
_Closed
 10
13.25548068127886
 20
150.4711488256961
 30
0.0
 41
3.0
 42
3.0
 43
3.0
 50
270.0
  0
MTEXT
  5
3186
330
3097
100
AcDbEntity
  8
寸法線
 62
     0
100
AcDbMText
 10
9.755480681278845
 20
180.4711488256961
 30
0.0
 40
5.0
 41
0.0
 71
     5
 72
     1
  1
57.3
  7
OKANO
 11
0.0000000000000001
 21
1.0
 31
0.0
 73
     1
 44
1.0
  0
POINT
  5
3187
330
3097
100
AcDbEntity
  8
Defpoints
 62
     0
100
AcDbPoint
 10
29.07239304482459
 20
210.4711488256961
 30
0.0
  0
POINT
  5
3188
330
3097
100
AcDbEntity
  8
Defpoints
 62
     0
100
AcDbPoint
 10
29.30267033560835
 20
150.4711488256961
 30
0.0
  0
POINT
  5
3189
330
3097
100
AcDbEntity
  8
Defpoints
 62
     0
100
AcDbPoint
 10
13.25548068127886
 20
150.4711488256961
 30
0.0
  0
ENDBLK
  5
30A2
330
3097
100
AcDbEntity
  8
0
100
AcDbBlockEnd
  0
BLOCK
  5
30AF
330
30A3
100
AcDbEntity
  8
0
100
AcDbBlockBegin
  2
*D23
 70
     1
 10
0.0
 20
0.0
 30
0.0
  3
*D23
  1

  0
LINE
  5
313D
330
30A3
100
AcDbEntity
  8
寸法線
 62
     0
370
    -2
100
AcDbLine
 10
96.0723930448246
 20
90.13898815801644
 30
0.0
 11
96.0723930448246
 21
94.49260559718107
 31
0.0
  0
LINE
  5
313E
330
30A3
100
AcDbEntity
  8
寸法線
 62
     0
370
    -2
100
AcDbLine
 10
92.0723930448246
 20
90.13898815801644
 30
0.0
 11
92.0723930448246
 21
94.49260559718107
 31
0.0
  0
LINE
  5
313F
330
30A3
100
AcDbEntity
  8
寸法線
 62
     0
370
    -2
100
AcDbLine
 10
99.07239304482459
 20
91.49260559718106
 30
0.0
 11
102.0723930448246
 21
91.49260559718106
 31
0.0
  0
LINE
  5
3140
330
30A3
100
AcDbEntity
  8
寸法線
 62
     0
370
    -2
100
AcDbLine
 10
89.07239304482459
 20
91.49260559718106
 30
0.0
 11
81.57239304482459
 21
91.49260559718106
 31
0.0
  0
LINE
  5
3141
330
30A3
100
AcDbEntity
  8
寸法線
 62
     0
370
    -2
100
AcDbLine
 10
96.0723930448246
 20
91.49260559718106
 30
0.0
 11
92.0723930448246
 21
91.49260559718106
 31
0.0
  0
INSERT
  5
3142
330
30A3
100
AcDbEntity
  8
寸法線
 62
     0
370
    -2
100
AcDbBlockReference
  2
_Closed
 10
96.0723930448246
 20
91.49260559718106
 30
0.0
 41
3.0
 42
3.0
 43
3.0
 50
180.0
  0
INSERT
  5
3143
330
30A3
100
AcDbEntity
  8
寸法線
 62
     0
370
    -2
100
AcDbBlockReference
  2
_Closed
 10
92.0723930448246
 20
91.49260559718106
 30
0.0
 41
3.0
 42
3.0
 43
3.0
  0
MTEXT
  5
3144
330
30A3
100
AcDbEntity
  8
寸法線
 62
     0
100
AcDbMText
 10
83.82239304482459
 20
94.99260559718107
 30
0.0
 40
5.0
 41
0.0
 71
     5
 72
     1
  1
4
  7
OKANO
 73
     1
 44
1.0
  0
POINT
  5
3145
330
30A3
100
AcDbEntity
  8
Defpoints
 62
     0
100
AcDbPoint
 10
96.0723930448246
 20
88.13898815801644
 30
0.0
  0
POINT
  5
3146
330
30A3
100
AcDbEntity
  8
Defpoints
 62
     0
100
AcDbPoint
 10
92.0723930448246
 20
88.13898815801644
 30
0.0
  0
POINT
  5
3147
330
30A3
100
AcDbEntity
  8
Defpoints
 62
     0
100
AcDbPoint
 10
92.0723930448246
 20
91.49260559718106
 30
0.0
  0
ENDBLK
  5
30B0
330
30A3
100
AcDbEntity
  8
0
100
AcDbBlockEnd
  0
ENDSEC
  0
SECTION
  2
ENTITIES
  0
XLINE
  5
28ED
330
1F
100
AcDbEntity
  8
構築線
100
AcDbXline
 10
247.6414745488584
 20
210.4788998873083
 30
0.0
 11
0.0
 21
-1.0
 31
0.0
  0
CIRCLE
  5
28F0
330
1F
100
AcDbEntity
  8
太線
100
AcDbCircle
 10
247.6414745488584
 20
180.4711488256961
 30
0.0
 40
25.0
  0
CIRCLE
  5
28F1
330
1F
100
AcDbEntity
  8
太線
100
AcDbCircle
 10
247.6414745488584
 20
180.4711488256961
 30
0.0
 40
30.0
  0
LINE
  5
28F2
330
1F
100
AcDbEntity
  8
太線
100
AcDbLine
 10
217.6414745488584
 20
180.4711488256961
 30
0.0
 11
217.6414745488584
 21
115.4711488256961
 31
0.0
  0
LINE
  5
28F4
330
1F
100
AcDbEntity
  8
太線
100
AcDbLine
 10
277.6414745488584
 20
115.4711488256961
 30
0.0
 11
277.6414745488584
 21
180.4711488256961
 31
0.0
  0
LINE
  5
28FE
330
1F
100
AcDbEntity
  8
想像線
100
AcDbLine
 10
222.6414745488584
 20
115.4711488256961
 30
0.0
 11
222.6414745488584
 21
150.4711488256961
 31
0.0
  0
LINE
  5
28FF
330
1F
100
AcDbEntity
  8
想像線
100
AcDbLine
 10
222.6414745488584
 20
150.4711488256961
 30
0.0
 11
272.6414745488584
 21
150.4711488256961
 31
0.0
  0
LINE
  5
2900
330
1F
100
AcDbEntity
  8
想像線
100
AcDbLine
 10
272.6414745488584
 20
150.4711488256961
 30
0.0
 11
272.6414745488584
 21
115.4711488256961
 31
0.0
  0
TEXT
  5
29C1
330
1F
100
AcDbEntity
  8
文字
100
AcDbText
 10
335.4390850015204
 20
-30.07903840087669
 30
0.0
 40
3.599999999999999
  1
SET SCREW COUP
 51
15.0
  7
OKANO
100
AcDbText
  0
TEXT
  5
29C2
330
1F
100
AcDbEntity
  8
文字
100
AcDbText
 10
312.2759482959058
 20
-37.63928352067121
 30
0.0
 40
4.799999999999999
  1
joint kogyo T.okano
 51
15.0
  7
OKANO
100
AcDbText
  0
TEXT
  5
29C3
330
1F
100
AcDbEntity
  8
文字
100
AcDbText
 10
304.787635284109
 20
-22.88691201338342
 30
0.0
 40
4.799999999999999
  1
F-999-20050127 Auto CAD
 51
15.0
  7
OKANO
100
AcDbText
  0
LINE
  5
29C4
330
1F
100
AcDbEntity
  8
太線
100
AcDbLine
 10
277.3654071024951
 20
-23.80771966381378
 30
0.0
 11
385.3654071024951
 21
-23.80771966381378
 31
0.0
  0
LWPOLYLINE
  5
29C5
330
1F
100
AcDbEntity
  8
太線
100
AcDbPolyline
 90
        4
 70
     1
 43
0.0
 10
277.3654071024951
 20
-15.40771966381378
 10
385.3654071024951
 20
-15.40771966381378
 10
385.3654071024951
 20
-40.60771966381378
 10
277.3654071024951
 20
-40.60771966381378
  0
TEXT
  5
29C6
330
1F
100
AcDbEntity
  8
文字
100
AcDbText
 10
281.2377906685526
 20
-32.00123146266446
 30
0.0
 40
2.399999999999999
  1
CHECK
 51
15.0
  7
OKANO
100
AcDbText
  0
LINE
  5
29C7
330
1F
100
AcDbEntity
  8
太線
100
AcDbLine
 10
301.3654071024951
 20
-15.40771966381378
 30
0.0
 11
301.3654071024951
 21
-40.60771966381378
 31
0.0
  0
TEXT
  5
29C8
330
1F
100
AcDbEntity
  8
文字
100
AcDbText
 10
281.2377906685526
 20
-38.92065906888028
 30
0.0
 40
2.399999999999999
  1
ISSUED
 51
15.0
  7
OKANO
100
AcDbText
  0
TEXT
  5
29C9
330
1F
100
AcDbEntity
  8
文字
100
AcDbText
 10
281.4943051014533
 20
-35.58908287961215
 30
0.0
 40
2.399999999999999
  1
APPR
 51
15.0
  7
OKANO
100
AcDbText
  0
TEXT
  5
29CA
330
1F
100
AcDbEntity
  8
文字
100
AcDbText
 10
279.4421951168669
 20
-22.00650348504862
 30
0.0
 40
2.399999999999999
  1
FILM NAME
 51
15.0
  7
OKANO
100
AcDbText
  0
TEXT
  5
29CB
330
1F
100
AcDbEntity
  8
文字
100
AcDbText
 10
280.724763994199
 20
-28.41338063590542
 30
0.0
 40
2.399999999999999
  1
DRAWN
 51
15.0
  7
OKANO
100
AcDbText
  0
TEXT
  5
29CC
330
1F
100
AcDbEntity
  8
文字
100
AcDbText
 10
305.768538813573
 20
-30.07903840087669
 30
0.0
 40
4.799999999999999
  1
WS-4-2LL
 51
15.0
  7
OKANO
100
AcDbText
  0
XLINE
  5
29F1
330
1F
100
AcDbEntity
  8
構築線
100
AcDbXline
 10
247.6414745488584
 20
210.4788998873083
 30
0.0
 11
0.0
 21
-1.0
 31
0.0
  0
LINE
  5
29F3
330
1F
100
AcDbEntity
  8
太線
100
AcDbLine
 10
245.1414745488584
 20
150.4711488256961
 30
0.0
 11
245.1414745488584
 21
125.4711488256961
 31
0.0
  0
LINE
  5
29F4
330
1F
100
AcDbEntity
  8
太線
100
AcDbLine
 10
245.1414745488584
 20
125.4711488256961
 30
0.0
 11
250.1414745488584
 21
125.4711488256961
 31
0.0
  0
LINE
  5
29F5
330
1F
100
AcDbEntity
  8
太線
100
AcDbLine
 10
250.1414745488584
 20
125.4711488256961
 30
0.0
 11
250.1414745488584
 21
150.4711488256961
 31
0.0
  0
LINE
  5
29FB
330
1F
100
AcDbEntity
  8
破線
100
AcDbLine
 10
245.1414745488584
 20
142.4201536799837
 30
0.0
 11
250.1414745488584
 21
142.4201536799837
 31
0.0
  0
LINE
  5
2A68
330
1F
100
AcDbEntity
  8
破線
100
AcDbLine
 10
245.1414745488584
 20
148.57313976852
 30
0.0
 11
250.1414745488584
 21
148.57313976852
 31
0.0
  0
LINE
  5
2A81
330
1F
100
AcDbEntity
  8
太線
100
AcDbLine
 10
217.6414745488584
 20
115.4711488256961
 30
0.0
 11
277.6414745488584
 21
115.4711488256961
 31
0.0
  0
CIRCLE
  5
2A86
330
1F
100
AcDbEntity
  8
細線
100
AcDbCircle
 10
247.6414745488584
 20
180.4711488256961
 30
0.0
 40
23.6476562994305
  0
DIMENSION
  5
2B3D
330
1F
100
AcDbEntity
  8
寸法線
100
AcDbDimension
  2
*D2
 10
277.6414745488584
 20
97.20471689514226
 30
0.0
 11
247.6414745488584
 21
100.7047168951422
 31
0.0
 70
    32
  1
57.3
 71
     5
 42
60.0
  3
sunpo
100
AcDbAlignedDimension
 13
217.6414745488584
 23
115.4711488256961
 33
0.0
 14
277.6414745488584
 24
115.4711488256961
 34
0.0
100
AcDbRotatedDimension
1001
ACAD
1000
DSTYLE
1002
{
1070
    40
1040
1.0
1002
}
  0
DIMENSION
  5
2B62
330
1F
100
AcDbEntity
  8
寸法線
100
AcDbDimension
  2
*D3
 10
250.1414745488584
 20
116.9917521859024
 30
0.0
 11
247.6414745488584
 21
120.4917521859024
 31
0.0
 70
    32
  1
4
 71
     5
 42
5.0
  3
sunpo
100
AcDbAlignedDimension
 13
245.1414745488584
 23
125.4711488256961
 33
0.0
 14
250.1414745488584
 24
125.4711488256961
 34
0.0
100
AcDbRotatedDimension
1001
ACAD
1000
DSTYLE
1002
{
1070
    40
1040
1.0
1002
}
  0
LINE
  5
2BBF
330
1F
100
AcDbEntity
  8
想像線
100
AcDbLine
 10
271.2891308482889
 20
180.4711488256961
 30
0.0
 11
271.2891308482889
 21
150.4711488256961
 31
0.0
  0
LINE
  5
2BC0
330
1F
100
AcDbEntity
  8
想像線
100
AcDbLine
 10
223.9938182494279
 20
180.4711488256961
 30
0.0
 11
223.9938182494279
 21
150.4711488256961
 31
0.0
  0
TEXT
  5
2BE3
330
1F
100
AcDbEntity
  8
文字
100
AcDbText
 10
215.1563417339238
 20
36.40693993906816
 30
0.0
 40
4.799999999999999
  1
注記　内面バリは最小限にする
 51
15.0
  7
OKANO
100
AcDbText
  0
LINE
  5
2C83
330
1F
100
AcDbEntity
  8
太線
100
AcDbLine
 10
302.4832036844602
 20
157.8991637536956
 30
0.0
 11
317.343877592107
 21
148.2905127807309
 31
0.0
  0
LINE
  5
2C84
330
1F
100
AcDbEntity
  8
太線
100
AcDbLine
 10
295.9675724185681
 20
147.8221329803512
 30
0.0
 11
310.8282463262149
 21
138.2134820073865
 31
0.0
  0
ARC
  5
2C88
330
1F
100
AcDbEntity
  8
細線
 62
     0
100
AcDbCircle
 10
314.086061959161
 20
143.2519973940587
 30
0.0
 40
6.0
100
AcDbArc
 50
237.1140002554849
 51
57.11400025548488
  0
ARC
  5
2C89
330
1F
100
AcDbEntity
  8
細線
 62
     0
100
AcDbCircle
 10
299.2253880515142
 20
152.8606483670234
 30
0.0
 40
6.0
100
AcDbArc
 50
57.11400025548488
 51
237.1140002554849
  0
ARC
  5
2D54
330
1F
100
AcDbEntity
  8
太線
100
AcDbCircle
 10
304.3441230330198
 20
150.0192250970544
 30
0.0
 40
30.0
100
AcDbArc
 50
234.9119083748011
 51
38.76463442164939
  0
LINE
  5
2D55
330
1F
100
AcDbEntity
  8
太線
100
AcDbLine
 10
265.9566493082043
 20
204.4711488256961
 30
0.0
 11
327.7358605832259
 21
168.8029045657389
 31
0.0
  0
LINE
  5
2D56
330
1F
100
AcDbEntity
  8
太線
100
AcDbLine
 10
287.0990671799477
 20
125.4711488256961
 30
0.0
 11
277.6414745488584
 21
125.4711488256961
 31
0.0
  0
XLINE
  5
2D7B
330
1F
100
AcDbEntity
  8
構築線
100
AcDbXline
 10
127.1231239081635
 20
0.7818631088957773
 30
0.0
 11
1.0
 21
0.0
 31
0.0
  0
SPLINE
  5
2D7D
330
1F
100
AcDbEntity
  8
構築線
100
AcDbSpline
210
0.0
220
0.0
230
1.0
 70
     8
 71
     3
 72
    10
 73
     6
 74
     4
 42
0.0000000001
 43
0.0000000001
 44
0.0000000001
 40
0.0
 40
0.0
 40
0.0
 40
0.0
 40
2.997736834175268
 40
6.357249551957798
 40
11.8850623071538
 40
11.8850623071538
 40
11.8850623071538
 40
11.8850623071538
 10
68.0739347556646
 20
-33.37087954927574
 30
0.0
 10
68.97399861512929
 20
-34.08749005142468
 30
0.0
 10
70.88274874358726
 20
-35.60719376316423
 30
0.0
 10
74.29630290225063
 20
-31.63611061365822
 30
0.0
 10
77.07357342433574
 20
-33.86191020021213
 30
0.0
 10
78.80100328647927
 20
-35.24633157450205
 30
0.0
 11
68.0739347556646
 21
-33.37087954927574
 31
0.0
 11
70.75570188836832
 21
-34.71048813872312
 31
0.0
 11
73.70564629664727
 21
-33.10295783138633
 31
0.0
 11
78.80100328647927
 21
-35.24633157450205
 31
0.0
  0
DIMENSION
  5
2D92
330
1F
100
AcDbEntity
  8
寸法線
100
AcDbDimension
  2
*D5
 10
167.547088514491
 20
168.8029045657389
 30
0.0
 11
299.5476763469516
 21
215.0454199032597
 31
0.0
 70
    34
 71
     5
 42
1.047197551196616
  3
sunpo
100
AcDb2LineAngularDimension
 13
265.9566493082043
 23
204.4711488256961
 33
0.0
 14
327.7358605832259
 24
168.8029045657389
 34
0.0
 15
229.3262997895125
 25
204.4711488256961
 35
0.0
 16
302.2059316445794
 26
205.4242339295745
 36
0.0
1001
ACAD
1000
DSTYLE
1002
{
1070
    40
1040
1.0
1002
}
  0
DIMENSION
  5
2DA0
330
1F
100
AcDbEntity
  8
寸法線
100
AcDbDimension
  2
*D6
 10
327.7358605832259
 20
168.8029045657389
 30
0.0
 11
188.9156964541063
 21
215.0454199032597
 31
0.0
 70
    34
 71
     5
 42
1.047197551196617
  3
sunpo
100
AcDb2LineAngularDimension
 13
229.3262997895125
 23
204.4711488256961
 33
0.0
 14
167.547088514491
 24
168.8029045657389
 34
0.0
 15
265.9566493082043
 25
204.4711488256961
 35
0.0
 16
193.2547001150148
 26
224.6352756296519
 36
0.0
1001
ACAD
1000
DSTYLE
1002
{
1070
    40
1040
1.0
1002
}
  0
DIMENSION
  5
2DAE
330
1F
100
AcDbEntity
  8
寸法線
100
AcDbDimension
  2
*D7
 10
334.9065103940656
 20
97.2588439248765
 30
0.0
 11
306.273992471462
 21
100.7588439248764
 31
0.0
 70
    32
  1
57
 71
     5
 42
57.26503584520719
  3
sunpo
100
AcDbAlignedDimension
 13
277.6414745488584
 23
115.4711488256961
 33
0.0
 14
334.9065103940656
 24
137.3576164872655
 34
0.0
100
AcDbRotatedDimension
1001
ACAD
1000
DSTYLE
1002
{
1070
    40
1040
1.0
1002
}
  0
DIMENSION
  5
2DC8
330
1F
100
AcDbEntity
  8
寸法線
100
AcDbDimension
  2
*D8
 10
381.3930337331198
 20
134.7806136591487
 30
0.0
 11
363.2405655110125
 21
112.2093064149707
 31
0.0
 70
    33
  1
57
 71
     5
 42
57.50568713668923
  3
sunpo
100
AcDbAlignedDimension
 13
290.6529544917793
 23
123.4772725856234
 33
0.0
 14
321.0129529915807
 24
172.3155213682615
 34
0.0
1001
ACAD
1000
DSTYLE
1002
{
1070
    40
1040
1.0
1002
}
  0
DIMENSION
  5
2DE7
330
1F
100
AcDbEntity
  8
寸法線
100
AcDbDimension
  2
*D9
 10
292.1911704082705
 20
163.7594251653193
 30
0.0
 11
286.1009392345508
 21
160.4176697711055
 31
0.0
 70
    33
 71
     5
 42
12.00079993000912
  3
sunpo
100
AcDbAlignedDimension
 13
296.4564636448947
 23
147.1990678405997
 33
0.0
 14
302.6351443999699
 24
157.487075572273
 34
0.0
1001
ACAD
1000
DSTYLE
1002
{
1070
    40
1040
1.0
1002
}
  0
DIMENSION
  5
2E07
330
1F
100
AcDbEntity
  8
寸法線
100
AcDbDimension
  2
*D10
 10
327.478591509703
 20
153.1238755616144
 30
0.0
 11
316.8436946590889
 21
163.8650662011754
 31
0.0
 70
    33
  1
30
 71
     5
 42
29.40912833652828
  3
sunpo
100
AcDbAlignedDimension
 13
294.6279070633229
 23
155.9981816155278
 33
0.0
 14
319.5963971114019
 24
140.4588336809017
 34
0.0
1001
ACAD
1000
DSTYLE
1002
{
1070
    40
1040
1.0
1002
}
  0
DIMENSION
  5
2F84
330
1F
100
AcDbEntity
  8
寸法線
100
AcDbDimension
  2
*D11
 10
359.8505699919579
 20
181.5518177930917
 30
0.0
 11
356.7798112933765
 21
187.7191351108146
 31
0.0
 70
    33
  1
10
 71
     5
 42
11.86850654166704
  3
sunpo
100
AcDbAlignedDimension
 13
318.1576042293761
 23
139.1398507737955
 33
0.0
 14
328.1114884865633
 24
132.6759791998766
 34
0.0
1001
ACAD
1000
DSTYLE
1002
{
1070
    40
1040
1.0
1002
}
  0
LINE
  5
2FDF
330
1F
100
AcDbEntity
  8
太線
100
AcDbLine
 10
96.0723930448246
 20
125.4711488256961
 30
0.0
 11
96.0723930448246
 21
210.4044079198876
 31
0.0
  0
LINE
  5
2FE0
330
1F
100
AcDbEntity
  8
太線
100
AcDbLine
 10
92.0723930448246
 20
210.4711488256961
 30
0.0
 11
92.0723930448246
 21
125.4711488256961
 31
0.0
  0
DIMENSION
  5
2FE1
330
1F
100
AcDbEntity
  8
寸法線
100
AcDbDimension
  2
*D21
 10
32.30267033560835
 20
125.4711488256961
 30
0.0
 11
28.80217820962408
 21
137.9711488256961
 31
0.0
 70
    32
 71
     5
 42
24.99999999999998
  3
sunpo
100
AcDbAlignedDimension
 13
39.07239304482459
 23
150.4711488256961
 33
0.0
 14
64.07239304482459
 24
125.4711488256961
 34
0.0
 50
90.0
100
AcDbRotatedDimension
1001
ACAD
1000
DSTYLE
1002
{
1070
    40
1040
1.0
1002
}
  0
DIMENSION
  5
2FE2
330
1F
100
AcDbEntity
  8
寸法線
100
AcDbDimension
  2
*D20
 10
39.07239304482459
 20
119.9750373452173
 30
0.0
 11
51.57239304482459
 21
123.4755294712016
 31
0.0
 70
    32
 71
     5
 42
25.0
  3
sunpo
100
AcDbAlignedDimension
 13
64.07239304482459
 23
125.4711488256961
 33
0.0
 14
39.07239304482459
 24
150.4711488256961
 34
0.0
 50
180.0
100
AcDbRotatedDimension
1001
ACAD
1000
DSTYLE
1002
{
1070
    40
1040
1.0
1002
}
  0
DIMENSION
  5
2FE3
330
1F
100
AcDbEntity
  8
寸法線
100
AcDbDimension
  2
*D14
 10
140.8484065431398
 20
115.4711488256961
 30
0.0
 11
137.3484065431398
 21
132.9711488256961
 31
0.0
 70
    32
 71
     5
 42
35.00000000000001
  3
sunpo
100
AcDbAlignedDimension
 13
118.0723930448245
 23
150.4711488256961
 33
0.0
 14
124.0723930448246
 24
115.4711488256961
 34
0.0
 50
90.0
100
AcDbRotatedDimension
1001
ACAD
1000
DSTYLE
1002
{
1070
    40
1040
1.0
1070
   279
1070
     1
1002
}
  0
LINE
  5
2FE4
330
1F
100
AcDbEntity
  8
太線
100
AcDbLine
 10
39.07239304482459
 20
150.4711488256961
 30
0.0
 11
64.07239304482459
 21
125.4711488256961
 31
0.0
  0
LINE
  5
2FE5
330
1F
100
AcDbEntity
  8
想像線
100
AcDbLine
 10
69.07239304482459
 20
150.4711488256961
 30
0.0
 11
69.07239304482459
 21
115.4711488256961
 31
0.0
  0
LINE
  5
2FE6
330
1F
100
AcDbEntity
  8
想像線
100
AcDbLine
 10
119.0723930448245
 20
115.4711488256961
 30
0.0
 11
119.0723930448245
 21
150.4711488256961
 31
0.0
  0
LINE
  5
2FE7
330
1F
100
AcDbEntity
  8
太線
100
AcDbLine
 10
64.07239304482459
 20
115.4711488256961
 30
0.0
 11
64.07239304482459
 21
150.4711488256961
 31
0.0
  0
LINE
  5
2FE8
330
1F
100
AcDbEntity
  8
太線
100
AcDbLine
 10
124.0723930448246
 20
180.4711488256961
 30
0.0
 11
124.0723930448246
 21
115.4711488256961
 31
0.0
  0
LINE
  5
2FE9
330
1F
100
AcDbEntity
  8
想像線
100
AcDbLine
 10
94.07239304482459
 20
-22.43922820400709
 30
0.0
 11
64.07239304482459
 21
-22.43922820400709
 31
0.0
  0
LINE
  5
2FEA
330
1F
100
AcDbEntity
  8
想像線
100
AcDbLine
 10
94.07239304482459
 20
24.10999122616724
 30
0.0
 11
64.07239304482459
 21
24.10999122616724
 31
0.0
  0
DIMENSION
  5
2FEB
330
1F
100
AcDbEntity
  8
寸法線
100
AcDbDimension
  2
*D15
 10
69.07239304482459
 20
104.5868095881867
 30
0.0
 11
66.57239304482459
 21
108.0868095881867
 31
0.0
 70
    32
  1
4
 71
     5
 42
5.0
  3
sunpo
100
AcDbAlignedDimension
 13
64.07239304482459
 23
115.4711488256961
 33
0.0
 14
69.07239304482459
 24
115.4711488256961
 34
0.0
 50
180.0
100
AcDbRotatedDimension
1001
ACAD
1000
DSTYLE
1002
{
1070
    40
1040
1.0
1002
}
  0
LINE
  5
2FEC
330
1F
100
AcDbEntity
  8
太線
100
AcDbLine
 10
124.0723930448246
 20
115.4711488256961
 30
0.0
 11
64.07239304482459
 21
115.4711488256961
 31
0.0
  0
ARC
  5
2FED
330
1F
100
AcDbEntity
  8
太線
100
AcDbCircle
 10
94.07239304482459
 20
0.8353815110800724
 30
0.0
 40
30.0
100
AcDbArc
 50
275.8192352112611
 51
263.4181218160597
  0
LINE
  5
2FEE
330
1F
100
AcDbEntity
  8
太線
100
AcDbLine
 10
29.07239304482459
 20
-29.16461848891993
 30
0.0
 11
90.77930330346477
 21
-29.16461848891993
 31
0.0
  0
LINE
  5
2FEF
330
1F
100
AcDbEntity
  8
太線
100
AcDbLine
 10
89.8243930863606
 20
30.83538151108007
 30
0.0
 11
29.07239304482459
 21
30.83538151108007
 31
0.0
  0
CIRCLE
  5
2FF0
330
1F
100
AcDbEntity
  8
細線
100
AcDbCircle
 10
94.07239304482459
 20
0.8353815110800724
 30
0.0
 40
23.27460971508716
  0
CIRCLE
  5
2FF1
330
1F
100
AcDbEntity
  8
太線
100
AcDbCircle
 10
94.07239304482459
 20
0.8353815110800724
 30
0.0
 40
25.0
  0
ARC
  5
2FF2
330
1F
100
AcDbEntity
  8
太線
100
AcDbCircle
 10
94.54662879251761
 20
-9.655079401532134
 30
0.0
 40
19.584122490746
100
AcDbArc
 50
255.5960204071246
 51
280.3170501160722
  0
LINE
  5
2FF3
330
1F
100
AcDbEntity
  8
太線
100
AcDbLine
 10
92.0723930448246
 20
88.13898815801644
 30
0.0
 11
92.0723930448246
 21
33.02383542969835
 31
0.0
  0
LINE
  5
2FF4
330
1F
100
AcDbEntity
  8
太線
100
AcDbLine
 10
96.0723930448246
 20
32.7231023179077
 30
0.0
 11
96.0723930448246
 21
88.13898815801644
 31
0.0
  0
ARC
  5
2FF5
330
1F
100
AcDbEntity
  8
太線
100
AcDbCircle
 10
87.0322441498466
 20
35.95231259271042
 30
0.0
 40
5.829157690252602
100
AcDbArc
 50
285.7445748385682
 51
329.8421318356755
  0
ARC
  5
2FF6
330
1F
100
AcDbEntity
  8
太線
100
AcDbCircle
 10
102.0070760896661
 20
36.11770724302008
 30
0.0
 40
6.836944159515084
100
AcDbArc
 50
209.7693107775661
 51
234.1363068899173
  0
DIMENSION
  5
2FF7
330
1F
100
AcDbEntity
  8
寸法線
100
AcDbDimension
  2
*D16
 10
119.0723930448245
 20
104.5868095881867
 30
0.0
 11
94.07239304482459
 21
108.0868095881867
 31
0.0
 70
    32
  1
49.3
 71
     5
 42
50.0
  3
sunpo
100
AcDbAlignedDimension
 13
69.07239304482459
 23
115.4711488256961
 33
0.0
 14
119.0723930448245
 24
115.4711488256961
 34
0.0
 50
180.0
100
AcDbRotatedDimension
1001
ACAD
1000
DSTYLE
1002
{
1070
    40
1040
1.0
1070
   279
1070
     1
1002
}
  0
DIMENSION
  5
2FF8
330
1F
100
AcDbEntity
  8
寸法線
100
AcDbDimension
  2
*D17
 10
124.0723930448246
 20
104.5868095881867
 30
0.0
 11
121.5723930448245
 21
108.0868095881867
 31
0.0
 70
    32
  1
4
 71
     5
 42
5.0
  3
sunpo
100
AcDbAlignedDimension
 13
119.0723930448245
 23
115.4711488256961
 33
0.0
 14
124.0723930448246
 24
115.4711488256961
 34
0.0
 50
180.0
100
AcDbRotatedDimension
1001
ACAD
1000
DSTYLE
1002
{
1070
    40
1040
1.0
1070
   279
1070
     1
1002
}
  0
DIMENSION
  5
2FF9
330
1F
100
AcDbEntity
  8
寸法線
100
AcDbDimension
  2
*D23
 10
92.0723930448246
 20
91.49260559718106
 30
0.0
 11
83.82239304482459
 21
94.99260559718107
 31
0.0
 70
    32
 71
     5
 42
4.0
  3
sunpo
100
AcDbAlignedDimension
 13
96.0723930448246
 23
88.13898815801644
 33
0.0
 14
92.0723930448246
 24
88.13898815801644
 34
0.0
 50
180.0
100
AcDbRotatedDimension
1001
ACAD
1000
DSTYLE
1002
{
1070
    40
1040
1.0
1002
}
  0
LINE
  5
2FFA
330
1F
100
AcDbEntity
  8
太線
100
AcDbLine
 10
96.0723930448246
 20
88.13898815801644
 30
0.0
 11
92.0723930448246
 21
88.13898815801644
 31
0.0
  0
LINE
  5
2FFB
330
1F
100
AcDbEntity
  8
太線
100
AcDbLine
 10
92.0723930448246
 20
125.4711488256961
 30
0.0
 11
96.0723930448246
 21
125.4711488256961
 31
0.0
  0
LINE
  5
2FFC
330
1F
100
AcDbEntity
  8
太線
100
AcDbLine
 10
29.07239304482459
 20
30.83538151108007
 30
0.0
 11
29.07239304482459
 21
-29.16461848891993
 31
0.0
  0
LINE
  5
2FFD
330
1F
100
AcDbEntity
  8
想像線
100
AcDbLine
 10
63.48261630082425
 20
25.83538151108007
 30
0.0
 11
64.07239304482459
 21
-24.16461848891993
 31
0.0
  0
LINE
  5
2FFE
330
1F
100
AcDbEntity
  8
想像線
100
AcDbLine
 10
64.07239304482459
 20
-24.16461848891993
 30
0.0
 11
29.07239304482459
 21
-24.16461848891993
 31
0.0
  0
LINE
  5
2FFF
330
1F
100
AcDbEntity
  8
太線
100
AcDbLine
 10
39.07239304482459
 20
-1.664618488919927
 30
0.0
 11
64.17674118707108
 21
-1.664618488919927
 31
0.0
  0
LINE
  5
3000
330
1F
100
AcDbEntity
  8
太線
100
AcDbLine
 10
63.74801583562441
 20
3.335381511080072
 30
0.0
 11
39.07239304482459
 21
3.335381511080072
 31
0.0
  0
LINE
  5
3001
330
1F
100
AcDbEntity
  8
破線
100
AcDbLine
 10
62.51972954105667
 20
3.335381511080072
 30
0.0
 11
62.51972954105667
 21
-1.664618488919927
 31
0.0
  0
LINE
  5
3002
330
1F
100
AcDbEntity
  8
破線
100
AcDbLine
 10
56.70398278029551
 20
3.335381511080072
 30
0.0
 11
56.70398278029551
 21
-1.664618488919927
 31
0.0
  0
LINE
  5
3003
330
1F
100
AcDbEntity
  8
太線
100
AcDbLine
 10
39.07239304482459
 20
3.335381511080072
 30
0.0
 11
39.07239304482459
 21
-1.664618488919927
 31
0.0
  0
LINE
  5
3005
330
1F
100
AcDbEntity
  8
想像線
100
AcDbLine
 10
29.07239304482459
 20
25.83538151108007
 30
0.0
 11
63.48261630082425
 21
25.83538151108007
 31
0.0
  0
DIMENSION
  5
3006
330
1F
100
AcDbEntity
  8
寸法線
100
AcDbDimension
  2
*D18
 10
29.07239304482459
 20
223.1568078052727
 30
0.0
 11
76.57239304482459
 21
226.6585083288061
 31
0.0
 70
    32
  1
92.3
 71
     5
 42
95.0
  3
sunpo
100
AcDbAlignedDimension
 13
124.0723930448246
 23
180.4711488256961
 33
0.0
 14
29.07239304482459
 24
210.4711488256961
 34
0.0
 50
180.0
100
AcDbRotatedDimension
1001
ACAD
1000
DSTYLE
1002
{
1070
    40
1040
1.0
1002
}
  0
LINE
  5
3007
330
1F
100
AcDbEntity
  8
想像線
100
AcDbLine
 10
94.07239304482459
 20
204.1840882346008
 30
0.0
 11
64.07239304482459
 21
204.4711488256961
 31
0.0
  0
LINE
  5
3008
330
1F
100
AcDbEntity
  8
想像線
100
AcDbLine
 10
118.0723930448245
 20
156.4711488256961
 30
0.0
 11
64.07239304482459
 21
156.4711488256961
 31
0.0
  0
LINE
  5
3009
330
1F
100
AcDbEntity
  8
太線
100
AcDbLine
 10
29.07239304482459
 20
210.4711488256961
 30
0.0
 11
94.07239304482459
 21
210.4711488256961
 31
0.0
  0
DIMENSION
  5
300A
330
1F
100
AcDbEntity
  8
寸法線
100
AcDbDimension
  2
*D13
 10
140.8484065431398
 20
150.4711488256961
 30
0.0
 11
137.3484065431398
 21
180.4711488256961
 31
0.0
 70
    32
  1
57.3
 71
     5
 42
60.0
  3
sunpo
100
AcDbAlignedDimension
 13
94.07239304482459
 23
210.4711488256961
 33
0.0
 14
118.0723930448245
 24
150.4711488256961
 34
0.0
 50
90.0
100
AcDbRotatedDimension
1001
ACAD
1000
DSTYLE
1002
{
1070
    40
1040
1.0
1002
}
  0
ARC
  5
300B
330
1F
100
AcDbEntity
  8
想像線
100
AcDbCircle
 10
94.07239304482459
 20
180.4711488256961
 30
0.0
 40
23.71293940890467
100
AcDbArc
 50
0.000000000000007
 51
90.00000000000119
  0
ARC
  5
300C
330
1F
100
AcDbEntity
  8
太線
100
AcDbCircle
 10
94.07239304482459
 20
180.4711488256961
 30
0.0
 40
30.0
100
AcDbArc
 50
0.000000000000007
 51
90.0
  0
DIMENSION
  5
300D
330
1F
100
AcDbEntity
  8
寸法線
100
AcDbDimension
  2
*D19
 10
70.07239304482459
 20
162.2736217044059
 30
0.0
 11
94.5723930448246
 21
165.7736217044059
 31
0.0
 70
    32
  1
49.0
 71
     5
 42
49.0
  3
sunpo
100
AcDbAlignedDimension
 13
119.0723930448245
 23
150.4711488256961
 33
0.0
 14
70.07239304482459
 24
150.4711488256961
 34
0.0
 50
180.0
100
AcDbRotatedDimension
1001
ACAD
1000
DSTYLE
1002
{
1070
    40
1040
1.0
1002
}
  0
LINE
  5
300E
330
1F
100
AcDbEntity
  8
想像線
100
AcDbLine
 10
119.0723930448245
 20
150.4711488256961
 30
0.0
 11
69.07239304482459
 21
150.4711488256961
 31
0.0
  0
LINE
  5
300F
330
1F
100
AcDbEntity
  8
想像線
100
AcDbLine
 10
118.0723930448245
 20
156.4711488256961
 30
0.0
 11
118.0723930448245
 21
150.4711488256961
 31
0.0
  0
LINE
  5
3010
330
1F
100
AcDbEntity
  8
想像線
100
AcDbLine
 10
117.7853324537292
 20
180.4711488256961
 30
0.0
 11
118.0723930448245
 21
156.4711488256961
 31
0.0
  0
LINE
  5
3011
330
1F
100
AcDbEntity
  8
想像線
100
AcDbLine
 10
70.07239304482459
 20
150.4711488256961
 30
0.0
 11
70.07239304482459
 21
156.4711488256961
 31
0.0
  0
LINE
  5
3012
330
1F
100
AcDbEntity
  8
想像線
100
AcDbLine
 10
92.0723930448246
 20
137.1031302088812
 30
0.0
 11
96.0723930448246
 21
137.1031302088812
 31
0.0
  0
LINE
  5
3013
330
1F
100
AcDbEntity
  8
想像線
100
AcDbLine
 10
92.07239304482458
 20
158.7973998761128
 30
0.0
 11
96.0723930448246
 21
158.7973998761128
 31
0.0
  0
DIMENSION
  5
3014
330
1F
100
AcDbEntity
  8
寸法線
100
AcDbDimension
  2
*D22
 10
13.25548068127886
 20
150.4711488256961
 30
0.0
 11
9.755480681278845
 21
180.4711488256961
 31
0.0
 70
    32
  1
57.3
 71
     5
 42
60.0
  3
sunpo
100
AcDbAlignedDimension
 13
29.07239304482459
 23
210.4711488256961
 33
0.0
 14
29.30267033560835
 24
150.4711488256961
 34
0.0
 50
90.0
100
AcDbRotatedDimension
1001
ACAD
1000
DSTYLE
1002
{
1070
    40
1040
1.0
1002
}
  0
LINE
  5
3015
330
1F
100
AcDbEntity
  8
太線
100
AcDbLine
 10
29.07239304482459
 20
210.4711488256961
 30
0.0
 11
29.07239304482459
 21
150.4711488256961
 31
0.0
  0
LINE
  5
3016
330
1F
100
AcDbEntity
  8
想像線
100
AcDbLine
 10
64.07239304482459
 20
155.4711488256961
 30
0.0
 11
64.07239304482459
 21
205.4711488256961
 31
0.0
  0
DIMENSION
  5
3017
330
1F
100
AcDbEntity
  8
寸法線
100
AcDbDimension
  2
*D12
 10
61.46903019742551
 20
143.2690403528159
 30
0.0
 11
45.37758500324357
 21
162.820647552229
 31
0.0
 70
   163
 71
     5
 42
6.000000000000056
  3
sunpo
100
AcDbDiametricDimension
 15
57.6561816033714
 25
147.9017701742948
 35
0.0
 40
0.0
1001
ACAD
1000
DSTYLE
1002
{
1070
    40
1040
1.0
1070
   288
1070
     1
1002
}
  0
LINE
  5
3018
330
1F
100
AcDbEntity
  8
太線
100
AcDbLine
 10
64.07239304482459
 20
150.4711488256961
 30
0.0
 11
29.07239304482459
 21
150.4711488256961
 31
0.0
  0
CIRCLE
  5
3019
330
1F
100
AcDbEntity
  8
太線
100
AcDbCircle
 10
59.56260590039846
 20
145.5854052635554
 30
0.0
 40
3.0
  0
LINE
  5
301A
330
1F
100
AcDbEntity
  8
想像線
100
AcDbLine
 10
29.07239304482459
 20
155.4711488256961
 30
0.0
 11
64.07239304482459
 21
155.4711488256961
 31
0.0
  0
LINE
  5
301B
330
1F
100
AcDbEntity
  8
想像線
100
AcDbLine
 10
64.07239304482459
 20
205.4711488256961
 30
0.0
 11
29.07239304482459
 21
205.4711488256961
 31
0.0
  0
TEXT
  5
31A1
330
1F
100
AcDbEntity
  8
文字
100
AcDbText
 10
152.0980772189984
 20
11.6712254666495
 30
0.0
 40
8.0
  1
勾配は、柄(ﾂｶ）の長さと
 51
15.0
  7
OKANO
100
AcDbText
  0
TEXT
  5
31A2
330
1F
100
AcDbEntity
  8
文字
100
AcDbText
 10
152.0980772189984
 20
-1.16989090514005
 30
0.0
 40
8.0
  1
梁(ﾊﾘ）の長さにより自由
 51
15.0
  7
OKANO
100
AcDbText
  0
TEXT
  5
31A3
330
1F
100
AcDbEntity
  8
文字
100
AcDbText
 10
152.0980772189984
 20
-14.01100727692971
 30
0.0
 40
8.0
  1
設定出来ます。
 51
15.0
  7
OKANO
100
AcDbText
  0
XLINE
  5
31B1
330
1F
100
AcDbEntity
  8
構築線
100
AcDbXline
 10
247.6414745488584
 20
180.4711488256961
 30
0.0
 11
1.0
 21
0.0
 31
0.0
  0
XLINE
  5
31B2
330
1F
100
AcDbEntity
  8
構築線
100
AcDbXline
 10
94.07239304482459
 20
0.8353815110800724
 30
0.0
 11
0.0
 21
1.0
 31
0.0
  0
VIEWPORT
  5
2E
330
1B
100
AcDbEntity
 67
     1
  8
0
100
AcDbViewport
 10
271.1160184670158
 20
182.62808412318
 30
0.0
 40
869.3765979437847
 41
441.5590307786135
 68
     2
 69
     1
 12
271.1160184670158
 22
182.62808412318
 13
0.0
 23
0.0
 14
10.0
 24
10.0
 15
10.0
 25
10.0
 16
0.0
 26
0.0
 36
1.0
 17
0.0
 27
0.0
 37
0.0
 42
50.0
 43
0.0
 44
0.0
 45
441.5590307786135
 50
0.0
 51
0.0
 72
   100
 90
    32800
  1

281
     0
 71
     1
 74
     0
110
0.0
120
0.0
130
0.0
111
1.0
121
0.0
131
0.0
112
0.0
122
1.0
132
0.0
 79
     0
146
0.0
  0
VIEWPORT
  5
30
330
1B
100
AcDbEntity
 67
     1
  8
70-0-CON
100
AcDbViewport
 10
141.8594093064315
 20
100.3480256368386
 30
0.0
 40
261.6199023344245
 41
192.6196987113174
 68
     1
 69
     2
 12
178.9588029580135
 22
104.9665266956452
 13
0.0
 23
0.0
 14
5.0
 24
5.0
 15
10.0
 25
10.0
 16
0.0
 26
0.0
 36
1.0
 17
0.0
 27
0.0
 37
0.0
 42
50.0
 43
0.0
 44
0.0
 45
322.7503505746879
 50
0.0
 51
0.0
 72
   100
 90
    32864
  1

281
     0
 71
     1
 74
     0
110
0.0
120
0.0
130
0.0
111
1.0
121
0.0
131
0.0
112
0.0
122
1.0
132
0.0
 79
     0
146
0.0
  0
LWPOLYLINE
  5
45
330
1B
100
AcDbEntity
 67
     1
  8
50-0-CON
100
AcDbPolyline
 90
        4
 70
     1
 43
0.0
 10
11.04945813921926
 20
4.038176281179858
 10
272.2125713060605
 20
4.033520706629644
 10
273.4987754093466
 20
195.9297862125246
 10
11.04945813921926
 20
196.6578749924973
  0
LINE
  5
4A
330
1B
100
AcDbEntity
 67
     1
  8
50-0-CON
100
AcDbLine
 10
10.38768783662635
 20
100.3480256368386
 30
0.0
 11
-4.391850629656119
 21
100.3480256368386
 31
0.0
  0
LINE
  5
4B
330
1B
100
AcDbEntity
 67
     1
  8
50-0-CON
100
AcDbLine
 10
141.8594093064315
 20
197.098652626247
 30
0.0
 11
141.8594093064315
 21
202.387980773708
 31
0.0
  0
LINE
  5
4C
330
1B
100
AcDbEntity
 67
     1
  8
50-0-CON
100
AcDbLine
 10
272.4487699456857
 20
100.7888032705883
 30
0.0
 11
278.8458837249377
 21
100.7888032705883
 31
0.0
  0
LINE
  5
4D
330
1B
100
AcDbEntity
 67
     1
  8
50-0-CON
100
AcDbLine
 10
140.9770484758805
 20
4.038176281179858
 30
0.0
 11
140.9770484758805
 21
-3.455038652015446
 31
0.0
  0
ENDSEC
  0
SECTION
  2
OBJECTS
  0
DICTIONARY
  5
C
330
0
100
AcDbDictionary
281
     1
  3
ACAD_GROUP
350
D
  3
ACAD_LAYOUT
350
1A
  3
ACAD_MLINESTYLE
350
17
  3
ACAD_PLOTSETTINGS
350
19
  3
ACAD_PLOTSTYLENAME
350
E
  3
AcadDim
350
13D0
  3
AcDbVariableDictionary
350
6AD
  3
DWGPROPS
350
30F
  0
DICTIONARY
  5
D
102
{ACAD_REACTORS
330
C
102
}
330
C
100
AcDbDictionary
281
     1
  0
DICTIONARY
  5
1A
102
{ACAD_REACTORS
330
C
102
}
330
C
100
AcDbDictionary
281
     1
  3
A4
350
1E
  3
Model
350
22
  0
DICTIONARY
  5
17
102
{ACAD_REACTORS
330
C
102
}
330
C
100
AcDbDictionary
281
     1
  3
Standard
350
18
  0
DICTIONARY
  5
19
102
{ACAD_REACTORS
330
C
102
}
330
C
100
AcDbDictionary
281
     1
  0
ACDBDICTIONARYWDFLT
  5
E
102
{ACAD_REACTORS
330
C
102
}
330
C
100
AcDbDictionary
281
     1
  3
Normal
350
F
100
AcDbDictionaryWithDefault
340
F
  0
XRECORD
  5
13D0
102
{ACAD_REACTORS
330
C
102
}
330
C
100
AcDbXrecord
280
     1
 90
   990106
  3

 60
     0
 61
     0
 62
     1
 63
     3
 64
     0
 65
     0
 66
     0
 67
     3
 68
     1
 69
     0
 70
     0
 71
     0
 72
     0
 40
0.0
170
     0
340
0
  0
DICTIONARY
  5
6AD
102
{ACAD_REACTORS
330
C
102
}
330
C
100
AcDbDictionary
281
     1
  3
SORTENTS
350
6AE
  0
XRECORD
  5
30F
102
{ACAD_REACTORS
330
C
102
}
330
C
100
AcDbXrecord
280
     1
  1
DWGPROPS COOKIE
  2

  3

  4

  6

  7

  8

  9

300
=
301
=
302
=
303
=
304
=
305
=
306
=
307
=
308
=
309
=
 40
0.3303803125
 41
2452362.482225463
 42
2452370.969861285
  1

 90
        0
  0
LAYOUT
  5
1E
102
{ACAD_REACTORS
330
1A
102
}
330
1A
100
AcDbPlotSettings
  1

  2
EPSON PM-920C
  4
A4
  6

 40
3.757083177566528
 41
14.7637300491333
 42
3.757080078125
 43
3.757080078125
 44
209.9733276367187
 45
296.9683227539062
 46
0.0
 47
0.0
 48
0.0
 49
0.0
140
0.0
141
0.0
142
1.0
143
1.0
 70
   688
 72
     1
 73
     1
 74
     5
  7
joint.ctb
 75
    16
147
1.0
148
0.0
149
0.0
100
AcDbLayout
  1
A4
 70
     1
 71
     1
 10
-3.757080078125
 20
-3.757083177566528
 11
293.2112426757812
 21
206.2162444591522
 12
0.0
 22
0.0
 32
0.0
 14
-4.391850629656119
 24
-3.455038652015446
 34
0.0
 15
278.8458837249377
 25
202.387980773708
 35
0.0
146
0.0
 13
0.0
 23
0.0
 33
0.0
 16
1.0
 26
0.0
 36
0.0
 17
0.0
 27
1.0
 37
0.0
 76
     0
330
1B
331
30
  0
LAYOUT
  5
22
102
{ACAD_REACTORS
330
1A
102
}
330
1A
100
AcDbPlotSettings
  1

  2
EPSON PM-920C
  4
A4
  6

 40
3.757083177566528
 41
14.7637300491333
 42
3.757080078125
 43
3.757080078125
 44
209.9733276367187
 45
296.9683227539062
 46
0.0
 47
0.0
 48
0.0
 49
0.0
140
0.0
141
0.0
142
1.0
143
1.0
 70
 11952
 72
     1
 73
     1
 74
     0
  7

 75
     0
147
1.0
148
-45.64199848979289
149
-84.48806419330498
100
AcDbLayout
  1
Model
 70
     1
 71
     0
 10
0.0
 20
0.0
 11
12.0
 21
9.0
 12
0.0
 22
0.0
 32
0.0
 14
0.0
 24
0.0
 34
0.0
 15
0.0
 25
0.0
 35
0.0
146
0.0
 13
0.0
 23
0.0
 33
0.0
 16
1.0
 26
0.0
 36
0.0
 17
0.0
 27
1.0
 37
0.0
 76
     0
330
1F
  0
MLINESTYLE
  5
18
102
{ACAD_REACTORS
330
17
102
}
330
17
100
AcDbMlineStyle
  2
STANDARD
 70
     0
  3

 62
   256
 51
90.0
 52
90.0
 71
     2
 49
0.5
 62
   256
  6
BYLAYER
 49
-0.5
 62
   256
  6
BYLAYER
  0
ACDBPLACEHOLDER
  5
F
102
{ACAD_REACTORS
330
E
102
}
330
E
  0
DICTIONARYVAR
  5
6AE
102
{ACAD_REACTORS
330
6AD
102
}
330
6AD
100
DictionaryVariables
280
     0
  1
96
  0
ENDSEC
  0
EOF
