  0
SECTION
  2
HEADER
  9
$ACADVER
  1
AC1015
  9
$ACADMAINTVER
 70
     6
  9
$DWGCODEPAGE
  3
ANSI_932
  9
$INSBASE
 10
0.0
 20
0.0
 30
0.0
  9
$EXTMIN
 10
19.67550052708902
 20
-40.60771966381378
 30
-0.00000001
  9
$EXTMAX
 10
385.3654071024951
 20
229.1602088523395
 30
0.00000001
  9
$LIMMIN
 10
0.0
 20
0.0
  9
$LIMMAX
 10
420.0
 20
297.0
  9
$ORTHOMODE
 70
     1
  9
$REGENMODE
 70
     1
  9
$FILLMODE
 70
     1
  9
$QTEXTMODE
 70
     0
  9
$MIRRTEXT
 70
     1
  9
$LTSCALE
 40
1.0
  9
$ATTMODE
 70
     1
  9
$TEXTSIZE
 40
5.0
  9
$TRACEWID
 40
1.0
  9
$TEXTSTYLE
  7
OKANO
  9
$CLAYER
  8
太線
  9
$CELTYPE
  6
ByLayer
  9
$CECOLOR
 62
   256
  9
$CELTSCALE
 40
1.0
  9
$DISPSILH
 70
     0
  9
$DIMSCALE
 40
0.0
  9
$DIMASZ
 40
3.0
  9
$DIMEXO
 40
2.0
  9
$DIMDLI
 40
8.0
  9
$DIMRND
 40
0.0
  9
$DIMDLE
 40
0.0
  9
$DIMEXE
 40
3.0
  9
$DIMTP
 40
0.0
  9
$DIMTM
 40
0.0
  9
$DIMTXT
 40
5.0
  9
$DIMCEN
 40
2.5
  9
$DIMTSZ
 40
0.0
  9
$DIMTOL
 70
     0
  9
$DIMLIM
 70
     0
  9
$DIMTIH
 70
     0
  9
$DIMTOH
 70
     0
  9
$DIMSE1
 70
     0
  9
$DIMSE2
 70
     0
  9
$DIMTAD
 70
     1
  9
$DIMZIN
 70
     8
  9
$DIMBLK
  1
Closed
  9
$DIMASO
 70
     1
  9
$DIMSHO
 70
     1
  9
$DIMPOST
  1

  9
$DIMAPOST
  1

  9
$DIMALT
 70
     0
  9
$DIMALTD
 70
     3
  9
$DIMALTF
 40
0.03937007874016
  9
$DIMLFAC
 40
1.0
  9
$DIMTOFL
 70
     1
  9
$DIMTVP
 40
0.0
  9
$DIMTIX
 70
     0
  9
$DIMSOXD
 70
     0
  9
$DIMSAH
 70
     0
  9
$DIMBLK1
  1

  9
$DIMBLK2
  1

  9
$DIMSTYLE
  2
sunpo
  9
$DIMCLRD
 70
     0
  9
$DIMCLRE
 70
     0
  9
$DIMCLRT
 70
     0
  9
$DIMTFAC
 40
1.0
  9
$DIMGAP
 40
1.0
  9
$DIMJUST
 70
     0
  9
$DIMSD1
 70
     0
  9
$DIMSD2
 70
     0
  9
$DIMTOLJ
 70
     0
  9
$DIMTZIN
 70
     8
  9
$DIMALTZ
 70
     0
  9
$DIMALTTZ
 70
     0
  9
$DIMUPT
 70
     0
  9
$DIMDEC
 70
     2
  9
$DIMTDEC
 70
     2
  9
$DIMALTU
 70
     2
  9
$DIMALTTD
 70
     3
  9
$DIMTXSTY
  7
OKANO
  9
$DIMAUNIT
 70
     0
  9
$DIMADEC
 70
     0
  9
$DIMALTRND
 40
0.0
  9
$DIMAZIN
 70
     0
  9
$DIMDSEP
 70
    46
  9
$DIMATFIT
 70
     3
  9
$DIMFRAC
 70
     0
  9
$DIMLDRBLK
  1
Closed
  9
$DIMLUNIT
 70
     2
  9
$DIMLWD
 70
    -2
  9
$DIMLWE
 70
    -2
  9
$DIMTMOVE
 70
     0
  9
$LUNITS
 70
     2
  9
$LUPREC
 70
     2
  9
$SKETCHINC
 40
1.0
  9
$FILLETRAD
 40
0.5
  9
$AUNITS
 70
     0
  9
$AUPREC
 70
     0
  9
$MENU
  1
.
  9
$ELEVATION
 40
0.0
  9
$PELEVATION
 40
0.0
  9
$THICKNESS
 40
0.0
  9
$LIMCHECK
 70
     0
  9
$CHAMFERA
 40
10.0
  9
$CHAMFERB
 40
10.0
  9
$CHAMFERC
 40
20.0
  9
$CHAMFERD
 40
0.0
  9
$SKPOLY
 70
     0
  9
$TDCREATE
 40
2452362.482225463
  9
$TDUCREATE
 40
2452362.107225463
  9
$TDUPDATE
 40
2455964.450078449
  9
$TDUUPDATE
 40
2455964.075078449
  9
$TDINDWG
 40
2.1277544907
  9
$TDUSRTIMER
 40
2.1277544907
  9
$USRTIMER
 70
     1
  9
$ANGBASE
 50
0.0
  9
$ANGDIR
 70
     0
  9
$PDMODE
 70
     0
  9
$PDSIZE
 40
0.0
  9
$PLINEWID
 40
0.0
  9
$SPLFRAME
 70
     0
  9
$SPLINETYPE
 70
     6
  9
$SPLINESEGS
 70
     8
  9
$HANDSEED
  5
2FF1
  9
$SURFTAB1
 70
     6
  9
$SURFTAB2
 70
     6
  9
$SURFTYPE
 70
     6
  9
$SURFU
 70
     6
  9
$SURFV
 70
     6
  9
$UCSBASE
  2

  9
$UCSNAME
  2

  9
$UCSORG
 10
0.0
 20
0.0
 30
0.0
  9
$UCSXDIR
 10
1.0
 20
0.0
 30
0.0
  9
$UCSYDIR
 10
0.0
 20
1.0
 30
0.0
  9
$UCSORTHOREF
  2

  9
$UCSORTHOVIEW
 70
     0
  9
$UCSORGTOP
 10
0.0
 20
0.0
 30
0.0
  9
$UCSORGBOTTOM
 10
0.0
 20
0.0
 30
0.0
  9
$UCSORGLEFT
 10
0.0
 20
0.0
 30
0.0
  9
$UCSORGRIGHT
 10
0.0
 20
0.0
 30
0.0
  9
$UCSORGFRONT
 10
0.0
 20
0.0
 30
0.0
  9
$UCSORGBACK
 10
0.0
 20
0.0
 30
0.0
  9
$PUCSBASE
  2

  9
$PUCSNAME
  2

  9
$PUCSORG
 10
0.0
 20
0.0
 30
0.0
  9
$PUCSXDIR
 10
1.0
 20
0.0
 30
0.0
  9
$PUCSYDIR
 10
0.0
 20
1.0
 30
0.0
  9
$PUCSORTHOREF
  2

  9
$PUCSORTHOVIEW
 70
     0
  9
$PUCSORGTOP
 10
0.0
 20
0.0
 30
0.0
  9
$PUCSORGBOTTOM
 10
0.0
 20
0.0
 30
0.0
  9
$PUCSORGLEFT
 10
0.0
 20
0.0
 30
0.0
  9
$PUCSORGRIGHT
 10
0.0
 20
0.0
 30
0.0
  9
$PUCSORGFRONT
 10
0.0
 20
0.0
 30
0.0
  9
$PUCSORGBACK
 10
0.0
 20
0.0
 30
0.0
  9
$USERI1
 70
     0
  9
$USERI2
 70
     0
  9
$USERI3
 70
     0
  9
$USERI4
 70
     0
  9
$USERI5
 70
     0
  9
$USERR1
 40
0.0
  9
$USERR2
 40
0.0
  9
$USERR3
 40
0.0
  9
$USERR4
 40
0.0
  9
$USERR5
 40
0.0
  9
$WORLDVIEW
 70
     1
  9
$SHADEDGE
 70
     3
  9
$SHADEDIF
 70
    70
  9
$TILEMODE
 70
     0
  9
$MAXACTVP
 70
    64
  9
$PINSBASE
 10
0.0
 20
0.0
 30
0.0
  9
$PLIMCHECK
 70
     0
  9
$PEXTMIN
 10
-4.391850629656119
 20
-3.455038652015446
 30
0.0
  9
$PEXTMAX
 10
278.8458837249377
 20
202.3879807737079
 30
0.0
  9
$PLIMMIN
 10
-3.757080078125
 20
-3.757083177566528
  9
$PLIMMAX
 10
293.2112426757811
 20
206.2162444591522
  9
$UNITMODE
 70
     0
  9
$VISRETAIN
 70
     1
  9
$PLINEGEN
 70
     0
  9
$PSLTSCALE
 70
     1
  9
$TREEDEPTH
 70
  3020
  9
$CMLSTYLE
  2
Standard
  9
$CMLJUST
 70
     0
  9
$CMLSCALE
 40
20.0
  9
$PROXYGRAPHICS
 70
     1
  9
$MEASUREMENT
 70
     1
  9
$CELWEIGHT
370
    -1
  9
$ENDCAPS
280
     0
  9
$JOINSTYLE
280
     0
  9
$LWDISPLAY
290
     0
  9
$INSUNITS
 70
     4
  9
$HYPERLINKBASE
  1

  9
$STYLESHEET
  1

  9
$XEDIT
290
     1
  9
$CEPSNTYPE
380
     0
  9
$PSTYLEMODE
290
     1
  9
$FINGERPRINTGUID
  2
{FF7F33C3-4233-11D6-AEE0-0000F45FD7F4}
  9
$VERSIONGUID
  2
{D906E4B0-8E18-446E-91CE-70A5D4B68537}
  9
$EXTNAMES
290
     1
  9
$PSVPSCALE
 40
0.0
  9
$OLESTARTUP
290
     0
  0
ENDSEC
  0
SECTION
  2
CLASSES
  0
CLASS
  1
ACDBDICTIONARYWDFLT
  2
AcDbDictionaryWithDefault
  3
AutoCAD 2000
 90
        0
280
     0
281
     0
  0
CLASS
  1
ACDBPLACEHOLDER
  2
AcDbPlaceHolder
  3
AutoCAD 2000
 90
        0
280
     0
281
     0
  0
CLASS
  1
LAYOUT
  2
AcDbLayout
  3
AutoCAD 2000
 90
        0
280
     0
281
     0
  0
CLASS
  1
DICTIONARYVAR
  2
AcDbDictionaryVar
  3
AutoCAD 2000
 90
        0
280
     0
281
     0
  0
ENDSEC
  0
SECTION
  2
TABLES
  0
TABLE
  2
VPORT
  5
8
330
0
100
AcDbSymbolTable
 70
     2
  0
VPORT
  5
2FF0
330
8
100
AcDbSymbolTableRecord
100
AcDbViewportTableRecord
  2
*Active
 70
     0
 10
0.0
 20
0.0
 11
1.0
 21
1.0
 12
296.7720228358047
 22
148.6956289125828
 13
0.0
 23
0.0
 14
5.0
 24
5.0
 15
10.0
 25
10.0
 16
0.0
 26
0.0
 36
1.0
 17
0.0
 27
0.0
 37
0.0
 40
402.5395690799177
 41
1.968879668049792
 42
50.0
 43
0.0
 44
0.0
 50
0.0
 51
0.0
 71
     0
 72
   100
 73
     1
 74
     3
 75
     0
 76
     0
 77
     0
 78
     0
281
     0
 65
     1
110
0.0
120
0.0
130
0.0
111
1.0
121
0.0
131
0.0
112
0.0
122
1.0
132
0.0
 79
     0
146
0.0
  0
ENDTAB
  0
TABLE
  2
LTYPE
  5
5
330
0
100
AcDbSymbolTable
 70
     5
  0
LTYPE
  5
14
330
5
100
AcDbSymbolTableRecord
100
AcDbLinetypeTableRecord
  2
ByBlock
 70
     0
  3

 72
    65
 73
     0
 40
0.0
  0
LTYPE
  5
15
330
5
100
AcDbSymbolTableRecord
100
AcDbLinetypeTableRecord
  2
ByLayer
 70
     0
  3

 72
    65
 73
     0
 40
0.0
  0
LTYPE
  5
16
330
5
100
AcDbSymbolTableRecord
100
AcDbLinetypeTableRecord
  2
Continuous
 70
     0
  3
Solid line
 72
    65
 73
     0
 40
0.0
  0
LTYPE
  5
33
330
5
100
AcDbSymbolTableRecord
100
AcDbLinetypeTableRecord
  2
DASHED2
 70
     0
  3
Dashed (.5x) _ _ _ _ _ _ _ _ _ _ _ _ _ _ _ _ _
 72
    65
 73
     2
 40
9.524999999999996
 49
6.349999999999998
 74
     0
 49
-3.174999999999998
 74
     0
  0
LTYPE
  5
34
330
5
100
AcDbSymbolTableRecord
100
AcDbLinetypeTableRecord
  2
CENTER2
 70
     0
  3
Center (.5x) ___ _ ___ _ ___ _ ___ _ ___ _ ___
 72
    65
 73
     4
 40
28.57499999999999
 49
19.05
 74
     0
 49
-3.174999999999998
 74
     0
 49
3.174999999999998
 74
     0
 49
-3.174999999999998
 74
     0
  0
LTYPE
  5
35
330
5
100
AcDbSymbolTableRecord
100
AcDbLinetypeTableRecord
  2
PHANTOM2
 70
     0
  3
Phantom (.5x) ___ _ _ ___ _ _ ___ _ _ ___ _ _
 72
    65
 73
     6
 40
31.75
 49
15.875
 74
     0
 49
-3.174999999999998
 74
     0
 49
3.174999999999998
 74
     0
 49
-3.174999999999998
 74
     0
 49
3.174999999999998
 74
     0
 49
-3.174999999999998
 74
     0
  0
LTYPE
  5
36
330
5
100
AcDbSymbolTableRecord
100
AcDbLinetypeTableRecord
  2
HIDDEN2
 70
     0
  3
Hidden (.5x) _ _ _ _ _ _ _ _ _ _ _ _ _ _ _ _ _
 72
    65
 73
     2
 40
4.762499999999998
 49
3.174999999999998
 74
     0
 49
-1.587499999999999
 74
     0
  0
ENDTAB
  0
TABLE
  2
LAYER
  5
2
330
0
100
AcDbSymbolTable
 70
    13
  0
LAYER
  5
10
330
2
100
AcDbSymbolTableRecord
100
AcDbLayerTableRecord
  2
0
 70
     0
 62
     7
  6
Continuous
370
    -3
390
F
  0
LAYER
  5
40
330
2
100
AcDbSymbolTableRecord
100
AcDbLayerTableRecord
  2
50-0-CON
 70
     0
 62
     4
  6
Continuous
370
    50
390
F
  0
LAYER
  5
41
330
2
100
AcDbSymbolTableRecord
100
AcDbLayerTableRecord
  2
70-0-CON
 70
     0
 62
   202
  6
Continuous
370
    70
390
F
  0
LAYER
  5
4E
330
2
100
AcDbSymbolTableRecord
100
AcDbLayerTableRecord
  2
極太線
 70
     0
 62
     7
  6
Continuous
370
    70
390
F
  0
LAYER
  5
4F
330
2
100
AcDbSymbolTableRecord
100
AcDbLayerTableRecord
  2
細線
 70
     0
 62
     8
  6
Continuous
370
    18
390
F
  0
LAYER
  5
AB
330
2
100
AcDbSymbolTableRecord
100
AcDbLayerTableRecord
  2
構築線
 70
     0
 62
    -2
  6
Continuous
290
     0
370
    18
390
F
  0
LAYER
  5
B8
330
2
100
AcDbSymbolTableRecord
100
AcDbLayerTableRecord
  2
太線
 70
     0
 62
     7
  6
Continuous
370
    35
390
F
  0
LAYER
  5
B9
330
2
100
AcDbSymbolTableRecord
100
AcDbLayerTableRecord
  2
寸法線
 70
     0
 62
     5
  6
Continuous
370
    18
390
F
  0
LAYER
  5
BA
330
2
100
AcDbSymbolTableRecord
100
AcDbLayerTableRecord
  2
破線
 70
     0
 62
     8
  6
HIDDEN2
370
    18
390
F
  0
LAYER
  5
BB
330
2
100
AcDbSymbolTableRecord
100
AcDbLayerTableRecord
  2
中心線
 70
     0
 62
     1
  6
CENTER2
370
    18
390
F
  0
LAYER
  5
BC
330
2
100
AcDbSymbolTableRecord
100
AcDbLayerTableRecord
  2
想像線
 70
     0
 62
     8
  6
PHANTOM2
370
    18
390
F
  0
LAYER
  5
BD
330
2
100
AcDbSymbolTableRecord
100
AcDbLayerTableRecord
  2
文字
 70
     0
 62
     7
  6
Continuous
370
    18
390
F
  0
LAYER
  5
180
330
2
100
AcDbSymbolTableRecord
100
AcDbLayerTableRecord
  2
Defpoints
 70
     0
 62
     7
  6
Continuous
290
     0
370
    -3
390
F
  0
ENDTAB
  0
TABLE
  2
STYLE
  5
3
330
0
100
AcDbSymbolTable
 70
     3
  0
STYLE
  5
11
330
3
100
AcDbSymbolTableRecord
100
AcDbTextStyleTableRecord
  2
Standard
 70
     0
 40
0.0
 41
1.0
 50
0.0
 71
     0
 42
3.0
  3
txt
  4

  0
STYLE
  5
32
330
3
100
AcDbSymbolTableRecord
100
AcDbTextStyleTableRecord
  2

 70
     1
 40
0.0
 41
1.0
 50
0.0
 71
     0
 42
2.5
  3
ltypeshp.shx
  4

  0
STYLE
  5
50
330
3
100
AcDbSymbolTableRecord
100
AcDbTextStyleTableRecord
  2
OKANO
 70
     0
 40
0.0
 41
1.0
 50
15.0
 71
     0
 42
5.0
  3
isocp.shx
  4
bigfont.shx
  0
ENDTAB
  0
TABLE
  2
VIEW
  5
6
330
0
100
AcDbSymbolTable
 70
     0
  0
ENDTAB
  0
TABLE
  2
UCS
  5
7
330
0
100
AcDbSymbolTable
 70
     0
  0
ENDTAB
  0
TABLE
  2
APPID
  5
9
330
0
100
AcDbSymbolTable
 70
     1
  0
APPID
  5
12
330
9
100
AcDbSymbolTableRecord
100
AcDbRegAppTableRecord
  2
ACAD
 70
     0
  0
ENDTAB
  0
TABLE
  2
DIMSTYLE
  5
A
330
0
100
AcDbSymbolTable
 70
     2
100
AcDbDimStyleTable
 71
     2
340
A2
340
27
  0
DIMSTYLE
105
27
330
A
100
AcDbSymbolTableRecord
100
AcDbDimStyleTableRecord
  2
ISO-25
 70
     0
 41
2.5
 42
0.625
 43
3.75
 44
1.25
 73
     0
 74
     0
 77
     1
 78
     8
140
2.5
141
2.5
143
0.03937007874016
147
0.625
171
     3
172
     1
271
     2
272
     2
274
     3
283
     0
284
     8
340
11
  0
DIMSTYLE
105
A2
102
{ACAD_REACTORS
330
2A5B
330
2AA4
330
2AB1
330
2ABE
330
2ACD
330
2ADA
330
2B11
330
2B27
330
2B3D
330
2B62
330
2B7C
330
2B89
330
2B96
330
2D6B
102
}
330
A
100
AcDbSymbolTableRecord
100
AcDbDimStyleTableRecord
  2
sunpo
 70
     0
 40
0.0
 41
3.0
 42
2.0
 43
8.0
 44
3.0
 73
     0
 74
     0
 77
     1
 78
     8
140
5.0
141
2.5
143
0.03937007874016
147
1.0
171
     3
172
     1
271
     2
272
     2
274
     3
283
     0
284
     8
340
50
341
9B
342
9B
  0
ENDTAB
  0
TABLE
  2
BLOCK_RECORD
  5
1
330
0
100
AcDbSymbolTable
 70
    16
  0
BLOCK_RECORD
  5
1F
330
1
100
AcDbSymbolTableRecord
100
AcDbBlockTableRecord
  2
*Model_Space
340
22
  0
BLOCK_RECORD
  5
1B
330
1
100
AcDbSymbolTableRecord
100
AcDbBlockTableRecord
  2
*Paper_Space
340
1E
  0
BLOCK_RECORD
  5
9B
330
1
100
AcDbSymbolTableRecord
100
AcDbBlockTableRecord
  2
_Closed
340
0
102
{BLKREFS
331
2A61
331
2A62
331
2AB6
331
2AB7
331
2AEE
331
2AEF
331
2AF9
331
2AFA
331
2B02
331
2B03
331
2B0B
331
2B0C
331
2B21
331
2B22
331
2B37
331
2B38
331
2B4D
331
2B4E
331
2B76
331
2B77
331
2B81
331
2B82
331
2B8E
331
2B8F
331
2BA6
331
2BA7
331
2D70
331
2D71
331
2D96
331
2D97
331
2DA4
331
2DA5
331
2DD8
331
2DD9
331
2DE1
331
2DE2
331
2DEC
331
2DED
331
2E17
331
2E18
331
2E25
331
2E26
331
2F95
331
2F96
102
}
  0
BLOCK_RECORD
  5
1510
330
1
100
AcDbSymbolTableRecord
100
AcDbBlockTableRecord
  2
A$C10A573AC
340
0
  0
BLOCK_RECORD
  5
2A5C
330
1
100
AcDbSymbolTableRecord
100
AcDbBlockTableRecord
  2
*D2
340
0
  0
BLOCK_RECORD
  5
2AA5
330
1
100
AcDbSymbolTableRecord
100
AcDbBlockTableRecord
  2
*D3
340
0
  0
BLOCK_RECORD
  5
2AB2
330
1
100
AcDbSymbolTableRecord
100
AcDbBlockTableRecord
  2
*D4
340
0
  0
BLOCK_RECORD
  5
2ABF
330
1
100
AcDbSymbolTableRecord
100
AcDbBlockTableRecord
  2
*D5
340
0
  0
BLOCK_RECORD
  5
2ACE
330
1
100
AcDbSymbolTableRecord
100
AcDbBlockTableRecord
  2
*D6
340
0
  0
BLOCK_RECORD
  5
2ADB
330
1
100
AcDbSymbolTableRecord
100
AcDbBlockTableRecord
  2
*D7
340
0
  0
BLOCK_RECORD
  5
2B12
330
1
100
AcDbSymbolTableRecord
100
AcDbBlockTableRecord
  2
*D8
340
0
  0
BLOCK_RECORD
  5
2B28
330
1
100
AcDbSymbolTableRecord
100
AcDbBlockTableRecord
  2
*D9
340
0
  0
BLOCK_RECORD
  5
2B3E
330
1
100
AcDbSymbolTableRecord
100
AcDbBlockTableRecord
  2
*D10
340
0
  0
BLOCK_RECORD
  5
2B63
330
1
100
AcDbSymbolTableRecord
100
AcDbBlockTableRecord
  2
*D11
340
0
  0
BLOCK_RECORD
  5
2B7D
330
1
100
AcDbSymbolTableRecord
100
AcDbBlockTableRecord
  2
*D12
340
0
  0
BLOCK_RECORD
  5
2B8A
330
1
100
AcDbSymbolTableRecord
100
AcDbBlockTableRecord
  2
*D13
340
0
  0
BLOCK_RECORD
  5
2B97
330
1
100
AcDbSymbolTableRecord
100
AcDbBlockTableRecord
  2
*D14
340
0
  0
BLOCK_RECORD
  5
2D6C
330
1
100
AcDbSymbolTableRecord
100
AcDbBlockTableRecord
  2
*D15
340
0
  0
ENDTAB
  0
ENDSEC
  0
SECTION
  2
BLOCKS
  0
BLOCK
  5
20
330
1F
100
AcDbEntity
  8
0
100
AcDbBlockBegin
  2
*Model_Space
 70
     0
 10
0.0
 20
0.0
 30
0.0
  3
*Model_Space
  1

  0
ENDBLK
  5
21
330
1F
100
AcDbEntity
  8
0
100
AcDbBlockEnd
  0
BLOCK
  5
1C
330
1B
100
AcDbEntity
 67
     1
  8
0
100
AcDbBlockBegin
  2
*Paper_Space
 70
     0
 10
0.0
 20
0.0
 30
0.0
  3
*Paper_Space
  1

  0
ENDBLK
  5
1D
330
1B
100
AcDbEntity
 67
     1
  8
0
100
AcDbBlockEnd
  0
BLOCK
  5
A0
330
9B
100
AcDbEntity
  8
0
100
AcDbBlockBegin
  2
_Closed
 70
     0
 10
0.0
 20
0.0
 30
0.0
  3
_Closed
  1

  0
LINE
  5
9C
330
9B
100
AcDbEntity
  8
0
 62
     0
370
    -2
100
AcDbLine
 10
-1.0
 20
0.1666666666666666
 30
0.0
 11
0.0
 21
0.0
 31
0.0
  0
LINE
  5
9D
330
9B
100
AcDbEntity
  8
0
 62
     0
370
    -2
100
AcDbLine
 10
0.0
 20
0.0
 30
0.0
 11
-1.0
 21
-0.1666666666666666
 31
0.0
  0
LINE
  5
9E
330
9B
100
AcDbEntity
  8
0
 62
     0
370
    -2
100
AcDbLine
 10
-1.0
 20
0.1666666666666666
 30
0.0
 11
-1.0
 21
-0.1666666666666666
 31
0.0
  0
LINE
  5
9F
330
9B
100
AcDbEntity
  8
0
 62
     0
370
    -2
100
AcDbLine
 10
0.0
 20
0.0
 30
0.0
 11
-1.0
 21
0.0
 31
0.0
  0
ENDBLK
  5
A1
330
9B
100
AcDbEntity
  8
0
100
AcDbBlockEnd
  0
BLOCK
  5
155B
330
1510
100
AcDbEntity
  8
0
100
AcDbBlockBegin
  2
A$C10A573AC
 70
     0
 10
0.0
 20
0.0
 30
0.0
  3
A$C10A573AC
  1

  0
TEXT
  5
1511
330
1510
100
AcDbEntity
  8
文字
100
AcDbText
 10
0.9844302777919438
 20
5.224957122252134
 30
0.0
 40
3.0
  1
Materal : Steel.
 51
15.0
  7
OKANO
100
AcDbText
  0
TEXT
  5
1512
330
1510
100
AcDbEntity
  8
文字
100
AcDbText
 10
-0.1141909619694843
 20
0.7500001922403499
 30
0.0
 40
3.0
  1
Surface treatment : Electro galvanized.
 51
15.0
  7
OKANO
100
AcDbText
  0
TEXT
  5
1513
330
1510
100
AcDbEntity
  8
文字
100
AcDbText
 10
-0.4901926332574932
 20
9.159967445193727
 30
0.0
 40
3.0
  1
5 TORGUE SCREW  M5-6
 51
15.0
  7
OKANO
100
AcDbText
  0
TEXT
  5
1514
330
1510
100
AcDbEntity
  8
文字
100
AcDbText
 10
1.364713526390004
 20
78.88822913323081
 30
0.0
 40
3.0
  1
Special standard,
 51
15.0
  7
OKANO
100
AcDbText
  0
TEXT
  5
1515
330
1510
100
AcDbEntity
  8
文字
100
AcDbText
 10
92.88160823408942
 20
89.92753849837379
 30
0.0
 40
3.0
  1
Screw Type
 51
15.0
  7
OKANO
100
AcDbText
  0
LINE
  5
1516
330
1510
100
AcDbEntity
  8
太線
100
AcDbLine
 10
113.9464587597784
 20
81.93930390144641
 30
0.0
 11
112.4464587597784
 21
81.93930390144641
 31
0.0
  0
LINE
  5
1517
330
1510
100
AcDbEntity
  8
太線
100
AcDbLine
 10
112.4464587597784
 20
76.9393039014464
 30
0.0
 11
121.4644995438761
 21
76.9393039014464
 31
0.0
  0
TEXT
  5
1518
330
1510
100
AcDbEntity
  8
文字
100
AcDbText
 10
93.46068240437217
 20
77.96976862235395
 30
0.0
 40
2.0
  1
17-30
 51
15.0
  7
OKANO
100
AcDbText
  0
LINE
  5
1519
330
1510
100
AcDbEntity
  8
太線
100
AcDbLine
 10
111.9464587597784
 20
81.43930390144641
 30
0.0
 11
111.9464587597784
 21
77.4393039014464
 31
0.0
  0
LINE
  5
151A
330
1510
100
AcDbEntity
  8
太線
100
AcDbLine
 10
91.94645875977846
 20
81.43930390144641
 30
0.0
 11
91.94645875977846
 21
77.43930390144639
 31
0.0
  0
LINE
  5
151B
330
1510
100
AcDbEntity
  8
太線
100
AcDbLine
 10
101.964499543876
 20
77.4393039014464
 30
0.0
 11
101.964499543876
 21
81.43930390144641
 31
0.0
  0
LINE
  5
151C
330
1510
100
AcDbEntity
  8
太線
100
AcDbLine
 10
92.44645875977846
 20
76.9393039014464
 30
0.0
 11
101.4644995438761
 21
76.9393039014464
 31
0.0
  0
ARC
  5
151D
330
1510
100
AcDbEntity
  8
太線
100
AcDbCircle
 10
92.44645875977846
 20
77.43930390144639
 30
0.0
 40
0.5
100
AcDbArc
 50
180.0
 51
270.0
  0
ARC
  5
151E
330
1510
100
AcDbEntity
  8
太線
100
AcDbCircle
 10
101.4644995438761
 20
77.4393039014464
 30
0.0
 40
0.5
100
AcDbArc
 50
270.0
 51
0.0
  0
ARC
  5
151F
330
1510
100
AcDbEntity
  8
太線
100
AcDbCircle
 10
112.4464587597784
 20
77.4393039014464
 30
0.0
 40
0.5
100
AcDbArc
 50
180.0
 51
270.0
  0
LINE
  5
1520
330
1510
100
AcDbEntity
  8
想像線
100
AcDbLine
 10
93.94645875977849
 20
81.93930390144641
 30
0.0
 11
99.96449954387616
 21
81.93930390144641
 31
0.0
  0
LINE
  5
1521
330
1510
100
AcDbEntity
  8
極太線
100
AcDbLine
 10
96.38762957111168
 20
85.43930390144641
 30
0.0
 11
97.50528794844525
 21
85.43930390144641
 31
0.0
  0
CIRCLE
  5
1522
330
1510
100
AcDbEntity
  8
太線
100
AcDbCircle
 10
96.94645875977847
 20
85.43930390144641
 30
0.0
 40
0.5588291886667776
  0
LINE
  5
1523
330
1510
100
AcDbEntity
  8
太線
100
AcDbLine
 10
99.46449954387617
 20
86.9393039014464
 30
0.0
 11
94.44645875977846
 21
86.9393039014464
 31
0.0
  0
LINE
  5
1524
330
1510
100
AcDbEntity
  8
太線
100
AcDbLine
 10
93.94645875977849
 20
86.43930390144639
 30
0.0
 11
93.94645875977849
 21
81.93930390144641
 31
0.0
  0
ARC
  5
1525
330
1510
100
AcDbEntity
  8
太線
100
AcDbCircle
 10
92.44645875977846
 20
81.43930390144641
 30
0.0
 40
0.5
100
AcDbArc
 50
90.0
 51
180.0
  0
LINE
  5
1526
330
1510
100
AcDbEntity
  8
太線
100
AcDbLine
 10
93.94645875977849
 20
81.93930390144641
 30
0.0
 11
92.44645875977846
 21
81.93930390144641
 31
0.0
  0
ARC
  5
1527
330
1510
100
AcDbEntity
  8
太線
100
AcDbCircle
 10
94.44645875977846
 20
86.43930390144639
 30
0.0
 40
0.5
100
AcDbArc
 50
90.0
 51
180.0
  0
LINE
  5
1528
330
1510
100
AcDbEntity
  8
太線
100
AcDbLine
 10
99.96449954387616
 20
81.93930390144641
 30
0.0
 11
99.96449954387616
 21
86.43930390144639
 31
0.0
  0
LINE
  5
1529
330
1510
100
AcDbEntity
  8
太線
100
AcDbLine
 10
101.4644995438761
 20
81.93930390144641
 30
0.0
 11
99.96449954387616
 21
81.93930390144641
 31
0.0
  0
ARC
  5
152A
330
1510
100
AcDbEntity
  8
太線
100
AcDbCircle
 10
101.4644995438761
 20
81.43930390144641
 30
0.0
 40
0.5
100
AcDbArc
 50
0.0
 51
90.0
  0
ARC
  5
152B
330
1510
100
AcDbEntity
  8
太線
100
AcDbCircle
 10
99.46449954387617
 20
86.43930390144639
 30
0.0
 40
0.5
100
AcDbArc
 50
0.0
 51
90.0
  0
LINE
  5
152C
330
1510
100
AcDbEntity
  8
極太線
100
AcDbLine
 10
96.94645875977847
 20
85.99813309011318
 30
0.0
 11
96.94645875977847
 21
84.88047471277964
 31
0.0
  0
ARC
  5
152D
330
1510
100
AcDbEntity
  8
太線
100
AcDbCircle
 10
112.4464587597784
 20
81.43930390144641
 30
0.0
 40
0.5
100
AcDbArc
 50
90.0
 51
180.0
  0
TEXT
  5
152E
330
1510
100
AcDbEntity
  8
文字
100
AcDbText
 10
134.3819212586065
 20
78.16263579228063
 30
0.0
 40
2.0
  1
101
 51
15.0
  7
OKANO
100
AcDbText
  0
TEXT
  5
152F
330
1510
100
AcDbEntity
  8
文字
100
AcDbText
 10
113.3422276612065
 20
77.96976862235395
 30
0.0
 40
2.0
  1
38-83
 51
15.0
  7
OKANO
100
AcDbText
  0
LINE
  5
1530
330
1510
100
AcDbEntity
  8
太線
100
AcDbLine
 10
141.9825403279737
 20
77.4393039014464
 30
0.0
 11
141.9825403279737
 21
81.43930390144641
 31
0.0
  0
LINE
  5
1531
330
1510
100
AcDbEntity
  8
太線
100
AcDbLine
 10
131.964499543876
 20
81.43930390144641
 30
0.0
 11
131.964499543876
 21
77.4393039014464
 31
0.0
  0
LINE
  5
1532
330
1510
100
AcDbEntity
  8
太線
100
AcDbLine
 10
121.9644995438761
 20
77.4393039014464
 30
0.0
 11
121.9644995438761
 21
81.43930390144641
 31
0.0
  0
ARC
  5
1533
330
1510
100
AcDbEntity
  8
太線
100
AcDbCircle
 10
121.4644995438761
 20
77.4393039014464
 30
0.0
 40
0.5
100
AcDbArc
 50
270.0
 51
0.0
  0
LINE
  5
1534
330
1510
100
AcDbEntity
  8
太線
100
AcDbLine
 10
132.464499543876
 20
76.9393039014464
 30
0.0
 11
141.4825403279738
 21
76.9393039014464
 31
0.0
  0
ARC
  5
1535
330
1510
100
AcDbEntity
  8
太線
100
AcDbCircle
 10
132.464499543876
 20
77.4393039014464
 30
0.0
 40
0.5
100
AcDbArc
 50
180.0
 51
270.0
  0
ARC
  5
1536
330
1510
100
AcDbEntity
  8
太線
100
AcDbCircle
 10
141.4825403279738
 20
77.4393039014464
 30
0.0
 40
0.5
100
AcDbArc
 50
270.0
 51
0.0
  0
ARC
  5
1537
330
1510
100
AcDbEntity
  8
太線
100
AcDbCircle
 10
121.4644995438761
 20
81.43930390144641
 30
0.0
 40
0.5
100
AcDbArc
 50
0.0
 51
90.0
  0
LINE
  5
1538
330
1510
100
AcDbEntity
  8
太線
100
AcDbLine
 10
119.9644995438761
 20
81.93930390144641
 30
0.0
 11
119.9644995438761
 21
86.43930390144639
 31
0.0
  0
LINE
  5
1539
330
1510
100
AcDbEntity
  8
太線
100
AcDbLine
 10
113.9464587597784
 20
86.43930390144639
 30
0.0
 11
113.9464587597784
 21
81.93930390144641
 31
0.0
  0
LINE
  5
153A
330
1510
100
AcDbEntity
  8
想像線
100
AcDbLine
 10
113.9464587597784
 20
81.93930390144641
 30
0.0
 11
119.9644995438761
 21
81.93930390144641
 31
0.0
  0
LINE
  5
153B
330
1510
100
AcDbEntity
  8
太線
100
AcDbLine
 10
121.4644995438761
 20
81.93930390144641
 30
0.0
 11
119.9644995438761
 21
81.93930390144641
 31
0.0
  0
LINE
  5
153C
330
1510
100
AcDbEntity
  8
太線
100
AcDbLine
 10
119.4644995438761
 20
86.9393039014464
 30
0.0
 11
114.4464587597784
 21
86.9393039014464
 31
0.0
  0
ARC
  5
153D
330
1510
100
AcDbEntity
  8
太線
100
AcDbCircle
 10
114.4464587597784
 20
86.43930390144639
 30
0.0
 40
0.5
100
AcDbArc
 50
90.0
 51
180.0
  0
CIRCLE
  5
153E
330
1510
100
AcDbEntity
  8
太線
100
AcDbCircle
 10
115.4464587597784
 20
85.43930390144641
 30
0.0
 40
0.5588291886667776
  0
LINE
  5
153F
330
1510
100
AcDbEntity
  8
極太線
100
AcDbLine
 10
115.4464587597784
 20
85.99813309011318
 30
0.0
 11
115.4464587597784
 21
84.88047471277964
 31
0.0
  0
LINE
  5
1540
330
1510
100
AcDbEntity
  8
極太線
100
AcDbLine
 10
114.8876295711116
 20
85.43930390144641
 30
0.0
 11
116.0052879484452
 21
85.43930390144641
 31
0.0
  0
ARC
  5
1541
330
1510
100
AcDbEntity
  8
太線
100
AcDbCircle
 10
119.4644995438761
 20
86.43930390144639
 30
0.0
 40
0.5
100
AcDbArc
 50
0.0
 51
90.0
  0
LINE
  5
1542
330
1510
100
AcDbEntity
  8
極太線
100
AcDbLine
 10
117.9056703552094
 20
85.43930390144641
 30
0.0
 11
119.0233287325429
 21
85.43930390144641
 31
0.0
  0
LINE
  5
1543
330
1510
100
AcDbEntity
  8
極太線
100
AcDbLine
 10
118.4644995438761
 20
85.99813309011318
 30
0.0
 11
118.4644995438761
 21
84.88047471277964
 31
0.0
  0
CIRCLE
  5
1544
330
1510
100
AcDbEntity
  8
太線
100
AcDbCircle
 10
118.4644995438761
 20
85.43930390144641
 30
0.0
 40
0.5588291886667776
  0
LINE
  5
1545
330
1510
100
AcDbEntity
  8
想像線
100
AcDbLine
 10
133.964499543876
 20
81.93930390144641
 30
0.0
 11
139.9825403279737
 21
81.93930390144641
 31
0.0
  0
LINE
  5
1546
330
1510
100
AcDbEntity
  8
極太線
100
AcDbLine
 10
137.9237111393071
 20
85.43930390144641
 30
0.0
 11
139.0413695166406
 21
85.43930390144641
 31
0.0
  0
CIRCLE
  5
1547
330
1510
100
AcDbEntity
  8
太線
100
AcDbCircle
 10
138.4825403279738
 20
85.43930390144641
 30
0.0
 40
0.5588291886667776
  0
CIRCLE
  5
1548
330
1510
100
AcDbEntity
  8
太線
100
AcDbCircle
 10
138.4825403279738
 20
83.26342923362075
 30
0.0
 40
0.5588291886667776
  0
LINE
  5
1549
330
1510
100
AcDbEntity
  8
極太線
100
AcDbLine
 10
137.9237111393071
 20
83.26342923362075
 30
0.0
 11
139.0413695166406
 21
83.26342923362075
 31
0.0
  0
LINE
  5
154A
330
1510
100
AcDbEntity
  8
太線
100
AcDbLine
 10
139.4825403279738
 20
86.9393039014464
 30
0.0
 11
134.464499543876
 21
86.9393039014464
 31
0.0
  0
LINE
  5
154B
330
1510
100
AcDbEntity
  8
太線
100
AcDbLine
 10
133.964499543876
 20
86.43930390144639
 30
0.0
 11
133.964499543876
 21
81.93930390144641
 31
0.0
  0
ARC
  5
154C
330
1510
100
AcDbEntity
  8
太線
100
AcDbCircle
 10
132.464499543876
 20
81.43930390144641
 30
0.0
 40
0.5
100
AcDbArc
 50
90.0
 51
180.0
  0
LINE
  5
154D
330
1510
100
AcDbEntity
  8
太線
100
AcDbLine
 10
133.964499543876
 20
81.93930390144641
 30
0.0
 11
132.464499543876
 21
81.93930390144641
 31
0.0
  0
LINE
  5
154E
330
1510
100
AcDbEntity
  8
極太線
100
AcDbLine
 10
134.9056703552092
 20
83.26342923362075
 30
0.0
 11
136.0233287325429
 21
83.26342923362075
 31
0.0
  0
LINE
  5
154F
330
1510
100
AcDbEntity
  8
極太線
100
AcDbLine
 10
135.464499543876
 20
83.82225842228752
 30
0.0
 11
135.464499543876
 21
82.70460004495395
 31
0.0
  0
CIRCLE
  5
1550
330
1510
100
AcDbEntity
  8
太線
100
AcDbCircle
 10
135.464499543876
 20
83.26342923362075
 30
0.0
 40
0.5588291886667776
  0
ARC
  5
1551
330
1510
100
AcDbEntity
  8
太線
100
AcDbCircle
 10
134.464499543876
 20
86.43930390144639
 30
0.0
 40
0.5
100
AcDbArc
 50
90.0
 51
180.0
  0
CIRCLE
  5
1552
330
1510
100
AcDbEntity
  8
太線
100
AcDbCircle
 10
135.464499543876
 20
85.43930390144641
 30
0.0
 40
0.5588291886667776
  0
LINE
  5
1553
330
1510
100
AcDbEntity
  8
極太線
100
AcDbLine
 10
135.464499543876
 20
85.99813309011318
 30
0.0
 11
135.464499543876
 21
84.88047471277964
 31
0.0
  0
LINE
  5
1554
330
1510
100
AcDbEntity
  8
極太線
100
AcDbLine
 10
134.9056703552092
 20
85.43930390144641
 30
0.0
 11
136.0233287325429
 21
85.43930390144641
 31
0.0
  0
LINE
  5
1555
330
1510
100
AcDbEntity
  8
太線
100
AcDbLine
 10
139.9825403279737
 20
81.93930390144641
 30
0.0
 11
139.9825403279737
 21
86.43930390144639
 31
0.0
  0
ARC
  5
1556
330
1510
100
AcDbEntity
  8
太線
100
AcDbCircle
 10
141.4825403279738
 20
81.43930390144641
 30
0.0
 40
0.5
100
AcDbArc
 50
0.0
 51
90.0
  0
LINE
  5
1557
330
1510
100
AcDbEntity
  8
極太線
100
AcDbLine
 10
138.4825403279738
 20
83.82225842228752
 30
0.0
 11
138.4825403279738
 21
82.70460004495395
 31
0.0
  0
LINE
  5
1558
330
1510
100
AcDbEntity
  8
太線
100
AcDbLine
 10
141.4825403279738
 20
81.93930390144641
 30
0.0
 11
139.9825403279737
 21
81.93930390144641
 31
0.0
  0
ARC
  5
1559
330
1510
100
AcDbEntity
  8
太線
100
AcDbCircle
 10
139.4825403279738
 20
86.43930390144639
 30
0.0
 40
0.5
100
AcDbArc
 50
0.0
 51
90.0
  0
LINE
  5
155A
330
1510
100
AcDbEntity
  8
極太線
100
AcDbLine
 10
138.4825403279738
 20
85.99813309011318
 30
0.0
 11
138.4825403279738
 21
84.88047471277964
 31
0.0
  0
ENDBLK
  5
155C
330
1510
100
AcDbEntity
  8
0
100
AcDbBlockEnd
  0
BLOCK
  5
2A65
330
2A5C
100
AcDbEntity
  8
0
100
AcDbBlockBegin
  2
*D2
 70
     1
 10
0.0
 20
0.0
 30
0.0
  3
*D2
  1

  0
LINE
  5
2A5D
330
2A5C
100
AcDbEntity
  8
寸法線
 62
     0
370
    -2
100
AcDbLine
 10
123.7608685812089
 20
166.3011608047488
 30
0.0
 11
110.5241497638845
 21
150.2181350850341
 31
0.0
  0
LINE
  5
2A5E
330
2A5C
100
AcDbEntity
  8
寸法線
 62
     0
370
    -2
100
AcDbLine
 10
102.8984525757763
 20
140.9526754420765
 30
0.0
 11
100.9920282787492
 21
138.6363105313369
 31
0.0
  0
MTEXT
  5
2A5F
330
2A5C
100
AcDbEntity
  8
寸法線
 62
     0
100
AcDbMText
 10
118.1938963377892
 20
165.0448092320939
 30
0.0
 40
5.0
 41
0.0
 71
     5
 72
     1
  1
\U+22056
  7
OKANO
 11
0.6354747656756797
 21
0.7721216369131485
 31
0.0
 73
     1
 44
1.0
  0
LINE
  5
2A60
330
2A5C
100
AcDbEntity
  8
寸法線
 62
     0
370
    -2
100
AcDbLine
 10
104.8048768728032
 20
143.2690403528159
 30
0.0
 11
108.6177254668575
 21
147.9017701742948
 31
0.0
  0
INSERT
  5
2A61
330
2A5C
100
AcDbEntity
  8
寸法線
 62
     0
370
    -2
100
AcDbBlockReference
  2
_Closed
 10
104.8048768728032
 20
143.2690403528159
 30
0.0
 41
3.0
 42
3.0
 43
3.0
 50
50.54479415024488
  0
INSERT
  5
2A62
330
2A5C
100
AcDbEntity
  8
寸法線
 62
     0
370
    -2
100
AcDbBlockReference
  2
_Closed
 10
108.6177254668575
 20
147.9017701742948
 30
0.0
 41
3.0
 42
3.0
 43
3.0
 50
230.5447941502449
  0
POINT
  5
2A63
330
2A5C
100
AcDbEntity
  8
Defpoints
 62
     0
100
AcDbPoint
 10
108.6177254668575
 20
147.9017701742948
 30
0.0
  0
POINT
  5
2A64
330
2A5C
100
AcDbEntity
  8
Defpoints
 62
     0
100
AcDbPoint
 10
104.8048768728032
 20
143.2690403528159
 30
0.0
  0
ENDBLK
  5
2A66
330
2A5C
100
AcDbEntity
  8
0
100
AcDbBlockEnd
  0
BLOCK
  5
2AAF
330
2AA5
100
AcDbEntity
  8
0
100
AcDbBlockBegin
  2
*D3
 70
     1
 10
0.0
 20
0.0
 30
0.0
  3
*D3
  1

  0
LINE
  5
2B08
330
2AA5
100
AcDbEntity
  8
寸法線
 62
     0
370
    -2
100
AcDbLine
 10
70.20151402540432
 20
210.4711488256961
 30
0.0
 11
22.42550052708907
 21
210.4711488256961
 31
0.0
  0
LINE
  5
2B09
330
2AA5
100
AcDbEntity
  8
寸法線
 62
     0
370
    -2
100
AcDbLine
 10
46.20151402540431
 20
150.471148825696
 30
0.0
 11
22.42550052708905
 21
150.471148825696
 31
0.0
  0
LINE
  5
2B0A
330
2AA5
100
AcDbEntity
  8
寸法線
 62
     0
370
    -2
100
AcDbLine
 10
25.42550052708907
 20
207.4711488256961
 30
0.0
 11
25.42550052708907
 21
153.471148825696
 31
0.0
  0
INSERT
  5
2B0B
330
2AA5
100
AcDbEntity
  8
寸法線
 62
     0
370
    -2
100
AcDbBlockReference
  2
_Closed
 10
25.42550052708907
 20
210.4711488256961
 30
0.0
 41
3.0
 42
3.0
 43
3.0
 50
90.0
  0
INSERT
  5
2B0C
330
2AA5
100
AcDbEntity
  8
寸法線
 62
     0
370
    -2
100
AcDbBlockReference
  2
_Closed
 10
25.42550052708905
 20
150.471148825696
 30
0.0
 41
3.0
 42
3.0
 43
3.0
 50
270.0
  0
MTEXT
  5
2B0D
330
2AA5
100
AcDbEntity
  8
寸法線
 62
     0
100
AcDbMText
 10
21.92550052708904
 20
180.4711488256961
 30
0.0
 40
5.0
 41
0.0
 71
     5
 72
     1
  1
57.3
  7
OKANO
 11
0.0000000000000001
 21
1.0
 31
0.0
 73
     1
 44
1.0
  0
POINT
  5
2B0E
330
2AA5
100
AcDbEntity
  8
Defpoints
 62
     0
100
AcDbPoint
 10
72.2015140254043
 20
210.4711488256961
 30
0.0
  0
POINT
  5
2B0F
330
2AA5
100
AcDbEntity
  8
Defpoints
 62
     0
100
AcDbPoint
 10
48.20151402540432
 20
150.471148825696
 30
0.0
  0
POINT
  5
2B10
330
2AA5
100
AcDbEntity
  8
Defpoints
 62
     0
100
AcDbPoint
 10
25.42550052708905
 20
150.471148825696
 30
0.0
  0
ENDBLK
  5
2AB0
330
2AA5
100
AcDbEntity
  8
0
100
AcDbBlockEnd
  0
BLOCK
  5
2ABC
330
2AB2
100
AcDbEntity
  8
0
100
AcDbBlockBegin
  2
*D4
 70
     1
 10
0.0
 20
0.0
 30
0.0
  3
*D4
  1

  0
LINE
  5
2AB3
330
2AB2
100
AcDbEntity
  8
寸法線
 62
     0
370
    -2
100
AcDbLine
 10
46.20151402540431
 20
150.471148825696
 30
0.0
 11
22.42550052708905
 21
150.471148825696
 31
0.0
  0
LINE
  5
2AB4
330
2AB2
100
AcDbEntity
  8
寸法線
 62
     0
370
    -2
100
AcDbLine
 10
40.20151402540432
 20
115.471148825696
 30
0.0
 11
22.42550052708905
 21
115.471148825696
 31
0.0
  0
LINE
  5
2AB5
330
2AB2
100
AcDbEntity
  8
寸法線
 62
     0
370
    -2
100
AcDbLine
 10
25.42550052708905
 20
147.471148825696
 30
0.0
 11
25.42550052708905
 21
118.471148825696
 31
0.0
  0
INSERT
  5
2AB6
330
2AB2
100
AcDbEntity
  8
寸法線
 62
     0
370
    -2
100
AcDbBlockReference
  2
_Closed
 10
25.42550052708905
 20
150.471148825696
 30
0.0
 41
3.0
 42
3.0
 43
3.0
 50
90.0
  0
INSERT
  5
2AB7
330
2AB2
100
AcDbEntity
  8
寸法線
 62
     0
370
    -2
100
AcDbBlockReference
  2
_Closed
 10
25.42550052708905
 20
115.471148825696
 30
0.0
 41
3.0
 42
3.0
 43
3.0
 50
270.0
  0
MTEXT
  5
2AB8
330
2AB2
100
AcDbEntity
  8
寸法線
 62
     0
100
AcDbMText
 10
21.92550052708904
 20
132.971148825696
 30
0.0
 40
5.0
 41
0.0
 71
     5
 72
     1
  1
35
  7
OKANO
 11
0.0000000000000001
 21
1.0
 31
0.0
 73
     1
 44
1.0
  0
POINT
  5
2AB9
330
2AB2
100
AcDbEntity
  8
Defpoints
 62
     0
100
AcDbPoint
 10
48.20151402540432
 20
150.471148825696
 30
0.0
  0
POINT
  5
2ABA
330
2AB2
100
AcDbEntity
  8
Defpoints
 62
     0
100
AcDbPoint
 10
42.20151402540432
 20
115.471148825696
 30
0.0
  0
POINT
  5
2ABB
330
2AB2
100
AcDbEntity
  8
Defpoints
 62
     0
100
AcDbPoint
 10
25.42550052708905
 20
115.471148825696
 30
0.0
  0
ENDBLK
  5
2ABD
330
2AB2
100
AcDbEntity
  8
0
100
AcDbBlockEnd
  0
BLOCK
  5
2ACB
330
2ABF
100
AcDbEntity
  8
0
100
AcDbBlockBegin
  2
*D5
 70
     1
 10
0.0
 20
0.0
 30
0.0
  3
*D5
  1

  0
LINE
  5
2AE9
330
2ABF
100
AcDbEntity
  8
寸法線
 62
     0
370
    -2
100
AcDbLine
 10
102.2015140254043
 20
113.471148825696
 30
0.0
 11
102.2015140254043
 21
101.5868095881866
 31
0.0
  0
LINE
  5
2AEA
330
2ABF
100
AcDbEntity
  8
寸法線
 62
     0
370
    -2
100
AcDbLine
 10
97.2015140254043
 20
113.471148825696
 30
0.0
 11
97.2015140254043
 21
101.5868095881866
 31
0.0
  0
LINE
  5
2AEB
330
2ABF
100
AcDbEntity
  8
寸法線
 62
     0
370
    -2
100
AcDbLine
 10
105.2015140254043
 20
104.5868095881866
 30
0.0
 11
108.2015140254043
 21
104.5868095881866
 31
0.0
  0
LINE
  5
2AEC
330
2ABF
100
AcDbEntity
  8
寸法線
 62
     0
370
    -2
100
AcDbLine
 10
94.20151402540431
 20
104.5868095881866
 30
0.0
 11
91.20151402540432
 21
104.5868095881866
 31
0.0
  0
LINE
  5
2AED
330
2ABF
100
AcDbEntity
  8
寸法線
 62
     0
370
    -2
100
AcDbLine
 10
102.2015140254043
 20
104.5868095881866
 30
0.0
 11
97.2015140254043
 21
104.5868095881866
 31
0.0
  0
INSERT
  5
2AEE
330
2ABF
100
AcDbEntity
  8
寸法線
 62
     0
370
    -2
100
AcDbBlockReference
  2
_Closed
 10
102.2015140254043
 20
104.5868095881866
 30
0.0
 41
3.0
 42
3.0
 43
3.0
 50
180.0
  0
INSERT
  5
2AEF
330
2ABF
100
AcDbEntity
  8
寸法線
 62
     0
370
    -2
100
AcDbBlockReference
  2
_Closed
 10
97.2015140254043
 20
104.5868095881866
 30
0.0
 41
3.0
 42
3.0
 43
3.0
  0
MTEXT
  5
2AF0
330
2ABF
100
AcDbEntity
  8
寸法線
 62
     0
100
AcDbMText
 10
99.7015140254043
 20
108.0868095881867
 30
0.0
 40
5.0
 41
0.0
 71
     5
 72
     1
  1
4
  7
OKANO
 73
     1
 44
1.0
  0
POINT
  5
2AF1
330
2ABF
100
AcDbEntity
  8
Defpoints
 62
     0
100
AcDbPoint
 10
102.2015140254043
 20
115.471148825696
 30
0.0
  0
POINT
  5
2AF2
330
2ABF
100
AcDbEntity
  8
Defpoints
 62
     0
100
AcDbPoint
 10
97.2015140254043
 20
115.471148825696
 30
0.0
  0
POINT
  5
2AF3
330
2ABF
100
AcDbEntity
  8
Defpoints
 62
     0
100
AcDbPoint
 10
97.2015140254043
 20
104.5868095881866
 30
0.0
  0
ENDBLK
  5
2ACC
330
2ABF
100
AcDbEntity
  8
0
100
AcDbBlockEnd
  0
BLOCK
  5
2AD8
330
2ACE
100
AcDbEntity
  8
0
100
AcDbBlockBegin
  2
*D6
 70
     1
 10
0.0
 20
0.0
 30
0.0
  3
*D6
  1

  0
LINE
  5
2AFF
330
2ACE
100
AcDbEntity
  8
寸法線
 62
     0
370
    -2
100
AcDbLine
 10
97.2015140254043
 20
113.471148825696
 30
0.0
 11
97.2015140254043
 21
101.5868095881866
 31
0.0
  0
LINE
  5
2B00
330
2ACE
100
AcDbEntity
  8
寸法線
 62
     0
370
    -2
100
AcDbLine
 10
47.20151402540432
 20
113.471148825696
 30
0.0
 11
47.20151402540432
 21
101.5868095881866
 31
0.0
  0
LINE
  5
2B01
330
2ACE
100
AcDbEntity
  8
寸法線
 62
     0
370
    -2
100
AcDbLine
 10
94.20151402540431
 20
104.5868095881866
 30
0.0
 11
50.20151402540432
 21
104.5868095881866
 31
0.0
  0
INSERT
  5
2B02
330
2ACE
100
AcDbEntity
  8
寸法線
 62
     0
370
    -2
100
AcDbBlockReference
  2
_Closed
 10
97.2015140254043
 20
104.5868095881866
 30
0.0
 41
3.0
 42
3.0
 43
3.0
  0
INSERT
  5
2B03
330
2ACE
100
AcDbEntity
  8
寸法線
 62
     0
370
    -2
100
AcDbBlockReference
  2
_Closed
 10
47.20151402540432
 20
104.5868095881866
 30
0.0
 41
3.0
 42
3.0
 43
3.0
 50
180.0
  0
MTEXT
  5
2B04
330
2ACE
100
AcDbEntity
  8
寸法線
 62
     0
100
AcDbMText
 10
72.2015140254043
 20
108.0868095881867
 30
0.0
 40
5.0
 41
0.0
 71
     5
 72
     1
  1
49.3
  7
OKANO
 73
     1
 44
1.0
  0
POINT
  5
2B05
330
2ACE
100
AcDbEntity
  8
Defpoints
 62
     0
100
AcDbPoint
 10
97.2015140254043
 20
115.471148825696
 30
0.0
  0
POINT
  5
2B06
330
2ACE
100
AcDbEntity
  8
Defpoints
 62
     0
100
AcDbPoint
 10
47.20151402540432
 20
115.471148825696
 30
0.0
  0
POINT
  5
2B07
330
2ACE
100
AcDbEntity
  8
Defpoints
 62
     0
100
AcDbPoint
 10
47.20151402540432
 20
104.5868095881866
 30
0.0
  0
ENDBLK
  5
2AD9
330
2ACE
100
AcDbEntity
  8
0
100
AcDbBlockEnd
  0
BLOCK
  5
2AE7
330
2ADB
100
AcDbEntity
  8
0
100
AcDbBlockBegin
  2
*D7
 70
     1
 10
0.0
 20
0.0
 30
0.0
  3
*D7
  1

  0
LINE
  5
2AF4
330
2ADB
100
AcDbEntity
  8
寸法線
 62
     0
370
    -2
100
AcDbLine
 10
47.20151402540432
 20
113.471148825696
 30
0.0
 11
47.20151402540432
 21
101.5868095881866
 31
0.0
  0
LINE
  5
2AF5
330
2ADB
100
AcDbEntity
  8
寸法線
 62
     0
370
    -2
100
AcDbLine
 10
42.20151402540432
 20
113.471148825696
 30
0.0
 11
42.20151402540432
 21
101.5868095881866
 31
0.0
  0
LINE
  5
2AF6
330
2ADB
100
AcDbEntity
  8
寸法線
 62
     0
370
    -2
100
AcDbLine
 10
50.20151402540432
 20
104.5868095881866
 30
0.0
 11
53.20151402540432
 21
104.5868095881866
 31
0.0
  0
LINE
  5
2AF7
330
2ADB
100
AcDbEntity
  8
寸法線
 62
     0
370
    -2
100
AcDbLine
 10
39.20151402540432
 20
104.5868095881866
 30
0.0
 11
36.20151402540432
 21
104.5868095881866
 31
0.0
  0
LINE
  5
2AF8
330
2ADB
100
AcDbEntity
  8
寸法線
 62
     0
370
    -2
100
AcDbLine
 10
47.20151402540432
 20
104.5868095881866
 30
0.0
 11
42.20151402540432
 21
104.5868095881866
 31
0.0
  0
INSERT
  5
2AF9
330
2ADB
100
AcDbEntity
  8
寸法線
 62
     0
370
    -2
100
AcDbBlockReference
  2
_Closed
 10
47.20151402540432
 20
104.5868095881866
 30
0.0
 41
3.0
 42
3.0
 43
3.0
 50
180.0
  0
INSERT
  5
2AFA
330
2ADB
100
AcDbEntity
  8
寸法線
 62
     0
370
    -2
100
AcDbBlockReference
  2
_Closed
 10
42.20151402540432
 20
104.5868095881866
 30
0.0
 41
3.0
 42
3.0
 43
3.0
  0
MTEXT
  5
2AFB
330
2ADB
100
AcDbEntity
  8
寸法線
 62
     0
100
AcDbMText
 10
44.70151402540432
 20
108.0868095881867
 30
0.0
 40
5.0
 41
0.0
 71
     5
 72
     1
  1
4
  7
OKANO
 73
     1
 44
1.0
  0
POINT
  5
2AFC
330
2ADB
100
AcDbEntity
  8
Defpoints
 62
     0
100
AcDbPoint
 10
47.20151402540432
 20
115.471148825696
 30
0.0
  0
POINT
  5
2AFD
330
2ADB
100
AcDbEntity
  8
Defpoints
 62
     0
100
AcDbPoint
 10
42.20151402540432
 20
115.471148825696
 30
0.0
  0
POINT
  5
2AFE
330
2ADB
100
AcDbEntity
  8
Defpoints
 62
     0
100
AcDbPoint
 10
42.20151402540432
 20
104.5868095881866
 30
0.0
  0
ENDBLK
  5
2AE8
330
2ADB
100
AcDbEntity
  8
0
100
AcDbBlockEnd
  0
BLOCK
  5
2B1C
330
2B12
100
AcDbEntity
  8
0
100
AcDbBlockBegin
  2
*D8
 70
     1
 10
0.0
 20
0.0
 30
0.0
  3
*D8
  1

  0
LINE
  5
2B1E
330
2B12
100
AcDbEntity
  8
寸法線
 62
     0
370
    -2
100
AcDbLine
 10
42.20151402540432
 20
182.4711488256961
 30
0.0
 11
42.20151402540432
 21
226.1568078052726
 31
0.0
  0
LINE
  5
2B1F
330
2B12
100
AcDbEntity
  8
寸法線
 62
     0
370
    -2
100
AcDbLine
 10
137.2015140254043
 20
212.4711488256961
 30
0.0
 11
137.2015140254043
 21
226.1568078052726
 31
0.0
  0
LINE
  5
2B20
330
2B12
100
AcDbEntity
  8
寸法線
 62
     0
370
    -2
100
AcDbLine
 10
45.20151402540432
 20
223.1568078052726
 30
0.0
 11
134.2015140254043
 21
223.1568078052726
 31
0.0
  0
INSERT
  5
2B21
330
2B12
100
AcDbEntity
  8
寸法線
 62
     0
370
    -2
100
AcDbBlockReference
  2
_Closed
 10
42.20151402540432
 20
223.1568078052726
 30
0.0
 41
3.0
 42
3.0
 43
3.0
 50
180.0
  0
INSERT
  5
2B22
330
2B12
100
AcDbEntity
  8
寸法線
 62
     0
370
    -2
100
AcDbBlockReference
  2
_Closed
 10
137.2015140254043
 20
223.1568078052726
 30
0.0
 41
3.0
 42
3.0
 43
3.0
  0
MTEXT
  5
2B23
330
2B12
100
AcDbEntity
  8
寸法線
 62
     0
100
AcDbMText
 10
89.70151402540432
 20
226.658508328806
 30
0.0
 40
5.0
 41
0.0
 71
     5
 72
     1
  1
92.3
  7
OKANO
 73
     1
 44
1.0
  0
POINT
  5
2B24
330
2B12
100
AcDbEntity
  8
Defpoints
 62
     0
100
AcDbPoint
 10
42.20151402540432
 20
180.4711488256961
 30
0.0
  0
POINT
  5
2B25
330
2B12
100
AcDbEntity
  8
Defpoints
 62
     0
100
AcDbPoint
 10
137.2015140254043
 20
210.4711488256961
 30
0.0
  0
POINT
  5
2B26
330
2B12
100
AcDbEntity
  8
Defpoints
 62
     0
100
AcDbPoint
 10
137.2015140254043
 20
223.1568078052726
 30
0.0
  0
ENDBLK
  5
2B1D
330
2B12
100
AcDbEntity
  8
0
100
AcDbBlockEnd
  0
BLOCK
  5
2B32
330
2B28
100
AcDbEntity
  8
0
100
AcDbBlockBegin
  2
*D9
 70
     1
 10
0.0
 20
0.0
 30
0.0
  3
*D9
  1

  0
LINE
  5
2B34
330
2B28
100
AcDbEntity
  8
寸法線
 62
     0
370
    -2
100
AcDbLine
 10
47.20151402540432
 20
152.471148825696
 30
0.0
 11
47.20151402540432
 21
165.2736217044059
 31
0.0
  0
LINE
  5
2B35
330
2B28
100
AcDbEntity
  8
寸法線
 62
     0
370
    -2
100
AcDbLine
 10
96.20151402540432
 20
152.471148825696
 30
0.0
 11
96.20151402540432
 21
165.2736217044059
 31
0.0
  0
LINE
  5
2B36
330
2B28
100
AcDbEntity
  8
寸法線
 62
     0
370
    -2
100
AcDbLine
 10
50.20151402540432
 20
162.2736217044059
 30
0.0
 11
93.20151402540432
 21
162.2736217044059
 31
0.0
  0
INSERT
  5
2B37
330
2B28
100
AcDbEntity
  8
寸法線
 62
     0
370
    -2
100
AcDbBlockReference
  2
_Closed
 10
47.20151402540432
 20
162.2736217044059
 30
0.0
 41
3.0
 42
3.0
 43
3.0
 50
180.0
  0
INSERT
  5
2B38
330
2B28
100
AcDbEntity
  8
寸法線
 62
     0
370
    -2
100
AcDbBlockReference
  2
_Closed
 10
96.20151402540432
 20
162.2736217044059
 30
0.0
 41
3.0
 42
3.0
 43
3.0
  0
MTEXT
  5
2B39
330
2B28
100
AcDbEntity
  8
寸法線
 62
     0
100
AcDbMText
 10
71.7015140254043
 20
165.7736217044059
 30
0.0
 40
5.0
 41
0.0
 71
     5
 72
     1
  1
49.0
  7
OKANO
 73
     1
 44
1.0
  0
POINT
  5
2B3A
330
2B28
100
AcDbEntity
  8
Defpoints
 62
     0
100
AcDbPoint
 10
47.20151402540432
 20
150.471148825696
 30
0.0
  0
POINT
  5
2B3B
330
2B28
100
AcDbEntity
  8
Defpoints
 62
     0
100
AcDbPoint
 10
96.20151402540432
 20
150.471148825696
 30
0.0
  0
POINT
  5
2B3C
330
2B28
100
AcDbEntity
  8
Defpoints
 62
     0
100
AcDbPoint
 10
96.20151402540432
 20
162.2736217044059
 30
0.0
  0
ENDBLK
  5
2B33
330
2B28
100
AcDbEntity
  8
0
100
AcDbBlockEnd
  0
BLOCK
  5
2B48
330
2B3E
100
AcDbEntity
  8
0
100
AcDbBlockBegin
  2
*D10
 70
     1
 10
0.0
 20
0.0
 30
0.0
  3
*D10
  1

  0
LINE
  5
2B4A
330
2B3E
100
AcDbEntity
  8
寸法線
 62
     0
370
    -2
100
AcDbLine
 10
217.6414745488584
 20
113.471148825696
 30
0.0
 11
217.6414745488584
 21
94.20471689514227
 31
0.0
  0
LINE
  5
2B4B
330
2B3E
100
AcDbEntity
  8
寸法線
 62
     0
370
    -2
100
AcDbLine
 10
277.6414745488584
 20
113.471148825696
 30
0.0
 11
277.6414745488584
 21
94.20471689514227
 31
0.0
  0
LINE
  5
2B4C
330
2B3E
100
AcDbEntity
  8
寸法線
 62
     0
370
    -2
100
AcDbLine
 10
220.6414745488584
 20
97.20471689514226
 30
0.0
 11
274.6414745488584
 21
97.20471689514226
 31
0.0
  0
INSERT
  5
2B4D
330
2B3E
100
AcDbEntity
  8
寸法線
 62
     0
370
    -2
100
AcDbBlockReference
  2
_Closed
 10
217.6414745488584
 20
97.20471689514226
 30
0.0
 41
3.0
 42
3.0
 43
3.0
 50
180.0
  0
INSERT
  5
2B4E
330
2B3E
100
AcDbEntity
  8
寸法線
 62
     0
370
    -2
100
AcDbBlockReference
  2
_Closed
 10
277.6414745488584
 20
97.20471689514226
 30
0.0
 41
3.0
 42
3.0
 43
3.0
  0
MTEXT
  5
2B4F
330
2B3E
100
AcDbEntity
  8
寸法線
 62
     0
100
AcDbMText
 10
247.6414745488584
 20
100.7047168951422
 30
0.0
 40
5.0
 41
0.0
 71
     5
 72
     1
  1
57.3
  7
OKANO
 73
     1
 44
1.0
  0
POINT
  5
2B50
330
2B3E
100
AcDbEntity
  8
Defpoints
 62
     0
100
AcDbPoint
 10
217.6414745488584
 20
115.471148825696
 30
0.0
  0
POINT
  5
2B51
330
2B3E
100
AcDbEntity
  8
Defpoints
 62
     0
100
AcDbPoint
 10
277.6414745488584
 20
115.471148825696
 30
0.0
  0
POINT
  5
2B52
330
2B3E
100
AcDbEntity
  8
Defpoints
 62
     0
100
AcDbPoint
 10
277.6414745488584
 20
97.20471689514226
 30
0.0
  0
ENDBLK
  5
2B49
330
2B3E
100
AcDbEntity
  8
0
100
AcDbBlockEnd
  0
BLOCK
  5
2B6F
330
2B63
100
AcDbEntity
  8
0
100
AcDbBlockBegin
  2
*D11
 70
     1
 10
0.0
 20
0.0
 30
0.0
  3
*D11
  1

  0
LINE
  5
2B71
330
2B63
100
AcDbEntity
  8
寸法線
 62
     0
370
    -2
100
AcDbLine
 10
245.1414745488583
 20
123.471148825696
 30
0.0
 11
245.1414745488583
 21
113.9917521859024
 31
0.0
  0
LINE
  5
2B72
330
2B63
100
AcDbEntity
  8
寸法線
 62
     0
370
    -2
100
AcDbLine
 10
250.1414745488584
 20
123.471148825696
 30
0.0
 11
250.1414745488584
 21
113.9917521859024
 31
0.0
  0
LINE
  5
2B73
330
2B63
100
AcDbEntity
  8
寸法線
 62
     0
370
    -2
100
AcDbLine
 10
242.1414745488584
 20
116.9917521859024
 30
0.0
 11
239.1414745488584
 21
116.9917521859024
 31
0.0
  0
LINE
  5
2B74
330
2B63
100
AcDbEntity
  8
寸法線
 62
     0
370
    -2
100
AcDbLine
 10
253.1414745488584
 20
116.9917521859024
 30
0.0
 11
256.1414745488584
 21
116.9917521859024
 31
0.0
  0
LINE
  5
2B75
330
2B63
100
AcDbEntity
  8
寸法線
 62
     0
370
    -2
100
AcDbLine
 10
245.1414745488583
 20
116.9917521859024
 30
0.0
 11
250.1414745488584
 21
116.9917521859024
 31
0.0
  0
INSERT
  5
2B76
330
2B63
100
AcDbEntity
  8
寸法線
 62
     0
370
    -2
100
AcDbBlockReference
  2
_Closed
 10
245.1414745488583
 20
116.9917521859024
 30
0.0
 41
3.0
 42
3.0
 43
3.0
  0
INSERT
  5
2B77
330
2B63
100
AcDbEntity
  8
寸法線
 62
     0
370
    -2
100
AcDbBlockReference
  2
_Closed
 10
250.1414745488584
 20
116.9917521859024
 30
0.0
 41
3.0
 42
3.0
 43
3.0
 50
180.0
  0
MTEXT
  5
2B78
330
2B63
100
AcDbEntity
  8
寸法線
 62
     0
100
AcDbMText
 10
247.6414745488584
 20
120.4917521859024
 30
0.0
 40
5.0
 41
0.0
 71
     5
 72
     1
  1
4
  7
OKANO
 73
     1
 44
1.0
  0
POINT
  5
2B79
330
2B63
100
AcDbEntity
  8
Defpoints
 62
     0
100
AcDbPoint
 10
245.1414745488583
 20
125.471148825696
 30
0.0
  0
POINT
  5
2B7A
330
2B63
100
AcDbEntity
  8
Defpoints
 62
     0
100
AcDbPoint
 10
250.1414745488584
 20
125.471148825696
 30
0.0
  0
POINT
  5
2B7B
330
2B63
100
AcDbEntity
  8
Defpoints
 62
     0
100
AcDbPoint
 10
250.1414745488584
 20
116.9917521859024
 30
0.0
  0
ENDBLK
  5
2B70
330
2B63
100
AcDbEntity
  8
0
100
AcDbBlockEnd
  0
BLOCK
  5
2B87
330
2B7D
100
AcDbEntity
  8
0
100
AcDbBlockBegin
  2
*D12
 70
     1
 10
0.0
 20
0.0
 30
0.0
  3
*D12
  1

  0
LINE
  5
2B7E
330
2B7D
100
AcDbEntity
  8
寸法線
 62
     0
370
    -2
100
AcDbLine
 10
102.2015140254043
 20
123.471148825696
 30
0.0
 11
102.2015140254043
 21
116.9750373452174
 31
0.0
  0
LINE
  5
2B7F
330
2B7D
100
AcDbEntity
  8
寸法線
 62
     0
370
    -2
100
AcDbLine
 10
127.2015140254043
 20
148.471148825696
 30
0.0
 11
127.2015140254043
 21
116.9750373452174
 31
0.0
  0
LINE
  5
2B80
330
2B7D
100
AcDbEntity
  8
寸法線
 62
     0
370
    -2
100
AcDbLine
 10
105.2015140254043
 20
119.9750373452173
 30
0.0
 11
124.2015140254043
 21
119.9750373452173
 31
0.0
  0
INSERT
  5
2B81
330
2B7D
100
AcDbEntity
  8
寸法線
 62
     0
370
    -2
100
AcDbBlockReference
  2
_Closed
 10
102.2015140254043
 20
119.9750373452173
 30
0.0
 41
3.0
 42
3.0
 43
3.0
 50
180.0
  0
INSERT
  5
2B82
330
2B7D
100
AcDbEntity
  8
寸法線
 62
     0
370
    -2
100
AcDbBlockReference
  2
_Closed
 10
127.2015140254043
 20
119.9750373452173
 30
0.0
 41
3.0
 42
3.0
 43
3.0
  0
MTEXT
  5
2B83
330
2B7D
100
AcDbEntity
  8
寸法線
 62
     0
100
AcDbMText
 10
114.7015140254043
 20
123.4755294712015
 30
0.0
 40
5.0
 41
0.0
 71
     5
 72
     1
  1
25
  7
OKANO
 73
     1
 44
1.0
  0
POINT
  5
2B84
330
2B7D
100
AcDbEntity
  8
Defpoints
 62
     0
100
AcDbPoint
 10
102.2015140254043
 20
125.471148825696
 30
0.0
  0
POINT
  5
2B85
330
2B7D
100
AcDbEntity
  8
Defpoints
 62
     0
100
AcDbPoint
 10
127.2015140254043
 20
150.471148825696
 30
0.0
  0
POINT
  5
2B86
330
2B7D
100
AcDbEntity
  8
Defpoints
 62
     0
100
AcDbPoint
 10
127.2015140254043
 20
119.9750373452173
 30
0.0
  0
ENDBLK
  5
2B88
330
2B7D
100
AcDbEntity
  8
0
100
AcDbBlockEnd
  0
BLOCK
  5
2B94
330
2B8A
100
AcDbEntity
  8
0
100
AcDbBlockBegin
  2
*D13
 70
     1
 10
0.0
 20
0.0
 30
0.0
  3
*D13
  1

  0
LINE
  5
2B8B
330
2B8A
100
AcDbEntity
  8
寸法線
 62
     0
370
    -2
100
AcDbLine
 10
129.2015140254042
 20
150.471148825696
 30
0.0
 11
136.9712367346205
 21
150.471148825696
 31
0.0
  0
LINE
  5
2B8C
330
2B8A
100
AcDbEntity
  8
寸法線
 62
     0
370
    -2
100
AcDbLine
 10
104.2015140254043
 20
125.471148825696
 30
0.0
 11
136.9712367346205
 21
125.471148825696
 31
0.0
  0
LINE
  5
2B8D
330
2B8A
100
AcDbEntity
  8
寸法線
 62
     0
370
    -2
100
AcDbLine
 10
133.9712367346205
 20
147.471148825696
 30
0.0
 11
133.9712367346205
 21
128.471148825696
 31
0.0
  0
INSERT
  5
2B8E
330
2B8A
100
AcDbEntity
  8
寸法線
 62
     0
370
    -2
100
AcDbBlockReference
  2
_Closed
 10
133.9712367346205
 20
150.471148825696
 30
0.0
 41
3.0
 42
3.0
 43
3.0
 50
90.0
  0
INSERT
  5
2B8F
330
2B8A
100
AcDbEntity
  8
寸法線
 62
     0
370
    -2
100
AcDbBlockReference
  2
_Closed
 10
133.9712367346205
 20
125.471148825696
 30
0.0
 41
3.0
 42
3.0
 43
3.0
 50
270.0
  0
MTEXT
  5
2B90
330
2B8A
100
AcDbEntity
  8
寸法線
 62
     0
100
AcDbMText
 10
130.4707446086362
 20
137.971148825696
 30
0.0
 40
5.0
 41
0.0
 71
     5
 72
     1
  1
25
  7
OKANO
 11
0.0000000000000001
 21
1.0
 31
0.0
 73
     1
 44
1.0
  0
POINT
  5
2B91
330
2B8A
100
AcDbEntity
  8
Defpoints
 62
     0
100
AcDbPoint
 10
127.2015140254043
 20
150.471148825696
 30
0.0
  0
POINT
  5
2B92
330
2B8A
100
AcDbEntity
  8
Defpoints
 62
     0
100
AcDbPoint
 10
102.2015140254043
 20
125.471148825696
 30
0.0
  0
POINT
  5
2B93
330
2B8A
100
AcDbEntity
  8
Defpoints
 62
     0
100
AcDbPoint
 10
133.9712367346205
 20
125.471148825696
 30
0.0
  0
ENDBLK
  5
2B95
330
2B8A
100
AcDbEntity
  8
0
100
AcDbBlockEnd
  0
BLOCK
  5
2BA1
330
2B97
100
AcDbEntity
  8
0
100
AcDbBlockBegin
  2
*D14
 70
     1
 10
0.0
 20
0.0
 30
0.0
  3
*D14
  1

  0
LINE
  5
2BA3
330
2B97
100
AcDbEntity
  8
寸法線
 62
     0
370
    -2
100
AcDbLine
 10
139.2015140254043
 20
210.4711488256961
 30
0.0
 11
156.01842638895
 21
210.4711488256961
 31
0.0
  0
LINE
  5
2BA4
330
2B97
100
AcDbEntity
  8
寸法線
 62
     0
370
    -2
100
AcDbLine
 10
138.9712367346205
 20
150.471148825696
 30
0.0
 11
156.01842638895
 21
150.471148825696
 31
0.0
  0
LINE
  5
2BA5
330
2B97
100
AcDbEntity
  8
寸法線
 62
     0
370
    -2
100
AcDbLine
 10
153.01842638895
 20
207.4711488256961
 30
0.0
 11
153.01842638895
 21
153.471148825696
 31
0.0
  0
INSERT
  5
2BA6
330
2B97
100
AcDbEntity
  8
寸法線
 62
     0
370
    -2
100
AcDbBlockReference
  2
_Closed
 10
153.01842638895
 20
210.4711488256961
 30
0.0
 41
3.0
 42
3.0
 43
3.0
 50
90.0
  0
INSERT
  5
2BA7
330
2B97
100
AcDbEntity
  8
寸法線
 62
     0
370
    -2
100
AcDbBlockReference
  2
_Closed
 10
153.01842638895
 20
150.471148825696
 30
0.0
 41
3.0
 42
3.0
 43
3.0
 50
270.0
  0
MTEXT
  5
2BA8
330
2B97
100
AcDbEntity
  8
寸法線
 62
     0
100
AcDbMText
 10
149.51842638895
 20
180.4711488256961
 30
0.0
 40
5.0
 41
0.0
 71
     5
 72
     1
  1
57.3
  7
OKANO
 11
0.0000000000000001
 21
1.0
 31
0.0
 73
     1
 44
1.0
  0
POINT
  5
2BA9
330
2B97
100
AcDbEntity
  8
Defpoints
 62
     0
100
AcDbPoint
 10
137.2015140254043
 20
210.4711488256961
 30
0.0
  0
POINT
  5
2BAA
330
2B97
100
AcDbEntity
  8
Defpoints
 62
     0
100
AcDbPoint
 10
136.9712367346205
 20
150.471148825696
 30
0.0
  0
POINT
  5
2BAB
330
2B97
100
AcDbEntity
  8
Defpoints
 62
     0
100
AcDbPoint
 10
153.01842638895
 20
150.471148825696
 30
0.0
  0
ENDBLK
  5
2BA2
330
2B97
100
AcDbEntity
  8
0
100
AcDbBlockEnd
  0
BLOCK
  5
2D76
330
2D6C
100
AcDbEntity
  8
0
100
AcDbBlockBegin
  2
*D15
 70
     1
 10
0.0
 20
0.0
 30
0.0
  3
*D15
  1

  0
LINE
  5
2D6D
330
2D6C
100
AcDbEntity
  8
構築線
 62
     0
370
    -2
100
AcDbLine
 10
247.6414745488584
 20
182.4711488256961
 30
0.0
 11
247.6414745488584
 21
222.5159826440687
 31
0.0
  0
LINE
  5
2D6E
330
2D6C
100
AcDbEntity
  8
構築線
 62
     0
370
    -2
100
AcDbLine
 10
334.2357156188178
 20
182.4711488256961
 30
0.0
 11
334.2357156188178
 21
222.5159826440687
 31
0.0
  0
LINE
  5
2D6F
330
2D6C
100
AcDbEntity
  8
構築線
 62
     0
370
    -2
100
AcDbLine
 10
250.6414745488584
 20
219.5159826440688
 30
0.0
 11
331.2357156188178
 21
219.5159826440688
 31
0.0
  0
INSERT
  5
2D70
330
2D6C
100
AcDbEntity
  8
構築線
 62
     0
370
    -2
100
AcDbBlockReference
  2
_Closed
 10
247.6414745488584
 20
219.5159826440688
 30
0.0
 41
3.0
 42
3.0
 43
3.0
 50
180.0
  0
INSERT
  5
2D71
330
2D6C
100
AcDbEntity
  8
構築線
 62
     0
370
    -2
100
AcDbBlockReference
  2
_Closed
 10
334.2357156188178
 20
219.5159826440688
 30
0.0
 41
3.0
 42
3.0
 43
3.0
  0
MTEXT
  5
2D72
330
2D6C
100
AcDbEntity
  8
構築線
 62
     0
100
AcDbMText
 10
290.9385950838382
 20
223.0159826440686
 30
0.0
 40
5.0
 41
0.0
 71
     5
 72
     1
  1
86.59
  7
OKANO
 73
     1
 44
1.0
  0
POINT
  5
2D73
330
2D6C
100
AcDbEntity
  8
Defpoints
 62
     0
100
AcDbPoint
 10
247.6414745488584
 20
180.4711488256961
 30
0.0
  0
POINT
  5
2D74
330
2D6C
100
AcDbEntity
  8
Defpoints
 62
     0
100
AcDbPoint
 10
334.2357156188178
 20
180.4711488256961
 30
0.0
  0
POINT
  5
2D75
330
2D6C
100
AcDbEntity
  8
Defpoints
 62
     0
100
AcDbPoint
 10
334.2357156188178
 20
219.5159826440688
 30
0.0
  0
ENDBLK
  5
2D77
330
2D6C
100
AcDbEntity
  8
0
100
AcDbBlockEnd
  0
ENDSEC
  0
SECTION
  2
ENTITIES
  0
XLINE
  5
22CA
330
1F
100
AcDbEntity
  8
構築線
370
     5
100
AcDbXline
 10
72.2015140254043
 20
178.0193172078315
 30
0.0
 11
0.0
 21
-1.0
 31
0.0
  0
XLINE
  5
28DD
330
1F
100
AcDbEntity
  8
構築線
370
     5
100
AcDbXline
 10
40.70151402540432
 20
180.4711488256961
 30
0.0
 11
1.0
 21
0.0
 31
0.0
  0
ARC
  5
28DE
330
1F
100
AcDbEntity
  8
太線
100
AcDbCircle
 10
72.2015140254043
 20
180.4711488256961
 30
0.0
 40
30.0
100
AcDbArc
 50
90.0
 51
180.0
  0
LINE
  5
28E0
330
1F
100
AcDbEntity
  8
太線
100
AcDbLine
 10
42.20151402540432
 20
180.4711488256961
 30
0.0
 11
42.20151402540432
 21
115.471148825696
 31
0.0
  0
LINE
  5
28E2
330
1F
100
AcDbEntity
  8
太線
100
AcDbLine
 10
102.2015140254043
 20
115.471148825696
 30
0.0
 11
102.2015140254043
 21
150.471148825696
 31
0.0
  0
LINE
  5
28E3
330
1F
100
AcDbEntity
  8
太線
100
AcDbLine
 10
102.2015140254043
 20
150.471148825696
 30
0.0
 11
137.2015140254043
 21
150.471148825696
 31
0.0
  0
LINE
  5
28E5
330
1F
100
AcDbEntity
  8
太線
100
AcDbLine
 10
137.2015140254043
 20
210.4711488256961
 30
0.0
 11
72.2015140254043
 21
210.4711488256961
 31
0.0
  0
XLINE
  5
28ED
330
1F
100
AcDbEntity
  8
構築線
100
AcDbXline
 10
247.6414745488584
 20
210.4788998873083
 30
0.0
 11
0.0
 21
-1.0
 31
0.0
  0
CIRCLE
  5
28F0
330
1F
100
AcDbEntity
  8
太線
100
AcDbCircle
 10
247.6414745488584
 20
180.4711488256961
 30
0.0
 40
25.0
  0
CIRCLE
  5
28F1
330
1F
100
AcDbEntity
  8
太線
100
AcDbCircle
 10
247.6414745488584
 20
180.4711488256961
 30
0.0
 40
30.0
  0
LINE
  5
28F2
330
1F
100
AcDbEntity
  8
太線
100
AcDbLine
 10
217.6414745488584
 20
180.4711488256961
 30
0.0
 11
217.6414745488584
 21
115.471148825696
 31
0.0
  0
LINE
  5
28F4
330
1F
100
AcDbEntity
  8
太線
100
AcDbLine
 10
277.6414745488584
 20
115.471148825696
 30
0.0
 11
277.6414745488584
 21
180.4711488256961
 31
0.0
  0
LINE
  5
28F8
330
1F
100
AcDbEntity
  8
想像線
100
AcDbLine
 10
47.20151402540432
 20
115.471148825696
 30
0.0
 11
47.20151402540432
 21
150.471148825696
 31
0.0
  0
LINE
  5
28F9
330
1F
100
AcDbEntity
  8
想像線
100
AcDbLine
 10
47.20151402540432
 20
150.471148825696
 30
0.0
 11
97.20151402540432
 21
150.471148825696
 31
0.0
  0
LINE
  5
28FA
330
1F
100
AcDbEntity
  8
想像線
100
AcDbLine
 10
97.20151402540432
 20
150.471148825696
 30
0.0
 11
97.2015140254043
 21
115.471148825696
 31
0.0
  0
LINE
  5
28FB
330
1F
100
AcDbEntity
  8
想像線
100
AcDbLine
 10
137.2015140254043
 20
155.471148825696
 30
0.0
 11
102.2015140254043
 21
155.471148825696
 31
0.0
  0
LINE
  5
28FC
330
1F
100
AcDbEntity
  8
想像線
100
AcDbLine
 10
102.2015140254043
 20
155.471148825696
 30
0.0
 11
102.2015140254043
 21
205.4711488256961
 31
0.0
  0
LINE
  5
28FD
330
1F
100
AcDbEntity
  8
想像線
100
AcDbLine
 10
102.2015140254043
 20
205.4711488256961
 30
0.0
 11
137.2015140254043
 21
205.4711488256961
 31
0.0
  0
LINE
  5
28FE
330
1F
100
AcDbEntity
  8
想像線
100
AcDbLine
 10
222.6414745488584
 20
115.471148825696
 30
0.0
 11
222.6414745488584
 21
150.471148825696
 31
0.0
  0
LINE
  5
28FF
330
1F
100
AcDbEntity
  8
想像線
100
AcDbLine
 10
222.6414745488584
 20
150.471148825696
 30
0.0
 11
272.6414745488584
 21
150.471148825696
 31
0.0
  0
LINE
  5
2900
330
1F
100
AcDbEntity
  8
想像線
100
AcDbLine
 10
272.6414745488584
 20
150.471148825696
 30
0.0
 11
272.6414745488584
 21
115.471148825696
 31
0.0
  0
LINE
  5
290C
330
1F
100
AcDbEntity
  8
太線
100
AcDbLine
 10
76.44951398386831
 20
90.83538151108006
 30
0.0
 11
137.2015140254043
 21
90.83538151108006
 31
0.0
  0
LINE
  5
290E
330
1F
100
AcDbEntity
  8
太線
100
AcDbLine
 10
137.2015140254043
 20
30.83538151108008
 30
0.0
 11
75.49460376676414
 21
30.83538151108006
 31
0.0
  0
LINE
  5
2912
330
1F
100
AcDbEntity
  8
想像線
100
AcDbLine
 10
137.2015140254043
 20
85.83538151108006
 30
0.0
 11
102.7912907694046
 21
85.83538151108006
 31
0.0
  0
LINE
  5
2913
330
1F
100
AcDbEntity
  8
想像線
100
AcDbLine
 10
102.7912907694046
 20
85.83538151108006
 30
0.0
 11
102.2015140254043
 21
35.83538151108008
 31
0.0
  0
LINE
  5
2914
330
1F
100
AcDbEntity
  8
想像線
100
AcDbLine
 10
102.2015140254043
 20
35.83538151108008
 30
0.0
 11
137.2015140254043
 21
35.83538151108008
 31
0.0
  0
TEXT
  5
29C1
330
1F
100
AcDbEntity
  8
文字
100
AcDbText
 10
341.7096969973281
 20
-31.10040054652154
 30
0.0
 40
3.599999999999998
  1
SET SCREW COUP
 51
15.0
  7
OKANO
100
AcDbText
  0
TEXT
  5
29C2
330
1F
100
AcDbEntity
  8
文字
100
AcDbText
 10
312.2759482959057
 20
-37.63928352067121
 30
0.0
 40
4.799999999999998
  1
joint kogyo T.okano
 51
15.0
  7
OKANO
100
AcDbText
  0
TEXT
  5
29C3
330
1F
100
AcDbEntity
  8
文字
100
AcDbText
 10
304.787635284109
 20
-22.88691201338342
 30
0.0
 40
4.799999999999998
  1
F-999-20060615 Auto CAD
 51
15.0
  7
OKANO
100
AcDbText
  0
LINE
  5
29C4
330
1F
100
AcDbEntity
  8
太線
100
AcDbLine
 10
277.365407102495
 20
-23.80771966381378
 30
0.0
 11
385.3654071024951
 21
-23.80771966381378
 31
0.0
  0
LWPOLYLINE
  5
29C5
330
1F
100
AcDbEntity
  8
太線
100
AcDbPolyline
 90
        4
 70
     1
 43
0.0
 10
277.365407102495
 20
-15.40771966381377
 10
385.3654071024951
 20
-15.40771966381377
 10
385.3654071024951
 20
-40.60771966381378
 10
277.365407102495
 20
-40.60771966381378
  0
TEXT
  5
29C6
330
1F
100
AcDbEntity
  8
文字
100
AcDbText
 10
281.2377906685525
 20
-32.00123146266446
 30
0.0
 40
2.399999999999999
  1
CHECK
 51
15.0
  7
OKANO
100
AcDbText
  0
LINE
  5
29C7
330
1F
100
AcDbEntity
  8
太線
100
AcDbLine
 10
301.3654071024951
 20
-15.40771966381377
 30
0.0
 11
301.3654071024951
 21
-40.60771966381378
 31
0.0
  0
TEXT
  5
29C8
330
1F
100
AcDbEntity
  8
文字
100
AcDbText
 10
281.2377906685525
 20
-38.92065906888028
 30
0.0
 40
2.399999999999999
  1
ISSUED
 51
15.0
  7
OKANO
100
AcDbText
  0
TEXT
  5
29C9
330
1F
100
AcDbEntity
  8
文字
100
AcDbText
 10
281.4943051014533
 20
-35.58908287961215
 30
0.0
 40
2.399999999999999
  1
APPR
 51
15.0
  7
OKANO
100
AcDbText
  0
TEXT
  5
29CA
330
1F
100
AcDbEntity
  8
文字
100
AcDbText
 10
279.4421951168668
 20
-22.00650348504862
 30
0.0
 40
2.399999999999999
  1
FILM NAME
 51
15.0
  7
OKANO
100
AcDbText
  0
TEXT
  5
29CB
330
1F
100
AcDbEntity
  8
文字
100
AcDbText
 10
280.724763994199
 20
-28.41338063590542
 30
0.0
 40
2.399999999999999
  1
DRAWN
 51
15.0
  7
OKANO
100
AcDbText
  0
TEXT
  5
29CC
330
1F
100
AcDbEntity
  8
文字
100
AcDbText
 10
305.7685388135729
 20
-30.07903840087669
 30
0.0
 40
4.799999999999998
  1
WS-4-2LR
 51
15.0
  7
OKANO
100
AcDbText
  0
ARC
  5
29D7
330
1F
100
AcDbEntity
  8
太線
100
AcDbCircle
 10
72.2015140254043
 20
60.83538151108007
 30
0.0
 40
30.0
100
AcDbArc
 50
276.5818781839401
 51
264.1807647887389
  0
CIRCLE
  5
29D8
330
1F
100
AcDbEntity
  8
太線
100
AcDbCircle
 10
72.2015140254043
 20
60.83538151108007
 30
0.0
 40
25.0
  0
XLINE
  5
29F1
330
1F
100
AcDbEntity
  8
構築線
100
AcDbXline
 10
247.6414745488584
 20
210.4788998873083
 30
0.0
 11
0.0
 21
-1.0
 31
0.0
  0
LINE
  5
29F3
330
1F
100
AcDbEntity
  8
太線
100
AcDbLine
 10
245.1414745488583
 20
150.471148825696
 30
0.0
 11
245.1414745488583
 21
125.471148825696
 31
0.0
  0
LINE
  5
29F4
330
1F
100
AcDbEntity
  8
太線
100
AcDbLine
 10
245.1414745488583
 20
125.471148825696
 30
0.0
 11
250.1414745488584
 21
125.471148825696
 31
0.0
  0
LINE
  5
29F5
330
1F
100
AcDbEntity
  8
太線
100
AcDbLine
 10
250.1414745488584
 20
125.471148825696
 30
0.0
 11
250.1414745488584
 21
150.471148825696
 31
0.0
  0
LINE
  5
29F6
330
1F
100
AcDbEntity
  8
太線
100
AcDbLine
 10
127.2015140254043
 20
150.471148825696
 30
0.0
 11
102.2015140254043
 21
125.471148825696
 31
0.0
  0
LINE
  5
29F7
330
1F
100
AcDbEntity
  8
太線
100
AcDbLine
 10
102.5258912346044
 20
63.33538151108007
 30
0.0
 11
127.2015140254043
 21
63.33538151108007
 31
0.0
  0
LINE
  5
29F8
330
1F
100
AcDbEntity
  8
太線
100
AcDbLine
 10
127.2015140254043
 20
63.33538151108007
 30
0.0
 11
127.2015140254043
 21
58.33538151108007
 31
0.0
  0
LINE
  5
29F9
330
1F
100
AcDbEntity
  8
太線
100
AcDbLine
 10
127.2015140254043
 20
58.33538151108007
 30
0.0
 11
102.0971658831578
 21
58.33538151108007
 31
0.0
  0
CIRCLE
  5
29FA
330
1F
100
AcDbEntity
  8
太線
100
AcDbCircle
 10
106.7113011698303
 20
145.5854052635554
 30
0.0
 40
3.0
  0
LINE
  5
29FB
330
1F
100
AcDbEntity
  8
破線
100
AcDbLine
 10
245.1414745488583
 20
142.4201536799836
 30
0.0
 11
250.1414745488584
 21
142.4201536799836
 31
0.0
  0
LINE
  5
29FC
330
1F
100
AcDbEntity
  8
破線
100
AcDbLine
 10
109.5699242899333
 20
63.33538151108007
 30
0.0
 11
109.5699242899333
 21
58.33538151108007
 31
0.0
  0
DIMENSION
  5
2A5B
330
1F
100
AcDbEntity
  8
寸法線
100
AcDbDimension
  2
*D2
 10
104.8048768728032
 20
143.2690403528159
 30
0.0
 11
120.8963220669853
 21
162.820647552229
 31
0.0
 70
   163
 71
     5
 42
6.0
  3
sunpo
100
AcDbDiametricDimension
 15
108.6177254668575
 25
147.9017701742948
 35
0.0
 40
0.0
1001
ACAD
1000
DSTYLE
1002
{
1070
    40
1040
1.0
1070
   288
1070
     1
1002
}
  0
LINE
  5
2A67
330
1F
100
AcDbEntity
  8
破線
100
AcDbLine
 10
103.7541775291722
 20
63.33538151108007
 30
0.0
 11
103.7541775291722
 21
58.33538151108007
 31
0.0
  0
LINE
  5
2A68
330
1F
100
AcDbEntity
  8
破線
100
AcDbLine
 10
245.1414745488583
 20
148.5731397685199
 30
0.0
 11
250.1414745488584
 21
148.5731397685199
 31
0.0
  0
LINE
  5
2A77
330
1F
100
AcDbEntity
  8
想像線
100
AcDbLine
 10
48.20151402540432
 20
156.471148825696
 30
0.0
 11
102.2015140254043
 21
156.471148825696
 31
0.0
  0
ARC
  5
2A79
330
1F
100
AcDbEntity
  8
想像線
100
AcDbCircle
 10
72.2015140254043
 20
180.4711488256961
 30
0.0
 40
23.71293940890466
100
AcDbArc
 50
89.99999999999879
 51
180.0
  0
LINE
  5
2A7A
330
1F
100
AcDbEntity
  8
想像線
100
AcDbLine
 10
72.2015140254043
 20
204.1840882346008
 30
0.0
 11
102.2015140254043
 21
204.4711488256961
 31
0.0
  0
LINE
  5
2A7B
330
1F
100
AcDbEntity
  8
想像線
100
AcDbLine
 10
48.48857461649966
 20
180.4711488256961
 30
0.0
 11
48.20151402540432
 21
156.471148825696
 31
0.0
  0
LINE
  5
2A7C
330
1F
100
AcDbEntity
  8
想像線
100
AcDbLine
 10
48.20151402540432
 20
156.471148825696
 30
0.0
 11
48.20151402540432
 21
150.471148825696
 31
0.0
  0
LINE
  5
2A7D
330
1F
100
AcDbEntity
  8
想像線
100
AcDbLine
 10
96.20151402540432
 20
150.471148825696
 30
0.0
 11
96.20151402540432
 21
156.471148825696
 31
0.0
  0
LINE
  5
2A80
330
1F
100
AcDbEntity
  8
太線
100
AcDbLine
 10
42.20151402540432
 20
115.471148825696
 30
0.0
 11
102.2015140254043
 21
115.471148825696
 31
0.0
  0
LINE
  5
2A81
330
1F
100
AcDbEntity
  8
太線
100
AcDbLine
 10
217.6414745488584
 20
115.471148825696
 30
0.0
 11
277.6414745488584
 21
115.471148825696
 31
0.0
  0
LINE
  5
2A82
330
1F
100
AcDbEntity
  8
太線
100
AcDbLine
 10
137.2015140254043
 20
90.83538151108006
 30
0.0
 11
137.2015140254043
 21
30.83538151108008
 31
0.0
  0
LINE
  5
2A84
330
1F
100
AcDbEntity
  8
太線
100
AcDbLine
 10
137.2015140254043
 20
210.4711488256961
 30
0.0
 11
137.2015140254043
 21
150.471148825696
 31
0.0
  0
CIRCLE
  5
2A86
330
1F
100
AcDbEntity
  8
細線
100
AcDbCircle
 10
247.6414745488584
 20
180.4711488256961
 30
0.0
 40
23.64765629943049
  0
CIRCLE
  5
2A87
330
1F
100
AcDbEntity
  8
細線
100
AcDbCircle
 10
72.2015140254043
 20
60.83538151108007
 30
0.0
 40
23.27460971508716
  0
DIMENSION
  5
2AA4
330
1F
100
AcDbEntity
  8
寸法線
100
AcDbDimension
  2
*D3
 10
25.42550052708905
 20
150.471148825696
 30
0.0
 11
21.92550052708904
 21
180.4711488256961
 31
0.0
 70
    32
  1
57.3
 71
     5
 42
60.00000000000003
  3
sunpo
100
AcDbAlignedDimension
 13
72.2015140254043
 23
210.4711488256961
 33
0.0
 14
48.20151402540432
 24
150.471148825696
 34
0.0
 50
90.0
100
AcDbRotatedDimension
1001
ACAD
1000
DSTYLE
1002
{
1070
    40
1040
1.0
1002
}
  0
DIMENSION
  5
2AB1
330
1F
100
AcDbEntity
  8
寸法線
100
AcDbDimension
  2
*D4
 10
25.42550052708905
 20
115.471148825696
 30
0.0
 11
21.92550052708904
 21
132.971148825696
 31
0.0
 70
    32
 71
     5
 42
35.0
  3
sunpo
100
AcDbAlignedDimension
 13
48.20151402540432
 23
150.471148825696
 33
0.0
 14
42.20151402540432
 24
115.471148825696
 34
0.0
 50
90.0
100
AcDbRotatedDimension
1001
ACAD
1000
DSTYLE
1002
{
1070
    40
1040
1.0
1070
   279
1070
     1
1002
}
  0
DIMENSION
  5
2ABE
330
1F
100
AcDbEntity
  8
寸法線
100
AcDbDimension
  2
*D5
 10
97.2015140254043
 20
104.5868095881866
 30
0.0
 11
99.7015140254043
 21
108.0868095881867
 31
0.0
 70
    32
  1
4
 71
     5
 42
5.0
  3
sunpo
100
AcDbAlignedDimension
 13
102.2015140254043
 23
115.471148825696
 33
0.0
 14
97.2015140254043
 24
115.471148825696
 34
0.0
100
AcDbRotatedDimension
1001
ACAD
1000
DSTYLE
1002
{
1070
    40
1040
1.0
1002
}
  0
DIMENSION
  5
2ACD
330
1F
100
AcDbEntity
  8
寸法線
100
AcDbDimension
  2
*D6
 10
47.20151402540432
 20
104.5868095881866
 30
0.0
 11
72.2015140254043
 21
108.0868095881867
 31
0.0
 70
    32
  1
49.3
 71
     5
 42
50.0
  3
sunpo
100
AcDbAlignedDimension
 13
97.2015140254043
 23
115.471148825696
 33
0.0
 14
47.20151402540432
 24
115.471148825696
 34
0.0
100
AcDbRotatedDimension
1001
ACAD
1000
DSTYLE
1002
{
1070
    40
1040
1.0
1070
   279
1070
     1
1002
}
  0
DIMENSION
  5
2ADA
330
1F
100
AcDbEntity
  8
寸法線
100
AcDbDimension
  2
*D7
 10
42.20151402540432
 20
104.5868095881866
 30
0.0
 11
44.70151402540432
 21
108.0868095881867
 31
0.0
 70
    32
  1
4
 71
     5
 42
5.0
  3
sunpo
100
AcDbAlignedDimension
 13
47.20151402540432
 23
115.471148825696
 33
0.0
 14
42.20151402540432
 24
115.471148825696
 34
0.0
100
AcDbRotatedDimension
1001
ACAD
1000
DSTYLE
1002
{
1070
    40
1040
1.0
1070
   279
1070
     1
1002
}
  0
DIMENSION
  5
2B11
330
1F
100
AcDbEntity
  8
寸法線
100
AcDbDimension
  2
*D8
 10
137.2015140254043
 20
223.1568078052726
 30
0.0
 11
89.70151402540432
 21
226.658508328806
 31
0.0
 70
    32
  1
92.3
 71
     5
 42
95.0
  3
sunpo
100
AcDbAlignedDimension
 13
42.20151402540432
 23
180.4711488256961
 33
0.0
 14
137.2015140254043
 24
210.4711488256961
 34
0.0
100
AcDbRotatedDimension
1001
ACAD
1000
DSTYLE
1002
{
1070
    40
1040
1.0
1002
}
  0
DIMENSION
  5
2B27
330
1F
100
AcDbEntity
  8
寸法線
100
AcDbDimension
  2
*D9
 10
96.20151402540432
 20
162.2736217044059
 30
0.0
 11
71.7015140254043
 21
165.7736217044059
 31
0.0
 70
    32
  1
49.0
 71
     5
 42
49.0
  3
sunpo
100
AcDbAlignedDimension
 13
47.20151402540432
 23
150.471148825696
 33
0.0
 14
96.20151402540432
 24
150.471148825696
 34
0.0
100
AcDbRotatedDimension
1001
ACAD
1000
DSTYLE
1002
{
1070
    40
1040
1.0
1002
}
  0
DIMENSION
  5
2B3D
330
1F
100
AcDbEntity
  8
寸法線
100
AcDbDimension
  2
*D10
 10
277.6414745488584
 20
97.20471689514226
 30
0.0
 11
247.6414745488584
 21
100.7047168951422
 31
0.0
 70
    32
  1
57.3
 71
     5
 42
60.0
  3
sunpo
100
AcDbAlignedDimension
 13
217.6414745488584
 23
115.471148825696
 33
0.0
 14
277.6414745488584
 24
115.471148825696
 34
0.0
100
AcDbRotatedDimension
1001
ACAD
1000
DSTYLE
1002
{
1070
    40
1040
1.0
1002
}
  0
DIMENSION
  5
2B62
330
1F
100
AcDbEntity
  8
寸法線
100
AcDbDimension
  2
*D11
 10
250.1414745488584
 20
116.9917521859024
 30
0.0
 11
247.6414745488584
 21
120.4917521859024
 31
0.0
 70
    32
  1
4
 71
     5
 42
5.0
  3
sunpo
100
AcDbAlignedDimension
 13
245.1414745488583
 23
125.471148825696
 33
0.0
 14
250.1414745488584
 24
125.471148825696
 34
0.0
100
AcDbRotatedDimension
1001
ACAD
1000
DSTYLE
1002
{
1070
    40
1040
1.0
1002
}
  0
DIMENSION
  5
2B7C
330
1F
100
AcDbEntity
  8
寸法線
100
AcDbDimension
  2
*D12
 10
127.2015140254043
 20
119.9750373452173
 30
0.0
 11
114.7015140254043
 21
123.4755294712015
 31
0.0
 70
    32
 71
     5
 42
25.00000000000001
  3
sunpo
100
AcDbAlignedDimension
 13
102.2015140254043
 23
125.471148825696
 33
0.0
 14
127.2015140254043
 24
150.471148825696
 34
0.0
100
AcDbRotatedDimension
1001
ACAD
1000
DSTYLE
1002
{
1070
    40
1040
1.0
1002
}
  0
DIMENSION
  5
2B89
330
1F
100
AcDbEntity
  8
寸法線
100
AcDbDimension
  2
*D13
 10
133.9712367346205
 20
125.471148825696
 30
0.0
 11
130.4707446086362
 21
137.971148825696
 31
0.0
 70
    32
 71
     5
 42
25.0
  3
sunpo
100
AcDbAlignedDimension
 13
127.2015140254043
 23
150.471148825696
 33
0.0
 14
102.2015140254043
 24
125.471148825696
 34
0.0
 50
90.0
100
AcDbRotatedDimension
1001
ACAD
1000
DSTYLE
1002
{
1070
    40
1040
1.0
1002
}
  0
DIMENSION
  5
2B96
330
1F
100
AcDbEntity
  8
寸法線
100
AcDbDimension
  2
*D14
 10
153.01842638895
 20
150.471148825696
 30
0.0
 11
149.51842638895
 21
180.4711488256961
 31
0.0
 70
    32
  1
57.3
 71
     5
 42
60.0
  3
sunpo
100
AcDbAlignedDimension
 13
137.2015140254043
 23
210.4711488256961
 33
0.0
 14
136.9712367346205
 24
150.471148825696
 34
0.0
 50
90.0
100
AcDbRotatedDimension
1001
ACAD
1000
DSTYLE
1002
{
1070
    40
1040
1.0
1002
}
  0
LINE
  5
2BBF
330
1F
100
AcDbEntity
  8
想像線
100
AcDbLine
 10
271.2891308482888
 20
180.4711488256961
 30
0.0
 11
271.2891308482888
 21
150.471148825696
 31
0.0
  0
LINE
  5
2BC0
330
1F
100
AcDbEntity
  8
想像線
100
AcDbLine
 10
223.9938182494279
 20
180.4711488256961
 30
0.0
 11
223.9938182494279
 21
150.471148825696
 31
0.0
  0
LINE
  5
2BC1
330
1F
100
AcDbEntity
  8
想像線
100
AcDbLine
 10
72.2015140254043
 20
84.10999122616722
 30
0.0
 11
102.2015140254043
 21
84.10999122616722
 31
0.0
  0
LINE
  5
2BC2
330
1F
100
AcDbEntity
  8
想像線
100
AcDbLine
 10
72.2015140254043
 20
37.56077179599292
 30
0.0
 11
102.2015140254043
 21
37.56077179599292
 31
0.0
  0
TEXT
  5
2BE3
330
1F
100
AcDbEntity
  8
文字
100
AcDbText
 10
215.1563417339238
 20
36.40693993906815
 30
0.0
 40
4.799999999999998
  1
注記　内面バリは最小限にする
 51
15.0
  7
OKANO
100
AcDbText
  0
LINE
  5
2D57
330
1F
100
AcDbEntity
  8
太線
100
AcDbLine
 10
229.3262997895125
 20
204.4711488256961
 30
0.0
 11
167.547088514491
 21
168.8029045657389
 31
0.0
  0
ARC
  5
2D58
330
1F
100
AcDbEntity
  8
太線
100
AcDbCircle
 10
190.938826064697
 20
150.0192250970544
 30
0.0
 40
30.0
100
AcDbArc
 50
141.2353655783506
 51
305.0880916251988
  0
ARC
  5
2D59
330
1F
100
AcDbEntity
  8
細線
 62
     0
100
AcDbCircle
 10
181.1968871385559
 20
143.2519973940586
 30
0.0
 40
6.0
100
AcDbArc
 50
122.8859997445151
 51
302.8859997445151
  0
LINE
  5
2D5A
330
1F
100
AcDbEntity
  8
太線
100
AcDbLine
 10
192.7997454132565
 20
157.8991637536956
 30
0.0
 11
177.9390715056098
 21
148.2905127807309
 31
0.0
  0
LINE
  5
2D5B
330
1F
100
AcDbEntity
  8
太線
100
AcDbLine
 10
199.3153766791486
 20
147.8221329803511
 30
0.0
 11
184.4547027715019
 21
138.2134820073865
 31
0.0
  0
ARC
  5
2D5C
330
1F
100
AcDbEntity
  8
細線
 62
     0
100
AcDbCircle
 10
196.0575610462025
 20
152.8606483670233
 30
0.0
 40
6.0
100
AcDbArc
 50
302.8859997445151
 51
122.8859997445151
  0
LINE
  5
2D5D
330
1F
100
AcDbEntity
  8
太線
100
AcDbLine
 10
208.1838819177692
 20
125.471148825696
 30
0.0
 11
217.6414745488584
 21
125.471148825696
 31
0.0
  0
LINE
  5
2D63
330
1F
100
AcDbEntity
  8
太線
100
AcDbLine
 10
74.2015140254043
 20
210.4711488256961
 30
0.0
 11
74.2015140254043
 21
125.471148825696
 31
0.0
  0
LINE
  5
2D64
330
1F
100
AcDbEntity
  8
太線
100
AcDbLine
 10
74.2015140254043
 20
125.471148825696
 30
0.0
 11
70.20151402540432
 21
125.471148825696
 31
0.0
  0
LINE
  5
2D65
330
1F
100
AcDbEntity
  8
太線
100
AcDbLine
 10
70.20151402540432
 20
125.471148825696
 30
0.0
 11
70.20151402540432
 21
210.4044079198875
 31
0.0
  0
LINE
  5
2D68
330
1F
100
AcDbEntity
  8
想像線
100
AcDbLine
 10
74.20151402540433
 20
158.7973998761127
 30
0.0
 11
70.20151402540432
 21
158.7973998761127
 31
0.0
  0
LINE
  5
2D69
330
1F
100
AcDbEntity
  8
想像線
100
AcDbLine
 10
74.2015140254043
 20
137.1031302088812
 30
0.0
 11
70.20151402540432
 21
137.1031302088812
 31
0.0
  0
SPLINE
  5
2D7D
330
1F
100
AcDbEntity
  8
構築線
100
AcDbSpline
210
0.0
220
0.0
230
1.0
 70
     8
 71
     3
 72
    10
 73
     6
 74
     4
 42
0.0000000001
 43
0.0000000001
 44
0.0000000001
 40
0.0
 40
0.0
 40
0.0
 40
0.0
 40
2.997736834175246
 40
6.35724955195778
 40
11.88506230715379
 40
11.88506230715379
 40
11.88506230715379
 40
11.88506230715379
 10
68.07393475566461
 20
-33.37087954927573
 30
0.0
 10
68.97399861512929
 20
-34.08749005142466
 30
0.0
 10
70.88274874358727
 20
-35.60719376316424
 30
0.0
 10
74.29630290225059
 20
-31.63611061365818
 30
0.0
 10
77.07357342433572
 20
-33.86191020021212
 30
0.0
 10
78.80100328647926
 20
-35.24633157450205
 30
0.0
 11
68.07393475566461
 21
-33.37087954927573
 31
0.0
 11
70.75570188836831
 21
-34.71048813872312
 31
0.0
 11
73.70564629664726
 21
-33.10295783138633
 31
0.0
 11
78.80100328647926
 21
-35.24633157450205
 31
0.0
  0
ARC
  5
2FA2
330
1F
100
AcDbEntity
  8
太線
100
AcDbCircle
 10
71.72727827771129
 20
50.34492059846787
 30
0.0
 40
19.584122490746
100
AcDbArc
 50
259.6829498839276
 51
284.4039795928753
  0
TEXT
  5
2FB0
330
1F
100
AcDbEntity
  8
文字
100
AcDbText
 10
314.337509403402
 20
-11.13341470987686
 30
0.0
 40
4.799999999999998
  1
JAN 4562182302045
 51
15.0
  7
OKANO
100
AcDbText
  0
TEXT
  5
2FC5
330
1F
100
AcDbEntity
  8
文字
100
AcDbText
 10
162.8170176253243
 20
10.00905679830134
 30
0.0
 40
8.0
  1
勾配は、柄(ﾂｶ）の長さと
 51
15.0
  7
OKANO
100
AcDbText
  0
TEXT
  5
2FC6
330
1F
100
AcDbEntity
  8
文字
100
AcDbText
 10
162.8170176253243
 20
-2.832059573488209
 30
0.0
 40
8.0
  1
梁(ﾊﾘ）の長さにより自由
 51
15.0
  7
OKANO
100
AcDbText
  0
TEXT
  5
2FC7
330
1F
100
AcDbEntity
  8
文字
100
AcDbText
 10
162.8170176253243
 20
-15.67317594527787
 30
0.0
 40
8.0
  1
設定出来ます。
 51
15.0
  7
OKANO
100
AcDbText
  0
LINE
  5
2FD6
330
1F
100
AcDbEntity
  8
太線
100
AcDbLine
 10
74.2015140254043
 20
-26.46822513585629
 30
0.0
 11
74.2015140254043
 21
28.6469275924618
 31
0.0
  0
LINE
  5
2FD7
330
1F
100
AcDbEntity
  8
太線
100
AcDbLine
 10
70.20151402540432
 20
28.94766070425244
 30
0.0
 11
70.20151402540432
 21
-26.46822513585629
 31
0.0
  0
LINE
  5
2FD8
330
1F
100
AcDbEntity
  8
太線
100
AcDbLine
 10
70.20151402540432
 20
-26.46822513585629
 30
0.0
 11
74.2015140254043
 21
-26.46822513585629
 31
0.0
  0
ARC
  5
2FD9
330
1F
100
AcDbEntity
  8
太線
100
AcDbCircle
 10
79.24166292038231
 20
25.71845042944972
 30
0.0
 40
5.829157690252602
100
AcDbArc
 50
105.7445748385682
 51
149.8421318356754
  0
ARC
  5
2FDA
330
1F
100
AcDbEntity
  8
太線
100
AcDbCircle
 10
64.26683098056273
 20
25.55305577914007
 30
0.0
 40
6.836944159515083
100
AcDbArc
 50
29.76931077756614
 51
54.13630688991736
  0
TEXT
  5
2FDC
330
1F
100
AcDbEntity
  8
文字
100
AcDbText
 10
187.7178618550083
 20
167.8758322854742
 30
0.0
 40
8.0
  1
R
 51
15.0
  7
OKANO
100
AcDbText
  0
XLINE
  5
2FEF
330
1F
100
AcDbEntity
  8
構築線
100
AcDbXline
 10
72.2015140254043
 20
60.83538151108007
 30
0.0
 11
1.0
 21
0.0
 31
0.0
  0
VIEWPORT
  5
2E
330
1B
100
AcDbEntity
 67
     1
  8
0
100
AcDbViewport
 10
358.6081263710919
 20
182.6280841231801
 30
0.0
 40
910.0754686191541
 41
462.2301115642068
 68
     2
 69
     1
 12
358.6081263710919
 22
182.6280841231801
 13
0.0
 23
0.0
 14
10.0
 24
10.0
 15
10.0
 25
10.0
 16
0.0
 26
0.0
 36
1.0
 17
0.0
 27
0.0
 37
0.0
 42
50.0
 43
0.0
 44
0.0
 45
462.2301115642068
 50
0.0
 51
0.0
 72
   100
 90
    32800
  1

281
     0
 71
     1
 74
     0
110
0.0
120
0.0
130
0.0
111
1.0
121
0.0
131
0.0
112
0.0
122
1.0
132
0.0
 79
     0
146
0.0
  0
VIEWPORT
  5
30
330
1B
100
AcDbEntity
 67
     1
  8
70-0-CON
100
AcDbViewport
 10
141.8594093064315
 20
100.3480256368385
 30
0.0
 40
261.6199023344245
 41
192.6196987113174
 68
     1
 69
     2
 12
189.7163237995561
 22
106.9582353867903
 13
0.0
 23
0.0
 14
5.0
 24
5.0
 15
10.0
 25
10.0
 16
0.0
 26
0.0
 36
1.0
 17
0.0
 27
0.0
 37
0.0
 42
50.0
 43
0.0
 44
0.0
 45
321.2859565341275
 50
0.0
 51
0.0
 72
   100
 90
    32864
  1

281
     0
 71
     1
 74
     0
110
0.0
120
0.0
130
0.0
111
1.0
121
0.0
131
0.0
112
0.0
122
1.0
132
0.0
 79
     0
146
0.0
  0
LWPOLYLINE
  5
45
330
1B
100
AcDbEntity
 67
     1
  8
50-0-CON
100
AcDbPolyline
 90
        4
 70
     1
 43
0.0
 10
11.04945813921925
 20
4.038176281179858
 10
272.2125713060605
 20
4.033520706629643
 10
273.4987754093466
 20
195.9297862125246
 10
11.04945813921925
 20
196.6578749924973
  0
LINE
  5
4A
330
1B
100
AcDbEntity
 67
     1
  8
50-0-CON
100
AcDbLine
 10
10.38768783662635
 20
100.3480256368385
 30
0.0
 11
-4.391850629656119
 21
100.3480256368385
 31
0.0
  0
LINE
  5
4B
330
1B
100
AcDbEntity
 67
     1
  8
50-0-CON
100
AcDbLine
 10
141.8594093064315
 20
197.0986526262469
 30
0.0
 11
141.8594093064315
 21
202.3879807737079
 31
0.0
  0
LINE
  5
4C
330
1B
100
AcDbEntity
 67
     1
  8
50-0-CON
100
AcDbLine
 10
272.4487699456856
 20
100.7888032705883
 30
0.0
 11
278.8458837249377
 21
100.7888032705883
 31
0.0
  0
LINE
  5
4D
330
1B
100
AcDbEntity
 67
     1
  8
50-0-CON
100
AcDbLine
 10
140.9770484758805
 20
4.038176281179858
 30
0.0
 11
140.9770484758805
 21
-3.455038652015446
 31
0.0
  0
ENDSEC
  0
SECTION
  2
OBJECTS
  0
DICTIONARY
  5
C
330
0
100
AcDbDictionary
281
     1
  3
ACAD_GROUP
350
D
  3
ACAD_LAYOUT
350
1A
  3
ACAD_MLINESTYLE
350
17
  3
ACAD_PLOTSETTINGS
350
19
  3
ACAD_PLOTSTYLENAME
350
E
  3
AcadDim
350
13D0
  3
AcDbVariableDictionary
350
6AD
  3
DWGPROPS
350
30F
  0
DICTIONARY
  5
D
102
{ACAD_REACTORS
330
C
102
}
330
C
100
AcDbDictionary
281
     1
  0
DICTIONARY
  5
1A
102
{ACAD_REACTORS
330
C
102
}
330
C
100
AcDbDictionary
281
     1
  3
A4
350
1E
  3
Model
350
22
  0
DICTIONARY
  5
17
102
{ACAD_REACTORS
330
C
102
}
330
C
100
AcDbDictionary
281
     1
  3
Standard
350
18
  0
DICTIONARY
  5
19
102
{ACAD_REACTORS
330
C
102
}
330
C
100
AcDbDictionary
281
     1
  0
ACDBDICTIONARYWDFLT
  5
E
102
{ACAD_REACTORS
330
C
102
}
330
C
100
AcDbDictionary
281
     1
  3
Normal
350
F
100
AcDbDictionaryWithDefault
340
F
  0
XRECORD
  5
13D0
102
{ACAD_REACTORS
330
C
102
}
330
C
100
AcDbXrecord
280
     1
 90
   990106
  3

 60
     0
 61
     0
 62
     1
 63
     3
 64
     0
 65
     0
 66
     0
 67
     3
 68
     1
 69
     0
 70
     0
 71
     0
 72
     0
 40
0.0
170
     0
340
0
  0
DICTIONARY
  5
6AD
102
{ACAD_REACTORS
330
C
102
}
330
C
100
AcDbDictionary
281
     1
  3
SORTENTS
350
6AE
  0
XRECORD
  5
30F
102
{ACAD_REACTORS
330
C
102
}
330
C
100
AcDbXrecord
280
     1
  1
DWGPROPS COOKIE
  2

  3

  4

  6

  7

  8

  9

300
=
301
=
302
=
303
=
304
=
305
=
306
=
307
=
308
=
309
=
 40
0.3303803125
 41
2452362.482225463
 42
2452370.969861285
  1

 90
        0
  0
LAYOUT
  5
1E
102
{ACAD_REACTORS
330
1A
102
}
330
1A
100
AcDbPlotSettings
  1

  2
EPSON PM-920C
  4
A4
  6

 40
3.757083177566528
 41
14.7637300491333
 42
3.757080078125
 43
3.757080078125
 44
209.9733276367186
 45
296.9683227539062
 46
0.0
 47
0.0
 48
0.0
 49
0.0
140
0.0
141
0.0
142
1.0
143
1.0
 70
   688
 72
     1
 73
     1
 74
     5
  7
joint.ctb
 75
    16
147
1.0
148
0.0
149
0.0
100
AcDbLayout
  1
A4
 70
     1
 71
     1
 10
-3.757080078125
 20
-3.757083177566528
 11
293.2112426757811
 21
206.2162444591522
 12
0.0
 22
0.0
 32
0.0
 14
-4.391850629656119
 24
-3.455038652015446
 34
0.0
 15
278.8458837249377
 25
202.3879807737079
 35
0.0
146
0.0
 13
0.0
 23
0.0
 33
0.0
 16
1.0
 26
0.0
 36
0.0
 17
0.0
 27
1.0
 37
0.0
 76
     0
330
1B
331
30
  0
LAYOUT
  5
22
102
{ACAD_REACTORS
330
1A
102
}
330
1A
100
AcDbPlotSettings
  1

  2
EPSON PM-920C
  4
A4
  6

 40
3.757083177566528
 41
14.7637300491333
 42
3.757080078125
 43
3.757080078125
 44
209.9733276367186
 45
296.9683227539062
 46
0.0
 47
0.0
 48
0.0
 49
0.0
140
0.0
141
0.0
142
1.0
143
1.0
 70
 11952
 72
     1
 73
     1
 74
     0
  7

 75
     0
147
1.0
148
-45.64199848979288
149
-84.488064193305
100
AcDbLayout
  1
Model
 70
     1
 71
     0
 10
0.0
 20
0.0
 11
12.0
 21
9.0
 12
0.0
 22
0.0
 32
0.0
 14
0.0
 24
0.0
 34
0.0
 15
0.0
 25
0.0
 35
0.0
146
0.0
 13
0.0
 23
0.0
 33
0.0
 16
1.0
 26
0.0
 36
0.0
 17
0.0
 27
1.0
 37
0.0
 76
     0
330
1F
  0
MLINESTYLE
  5
18
102
{ACAD_REACTORS
330
17
102
}
330
17
100
AcDbMlineStyle
  2
STANDARD
 70
     0
  3

 62
   256
 51
90.0
 52
90.0
 71
     2
 49
0.5
 62
   256
  6
BYLAYER
 49
-0.5
 62
   256
  6
BYLAYER
  0
ACDBPLACEHOLDER
  5
F
102
{ACAD_REACTORS
330
E
102
}
330
E
  0
DICTIONARYVAR
  5
6AE
102
{ACAD_REACTORS
330
6AD
102
}
330
6AD
100
DictionaryVariables
280
     0
  1
96
  0
ENDSEC
  0
EOF
