  0
SECTION
  2
HEADER
  9
$ACADVER
  1
AC1015
  9
$ACADMAINTVER
 70
     6
  9
$DWGCODEPAGE
  3
ANSI_932
  9
$INSBASE
 10
0.0
 20
0.0
 30
0.0
  9
$EXTMIN
 10
-358.9286998904546
 20
99.60155082729205
 30
-0.00000001
  9
$EXTMAX
 10
261.4288547732437
 20
440.3958383683046
 30
0.00000001
  9
$LIMMIN
 10
0.0
 20
0.0
  9
$LIMMAX
 10
420.0
 20
297.0
  9
$ORTHOMODE
 70
     0
  9
$REGENMODE
 70
     1
  9
$FILLMODE
 70
     1
  9
$QTEXTMODE
 70
     0
  9
$MIRRTEXT
 70
     1
  9
$LTSCALE
 40
1.0
  9
$ATTMODE
 70
     1
  9
$TEXTSIZE
 40
7.0
  9
$TRACEWID
 40
1.0
  9
$TEXTSTYLE
  7
OKANO
  9
$CLAYER
  8
太線
  9
$CELTYPE
  6
ByLayer
  9
$CECOLOR
 62
   256
  9
$CELTSCALE
 40
1.0
  9
$DISPSILH
 70
     0
  9
$DIMSCALE
 40
0.0
  9
$DIMASZ
 40
3.0
  9
$DIMEXO
 40
2.0
  9
$DIMDLI
 40
8.0
  9
$DIMRND
 40
0.0
  9
$DIMDLE
 40
0.0
  9
$DIMEXE
 40
3.0
  9
$DIMTP
 40
0.0
  9
$DIMTM
 40
0.0
  9
$DIMTXT
 40
5.0
  9
$DIMCEN
 40
2.5
  9
$DIMTSZ
 40
0.0
  9
$DIMTOL
 70
     0
  9
$DIMLIM
 70
     0
  9
$DIMTIH
 70
     0
  9
$DIMTOH
 70
     0
  9
$DIMSE1
 70
     0
  9
$DIMSE2
 70
     0
  9
$DIMTAD
 70
     1
  9
$DIMZIN
 70
     8
  9
$DIMBLK
  1
Closed
  9
$DIMASO
 70
     1
  9
$DIMSHO
 70
     1
  9
$DIMPOST
  1

  9
$DIMAPOST
  1

  9
$DIMALT
 70
     0
  9
$DIMALTD
 70
     3
  9
$DIMALTF
 40
0.03937007874016
  9
$DIMLFAC
 40
1.0
  9
$DIMTOFL
 70
     1
  9
$DIMTVP
 40
0.0
  9
$DIMTIX
 70
     0
  9
$DIMSOXD
 70
     0
  9
$DIMSAH
 70
     0
  9
$DIMBLK1
  1

  9
$DIMBLK2
  1

  9
$DIMSTYLE
  2
sunpo
  9
$DIMCLRD
 70
     0
  9
$DIMCLRE
 70
     0
  9
$DIMCLRT
 70
     0
  9
$DIMTFAC
 40
1.0
  9
$DIMGAP
 40
1.0
  9
$DIMJUST
 70
     0
  9
$DIMSD1
 70
     0
  9
$DIMSD2
 70
     0
  9
$DIMTOLJ
 70
     0
  9
$DIMTZIN
 70
     8
  9
$DIMALTZ
 70
     0
  9
$DIMALTTZ
 70
     0
  9
$DIMUPT
 70
     0
  9
$DIMDEC
 70
     2
  9
$DIMTDEC
 70
     2
  9
$DIMALTU
 70
     2
  9
$DIMALTTD
 70
     3
  9
$DIMTXSTY
  7
OKANO
  9
$DIMAUNIT
 70
     0
  9
$DIMADEC
 70
     0
  9
$DIMALTRND
 40
0.0
  9
$DIMAZIN
 70
     0
  9
$DIMDSEP
 70
    46
  9
$DIMATFIT
 70
     3
  9
$DIMFRAC
 70
     0
  9
$DIMLDRBLK
  1
Closed
  9
$DIMLUNIT
 70
     2
  9
$DIMLWD
 70
    -2
  9
$DIMLWE
 70
    -2
  9
$DIMTMOVE
 70
     0
  9
$LUNITS
 70
     2
  9
$LUPREC
 70
     2
  9
$SKETCHINC
 40
1.0
  9
$FILLETRAD
 40
1.0
  9
$AUNITS
 70
     0
  9
$AUPREC
 70
     0
  9
$MENU
  1
.
  9
$ELEVATION
 40
0.0
  9
$PELEVATION
 40
0.0
  9
$THICKNESS
 40
0.0
  9
$LIMCHECK
 70
     0
  9
$CHAMFERA
 40
10.0
  9
$CHAMFERB
 40
10.0
  9
$CHAMFERC
 40
20.0
  9
$CHAMFERD
 40
0.0
  9
$SKPOLY
 70
     0
  9
$TDCREATE
 40
2452362.482225463
  9
$TDUCREATE
 40
2452362.107225463
  9
$TDUPDATE
 40
2455968.432718611
  9
$TDUUPDATE
 40
2455968.057718611
  9
$TDINDWG
 40
1.8441150116
  9
$TDUSRTIMER
 40
1.8441150116
  9
$USRTIMER
 70
     1
  9
$ANGBASE
 50
0.0
  9
$ANGDIR
 70
     0
  9
$PDMODE
 70
     0
  9
$PDSIZE
 40
0.0
  9
$PLINEWID
 40
0.0
  9
$SPLFRAME
 70
     0
  9
$SPLINETYPE
 70
     6
  9
$SPLINESEGS
 70
     8
  9
$HANDSEED
  5
2F23
  9
$SURFTAB1
 70
     6
  9
$SURFTAB2
 70
     6
  9
$SURFTYPE
 70
     6
  9
$SURFU
 70
     6
  9
$SURFV
 70
     6
  9
$UCSBASE
  2

  9
$UCSNAME
  2

  9
$UCSORG
 10
0.0
 20
0.0
 30
0.0
  9
$UCSXDIR
 10
1.0
 20
0.0
 30
0.0
  9
$UCSYDIR
 10
0.0
 20
1.0
 30
0.0
  9
$UCSORTHOREF
  2

  9
$UCSORTHOVIEW
 70
     0
  9
$UCSORGTOP
 10
0.0
 20
0.0
 30
0.0
  9
$UCSORGBOTTOM
 10
0.0
 20
0.0
 30
0.0
  9
$UCSORGLEFT
 10
0.0
 20
0.0
 30
0.0
  9
$UCSORGRIGHT
 10
0.0
 20
0.0
 30
0.0
  9
$UCSORGFRONT
 10
0.0
 20
0.0
 30
0.0
  9
$UCSORGBACK
 10
0.0
 20
0.0
 30
0.0
  9
$PUCSBASE
  2

  9
$PUCSNAME
  2

  9
$PUCSORG
 10
0.0
 20
0.0
 30
0.0
  9
$PUCSXDIR
 10
1.0
 20
0.0
 30
0.0
  9
$PUCSYDIR
 10
0.0
 20
1.0
 30
0.0
  9
$PUCSORTHOREF
  2

  9
$PUCSORTHOVIEW
 70
     0
  9
$PUCSORGTOP
 10
0.0
 20
0.0
 30
0.0
  9
$PUCSORGBOTTOM
 10
0.0
 20
0.0
 30
0.0
  9
$PUCSORGLEFT
 10
0.0
 20
0.0
 30
0.0
  9
$PUCSORGRIGHT
 10
0.0
 20
0.0
 30
0.0
  9
$PUCSORGFRONT
 10
0.0
 20
0.0
 30
0.0
  9
$PUCSORGBACK
 10
0.0
 20
0.0
 30
0.0
  9
$USERI1
 70
     0
  9
$USERI2
 70
     0
  9
$USERI3
 70
     0
  9
$USERI4
 70
     0
  9
$USERI5
 70
     0
  9
$USERR1
 40
0.0
  9
$USERR2
 40
0.0
  9
$USERR3
 40
0.0
  9
$USERR4
 40
0.0
  9
$USERR5
 40
0.0
  9
$WORLDVIEW
 70
     1
  9
$SHADEDGE
 70
     3
  9
$SHADEDIF
 70
    70
  9
$TILEMODE
 70
     0
  9
$MAXACTVP
 70
    64
  9
$PINSBASE
 10
0.0
 20
0.0
 30
0.0
  9
$PLIMCHECK
 70
     0
  9
$PEXTMIN
 10
-4.391850629656119
 20
-3.455038652015446
 30
0.0
  9
$PEXTMAX
 10
278.8458837249377
 20
202.387980773708
 30
0.0
  9
$PLIMMIN
 10
-3.174987999999999
 20
-3.174999999999999
  9
$PLIMMAX
 10
293.825012
 20
206.8249999999999
  9
$UNITMODE
 70
     0
  9
$VISRETAIN
 70
     1
  9
$PLINEGEN
 70
     0
  9
$PSLTSCALE
 70
     1
  9
$TREEDEPTH
 70
  3020
  9
$CMLSTYLE
  2
Standard
  9
$CMLJUST
 70
     0
  9
$CMLSCALE
 40
20.0
  9
$PROXYGRAPHICS
 70
     1
  9
$MEASUREMENT
 70
     1
  9
$CELWEIGHT
370
    -1
  9
$ENDCAPS
280
     0
  9
$JOINSTYLE
280
     0
  9
$LWDISPLAY
290
     0
  9
$INSUNITS
 70
     4
  9
$HYPERLINKBASE
  1

  9
$STYLESHEET
  1

  9
$XEDIT
290
     1
  9
$CEPSNTYPE
380
     0
  9
$PSTYLEMODE
290
     1
  9
$FINGERPRINTGUID
  2
{FF7F33C3-4233-11D6-AEE0-0000F45FD7F4}
  9
$VERSIONGUID
  2
{E89E26FB-08A2-40C9-8BDE-D37968B696B2}
  9
$EXTNAMES
290
     1
  9
$PSVPSCALE
 40
0.0
  9
$OLESTARTUP
290
     0
  0
ENDSEC
  0
SECTION
  2
CLASSES
  0
CLASS
  1
ACDBDICTIONARYWDFLT
  2
AcDbDictionaryWithDefault
  3
AutoCAD 2000
 90
        0
280
     0
281
     0
  0
CLASS
  1
ACDBPLACEHOLDER
  2
AcDbPlaceHolder
  3
AutoCAD 2000
 90
        0
280
     0
281
     0
  0
CLASS
  1
LAYOUT
  2
AcDbLayout
  3
AutoCAD 2000
 90
        0
280
     0
281
     0
  0
CLASS
  1
DICTIONARYVAR
  2
AcDbDictionaryVar
  3
AutoCAD 2000
 90
        0
280
     0
281
     0
  0
ENDSEC
  0
SECTION
  2
TABLES
  0
TABLE
  2
VPORT
  5
8
330
0
100
AcDbSymbolTable
 70
     2
  0
VPORT
  5
2F22
330
8
100
AcDbSymbolTableRecord
100
AcDbViewportTableRecord
  2
*Active
 70
     0
 10
0.0
 20
0.0
 11
1.0
 21
1.0
 12
103.7138182184397
 22
308.4550449983609
 13
0.0
 23
0.0
 14
5.0
 24
5.0
 15
10.0
 25
10.0
 16
0.0
 26
0.0
 36
1.0
 17
0.0
 27
0.0
 37
0.0
 40
712.6788846058289
 41
1.968879668049792
 42
50.0
 43
0.0
 44
0.0
 50
0.0
 51
0.0
 71
     0
 72
   100
 73
     1
 74
     3
 75
     0
 76
     0
 77
     0
 78
     0
281
     0
 65
     1
110
0.0
120
0.0
130
0.0
111
1.0
121
0.0
131
0.0
112
0.0
122
1.0
132
0.0
 79
     0
146
0.0
  0
ENDTAB
  0
TABLE
  2
LTYPE
  5
5
330
0
100
AcDbSymbolTable
 70
     5
  0
LTYPE
  5
14
330
5
100
AcDbSymbolTableRecord
100
AcDbLinetypeTableRecord
  2
ByBlock
 70
     0
  3

 72
    65
 73
     0
 40
0.0
  0
LTYPE
  5
15
330
5
100
AcDbSymbolTableRecord
100
AcDbLinetypeTableRecord
  2
ByLayer
 70
     0
  3

 72
    65
 73
     0
 40
0.0
  0
LTYPE
  5
16
330
5
100
AcDbSymbolTableRecord
100
AcDbLinetypeTableRecord
  2
Continuous
 70
     0
  3
Solid line
 72
    65
 73
     0
 40
0.0
  0
LTYPE
  5
33
330
5
100
AcDbSymbolTableRecord
100
AcDbLinetypeTableRecord
  2
DASHED2
 70
     0
  3
Dashed (.5x) _ _ _ _ _ _ _ _ _ _ _ _ _ _ _ _ _
 72
    65
 73
     2
 40
9.524999999999998
 49
6.349999999999999
 74
     0
 49
-3.174999999999999
 74
     0
  0
LTYPE
  5
34
330
5
100
AcDbSymbolTableRecord
100
AcDbLinetypeTableRecord
  2
CENTER2
 70
     0
  3
Center (.5x) ___ _ ___ _ ___ _ ___ _ ___ _ ___
 72
    65
 73
     4
 40
28.57499999999999
 49
19.05
 74
     0
 49
-3.174999999999999
 74
     0
 49
3.174999999999999
 74
     0
 49
-3.174999999999999
 74
     0
  0
LTYPE
  5
35
330
5
100
AcDbSymbolTableRecord
100
AcDbLinetypeTableRecord
  2
PHANTOM2
 70
     0
  3
Phantom (.5x) ___ _ _ ___ _ _ ___ _ _ ___ _ _
 72
    65
 73
     6
 40
31.75
 49
15.875
 74
     0
 49
-3.174999999999999
 74
     0
 49
3.174999999999999
 74
     0
 49
-3.174999999999999
 74
     0
 49
3.174999999999999
 74
     0
 49
-3.174999999999999
 74
     0
  0
LTYPE
  5
36
330
5
100
AcDbSymbolTableRecord
100
AcDbLinetypeTableRecord
  2
HIDDEN2
 70
     0
  3
Hidden (.5x) _ _ _ _ _ _ _ _ _ _ _ _ _ _ _ _ _
 72
    65
 73
     2
 40
4.762499999999999
 49
3.174999999999999
 74
     0
 49
-1.587499999999999
 74
     0
  0
ENDTAB
  0
TABLE
  2
LAYER
  5
2
330
0
100
AcDbSymbolTable
 70
    13
  0
LAYER
  5
10
330
2
100
AcDbSymbolTableRecord
100
AcDbLayerTableRecord
  2
0
 70
     0
 62
     7
  6
Continuous
370
    -3
390
F
  0
LAYER
  5
40
330
2
100
AcDbSymbolTableRecord
100
AcDbLayerTableRecord
  2
50-0-CON
 70
     0
 62
     4
  6
Continuous
370
    50
390
F
  0
LAYER
  5
41
330
2
100
AcDbSymbolTableRecord
100
AcDbLayerTableRecord
  2
70-0-CON
 70
     0
 62
   202
  6
Continuous
370
    70
390
F
  0
LAYER
  5
4E
330
2
100
AcDbSymbolTableRecord
100
AcDbLayerTableRecord
  2
極太線
 70
     0
 62
     7
  6
Continuous
370
    70
390
F
  0
LAYER
  5
4F
330
2
100
AcDbSymbolTableRecord
100
AcDbLayerTableRecord
  2
細線
 70
     0
 62
     8
  6
Continuous
370
    18
390
F
  0
LAYER
  5
AB
330
2
100
AcDbSymbolTableRecord
100
AcDbLayerTableRecord
  2
構築線
 70
     0
 62
    -2
  6
Continuous
370
    18
390
F
  0
LAYER
  5
B8
330
2
100
AcDbSymbolTableRecord
100
AcDbLayerTableRecord
  2
太線
 70
     0
 62
     7
  6
Continuous
370
    35
390
F
  0
LAYER
  5
B9
330
2
100
AcDbSymbolTableRecord
100
AcDbLayerTableRecord
  2
寸法線
 70
     0
 62
     5
  6
Continuous
370
    18
390
F
  0
LAYER
  5
BA
330
2
100
AcDbSymbolTableRecord
100
AcDbLayerTableRecord
  2
破線
 70
     0
 62
     8
  6
HIDDEN2
370
    18
390
F
  0
LAYER
  5
BB
330
2
100
AcDbSymbolTableRecord
100
AcDbLayerTableRecord
  2
中心線
 70
     0
 62
     1
  6
CENTER2
370
    18
390
F
  0
LAYER
  5
BC
330
2
100
AcDbSymbolTableRecord
100
AcDbLayerTableRecord
  2
想像線
 70
     0
 62
     8
  6
PHANTOM2
370
    18
390
F
  0
LAYER
  5
BD
330
2
100
AcDbSymbolTableRecord
100
AcDbLayerTableRecord
  2
文字
 70
     0
 62
     7
  6
Continuous
370
    18
390
F
  0
LAYER
  5
180
330
2
100
AcDbSymbolTableRecord
100
AcDbLayerTableRecord
  2
Defpoints
 70
     0
 62
     7
  6
Continuous
290
     0
370
    -3
390
F
  0
ENDTAB
  0
TABLE
  2
STYLE
  5
3
330
0
100
AcDbSymbolTable
 70
     3
  0
STYLE
  5
11
330
3
100
AcDbSymbolTableRecord
100
AcDbTextStyleTableRecord
  2
Standard
 70
     0
 40
0.0
 41
1.0
 50
0.0
 71
     0
 42
3.0
  3
txt
  4

  0
STYLE
  5
32
330
3
100
AcDbSymbolTableRecord
100
AcDbTextStyleTableRecord
  2

 70
     1
 40
0.0
 41
1.0
 50
0.0
 71
     0
 42
2.5
  3
ltypeshp.shx
  4

  0
STYLE
  5
50
330
3
100
AcDbSymbolTableRecord
100
AcDbTextStyleTableRecord
  2
OKANO
 70
     0
 40
0.0
 41
1.0
 50
15.0
 71
     0
 42
7.0
  3
isocp.shx
  4
bigfont.shx
  0
ENDTAB
  0
TABLE
  2
VIEW
  5
6
330
0
100
AcDbSymbolTable
 70
     0
  0
ENDTAB
  0
TABLE
  2
UCS
  5
7
330
0
100
AcDbSymbolTable
 70
     0
  0
ENDTAB
  0
TABLE
  2
APPID
  5
9
330
0
100
AcDbSymbolTable
 70
     1
  0
APPID
  5
12
330
9
100
AcDbSymbolTableRecord
100
AcDbRegAppTableRecord
  2
ACAD
 70
     0
  0
ENDTAB
  0
TABLE
  2
DIMSTYLE
  5
A
330
0
100
AcDbSymbolTable
 70
     2
100
AcDbDimStyleTable
 71
     2
340
A2
340
27
  0
DIMSTYLE
105
27
330
A
100
AcDbSymbolTableRecord
100
AcDbDimStyleTableRecord
  2
ISO-25
 70
     0
 41
2.5
 42
0.625
 43
3.75
 44
1.25
 73
     0
 74
     0
 77
     1
 78
     8
140
2.5
141
2.5
143
0.03937007874016
147
0.625
171
     3
172
     1
271
     2
272
     2
274
     3
283
     0
284
     8
340
11
  0
DIMSTYLE
105
A2
102
{ACAD_REACTORS
330
2C8D
330
2EF8
102
}
330
A
100
AcDbSymbolTableRecord
100
AcDbDimStyleTableRecord
  2
sunpo
 70
     0
 40
0.0
 41
3.0
 42
2.0
 43
8.0
 44
3.0
 73
     0
 74
     0
 77
     1
 78
     8
140
5.0
141
2.5
143
0.03937007874016
147
1.0
171
     3
172
     1
271
     2
272
     2
274
     3
283
     0
284
     8
340
50
341
9B
342
9B
  0
ENDTAB
  0
TABLE
  2
BLOCK_RECORD
  5
1
330
0
100
AcDbSymbolTable
 70
     3
  0
BLOCK_RECORD
  5
1F
330
1
100
AcDbSymbolTableRecord
100
AcDbBlockTableRecord
  2
*Model_Space
340
22
  0
BLOCK_RECORD
  5
1B
330
1
100
AcDbSymbolTableRecord
100
AcDbBlockTableRecord
  2
*Paper_Space
340
1E
  0
BLOCK_RECORD
  5
9B
330
1
100
AcDbSymbolTableRecord
100
AcDbBlockTableRecord
  2
_Closed
340
0
102
{BLKREFS
331
2CA8
331
2CA9
331
2F0C
331
2F0D
102
}
  0
BLOCK_RECORD
  5
2C8E
330
1
100
AcDbSymbolTableRecord
100
AcDbBlockTableRecord
  2
*D1
340
0
  0
BLOCK_RECORD
  5
2EF9
330
1
100
AcDbSymbolTableRecord
100
AcDbBlockTableRecord
  2
*D2
340
0
  0
ENDTAB
  0
ENDSEC
  0
SECTION
  2
BLOCKS
  0
BLOCK
  5
20
330
1F
100
AcDbEntity
  8
0
100
AcDbBlockBegin
  2
*Model_Space
 70
     0
 10
0.0
 20
0.0
 30
0.0
  3
*Model_Space
  1

  0
ENDBLK
  5
21
330
1F
100
AcDbEntity
  8
0
100
AcDbBlockEnd
  0
BLOCK
  5
1C
330
1B
100
AcDbEntity
 67
     1
  8
0
100
AcDbBlockBegin
  2
*Paper_Space
 70
     0
 10
0.0
 20
0.0
 30
0.0
  3
*Paper_Space
  1

  0
ENDBLK
  5
1D
330
1B
100
AcDbEntity
 67
     1
  8
0
100
AcDbBlockEnd
  0
BLOCK
  5
A0
330
9B
100
AcDbEntity
  8
0
100
AcDbBlockBegin
  2
_Closed
 70
     0
 10
0.0
 20
0.0
 30
0.0
  3
_Closed
  1

  0
LINE
  5
9C
330
9B
100
AcDbEntity
  8
0
 62
     0
370
    -2
100
AcDbLine
 10
-1.0
 20
0.1666666666666666
 30
0.0
 11
0.0
 21
0.0
 31
0.0
  0
LINE
  5
9D
330
9B
100
AcDbEntity
  8
0
 62
     0
370
    -2
100
AcDbLine
 10
0.0
 20
0.0
 30
0.0
 11
-1.0
 21
-0.1666666666666666
 31
0.0
  0
LINE
  5
9E
330
9B
100
AcDbEntity
  8
0
 62
     0
370
    -2
100
AcDbLine
 10
-1.0
 20
0.1666666666666666
 30
0.0
 11
-1.0
 21
-0.1666666666666666
 31
0.0
  0
LINE
  5
9F
330
9B
100
AcDbEntity
  8
0
 62
     0
370
    -2
100
AcDbLine
 10
0.0
 20
0.0
 30
0.0
 11
-1.0
 21
0.0
 31
0.0
  0
ENDBLK
  5
A1
330
9B
100
AcDbEntity
  8
0
100
AcDbBlockEnd
  0
BLOCK
  5
2C98
330
2C8E
100
AcDbEntity
  8
0
100
AcDbBlockBegin
  2
*D1
 70
     1
 10
0.0
 20
0.0
 30
0.0
  3
*D1
  1

  0
LINE
  5
2CA4
330
2C8E
100
AcDbEntity
  8
寸法線
 62
     0
370
    -2
100
AcDbLine
 10
-226.5133443386164
 20
272.253356885337
 30
0.0
 11
-226.5133443386164
 21
256.2206524622008
 31
0.0
  0
LINE
  5
2CA5
330
2C8E
100
AcDbEntity
  8
寸法線
 62
     0
370
    -2
100
AcDbLine
 10
-209.5140433456283
 20
271.5997616613244
 30
0.0
 11
-209.5140433456283
 21
256.2206524622008
 31
0.0
  0
LINE
  5
2CA6
330
2C8E
100
AcDbEntity
  8
寸法線
 62
     0
370
    -2
100
AcDbLine
 10
-223.5133443386164
 20
259.2206524622008
 30
0.0
 11
-212.5140433456283
 21
259.2206524622008
 31
0.0
  0
LINE
  5
2CA7
330
2C8E
100
AcDbEntity
  8
寸法線
 62
     0
370
    -2
100
AcDbLine
 10
-209.5140433456283
 20
259.2206524622008
 30
0.0
 11
-180.9081594680164
 21
259.2206524622008
 31
0.0
  0
INSERT
  5
2CA8
330
2C8E
100
AcDbEntity
  8
寸法線
 62
     0
370
    -2
100
AcDbBlockReference
  2
_Closed
 10
-226.5133443386164
 20
259.2206524622008
 30
0.0
 41
3.0
 42
3.0
 43
3.0
 50
180.0
  0
INSERT
  5
2CA9
330
2C8E
100
AcDbEntity
  8
寸法線
 62
     0
370
    -2
100
AcDbBlockReference
  2
_Closed
 10
-209.5140433456283
 20
259.2206524622008
 30
0.0
 41
3.0
 42
3.0
 43
3.0
  0
MTEXT
  5
2CAA
330
2C8E
100
AcDbEntity
  8
寸法線
 62
     0
100
AcDbMText
 10
-193.7111014068224
 20
263.7206524622008
 30
0.0
 40
7.0
 41
0.0
 71
     5
 72
     1
  1
100mm
  7
OKANO
 73
     1
 44
1.0
  0
POINT
  5
2CAB
330
2C8E
100
AcDbEntity
  8
Defpoints
 62
     0
100
AcDbPoint
 10
-226.5133443386164
 20
274.253356885337
 30
0.0
  0
POINT
  5
2CAC
330
2C8E
100
AcDbEntity
  8
Defpoints
 62
     0
100
AcDbPoint
 10
-209.5140433456283
 20
273.5997616613244
 30
0.0
  0
POINT
  5
2CAD
330
2C8E
100
AcDbEntity
  8
Defpoints
 62
     0
100
AcDbPoint
 10
-209.5140433456283
 20
259.2206524622008
 30
0.0
  0
ENDBLK
  5
2C99
330
2C8E
100
AcDbEntity
  8
0
100
AcDbBlockEnd
  0
BLOCK
  5
2F05
330
2EF9
100
AcDbEntity
  8
0
100
AcDbBlockBegin
  2
*D2
 70
     1
 10
0.0
 20
0.0
 30
0.0
  3
*D2
  1

  0
LINE
  5
2F07
330
2EF9
100
AcDbEntity
  8
寸法線
 62
     0
370
    -2
100
AcDbLine
 10
-249.230080354444
 20
296.3996001659842
 30
0.0
 11
-249.230080354444
 21
307.6609411775773
 31
0.0
  0
LINE
  5
2F08
330
2EF9
100
AcDbEntity
  8
寸法線
 62
     0
370
    -2
100
AcDbLine
 10
-242.2270517657502
 20
296.3996001659842
 30
0.0
 11
-242.2270517657502
 21
307.6609411775773
 31
0.0
  0
LINE
  5
2F09
330
2EF9
100
AcDbEntity
  8
寸法線
 62
     0
370
    -2
100
AcDbLine
 10
-252.2300803544439
 20
304.6609411775773
 30
0.0
 11
-255.230080354444
 21
304.6609411775773
 31
0.0
  0
LINE
  5
2F0A
330
2EF9
100
AcDbEntity
  8
寸法線
 62
     0
370
    -2
100
AcDbLine
 10
-239.2270517657502
 20
304.6609411775773
 30
0.0
 11
-227.7712803998102
 21
304.6609411775773
 31
0.0
  0
LINE
  5
2F0B
330
2EF9
100
AcDbEntity
  8
寸法線
 62
     0
370
    -2
100
AcDbLine
 10
-249.230080354444
 20
304.6609411775773
 30
0.0
 11
-242.2270517657502
 21
304.6609411775773
 31
0.0
  0
INSERT
  5
2F0C
330
2EF9
100
AcDbEntity
  8
寸法線
 62
     0
370
    -2
100
AcDbBlockReference
  2
_Closed
 10
-249.230080354444
 20
304.6609411775773
 30
0.0
 41
3.0
 42
3.0
 43
3.0
  0
INSERT
  5
2F0D
330
2EF9
100
AcDbEntity
  8
寸法線
 62
     0
370
    -2
100
AcDbBlockReference
  2
_Closed
 10
-242.2270517657502
 20
304.6609411775773
 30
0.0
 41
3.0
 42
3.0
 43
3.0
 50
180.0
  0
MTEXT
  5
2F0E
330
2EF9
100
AcDbEntity
  8
寸法線
 62
     0
100
AcDbMText
 10
-231.9991660827802
 20
308.1614333035616
 30
0.0
 40
5.0
 41
0.0
 71
     5
 72
     1
  1
25
  7
OKANO
 73
     1
 44
1.0
  0
POINT
  5
2F0F
330
2EF9
100
AcDbEntity
  8
Defpoints
 62
     0
100
AcDbPoint
 10
-249.230080354444
 20
294.3996001659842
 30
0.0
  0
POINT
  5
2F10
330
2EF9
100
AcDbEntity
  8
Defpoints
 62
     0
100
AcDbPoint
 10
-242.2270517657502
 20
294.3996001659842
 30
0.0
  0
POINT
  5
2F11
330
2EF9
100
AcDbEntity
  8
Defpoints
 62
     0
100
AcDbPoint
 10
-242.2270517657502
 20
304.6609411775773
 30
0.0
  0
ENDBLK
  5
2F06
330
2EF9
100
AcDbEntity
  8
0
100
AcDbBlockEnd
  0
ENDSEC
  0
SECTION
  2
ENTITIES
  0
XLINE
  5
9CE
330
1F
100
AcDbEntity
  8
構築線
100
AcDbXline
 10
1474.813299766681
 20
313.3015167717922
 30
0.0
 11
0.0
 21
1.0
 31
0.0
  0
XLINE
  5
9CF
330
1F
100
AcDbEntity
  8
構築線
100
AcDbXline
 10
1564.813299766681
 20
313.3015167717922
 30
0.0
 11
0.0
 21
1.0
 31
0.0
  0
XLINE
  5
9D3
330
1F
100
AcDbEntity
  8
構築線
100
AcDbXline
 10
1744.813299766681
 20
313.3015167717922
 30
0.0
 11
0.0
 21
1.0
 31
0.0
  0
XLINE
  5
A01
330
1F
100
AcDbEntity
  8
構築線
100
AcDbXline
 10
1539.813299766681
 20
313.3015167717922
 30
0.0
 11
0.0
 21
1.0
 31
0.0
  0
XLINE
  5
A02
330
1F
100
AcDbEntity
  8
構築線
100
AcDbXline
 10
1589.813299766681
 20
313.3015167717922
 30
0.0
 11
0.0
 21
1.0
 31
0.0
  0
XLINE
  5
A05
330
1F
100
AcDbEntity
  8
構築線
100
AcDbXline
 10
1744.813299766681
 20
313.3015167717922
 30
0.0
 11
0.0
 21
1.0
 31
0.0
  0
XLINE
  5
A2F
330
1F
100
AcDbEntity
  8
構築線
100
AcDbXline
 10
1834.813299766681
 20
313.3015167717922
 30
0.0
 11
0.0
 21
1.0
 31
0.0
  0
XLINE
  5
A36
330
1F
100
AcDbEntity
  8
構築線
100
AcDbXline
 10
1639.813299766681
 20
313.3015167717922
 30
0.0
 11
0.0
 21
1.0
 31
0.0
  0
XLINE
  5
A50
330
1F
100
AcDbEntity
  8
構築線
100
AcDbXline
 10
1900.549297807088
 20
410.7291306226295
 30
0.0
 11
0.0
 21
1.0
 31
0.0
  0
XLINE
  5
BC4
330
1F
100
AcDbEntity
  8
構築線
100
AcDbXline
 10
7972.871765674118
 20
96.84657042271306
 30
0.0
 11
0.0
 21
1.0
 31
0.0
  0
XLINE
  5
1566
330
1F
100
AcDbEntity
  8
構築線
100
AcDbXline
 10
1811.300514950786
 20
192.842071133109
 30
0.0
 11
0.0
 21
-1.0
 31
0.0
  0
XLINE
  5
1567
330
1F
100
AcDbEntity
  8
構築線
100
AcDbXline
 10
1811.300514950786
 20
192.842071133109
 30
0.0
 11
0.0
 21
-1.0
 31
0.0
  0
LINE
  5
164B
330
1F
100
AcDbEntity
  8
構築線
100
AcDbLine
 10
254.3232907167009
 20
99.60155082729205
 30
0.0
 11
261.4288547732437
 21
99.60155082729205
 31
0.0
  0
MTEXT
  5
1ADE
330
1F
100
AcDbEntity
  8
寸法線
100
AcDbMText
 10
135.009590742987
 20
154.2821851388289
 30
0.0
 40
7.0
 41
3.85
 71
     1
 72
     1
  1

  7
OKANO
 73
     1
 44
1.0
  0
ARC
  5
2534
330
1F
100
AcDbEntity
  8
構築線
100
AcDbCircle
 10
254.577855218798
 20
108.0134726157619
 30
0.0
 40
1.265341408886715
100
AcDbArc
 50
34.20248813246006
 51
96.09171535707151
  0
MTEXT
  5
26D8
330
1F
100
AcDbEntity
  8
寸法線
100
AcDbMText
 10
200.7941563115182
 20
147.4971613616101
 30
0.0
 40
7.0
 41
0.32
 71
     1
 72
     1
  1

  7
OKANO
 73
     1
 44
1.0
  0
LINE
  5
291E
330
1F
100
AcDbEntity
  8
太線
100
AcDbLine
 10
-289.5315060121302
 20
398.3487180351882
 30
0.0
 11
-275.0919060121302
 21
398.3487180351882
 31
0.0
  0
ARC
  5
291F
330
1F
100
AcDbEntity
  8
想像線
100
AcDbCircle
 10
-282.3117060121301
 20
393.1675036858314
 30
0.0
 40
12.10050702099354
100
AcDbArc
 50
59.11274362250044
 51
120.8872563774995
  0
LINE
  5
2920
330
1F
100
AcDbEntity
  8
想像線
100
AcDbLine
 10
-288.5235060121302
 20
403.5519059760508
 30
0.0
 11
-276.0999060121301
 21
403.5519059760508
 31
0.0
  0
ARC
  5
2921
330
1F
100
AcDbEntity
  8
太線
100
AcDbCircle
 10
-282.3117060121301
 20
394.5583545351881
 30
0.0
 40
11.6023635
100
AcDbArc
 50
52.76279306230389
 51
127.2372069376961
  0
LINE
  5
2925
330
1F
100
AcDbEntity
  8
太線
100
AcDbLine
 10
-289.5315060121302
 20
398.3487180351882
 30
0.0
 11
-289.5315060121302
 21
403.3941738372185
 31
0.0
  0
LINE
  5
2926
330
1F
100
AcDbEntity
  8
想像線
100
AcDbLine
 10
-288.5235060121302
 20
398.3487180351882
 30
0.0
 11
-288.5235060121302
 21
403.5519059760508
 31
0.0
  0
ARC
  5
2927
330
1F
100
AcDbEntity
  8
太線
100
AcDbCircle
 10
-289.0275060121302
 20
403.3941738372185
 30
0.0
 40
0.504
100
AcDbArc
 50
127.2372069376961
 51
180.0
  0
CIRCLE
  5
2928
330
1F
100
AcDbEntity
  8
想像線
100
AcDbCircle
 10
-282.030452499848
 20
399.7828948511611
 30
0.0
 40
0.6285670100036383
  0
LWPOLYLINE
  5
2929
330
1F
100
AcDbEntity
  8
太線
100
AcDbPolyline
 90
        6
 70
     1
 43
0.0
 10
-280.8967446511544
 20
399.3642908859591
 10
-281.1077160333051
 20
400.6303128516405
 10
-282.3096089084097
 20
401.0806172580671
 10
-283.3005304013635
 20
400.2648996988122
 10
-283.0895590192128
 20
398.9988777331309
 10
-281.8876661441083
 20
398.5485733267043
  0
LINE
  5
292B
330
1F
100
AcDbEntity
  8
太線
100
AcDbLine
 10
-275.0919060121302
 20
398.3487180351882
 30
0.0
 11
-275.0919060121302
 21
403.3941738372185
 31
0.0
  0
LINE
  5
292C
330
1F
100
AcDbEntity
  8
想像線
100
AcDbLine
 10
-276.0999060121301
 20
398.3487180351882
 30
0.0
 11
-276.0999060121301
 21
403.5519059760508
 31
0.0
  0
ARC
  5
292D
330
1F
100
AcDbEntity
  8
太線
100
AcDbCircle
 10
-275.5959060121302
 20
403.3941738372185
 30
0.0
 40
0.504
100
AcDbArc
 50
0.0
 51
52.76279306230389
  0
LINE
  5
2932
330
1F
100
AcDbEntity
  8
太線
100
AcDbLine
 10
-287.5893527760389
 20
379.6806862408993
 30
0.0
 11
-288.7093527760389
 21
379.6806862408993
 31
0.0
  0
LINE
  5
2933
330
1F
100
AcDbEntity
  8
太線
100
AcDbLine
 10
-288.7093527760389
 20
366.2406862408993
 30
0.0
 11
-287.5893527760389
 21
366.2406862408993
 31
0.0
  0
LINE
  5
2934
330
1F
100
AcDbEntity
  8
太線
100
AcDbLine
 10
-288.7093527760389
 20
379.6806862408993
 30
0.0
 11
-288.7093527760389
 21
366.2406862408993
 31
0.0
  0
ARC
  5
293B
330
1F
100
AcDbEntity
  8
太線
 62
     0
100
AcDbCircle
 10
-270.4973668157119
 20
372.9606862408994
 30
0.0
 40
1.344
100
AcDbArc
 50
89.99999999999998
 51
270.0
  0
LINE
  5
293C
330
1F
100
AcDbEntity
  8
太線
100
AcDbLine
 10
-270.2185630584405
 20
366.2406862408993
 30
0.0
 11
-287.5893527760389
 21
366.2406862408993
 31
0.0
  0
LINE
  5
293D
330
1F
100
AcDbEntity
  8
太線
100
AcDbLine
 10
-269.6693527760389
 20
379.6806862408993
 30
0.0
 11
-287.5893527760389
 21
379.6806862408993
 31
0.0
  0
ARC
  5
293E
330
1F
100
AcDbEntity
  8
太線
100
AcDbCircle
 10
-269.6693527760389
 20
372.9606862408994
 30
0.0
 40
6.72
100
AcDbArc
 50
266.6269766589498
 51
89.99999999999998
  0
LINE
  5
293F
330
1F
100
AcDbEntity
  8
想像線
100
AcDbLine
 10
-276.3893527760389
 20
378.5606862408994
 30
0.0
 11
-276.3893527760389
 21
367.3606862408994
 31
0.0
  0
LINE
  5
2940
330
1F
100
AcDbEntity
  8
想像線
100
AcDbLine
 10
-287.5893527760389
 20
379.6806862408993
 30
0.0
 11
-287.5893527760389
 21
366.2406862408993
 31
0.0
  0
LINE
  5
2941
330
1F
100
AcDbEntity
  8
太線
 62
     0
100
AcDbLine
 10
-275.2693527760389
 20
379.6806862408993
 30
0.0
 11
-275.2693527760389
 21
366.2406862408993
 31
0.0
  0
LINE
  5
2942
330
1F
100
AcDbEntity
  8
想像線
100
AcDbLine
 10
-276.3893527760389
 20
367.3606862408994
 30
0.0
 11
-276.3893527760389
 21
366.2406862408993
 31
0.0
  0
CIRCLE
  5
2943
330
1F
100
AcDbEntity
  8
太線
100
AcDbCircle
 10
-274.3733527760388
 20
368.4806862408994
 30
0.0
 40
0.6720000000000001
  0
LWPOLYLINE
  5
2944
330
1F
100
AcDbEntity
  8
太線
100
AcDbPolyline
 90
        6
 70
     1
 43
0.0
 10
-282.9689073547755
 20
371.482383793411
 10
-281.7028853890941
 20
371.6933551755618
 10
-281.2525809826674
 20
372.8952480506663
 10
-282.0682985419222
 20
373.8861695436202
 10
-283.3343205076036
 20
373.6751981614694
 10
-283.7846249140302
 20
372.4733052863648
  0
CIRCLE
  5
2945
330
1F
100
AcDbEntity
  8
想像線
100
AcDbCircle
 10
-282.5503033895734
 20
372.6160916421045
 30
0.0
 40
0.6285670100036383
  0
CIRCLE
  5
2946
330
1F
100
AcDbEntity
  8
太線
100
AcDbCircle
 10
-274.3733527760388
 20
377.4406862408993
 30
0.0
 40
0.6720000000000001
  0
LINE
  5
2947
330
1F
100
AcDbEntity
  8
想像線
100
AcDbLine
 10
-276.3893527760389
 20
379.6806862408993
 30
0.0
 11
-276.3893527760389
 21
378.5606862408994
 31
0.0
  0
LINE
  5
2948
330
1F
100
AcDbEntity
  8
太線
100
AcDbLine
 10
-266.5333527760389
 20
371.6166862408994
 30
0.0
 11
-270.4973668157119
 21
371.6166862408994
 31
0.0
  0
LINE
  5
2949
330
1F
100
AcDbEntity
  8
太線
100
AcDbLine
 10
-266.5333527760389
 20
374.3046862408994
 30
0.0
 11
-270.4973668157119
 21
374.3046862408994
 31
0.0
  0
ARC
  5
294A
330
1F
100
AcDbEntity
  8
太線
 62
     0
100
AcDbCircle
 10
-266.5333527760389
 20
372.9606862408994
 30
0.0
 40
1.344
100
AcDbArc
 50
270.0
 51
89.99999999999998
  0
LINE
  5
295B
330
1F
100
AcDbEntity
  8
太線
100
AcDbLine
 10
-269.6693527760389
 20
298.7173784083768
 30
0.0
 11
-287.5893527760389
 21
298.7173784083768
 31
0.0
  0
LWPOLYLINE
  5
295C
330
1F
100
AcDbEntity
  8
太線
100
AcDbPolyline
 90
        6
 70
     1
 43
0.0
 10
-282.9689073547755
 20
290.5190759608885
 10
-281.7028853890941
 20
290.7300473430392
 10
-281.2525809826674
 20
291.9319402181438
 10
-282.0682985419222
 20
292.9228617110976
 10
-283.3343205076036
 20
292.7118903289468
 10
-283.7846249140302
 20
291.5099974538422
  0
CIRCLE
  5
295D
330
1F
100
AcDbEntity
  8
想像線
100
AcDbCircle
 10
-282.5503033895734
 20
291.652783809582
 30
0.0
 40
0.6285670100036383
  0
LINE
  5
295F
330
1F
100
AcDbEntity
  8
太線
100
AcDbLine
 10
-270.2185630584405
 20
285.2773784083768
 30
0.0
 11
-287.5893527760389
 21
285.2773784083768
 31
0.0
  0
LINE
  5
2960
330
1F
100
AcDbEntity
  8
太線
100
AcDbLine
 10
-288.7093527760389
 20
298.7173784083768
 30
0.0
 11
-288.7093527760389
 21
285.2773784083768
 31
0.0
  0
LINE
  5
2961
330
1F
100
AcDbEntity
  8
想像線
100
AcDbLine
 10
-287.5893527760389
 20
298.7173784083768
 30
0.0
 11
-287.5893527760389
 21
285.2773784083768
 31
0.0
  0
LINE
  5
2962
330
1F
100
AcDbEntity
  8
太線
100
AcDbLine
 10
-288.7093527760389
 20
285.2773784083768
 30
0.0
 11
-287.5893527760389
 21
285.2773784083768
 31
0.0
  0
LINE
  5
2965
330
1F
100
AcDbEntity
  8
太線
100
AcDbLine
 10
-287.5893527760389
 20
298.7173784083768
 30
0.0
 11
-288.7093527760389
 21
298.7173784083768
 31
0.0
  0
ARC
  5
2966
330
1F
100
AcDbEntity
  8
太線
 62
     0
100
AcDbCircle
 10
-266.5333527760389
 20
291.9973784083769
 30
0.0
 40
1.344
100
AcDbArc
 50
270.0
 51
89.99999999999998
  0
ARC
  5
2967
330
1F
100
AcDbEntity
  8
太線
100
AcDbCircle
 10
-269.6693527760389
 20
291.9973784083769
 30
0.0
 40
6.72
100
AcDbArc
 50
266.6269766589498
 51
89.99999999999998
  0
CIRCLE
  5
2968
330
1F
100
AcDbEntity
  8
太線
100
AcDbCircle
 10
-274.3733527760388
 20
296.4773784083768
 30
0.0
 40
0.6720000000000001
  0
LINE
  5
2969
330
1F
100
AcDbEntity
  8
想像線
100
AcDbLine
 10
-276.3893527760389
 20
297.5973784083769
 30
0.0
 11
-276.3893527760389
 21
286.3973784083768
 31
0.0
  0
LINE
  5
296A
330
1F
100
AcDbEntity
  8
太線
 62
     0
100
AcDbLine
 10
-275.2693527760389
 20
298.7173784083768
 30
0.0
 11
-275.2693527760389
 21
285.2773784083768
 31
0.0
  0
CIRCLE
  5
296B
330
1F
100
AcDbEntity
  8
太線
100
AcDbCircle
 10
-274.3733527760388
 20
287.5173784083768
 30
0.0
 40
0.6720000000000001
  0
LINE
  5
296C
330
1F
100
AcDbEntity
  8
想像線
100
AcDbLine
 10
-276.3893527760389
 20
286.3973784083768
 30
0.0
 11
-276.3893527760389
 21
285.2773784083768
 31
0.0
  0
LINE
  5
296D
330
1F
100
AcDbEntity
  8
太線
100
AcDbLine
 10
-266.5333527760389
 20
290.6533784083768
 30
0.0
 11
-270.4973668157119
 21
290.6533784083768
 31
0.0
  0
LINE
  5
296E
330
1F
100
AcDbEntity
  8
太線
100
AcDbLine
 10
-266.5333527760389
 20
293.3413784083768
 30
0.0
 11
-270.4973668157119
 21
293.3413784083768
 31
0.0
  0
ARC
  5
296F
330
1F
100
AcDbEntity
  8
太線
 62
     0
100
AcDbCircle
 10
-270.4973668157119
 20
291.9973784083769
 30
0.0
 40
1.344
100
AcDbArc
 50
89.99999999999998
 51
270.0
  0
LINE
  5
2971
330
1F
100
AcDbEntity
  8
想像線
100
AcDbLine
 10
-276.3893527760389
 20
298.7173784083768
 30
0.0
 11
-276.3893527760389
 21
297.5973784083769
 31
0.0
  0
LINE
  5
2977
330
1F
100
AcDbEntity
  8
太線
100
AcDbLine
 10
-288.2393603755341
 20
239.4438662199608
 30
0.0
 11
-282.212360375534
 21
239.4438662199608
 31
0.0
  0
LINE
  5
2978
330
1F
100
AcDbEntity
  8
破線
100
AcDbLine
 10
-283.0729769673548
 20
225.4788662199608
 30
0.0
 11
-287.847360375534
 21
235.8263891958625
 31
0.0
  0
LINE
  5
2979
330
1F
100
AcDbEntity
  8
太線
100
AcDbLine
 10
-282.8876021786466
 20
224.4923180365925
 30
0.0
 11
-288.6558603755342
 21
236.9938662199608
 31
0.0
  0
LINE
  5
297A
330
1F
100
AcDbEntity
  8
太線
100
AcDbLine
 10
-288.6558603755342
 20
236.9938662199608
 30
0.0
 11
-282.212360375534
 21
236.9938662199608
 31
0.0
  0
LINE
  5
297B
330
1F
100
AcDbEntity
  8
太線
100
AcDbLine
 10
-288.6558603755342
 20
236.9938662199608
 30
0.0
 11
-288.6558603755342
 21
239.4438662199608
 31
0.0
  0
LINE
  5
297C
330
1F
100
AcDbEntity
  8
破線
100
AcDbLine
 10
-288.092360375534
 20
236.9938662199608
 30
0.0
 11
-288.2393603755341
 21
239.4438662199608
 31
0.0
  0
LINE
  5
297D
330
1F
100
AcDbEntity
  8
破線
100
AcDbLine
 10
-287.847360375534
 20
235.8263891958625
 30
0.0
 11
-287.847360375534
 21
236.9938662199608
 31
0.0
  0
LINE
  5
297E
330
1F
100
AcDbEntity
  8
破線
100
AcDbLine
 10
-287.847360375534
 20
236.9938662199608
 30
0.0
 11
-288.092360375534
 21
236.9938662199608
 31
0.0
  0
LINE
  5
297F
330
1F
100
AcDbEntity
  8
太線
100
AcDbLine
 10
-288.6558603755342
 20
239.4438662199608
 30
0.0
 11
-288.2393603755341
 21
239.4438662199608
 31
0.0
  0
LINE
  5
2980
330
1F
100
AcDbEntity
  8
太線
100
AcDbLine
 10
-276.5773603755341
 20
235.8263891958625
 30
0.0
 11
-281.3517437837132
 21
225.4788662199608
 31
0.0
  0
LINE
  5
2981
330
1F
100
AcDbEntity
  8
太線
100
AcDbLine
 10
-275.7688603755341
 20
236.9938662199608
 30
0.0
 11
-281.5881908853095
 21
224.3816289934513
 31
0.0
  0
LINE
  5
2982
330
1F
100
AcDbEntity
  8
太線
100
AcDbLine
 10
-282.212360375534
 20
224.0833893485553
 30
0.0
 11
-282.212360375534
 21
239.4438662199608
 31
0.0
  0
HATCH
  5
2983
330
1F
100
AcDbEntity
  8
太線
100
AcDbHatch
 10
0.0
 20
0.0
 30
0.0
210
0.0
220
0.0
230
1.0
  2
SOLID
 70
     1
 71
     0
 91
        1
 92
        7
 72
     1
 73
     1
 93
       11
 10
-275.768860375534
 20
236.9938662199607
 42
0.0
 10
-275.768860375534
 20
239.4438662199608
 42
0.0
 10
-276.1853603755341
 20
239.4438662199608
 42
0.0
 10
-276.3323603755341
 20
236.9938662199608
 42
0.0
 10
-276.577360375534
 20
236.9938662199608
 42
0.0
 10
-276.577360375534
 20
235.8263891958626
 42
0.0
 10
-281.3517437837132
 20
225.4788662199608
 42
0.0
 10
-281.8448603755341
 20
225.4788662199608
 42
-0.3401036698125633
 10
-282.212360375534
 20
225.1961930771216
 42
0.0
 10
-282.212360375534
 20
224.0833893485553
 42
0.2339063408665641
 10
-281.5881908853094
 20
224.3816289934513
 42
0.0
 97
        0
 75
     0
 76
     1
 47
0.1956882355081249
 98
        1
 10
-281.7952127361363
 20
224.8698052437983
  0
LINE
  5
2984
330
1F
100
AcDbEntity
  8
太線
100
AcDbLine
 10
-281.8448603755341
 20
225.4788662199608
 30
0.0
 11
-281.3517437837132
 21
225.4788662199608
 31
0.0
  0
ARC
  5
2985
330
1F
100
AcDbEntity
  8
太線
100
AcDbCircle
 10
-282.2015952780862
 20
224.8631246310738
 30
0.0
 40
0.7798095909433453
100
AcDbArc
 50
191.8439569037162
 51
330.9388200506417
  0
LINE
  5
2986
330
1F
100
AcDbEntity
  8
破線
100
AcDbLine
 10
-282.5798603755341
 20
225.4788662199608
 30
0.0
 11
-283.0729769673548
 21
225.4788662199608
 31
0.0
  0
ARC
  5
2987
330
1F
100
AcDbEntity
  8
太線
100
AcDbCircle
 10
-282.2123603755341
 20
225.57642084394
 30
0.0
 40
0.3802277668184055
100
AcDbArc
 50
270.0
 51
345.1334296091831
  0
ARC
  5
2988
330
1F
100
AcDbEntity
  8
破線
100
AcDbCircle
 10
-282.212360375534
 20
225.57642084394
 30
0.0
 40
0.3802277668184125
100
AcDbArc
 50
194.8665703908169
 51
345.1334296091831
  0
LINE
  5
2989
330
1F
100
AcDbEntity
  8
太線
100
AcDbLine
 10
-282.212360375534
 20
239.4438662199608
 30
0.0
 11
-276.1853603755341
 21
239.4438662199608
 31
0.0
  0
LINE
  5
298A
330
1F
100
AcDbEntity
  8
太線
100
AcDbLine
 10
-282.212360375534
 20
236.9938662199608
 30
0.0
 11
-276.5773603755341
 21
236.9938662199608
 31
0.0
  0
LINE
  5
298B
330
1F
100
AcDbEntity
  8
太線
100
AcDbLine
 10
-282.212360375534
 20
235.8263891958625
 30
0.0
 11
-276.5773603755341
 21
235.8263891958625
 31
0.0
  0
LINE
  5
298C
330
1F
100
AcDbEntity
  8
太線
100
AcDbLine
 10
-276.1853603755341
 20
239.4438662199608
 30
0.0
 11
-276.3323603755341
 21
236.9938662199608
 31
0.0
  0
LINE
  5
298D
330
1F
100
AcDbEntity
  8
太線
100
AcDbLine
 10
-275.7688603755341
 20
239.4438662199608
 30
0.0
 11
-275.7688603755341
 21
236.9938662199608
 31
0.0
  0
LINE
  5
298E
330
1F
100
AcDbEntity
  8
太線
100
AcDbLine
 10
-276.3323603755341
 20
236.9938662199608
 30
0.0
 11
-276.5773603755341
 21
236.9938662199608
 31
0.0
  0
LINE
  5
298F
330
1F
100
AcDbEntity
  8
太線
100
AcDbLine
 10
-276.5773603755341
 20
236.9938662199608
 30
0.0
 11
-276.5773603755341
 21
235.8263891958625
 31
0.0
  0
LINE
  5
2990
330
1F
100
AcDbEntity
  8
太線
100
AcDbLine
 10
-276.1853603755341
 20
239.4438662199608
 30
0.0
 11
-275.7688603755341
 21
239.4438662199608
 31
0.0
  0
LINE
  5
299D
330
1F
100
AcDbEntity
  8
構築線
100
AcDbLine
 10
-276.4356852396072
 20
398.3487180351882
 30
0.0
 11
-276.4356852396072
 21
379.6806862408993
 31
0.0
  0
LINE
  5
299E
330
1F
100
AcDbEntity
  8
太線
100
AcDbLine
 10
-276.0999060121301
 20
398.3487180351882
 30
0.0
 11
-276.4356852396072
 21
379.6806862408993
 31
0.0
  0
LINE
  5
299F
330
1F
100
AcDbEntity
  8
太線
100
AcDbLine
 10
-275.2693527760389
 20
366.2406862408993
 30
0.0
 11
-275.2693527760389
 21
298.7173784083768
 31
0.0
  0
LINE
  5
29A0
330
1F
100
AcDbEntity
  8
太線
100
AcDbLine
 10
-276.3893527760389
 20
286.3973784083768
 30
0.0
 11
-276.4356852396072
 21
239.4438662199608
 31
0.0
  0
LINE
  5
29A1
330
1F
100
AcDbEntity
  8
太線
100
AcDbLine
 10
-287.7189020187083
 20
398.3487180351882
 30
0.0
 11
-287.5893527760389
 21
379.6806862408993
 31
0.0
  0
LINE
  5
29A2
330
1F
100
AcDbEntity
  8
太線
100
AcDbLine
 10
-287.5893527760389
 20
366.2406862408993
 30
0.0
 11
-287.5893527760389
 21
298.7173784083768
 31
0.0
  0
LINE
  5
29A3
330
1F
100
AcDbEntity
  8
太線
100
AcDbLine
 10
-287.5893527760389
 20
285.2773784083768
 30
0.0
 11
-287.7189020187083
 21
239.4438662199608
 31
0.0
  0
LINE
  5
29A5
330
1F
100
AcDbEntity
  8
太線
100
AcDbLine
 10
-20.67830158687718
 20
367.7406862408993
 30
0.0
 11
-20.67830158687718
 21
300.2173784083768
 31
0.0
  0
LINE
  5
29A6
330
1F
100
AcDbEntity
  8
太線
100
AcDbLine
 10
-8.358301586877189
 20
367.7406862408993
 30
0.0
 11
-8.358301586877189
 21
300.2173784083768
 31
0.0
  0
LINE
  5
29A7
330
1F
100
AcDbEntity
  8
太線
100
AcDbLine
 10
-20.67830158687718
 20
286.7773784083768
 30
0.0
 11
-20.80785082954662
 21
240.9438662199608
 31
0.0
  0
LINE
  5
29A8
330
1F
100
AcDbEntity
  8
太線
100
AcDbLine
 10
-9.478301586877137
 20
287.8973784083768
 30
0.0
 11
-9.524634050445456
 21
240.9438662199608
 31
0.0
  0
LINE
  5
29A9
330
1F
100
AcDbEntity
  8
太線
100
AcDbLine
 10
-15.30130918637229
 20
237.3263891958625
 30
0.0
 11
-9.666309186372359
 21
237.3263891958625
 31
0.0
  0
LINE
  5
29AA
330
1F
100
AcDbEntity
  8
太線
100
AcDbLine
 10
-15.30130918637229
 20
238.4938662199608
 30
0.0
 11
-9.666309186372359
 21
238.4938662199608
 31
0.0
  0
LINE
  5
29AB
330
1F
100
AcDbEntity
  8
太線
100
AcDbLine
 10
-15.30130918637229
 20
240.9438662199608
 30
0.0
 11
-9.274309186372363
 21
240.9438662199608
 31
0.0
  0
ARC
  5
29AC
330
1F
100
AcDbEntity
  8
破線
100
AcDbCircle
 10
-15.30130918637229
 20
227.07642084394
 30
0.0
 40
0.3802277668184125
100
AcDbArc
 50
194.8665703908169
 51
345.1334296091831
  0
ARC
  5
29AD
330
1F
100
AcDbEntity
  8
太線
100
AcDbCircle
 10
-15.30130918637235
 20
227.07642084394
 30
0.0
 40
0.3802277668184055
100
AcDbArc
 50
270.0
 51
345.1334296091831
  0
ARC
  5
29AE
330
1F
100
AcDbEntity
  8
太線
100
AcDbCircle
 10
-15.29054408892454
 20
226.3631246310738
 30
0.0
 40
0.7798095909433453
100
AcDbArc
 50
191.8439569037162
 51
330.9388200506417
  0
HATCH
  5
29AF
330
1F
100
AcDbEntity
  8
太線
100
AcDbHatch
 10
0.0
 20
0.0
 30
0.0
210
0.0
220
0.0
230
1.0
  2
SOLID
 70
     1
 71
     0
 91
        1
 92
        7
 72
     1
 73
     1
 93
       11
 10
-8.857809186372321
 20
238.4938662199608
 42
0.0
 10
-8.857809186372264
 20
240.9438662199609
 42
0.0
 10
-9.274309186372363
 20
240.9438662199608
 42
0.0
 10
-9.421309186372354
 20
238.4938662199608
 42
0.0
 10
-9.666309186372302
 20
238.4938662199608
 42
0.0
 10
-9.666309186372302
 20
237.3263891958627
 42
0.0
 10
-14.44069259455153
 20
226.9788662199608
 42
0.0
 10
-14.9338091863724
 20
226.9788662199608
 42
-0.3401036698125633
 10
-15.30130918637229
 20
226.6961930771216
 42
0.0
 10
-15.30130918637229
 20
225.5833893485553
 42
0.2339063408665641
 10
-14.67713969614772
 20
225.8816289934514
 42
0.0
 97
        0
 75
     0
 76
     1
 47
0.1956882355081249
 98
        1
 10
-14.88416154697455
 20
226.3698052437983
  0
LINE
  5
29B0
330
1F
100
AcDbEntity
  8
太線
100
AcDbLine
 10
-15.30130918637229
 20
225.5833893485553
 30
0.0
 11
-15.30130918637229
 21
240.9438662199608
 31
0.0
  0
LINE
  5
29B1
330
1F
100
AcDbEntity
  8
太線
100
AcDbLine
 10
-15.97655098948485
 20
225.9923180365925
 30
0.0
 11
-21.74480918637243
 21
238.4938662199608
 31
0.0
  0
LINE
  5
29B2
330
1F
100
AcDbEntity
  8
破線
100
AcDbLine
 10
-16.1619257781931
 20
226.9788662199608
 30
0.0
 11
-20.93630918637234
 21
237.3263891958625
 31
0.0
  0
LINE
  5
29B3
330
1F
100
AcDbEntity
  8
破線
100
AcDbLine
 10
-15.66880918637235
 20
226.9788662199608
 30
0.0
 11
-16.1619257781931
 21
226.9788662199608
 31
0.0
  0
LINE
  5
29B4
330
1F
100
AcDbEntity
  8
破線
100
AcDbLine
 10
-21.18130918637234
 20
238.4938662199608
 30
0.0
 11
-21.32830918637239
 21
240.9438662199608
 31
0.0
  0
LINE
  5
29B5
330
1F
100
AcDbEntity
  8
太線
100
AcDbLine
 10
-21.74480918637243
 20
238.4938662199608
 30
0.0
 11
-21.74480918637243
 21
240.9438662199608
 31
0.0
  0
LINE
  5
29B6
330
1F
100
AcDbEntity
  8
太線
100
AcDbLine
 10
-21.74480918637243
 20
238.4938662199608
 30
0.0
 11
-15.30130918637229
 21
238.4938662199608
 31
0.0
  0
LINE
  5
29B7
330
1F
100
AcDbEntity
  8
破線
100
AcDbLine
 10
-20.93630918637234
 20
238.4938662199608
 30
0.0
 11
-21.18130918637234
 21
238.4938662199608
 31
0.0
  0
LINE
  5
29B8
330
1F
100
AcDbEntity
  8
破線
100
AcDbLine
 10
-20.93630918637234
 20
237.3263891958625
 30
0.0
 11
-20.93630918637234
 21
238.4938662199608
 31
0.0
  0
LINE
  5
29B9
330
1F
100
AcDbEntity
  8
太線
100
AcDbLine
 10
-21.32830918637239
 20
240.9438662199608
 30
0.0
 11
-15.30130918637229
 21
240.9438662199608
 31
0.0
  0
LINE
  5
29BA
330
1F
100
AcDbEntity
  8
太線
100
AcDbLine
 10
-21.74480918637243
 20
240.9438662199608
 30
0.0
 11
-21.32830918637239
 21
240.9438662199608
 31
0.0
  0
LINE
  5
29BB
330
1F
100
AcDbEntity
  8
太線
100
AcDbLine
 10
-8.857809186372378
 20
238.4938662199608
 30
0.0
 11
-14.67713969614783
 21
225.8816289934513
 31
0.0
  0
LINE
  5
29BC
330
1F
100
AcDbEntity
  8
太線
100
AcDbLine
 10
-9.666309186372359
 20
237.3263891958625
 30
0.0
 11
-14.44069259455153
 21
226.9788662199608
 31
0.0
  0
LINE
  5
29BD
330
1F
100
AcDbEntity
  8
太線
100
AcDbLine
 10
-14.9338091863724
 20
226.9788662199608
 30
0.0
 11
-14.44069259455153
 21
226.9788662199608
 31
0.0
  0
LINE
  5
29BE
330
1F
100
AcDbEntity
  8
太線
100
AcDbLine
 10
-8.857809186372378
 20
240.9438662199608
 30
0.0
 11
-8.857809186372378
 21
238.4938662199608
 31
0.0
  0
LINE
  5
29BF
330
1F
100
AcDbEntity
  8
太線
100
AcDbLine
 10
-9.274309186372363
 20
240.9438662199608
 30
0.0
 11
-9.421309186372354
 21
238.4938662199608
 31
0.0
  0
LINE
  5
29C0
330
1F
100
AcDbEntity
  8
太線
100
AcDbLine
 10
-9.666309186372359
 20
238.4938662199608
 30
0.0
 11
-9.666309186372359
 21
237.3263891958625
 31
0.0
  0
LINE
  5
29C1
330
1F
100
AcDbEntity
  8
太線
100
AcDbLine
 10
-9.421309186372354
 20
238.4938662199608
 30
0.0
 11
-9.666309186372359
 21
238.4938662199608
 31
0.0
  0
LINE
  5
29C2
330
1F
100
AcDbEntity
  8
太線
100
AcDbLine
 10
-9.274309186372363
 20
240.9438662199608
 30
0.0
 11
-8.857809186372378
 21
240.9438662199608
 31
0.0
  0
LINE
  5
29D6
330
1F
100
AcDbEntity
  8
太線
100
AcDbLine
 10
-22.62045482296849
 20
399.8487180351882
 30
0.0
 11
-8.180854822968456
 21
399.8487180351882
 31
0.0
  0
ARC
  5
29D7
330
1F
100
AcDbEntity
  8
想像線
100
AcDbCircle
 10
-15.40065482296841
 20
394.6675036858314
 30
0.0
 40
12.10050702099354
100
AcDbArc
 50
59.11274362250044
 51
120.8872563774995
  0
LINE
  5
29D8
330
1F
100
AcDbEntity
  8
想像線
100
AcDbLine
 10
-21.61245482296851
 20
405.0519059760508
 30
0.0
 11
-9.18885482296838
 21
405.0519059760508
 31
0.0
  0
ARC
  5
29D9
330
1F
100
AcDbEntity
  8
太線
100
AcDbCircle
 10
-15.40065482296841
 20
396.0583545351882
 30
0.0
 40
11.6023635
100
AcDbArc
 50
52.76279306230389
 51
127.2372069376961
  0
CIRCLE
  5
29DA
330
1F
100
AcDbEntity
  8
想像線
100
AcDbCircle
 10
-15.11940131068621
 20
401.2828948511611
 30
0.0
 40
0.6285670100036383
  0
LWPOLYLINE
  5
29DB
330
1F
100
AcDbEntity
  8
太線
100
AcDbPolyline
 90
        6
 70
     1
 43
0.0
 10
-13.98569346199264
 20
400.8642908859591
 10
-14.19666484414341
 20
402.1303128516405
 10
-15.398557719248
 20
402.580617258067
 10
-16.38947921220182
 20
401.7648996988123
 10
-16.1785078300511
 20
400.4988777331309
 10
-14.97661495494656
 20
400.0485733267043
  0
LINE
  5
29E0
330
1F
100
AcDbEntity
  8
太線
100
AcDbLine
 10
-20.80785082954662
 20
399.8487180351882
 30
0.0
 11
-20.67830158687718
 21
381.1806862408993
 31
0.0
  0
LINE
  5
29E5
330
1F
100
AcDbEntity
  8
太線
100
AcDbLine
 10
-22.62045482296849
 20
399.8487180351882
 30
0.0
 11
-22.62045482296849
 21
404.8941738372184
 31
0.0
  0
LINE
  5
29E6
330
1F
100
AcDbEntity
  8
想像線
100
AcDbLine
 10
-21.61245482296851
 20
399.8487180351882
 30
0.0
 11
-21.61245482296851
 21
405.0519059760508
 31
0.0
  0
ARC
  5
29E7
330
1F
100
AcDbEntity
  8
太線
100
AcDbCircle
 10
-22.11645482296848
 20
404.8941738372185
 30
0.0
 40
0.504
100
AcDbArc
 50
127.2372069376961
 51
180.0
  0
LINE
  5
29E9
330
1F
100
AcDbEntity
  8
構築線
100
AcDbLine
 10
-9.524634050445456
 20
399.8487180351882
 30
0.0
 11
-9.524634050445456
 21
381.1806862408993
 31
0.0
  0
LINE
  5
29F5
330
1F
100
AcDbEntity
  8
太線
100
AcDbLine
 10
-8.180854822968456
 20
399.8487180351882
 30
0.0
 11
-8.180854822968456
 21
404.8941738372184
 31
0.0
  0
LINE
  5
29F6
330
1F
100
AcDbEntity
  8
想像線
100
AcDbLine
 10
-9.18885482296838
 20
399.8487180351882
 30
0.0
 11
-9.18885482296838
 21
405.0519059760508
 31
0.0
  0
ARC
  5
29F7
330
1F
100
AcDbEntity
  8
太線
100
AcDbCircle
 10
-8.684854822968475
 20
404.8941738372184
 30
0.0
 40
0.504
100
AcDbArc
 50
0.0
 51
52.76279306230389
  0
LINE
  5
29F8
330
1F
100
AcDbEntity
  8
太線
100
AcDbLine
 10
-9.524634050445456
 20
399.8487180351882
 30
0.0
 11
-9.524634050445456
 21
381.1806862408993
 31
0.0
  0
LINE
  5
29F9
330
1F
100
AcDbEntity
  8
太線
100
AcDbLine
 10
-26.84909130447553
 20
300.2173784083768
 30
0.0
 11
-9.478301586877194
 21
300.2173784083768
 31
0.0
  0
LINE
  5
29FA
330
1F
100
AcDbEntity
  8
太線
100
AcDbLine
 10
-27.39830158687721
 20
286.7773784083768
 30
0.0
 11
-9.478301586877194
 21
286.7773784083768
 31
0.0
  0
ARC
  5
29FB
330
1F
100
AcDbEntity
  8
太線
100
AcDbCircle
 10
-27.39830158687721
 20
293.4973784083767
 30
0.0
 40
6.72
100
AcDbArc
 50
86.62697665894983
 51
270.0
  0
LINE
  5
29FC
330
1F
100
AcDbEntity
  8
太線
 62
     0
100
AcDbLine
 10
-21.79830158687721
 20
286.7773784083768
 30
0.0
 11
-21.79830158687721
 21
300.2173784083768
 31
0.0
  0
LINE
  5
29FD
330
1F
100
AcDbEntity
  8
想像線
100
AcDbLine
 10
-20.67830158687718
 20
286.7773784083768
 30
0.0
 11
-20.67830158687718
 21
287.8973784083767
 31
0.0
  0
LINE
  5
29FE
330
1F
100
AcDbEntity
  8
太線
100
AcDbLine
 10
-30.50030860671375
 20
292.1533784083768
 30
0.0
 11
-26.53629456704067
 21
292.1533784083768
 31
0.0
  0
LINE
  5
29FF
330
1F
100
AcDbEntity
  8
太線
100
AcDbLine
 10
-30.50030860671375
 20
294.8413784083768
 30
0.0
 11
-26.53629456704067
 21
294.8413784083768
 31
0.0
  0
ARC
  5
2A00
330
1F
100
AcDbEntity
  8
太線
 62
     0
100
AcDbCircle
 10
-30.50030860671375
 20
293.4973784083767
 30
0.0
 40
1.344
100
AcDbArc
 50
90.0
 51
270.0
  0
ARC
  5
2A01
330
1F
100
AcDbEntity
  8
太線
 62
     0
100
AcDbCircle
 10
-26.53629456704067
 20
293.4973784083767
 30
0.0
 40
1.344
100
AcDbArc
 50
270.0
 51
90.0
  0
LINE
  5
2A02
330
1F
100
AcDbEntity
  8
想像線
100
AcDbLine
 10
-20.67830158687718
 20
287.8973784083767
 30
0.0
 11
-20.67830158687718
 21
299.0973784083768
 31
0.0
  0
CIRCLE
  5
2A03
330
1F
100
AcDbEntity
  8
太線
100
AcDbCircle
 10
-22.6943015868772
 20
289.0173784083767
 30
0.0
 40
0.896
  0
LINE
  5
2A04
330
1F
100
AcDbEntity
  8
想像線
100
AcDbLine
 10
-20.67830158687718
 20
299.0973784083768
 30
0.0
 11
-20.67830158687718
 21
300.2173784083768
 31
0.0
  0
CIRCLE
  5
2A05
330
1F
100
AcDbEntity
  8
太線
100
AcDbCircle
 10
-22.6943015868772
 20
297.9773784083768
 30
0.0
 40
0.896
  0
LINE
  5
2A06
330
1F
100
AcDbEntity
  8
太線
100
AcDbLine
 10
-3.586315626550288
 20
294.8413784083768
 30
0.0
 11
0.3776984131228005
 21
294.8413784083768
 31
0.0
  0
LINE
  5
2A07
330
1F
100
AcDbEntity
  8
太線
100
AcDbLine
 10
-3.586315626550288
 20
292.1533784083768
 30
0.0
 11
0.3776984131228005
 21
292.1533784083768
 31
0.0
  0
LINE
  5
2A08
330
1F
100
AcDbEntity
  8
太線
100
AcDbLine
 10
-8.358301586877189
 20
300.2173784083768
 30
0.0
 11
-3.153681954598994
 21
300.2057369531193
 31
0.0
  0
LINE
  5
2A09
330
1F
100
AcDbEntity
  8
太線
100
AcDbLine
 10
-8.358301586877246
 20
286.7773784083768
 30
0.0
 11
-2.758301586877223
 21
286.7773784083768
 31
0.0
  0
ARC
  5
2A0A
330
1F
100
AcDbEntity
  8
太線
100
AcDbCircle
 10
-2.758301586877223
 20
293.4973784083767
 30
0.0
 40
6.72
100
AcDbArc
 50
270.0
 51
93.37302334104688
  0
LINE
  5
2A0B
330
1F
100
AcDbEntity
  8
想像線
100
AcDbLine
 10
-9.478301586877194
 20
286.7773784083768
 30
0.0
 11
-9.478301586877194
 21
300.2173784083768
 31
0.0
  0
LINE
  5
2A0C
330
1F
100
AcDbEntity
  8
太線
100
AcDbLine
 10
-8.358301586877246
 20
286.7773784083768
 30
0.0
 11
-8.358301586877189
 21
300.2173784083768
 31
0.0
  0
LINE
  5
2A0D
330
1F
100
AcDbEntity
  8
太線
100
AcDbLine
 10
-9.478301586877194
 20
286.7773784083768
 30
0.0
 11
-8.358301586877246
 21
286.7773784083768
 31
0.0
  0
LWPOLYLINE
  5
2A0E
330
1F
100
AcDbEntity
  8
太線
100
AcDbPolyline
 90
        6
 70
     1
 43
0.0
 10
-14.86571855351343
 20
294.6573915680346
 10
-16.1317405191948
 20
294.4464201858838
 10
-16.5820449256214
 20
293.2445273107793
 10
-15.76632736636668
 20
292.2536058178255
 10
-14.50030540068524
 20
292.4645771999762
 10
-14.05000099425865
 20
293.6664700750807
  0
CIRCLE
  5
2A0F
330
1F
100
AcDbEntity
  8
想像線
100
AcDbCircle
 10
-15.28432251871544
 20
293.5236837193411
 30
0.0
 40
0.6285670100036383
  0
ARC
  5
2A10
330
1F
100
AcDbEntity
  8
太線
 62
     0
100
AcDbCircle
 10
-3.586315626550288
 20
293.4973784083767
 30
0.0
 40
1.344
100
AcDbArc
 50
90.0
 51
270.0
  0
CIRCLE
  5
2A11
330
1F
100
AcDbEntity
  8
太線
100
AcDbCircle
 10
-7.462301586877231
 20
289.0173784083767
 30
0.0
 40
0.896
  0
CIRCLE
  5
2A12
330
1F
100
AcDbEntity
  8
太線
100
AcDbCircle
 10
-7.462301586877231
 20
297.9773784083768
 30
0.0
 40
0.896
  0
LINE
  5
2A13
330
1F
100
AcDbEntity
  8
太線
100
AcDbLine
 10
-8.358301586877189
 20
300.2173784083768
 30
0.0
 11
-9.478301586877194
 21
300.2173784083768
 31
0.0
  0
ARC
  5
2A14
330
1F
100
AcDbEntity
  8
太線
 62
     0
100
AcDbCircle
 10
0.3776984131228005
 20
293.4973784083767
 30
0.0
 40
1.344
100
AcDbArc
 50
270.0
 51
90.0
  0
LINE
  5
2A15
330
1F
100
AcDbEntity
  8
太線
100
AcDbLine
 10
-27.44463405044547
 20
367.7406862408994
 30
0.0
 11
-9.524634050445456
 21
367.7406862408994
 31
0.0
  0
LINE
  5
2A16
330
1F
100
AcDbEntity
  8
太線
100
AcDbLine
 10
-26.8954237680438
 20
381.1806862408993
 30
0.0
 11
-9.524634050445456
 21
381.1806862408993
 31
0.0
  0
LINE
  5
2A17
330
1F
100
AcDbEntity
  8
想像線
100
AcDbLine
 10
-20.72463405044544
 20
368.8606862408993
 30
0.0
 11
-20.72463405044544
 21
380.0606862408993
 31
0.0
  0
LINE
  5
2A18
330
1F
100
AcDbEntity
  8
太線
 62
     0
100
AcDbLine
 10
-21.84463405044547
 20
367.7406862408994
 30
0.0
 11
-21.84463405044547
 21
381.1806862408993
 31
0.0
  0
ARC
  5
2A19
330
1F
100
AcDbEntity
  8
太線
100
AcDbCircle
 10
-27.44463405044547
 20
374.4606862408993
 30
0.0
 40
6.72
100
AcDbArc
 50
86.62697665894983
 51
270.0
  0
CIRCLE
  5
2A1A
330
1F
100
AcDbEntity
  8
太線
100
AcDbCircle
 10
-22.74063405044546
 20
369.9806862408993
 30
0.0
 40
0.896
  0
LINE
  5
2A1B
330
1F
100
AcDbEntity
  8
想像線
100
AcDbLine
 10
-20.72463405044544
 20
367.7406862408994
 30
0.0
 11
-20.72463405044544
 21
368.8606862408993
 31
0.0
  0
LINE
  5
2A1C
330
1F
100
AcDbEntity
  8
太線
100
AcDbLine
 10
-30.54664107028202
 20
375.8046862408994
 30
0.0
 11
-26.58262703060893
 21
375.8046862408994
 31
0.0
  0
LINE
  5
2A1D
330
1F
100
AcDbEntity
  8
太線
100
AcDbLine
 10
-30.54664107028202
 20
373.1166862408993
 30
0.0
 11
-26.58262703060893
 21
373.1166862408993
 31
0.0
  0
ARC
  5
2A1E
330
1F
100
AcDbEntity
  8
太線
 62
     0
100
AcDbCircle
 10
-30.54664107028202
 20
374.4606862408993
 30
0.0
 40
1.344
100
AcDbArc
 50
90.0
 51
270.0
  0
CIRCLE
  5
2A1F
330
1F
100
AcDbEntity
  8
太線
100
AcDbCircle
 10
-22.74063405044546
 20
378.9406862408993
 30
0.0
 40
0.896
  0
ARC
  5
2A20
330
1F
100
AcDbEntity
  8
太線
 62
     0
100
AcDbCircle
 10
-26.58262703060893
 20
374.4606862408993
 30
0.0
 40
1.344
100
AcDbArc
 50
270.0
 51
90.0
  0
LINE
  5
2A21
330
1F
100
AcDbEntity
  8
想像線
100
AcDbLine
 10
-20.72463405044544
 20
380.0606862408993
 30
0.0
 11
-20.72463405044544
 21
381.1806862408993
 31
0.0
  0
ARC
  5
2A22
330
1F
100
AcDbEntity
  8
太線
100
AcDbCircle
 10
-2.804634050445486
 20
374.4606862408993
 30
0.0
 40
6.72
100
AcDbArc
 50
270.0
 51
93.37302334104688
  0
LINE
  5
2A23
330
1F
100
AcDbEntity
  8
太線
100
AcDbLine
 10
-8.404634050445508
 20
367.7406862408994
 30
0.0
 11
-2.804634050445486
 21
367.7406862408994
 31
0.0
  0
LINE
  5
2A24
330
1F
100
AcDbEntity
  8
太線
100
AcDbLine
 10
-8.404634050445451
 20
381.1806862408993
 30
0.0
 11
-3.200014418167256
 21
381.1690447856419
 31
0.0
  0
LINE
  5
2A25
330
1F
100
AcDbEntity
  8
太線
100
AcDbLine
 10
-3.63264809011855
 20
373.1166862408993
 30
0.0
 11
0.331365949554538
 21
373.1166862408993
 31
0.0
  0
LINE
  5
2A26
330
1F
100
AcDbEntity
  8
太線
100
AcDbLine
 10
-3.63264809011855
 20
375.8046862408994
 30
0.0
 11
0.331365949554538
 21
375.8046862408994
 31
0.0
  0
LINE
  5
2A27
330
1F
100
AcDbEntity
  8
太線
100
AcDbLine
 10
-8.404634050445508
 20
367.7406862408994
 30
0.0
 11
-8.404634050445451
 21
381.1806862408993
 31
0.0
  0
LINE
  5
2A28
330
1F
100
AcDbEntity
  8
想像線
100
AcDbLine
 10
-9.524634050445456
 20
367.7406862408994
 30
0.0
 11
-9.524634050445456
 21
381.1806862408993
 31
0.0
  0
CIRCLE
  5
2A29
330
1F
100
AcDbEntity
  8
太線
100
AcDbCircle
 10
-7.508634050445493
 20
369.9806862408993
 30
0.0
 40
0.896
  0
LINE
  5
2A2A
330
1F
100
AcDbEntity
  8
太線
100
AcDbLine
 10
-9.524634050445456
 20
367.7406862408994
 30
0.0
 11
-8.404634050445508
 21
367.7406862408994
 31
0.0
  0
CIRCLE
  5
2A2B
330
1F
100
AcDbEntity
  8
想像線
100
AcDbCircle
 10
-15.3306549822837
 20
374.4869915518636
 30
0.0
 40
0.6285670100036383
  0
LWPOLYLINE
  5
2A2C
330
1F
100
AcDbEntity
  8
太線
100
AcDbPolyline
 90
        6
 70
     1
 43
0.0
 10
-14.91205101708169
 20
375.6206994005572
 10
-16.17807298276306
 20
375.4097280184064
 10
-16.62837738918966
 20
374.2078351433018
 10
-15.81265982993494
 20
373.216913650348
 10
-14.54663786425351
 20
373.4278850324987
 10
-14.09633345782691
 20
374.6297779076033
  0
CIRCLE
  5
2A2D
330
1F
100
AcDbEntity
  8
太線
100
AcDbCircle
 10
-7.508634050445493
 20
378.9406862408993
 30
0.0
 40
0.896
  0
ARC
  5
2A2E
330
1F
100
AcDbEntity
  8
太線
 62
     0
100
AcDbCircle
 10
-3.63264809011855
 20
374.4606862408993
 30
0.0
 40
1.344
100
AcDbArc
 50
90.0
 51
270.0
  0
LINE
  5
2A2F
330
1F
100
AcDbEntity
  8
太線
100
AcDbLine
 10
-8.404634050445451
 20
381.1806862408993
 30
0.0
 11
-9.524634050445456
 21
381.1806862408993
 31
0.0
  0
ARC
  5
2A30
330
1F
100
AcDbEntity
  8
太線
 62
     0
100
AcDbCircle
 10
0.331365949554538
 20
374.4606862408993
 30
0.0
 40
1.344
100
AcDbArc
 50
270.0
 51
90.0
  0
LINE
  5
2A41
330
1F
100
AcDbEntity
  8
太線
100
AcDbLine
 10
50.66986979837498
 20
394.0382016869598
 30
0.0
 11
50.66986979837498
 21
255.4923711628203
 31
0.0
  0
LINE
  5
2A42
330
1F
100
AcDbEntity
  8
太線
100
AcDbLine
 10
50.66986979837498
 20
255.4923711628203
 30
0.0
 11
46.53023640675928
 21
255.4923711628203
 31
0.0
  0
LINE
  5
2A43
330
1F
100
AcDbEntity
  8
太線
100
AcDbLine
 10
46.53023640675928
 20
255.4923711628203
 30
0.0
 11
46.53023640675928
 21
394.0382016869598
 31
0.0
  0
LINE
  5
2A44
330
1F
100
AcDbEntity
  8
太線
100
AcDbLine
 10
49.44839644890362
 20
393.938585938825
 30
0.0
 11
49.44839644890362
 21
256.0504510341745
 31
0.0
  0
LINE
  5
2A4E
330
1F
100
AcDbEntity
  8
太線
100
AcDbLine
 10
-48.80594824576019
 20
365.3852546701888
 30
0.0
 11
-45.21587630447561
 21
369.9157692419487
 31
0.0
  0
LINE
  5
2A51
330
1F
100
AcDbEntity
  8
太線
100
AcDbLine
 10
-43.382109542541
 20
369.4930019375465
 30
0.0
 11
-48.21101158044325
 21
364.0656530600449
 31
0.0
  0
LINE
  5
2A52
330
1F
100
AcDbEntity
  8
太線
100
AcDbLine
 10
-48.21101158044325
 20
364.0656530600449
 30
0.0
 11
-48.81462380806897
 21
364.9702115775801
 31
0.0
  0
LINE
  5
2A54
330
1F
100
AcDbEntity
  8
太線
100
AcDbLine
 10
-251.2270172519015
 20
363.0829665387192
 30
0.0
 11
-251.6659835560144
 21
364.3986147068723
 31
0.0
  0
LINE
  5
2A55
330
1F
100
AcDbEntity
  8
太線
100
AcDbLine
 10
-251.6659835560144
 20
364.3986147068723
 30
0.0
 11
-248.1542503118453
 21
369.2226560099138
 31
0.0
  0
LINE
  5
2A58
330
1F
100
AcDbEntity
  8
太線
100
AcDbLine
 10
-247.8542181059447
 20
369.8619203026457
 30
0.0
 11
-149.749397642203
 21
370.0434231639828
 31
0.0
  0
LINE
  5
2A59
330
1F
100
AcDbEntity
  8
太線
100
AcDbLine
 10
-251.2382032734267
 20
364.2273090357247
 30
0.0
 11
-146.1385026750855
 21
365.0079765100712
 31
0.0
  0
LINE
  5
2A5A
330
1F
100
AcDbEntity
  8
太線
100
AcDbLine
 10
-250.8622050776655
 20
363.1003872278824
 30
0.0
 11
-144.9300669516643
 21
363.2960086911982
 31
0.0
  0
LINE
  5
2A5C
330
1F
100
AcDbEntity
  8
太線
100
AcDbLine
 10
-44.62745333905172
 20
370.8226237855236
 30
0.0
 11
-46.0299889912003
 21
381.5651667575579
 31
0.0
  0
LINE
  5
2A5F
330
1F
100
AcDbEntity
  8
太線
100
AcDbLine
 10
-247.5275266786004
 20
369.4214226574444
 30
0.0
 11
-249.9896550540821
 21
380.9004284989991
 31
0.0
  0
LINE
  5
2A61
330
1F
100
AcDbEntity
  8
太線
100
AcDbLine
 10
-249.6266697141564
 20
379.2081077902583
 30
0.0
 11
-156.8240175718449
 21
380.3780054227749
 31
0.0
  0
LINE
  5
2A62
330
1F
100
AcDbEntity
  8
太線
100
AcDbLine
 10
-42.70116364486603
 20
369.8933042756548
 30
0.0
 11
-44.60687148220299
 21
381.792647898043
 31
0.0
  0
LINE
  5
2A63
330
1F
100
AcDbEntity
  8
太線
100
AcDbLine
 10
-45.16727235218877
 20
383.2680205590123
 30
0.0
 11
-153.3892189877907
 21
382.0170565862587
 31
0.0
  0
CIRCLE
  5
2A65
330
1F
100
AcDbEntity
  8
太線
100
AcDbCircle
 10
-242.273398391927
 20
375.0958282437284
 30
0.0
 40
2.126832979885307
  0
CIRCLE
  5
2A66
330
1F
100
AcDbEntity
  8
太線
100
AcDbCircle
 10
-50.48694948804381
 20
376.0017575452445
 30
0.0
 40
2.126832979885307
  0
ELLIPSE
  5
2A67
330
1F
100
AcDbEntity
  8
太線
100
AcDbEllipse
 10
-226.7120140253756
 20
367.1430905725687
 30
0.0
 11
-1.813583991129348
 21
0.4529646507581334
 31
0.0
210
0.0
220
0.0
230
1.0
 40
0.8742674023793787
 41
0.0
 42
6.283185307179586
  0
ARC
  5
2A68
330
1F
100
AcDbEntity
  8
太線
100
AcDbCircle
 10
-226.1492713769758
 20
366.6924573920427
 30
0.0
 40
1.361010856187025
100
AcDbArc
 50
57.98430167883919
 51
226.2129004391163
  0
ARC
  5
2A69
330
1F
100
AcDbEntity
  8
太線
100
AcDbCircle
 10
-241.7185416111166
 20
374.8700002838205
 30
0.0
 40
1.567007919543254
100
AcDbArc
 50
76.33046426417876
 51
266.1608190984586
  0
ARC
  5
2A6A
330
1F
100
AcDbEntity
  8
太線
100
AcDbCircle
 10
-49.47801319558315
 20
375.8926808351834
 30
0.0
 40
1.891906979344765
100
AcDbArc
 50
103.8121269827948
 51
264.9935869045569
  0
ELLIPSE
  5
2A6B
330
1F
100
AcDbEntity
  8
太線
100
AcDbEllipse
 10
-244.5337204279347
 20
367.1430905725687
 30
0.0
 11
-1.813583991129348
 21
0.4529646507581334
 31
0.0
210
0.0
220
0.0
230
1.0
 40
0.8742674023793787
 41
0.0
 42
6.283185307179586
  0
ARC
  5
2A6C
330
1F
100
AcDbEntity
  8
太線
100
AcDbCircle
 10
-243.970977779535
 20
366.6924573920427
 30
0.0
 40
1.361010856187025
100
AcDbArc
 50
57.98430167883919
 51
226.2129004391163
  0
ELLIPSE
  5
2A6D
330
1F
100
AcDbEntity
  8
太線
100
AcDbEllipse
 10
-210.0041643608282
 20
367.4212899191523
 30
0.0
 11
-1.813583991129348
 21
0.4529646507581334
 31
0.0
210
0.0
220
0.0
230
1.0
 40
0.8742674023793787
 41
0.0
 42
6.283185307179586
  0
ARC
  5
2A6E
330
1F
100
AcDbEntity
  8
太線
100
AcDbCircle
 10
-209.4414217124284
 20
366.9706567386263
 30
0.0
 40
1.361010856187025
100
AcDbArc
 50
57.98430167883919
 51
226.2129004391163
  0
ELLIPSE
  5
2A6F
330
1F
100
AcDbEntity
  8
太線
100
AcDbEllipse
 10
-191.3470654047602
 20
366.864891225985
 30
0.0
 11
-1.813583991129348
 21
0.4529646507581334
 31
0.0
210
0.0
220
0.0
230
1.0
 40
0.8742674023793787
 41
0.0
 42
6.283185307179586
  0
ARC
  5
2A70
330
1F
100
AcDbEntity
  8
太線
100
AcDbCircle
 10
-190.7843227563604
 20
366.4142580454591
 30
0.0
 40
1.361010856187025
100
AcDbArc
 50
57.98430167883919
 51
226.2129004391163
  0
ELLIPSE
  5
2A71
330
1F
100
AcDbEntity
  8
太線
100
AcDbEllipse
 10
-174.6392157402127
 20
367.1430905725687
 30
0.0
 11
-1.813583991129348
 21
0.4529646507581334
 31
0.0
210
0.0
220
0.0
230
1.0
 40
0.8742674023793787
 41
0.0
 42
6.283185307179586
  0
ARC
  5
2A72
330
1F
100
AcDbEntity
  8
太線
100
AcDbCircle
 10
-174.0764730918127
 20
366.6924573920426
 30
0.0
 40
1.361010856187025
100
AcDbArc
 50
57.98430167883919
 51
226.2129004391163
  0
ELLIPSE
  5
2A73
330
1F
100
AcDbEntity
  8
太線
100
AcDbEllipse
 10
-119.4957828591324
 20
367.8648061108775
 30
0.0
 11
-1.813583991129348
 21
0.4529646507581334
 31
0.0
210
0.0
220
0.0
230
1.0
 40
0.8742674023793787
 41
0.0
 42
6.283185307179586
  0
ARC
  5
2A74
330
1F
100
AcDbEntity
  8
太線
100
AcDbCircle
 10
-118.9330402107324
 20
367.4141729303514
 30
0.0
 40
1.361010856187025
100
AcDbArc
 50
57.98430167883919
 51
226.2129004391163
  0
ELLIPSE
  5
2A75
330
1F
100
AcDbEntity
  8
太線
100
AcDbEllipse
 10
-136.2036325236798
 20
367.5866067642938
 30
0.0
 11
-1.813583991129348
 21
0.4529646507581334
 31
0.0
210
0.0
220
0.0
230
1.0
 40
0.8742674023793787
 41
0.0
 42
6.283185307179586
  0
ARC
  5
2A76
330
1F
100
AcDbEntity
  8
太線
100
AcDbCircle
 10
-135.64088987528
 20
367.1359735837679
 30
0.0
 40
1.361010856187025
100
AcDbArc
 50
57.98430167883919
 51
226.2129004391163
  0
ELLIPSE
  5
2A77
330
1F
100
AcDbEntity
  8
太線
100
AcDbEllipse
 10
-155.1015317478437
 20
366.9401454843765
 30
0.0
 11
-1.813583991129348
 21
0.4529646507581334
 31
0.0
210
0.0
220
0.0
230
1.0
 40
0.8742674023793787
 41
0.0
 42
6.283185307179586
  0
ARC
  5
2A78
330
1F
100
AcDbEntity
  8
太線
100
AcDbCircle
 10
-154.5387890994439
 20
366.4895123038505
 30
0.0
 40
1.361010856187025
100
AcDbArc
 50
57.98430167883919
 51
226.2129004391163
  0
ELLIPSE
  5
2A79
330
1F
100
AcDbEntity
  8
太線
100
AcDbEllipse
 10
-99.30665578459377
 20
367.8517999995948
 30
0.0
 11
-1.813583991129348
 21
0.4529646507581334
 31
0.0
210
0.0
220
0.0
230
1.0
 40
0.8742674023793787
 41
0.0
 42
6.283185307179586
  0
ARC
  5
2A7A
330
1F
100
AcDbEntity
  8
太線
100
AcDbCircle
 10
-98.74391313619401
 20
367.4011668190688
 30
0.0
 40
1.361010856187025
100
AcDbArc
 50
57.98430167883919
 51
226.2129004391163
  0
ELLIPSE
  5
2A7B
330
1F
100
AcDbEntity
  8
太線
100
AcDbEllipse
 10
-82.59880612004634
 20
368.1299993461784
 30
0.0
 11
-1.813583991129348
 21
0.4529646507581334
 31
0.0
210
0.0
220
0.0
230
1.0
 40
0.8742674023793787
 41
0.0
 42
6.283185307179586
  0
ARC
  5
2A7C
330
1F
100
AcDbEntity
  8
太線
100
AcDbCircle
 10
-82.03606347164635
 20
367.6793661656523
 30
0.0
 40
1.361010856187025
100
AcDbArc
 50
57.98430167883919
 51
226.2129004391163
  0
ELLIPSE
  5
2A7D
330
1F
100
AcDbEntity
  8
太線
100
AcDbEllipse
 10
-67.20294549435414
 20
367.8648053683077
 30
0.0
 11
-1.813583991129348
 21
0.4529646507581334
 31
0.0
210
0.0
220
0.0
230
1.0
 40
0.8742674023793787
 41
0.0
 42
6.283185307179586
  0
ARC
  5
2A7E
330
1F
100
AcDbEntity
  8
太線
100
AcDbCircle
 10
-66.64020284595415
 20
367.8678586164538
 30
0.0
 40
1.361010856187025
100
AcDbArc
 50
57.98430167883919
 51
226.2129004391163
  0
ELLIPSE
  5
2A7F
330
1F
100
AcDbEntity
  8
太線
100
AcDbEllipse
 10
-51.04879546151153
 20
368.4552486623302
 30
0.0
 11
-1.813583991129348
 21
0.4529646507581334
 31
0.0
210
0.0
220
0.0
230
1.0
 40
0.8742674023793787
 41
0.0
 42
6.283185307179586
  0
ARC
  5
2A80
330
1F
100
AcDbEntity
  8
太線
100
AcDbCircle
 10
-50.48605281311154
 20
368.4583019104763
 30
0.0
 40
1.361010856187025
100
AcDbArc
 50
57.98430167883919
 51
226.2129004391163
  0
ELLIPSE
  5
2A82
330
1F
100
AcDbEntity
  8
太線
100
AcDbEllipse
 10
48.41952985986143
 20
393.822811870307
 30
0.0
 11
-2.213429440997629
 21
0.0
 31
0.0
210
0.0
220
0.0
230
1.0
 40
0.2423186256311265
 41
0.0
 42
6.283185307179586
  0
ARC
  5
2A83
330
1F
100
AcDbEntity
  8
太線
100
AcDbCircle
 10
48.44186744908646
 20
389.343286180594
 30
0.0
 40
2.087543635681659
100
AcDbArc
 50
219.3285687219068
 51
304.4264812919525
  0
ARC
  5
2A84
330
1F
100
AcDbEntity
  8
太線
100
AcDbCircle
 10
48.5150366920082
 20
388.5837064809147
 30
0.0
 40
2.246923276988894
100
AcDbArc
 50
209.9273148655007
 51
310.0753730434095
  0
ARC
  5
2A87
330
1F
100
AcDbEntity
  8
太線
100
AcDbCircle
 10
48.5150366920082
 20
375.0997537141797
 30
0.0
 40
2.246923276988894
100
AcDbArc
 50
209.9273148655007
 51
310.0753730434095
  0
ARC
  5
2A88
330
1F
100
AcDbEntity
  8
太線
100
AcDbCircle
 10
48.44186744908646
 20
375.859333413859
 30
0.0
 40
2.087543635681659
100
AcDbArc
 50
219.3285687219068
 51
304.4264812919525
  0
ARC
  5
2A89
330
1F
100
AcDbEntity
  8
太線
100
AcDbCircle
 10
48.67209033442557
 20
366.6879368530487
 30
0.0
 40
2.087543635681659
100
AcDbArc
 50
219.3285687219068
 51
304.4264812919525
  0
ARC
  5
2A8A
330
1F
100
AcDbEntity
  8
太線
100
AcDbCircle
 10
48.74525957734731
 20
365.9283571533694
 30
0.0
 40
2.246923276988894
100
AcDbArc
 50
209.9273148655007
 51
310.0753730434095
  0
ARC
  5
2A8D
330
1F
100
AcDbEntity
  8
太線
100
AcDbCircle
 10
48.67209033442557
 20
353.2039840863137
 30
0.0
 40
2.087543635681659
100
AcDbArc
 50
219.3285687219068
 51
304.4264812919525
  0
ARC
  5
2A8E
330
1F
100
AcDbEntity
  8
太線
100
AcDbCircle
 10
48.74525957734731
 20
352.4444043866344
 30
0.0
 40
2.246923276988894
100
AcDbArc
 50
209.9273148655007
 51
310.0753730434095
  0
ARC
  5
2A91
330
1F
100
AcDbEntity
  8
太線
100
AcDbCircle
 10
49.08738564001712
 20
383.6553191426468
 30
0.0
 40
3.200861282906964
100
AcDbArc
 50
218.4518419376583
 51
300.32860070815
  0
ARC
  5
2A92
330
1F
100
AcDbEntity
  8
太線
100
AcDbCircle
 10
48.92339283010945
 20
382.1024932565802
 30
0.0
 40
2.887374155220751
100
AcDbArc
 50
219.9382225250073
 51
304.8867616358359
  0
LINE
  5
2A93
330
1F
100
AcDbEntity
  8
太線
100
AcDbLine
 10
48.77885304012193
 20
393.0858016203744
 30
0.0
 11
48.86137349321074
 21
255.5054886595836
 31
0.0
  0
ARC
  5
2A95
330
1F
100
AcDbEntity
  8
太線
100
AcDbCircle
 10
49.08738564001712
 20
360.8068867973601
 30
0.0
 40
3.200861282906964
100
AcDbArc
 50
218.4518419376583
 51
300.32860070815
  0
ARC
  5
2A96
330
1F
100
AcDbEntity
  8
太線
100
AcDbCircle
 10
48.92339283010945
 20
359.2540609112935
 30
0.0
 40
2.887374155220751
100
AcDbArc
 50
219.9382225250073
 51
304.8867616358359
  0
ARC
  5
2A97
330
1F
100
AcDbEntity
  8
太線
100
AcDbCircle
 10
48.5150366920082
 20
341.8290435840394
 30
0.0
 40
2.246923276988894
100
AcDbArc
 50
209.9273148655007
 51
310.0753730434095
  0
ARC
  5
2A98
330
1F
100
AcDbEntity
  8
太線
100
AcDbCircle
 10
48.44186744908646
 20
342.5886232837187
 30
0.0
 40
2.087543635681659
100
AcDbArc
 50
219.3285687219068
 51
304.4264812919525
  0
ARC
  5
2A99
330
1F
100
AcDbEntity
  8
太線
100
AcDbCircle
 10
49.08738564001712
 20
336.9006562457715
 30
0.0
 40
3.200861282906964
100
AcDbArc
 50
218.4518419376583
 51
300.32860070815
  0
ARC
  5
2A9A
330
1F
100
AcDbEntity
  8
太線
100
AcDbCircle
 10
48.92339283010945
 20
335.3478303597049
 30
0.0
 40
2.887374155220751
100
AcDbArc
 50
219.9382225250073
 51
304.8867616358359
  0
ARC
  5
2A9B
330
1F
100
AcDbEntity
  8
太線
100
AcDbCircle
 10
48.44186744908646
 20
329.1046705169837
 30
0.0
 40
2.087543635681659
100
AcDbArc
 50
219.3285687219068
 51
304.4264812919525
  0
ARC
  5
2A9C
330
1F
100
AcDbEntity
  8
太線
100
AcDbCircle
 10
48.5150366920082
 20
328.3450908173044
 30
0.0
 40
2.246923276988894
100
AcDbArc
 50
209.9273148655007
 51
310.0753730434095
  0
ARC
  5
2A9D
330
1F
100
AcDbEntity
  8
太線
100
AcDbCircle
 10
48.67209033442557
 20
319.9332739561734
 30
0.0
 40
2.087543635681659
100
AcDbArc
 50
219.3285687219068
 51
304.4264812919525
  0
ARC
  5
2A9E
330
1F
100
AcDbEntity
  8
太線
100
AcDbCircle
 10
48.74525957734731
 20
319.1736942564941
 30
0.0
 40
2.246923276988894
100
AcDbArc
 50
209.9273148655007
 51
310.0753730434095
  0
ARC
  5
2A9F
330
1F
100
AcDbEntity
  8
太線
100
AcDbCircle
 10
49.08738564001712
 20
314.0522239004848
 30
0.0
 40
3.200861282906964
100
AcDbArc
 50
218.4518419376583
 51
300.32860070815
  0
ARC
  5
2AA0
330
1F
100
AcDbEntity
  8
太線
100
AcDbCircle
 10
48.92339283010945
 20
312.4993980144182
 30
0.0
 40
2.887374155220751
100
AcDbArc
 50
219.9382225250073
 51
304.8867616358359
  0
ARC
  5
2AA1
330
1F
100
AcDbEntity
  8
太線
100
AcDbCircle
 10
48.74525957734731
 20
305.6897414897591
 30
0.0
 40
2.246923276988894
100
AcDbArc
 50
209.9273148655007
 51
310.0753730434095
  0
ARC
  5
2AA2
330
1F
100
AcDbEntity
  8
太線
100
AcDbCircle
 10
48.67209033442557
 20
306.4493211894384
 30
0.0
 40
2.087543635681659
100
AcDbArc
 50
219.3285687219068
 51
304.4264812919525
  0
ARC
  5
2AA3
330
1F
100
AcDbEntity
  8
太線
100
AcDbCircle
 10
48.44186744908646
 20
299.4475615635618
 30
0.0
 40
2.087543635681659
100
AcDbArc
 50
219.3285687219068
 51
304.4264812919525
  0
ARC
  5
2AA4
330
1F
100
AcDbEntity
  8
太線
100
AcDbCircle
 10
48.5150366920082
 20
298.6879818638825
 30
0.0
 40
2.246923276988894
100
AcDbArc
 50
209.9273148655007
 51
310.0753730434095
  0
ARC
  5
2AA5
330
1F
100
AcDbEntity
  8
太線
100
AcDbCircle
 10
49.08738564001712
 20
293.7595945256146
 30
0.0
 40
3.200861282906964
100
AcDbArc
 50
218.4518419376583
 51
300.32860070815
  0
ARC
  5
2AA6
330
1F
100
AcDbEntity
  8
太線
100
AcDbCircle
 10
48.92339283010945
 20
292.206768639548
 30
0.0
 40
2.887374155220751
100
AcDbArc
 50
219.9382225250073
 51
304.8867616358359
  0
ARC
  5
2AA7
330
1F
100
AcDbEntity
  8
太線
100
AcDbCircle
 10
48.44186744908646
 20
285.9636087968268
 30
0.0
 40
2.087543635681659
100
AcDbArc
 50
219.3285687219068
 51
304.4264812919525
  0
ARC
  5
2AA8
330
1F
100
AcDbEntity
  8
太線
100
AcDbCircle
 10
48.5150366920082
 20
285.2040290971475
 30
0.0
 40
2.246923276988894
100
AcDbArc
 50
209.9273148655007
 51
310.0753730434095
  0
ARC
  5
2AA9
330
1F
100
AcDbEntity
  8
太線
100
AcDbCircle
 10
48.67209033442557
 20
276.7922122360165
 30
0.0
 40
2.087543635681659
100
AcDbArc
 50
219.3285687219068
 51
304.4264812919525
  0
ARC
  5
2AAA
330
1F
100
AcDbEntity
  8
太線
100
AcDbCircle
 10
48.74525957734731
 20
276.0326325363372
 30
0.0
 40
2.246923276988894
100
AcDbArc
 50
209.9273148655007
 51
310.0753730434095
  0
ARC
  5
2AAB
330
1F
100
AcDbEntity
  8
太線
100
AcDbCircle
 10
49.08738564001712
 20
270.9111621803279
 30
0.0
 40
3.200861282906964
100
AcDbArc
 50
218.4518419376583
 51
300.32860070815
  0
ARC
  5
2AAC
330
1F
100
AcDbEntity
  8
太線
100
AcDbCircle
 10
48.92339283010945
 20
269.3583362942613
 30
0.0
 40
2.887374155220751
100
AcDbArc
 50
219.9382225250073
 51
304.8867616358359
  0
ARC
  5
2AAD
330
1F
100
AcDbEntity
  8
太線
100
AcDbCircle
 10
48.67209033442557
 20
263.3082594692814
 30
0.0
 40
2.087543635681659
100
AcDbArc
 50
219.3285687219068
 51
304.4264812919525
  0
ARC
  5
2AAE
330
1F
100
AcDbEntity
  8
太線
100
AcDbCircle
 10
48.74525957734731
 20
262.5486797696022
 30
0.0
 40
2.246923276988894
100
AcDbArc
 50
209.9273148655007
 51
310.0753730434095
  0
ARC
  5
2AB0
330
1F
100
AcDbEntity
  8
太線
100
AcDbCircle
 10
46.63133189891675
 20
387.6425624902129
 30
0.0
 40
0.4416928394499552
100
AcDbArc
 50
98.74352102952318
 51
261.2564789704768
  0
ARC
  5
2AB1
330
1F
100
AcDbEntity
  8
太線
100
AcDbCircle
 10
50.78379729720242
 20
380.374295902266
 30
0.0
 40
0.5962965097168773
100
AcDbArc
 50
278.4593971941045
 51
93.56992453902794
  0
ARC
  5
2AB2
330
1F
100
AcDbEntity
  8
太線
100
AcDbCircle
 10
46.71559421470696
 20
380.9348649244654
 30
0.0
 40
0.7328285415411165
100
AcDbArc
 50
99.4612369161388
 51
254.507551398713
  0
ARC
  5
2AB3
330
1F
100
AcDbEntity
  8
太線
100
AcDbCircle
 10
46.71559421470696
 20
373.9829488160099
 30
0.0
 40
0.7328285415411165
100
AcDbArc
 50
99.4612369161388
 51
254.507551398713
  0
ARC
  5
2AB4
330
1F
100
AcDbEntity
  8
太線
100
AcDbCircle
 10
46.71559421470696
 20
364.9748329737562
 30
0.0
 40
0.7328285415411165
100
AcDbArc
 50
99.4612369161388
 51
254.507551398713
  0
ARC
  5
2AB5
330
1F
100
AcDbEntity
  8
太線
100
AcDbCircle
 10
46.71559421470696
 20
357.9250030873095
 30
0.0
 40
0.7328285415411165
100
AcDbArc
 50
99.4612369161388
 51
254.507551398713
  0
ARC
  5
2AB6
330
1F
100
AcDbEntity
  8
太線
100
AcDbCircle
 10
46.71559421470696
 20
351.6584878802134
 30
0.0
 40
0.7328285415411165
100
AcDbArc
 50
99.4612369161388
 51
254.507551398713
  0
ARC
  5
2AB7
330
1F
100
AcDbEntity
  8
太線
100
AcDbCircle
 10
46.71559421470696
 20
340.7899998601443
 30
0.0
 40
0.7328285415411165
100
AcDbArc
 50
99.4612369161388
 51
254.507551398713
  0
ARC
  5
2AB8
330
1F
100
AcDbEntity
  8
太線
100
AcDbCircle
 10
46.71559421470696
 20
334.0339127928116
 30
0.0
 40
0.7328285415411165
100
AcDbArc
 50
99.4612369161388
 51
254.507551398713
  0
ARC
  5
2AB9
330
1F
100
AcDbEntity
  8
太線
100
AcDbCircle
 10
46.71559421470696
 20
327.3757402460402
 30
0.0
 40
0.7328285415411165
100
AcDbArc
 50
99.4612369161388
 51
254.507551398713
  0
ARC
  5
2ABA
330
1F
100
AcDbEntity
  8
太線
100
AcDbCircle
 10
46.71559421470696
 20
318.2697098832252
 30
0.0
 40
0.7328285415411165
100
AcDbArc
 50
99.4612369161388
 51
254.507551398713
  0
ARC
  5
2ABB
330
1F
100
AcDbEntity
  8
太線
100
AcDbCircle
 10
46.71559421470696
 20
311.1219654762171
 30
0.0
 40
0.7328285415411165
100
AcDbArc
 50
99.4612369161388
 51
254.507551398713
  0
ARC
  5
2ABC
330
1F
100
AcDbEntity
  8
太線
100
AcDbCircle
 10
46.71559421470696
 20
304.7575357485598
 30
0.0
 40
0.7328285415411165
100
AcDbArc
 50
99.4612369161388
 51
254.507551398713
  0
ARC
  5
2ABD
330
1F
100
AcDbEntity
  8
太線
100
AcDbCircle
 10
46.71559421470696
 20
297.8056203826742
 30
0.0
 40
0.7328285415411165
100
AcDbArc
 50
99.4612369161388
 51
254.507551398713
  0
ARC
  5
2ABE
330
1F
100
AcDbEntity
  8
太線
100
AcDbCircle
 10
46.71559421470696
 20
290.8537050167888
 30
0.0
 40
0.7328285415411165
100
AcDbArc
 50
99.4612369161388
 51
254.507551398713
  0
ARC
  5
2ABF
330
1F
100
AcDbEntity
  8
太線
100
AcDbCircle
 10
46.71559421470696
 20
284.1955324700173
 30
0.0
 40
0.7328285415411165
100
AcDbArc
 50
99.4612369161388
 51
254.507551398713
  0
ARC
  5
2AC0
330
1F
100
AcDbEntity
  8
太線
100
AcDbCircle
 10
46.71559421470696
 20
275.1874158851937
 30
0.0
 40
0.7328285415411165
100
AcDbArc
 50
99.4612369161388
 51
254.507551398713
  0
ARC
  5
2AC1
330
1F
100
AcDbEntity
  8
太線
100
AcDbCircle
 10
46.71559421470696
 20
268.0396714781855
 30
0.0
 40
0.7328285415411165
100
AcDbArc
 50
99.4612369161388
 51
254.507551398713
  0
ARC
  5
2AC2
330
1F
100
AcDbEntity
  8
太線
100
AcDbCircle
 10
46.71559421470696
 20
261.5773272299668
 30
0.0
 40
0.7328285415411165
100
AcDbArc
 50
99.4612369161388
 51
254.507551398713
  0
ARC
  5
2AC3
330
1F
100
AcDbEntity
  8
太線
100
AcDbCircle
 10
50.78379729720242
 20
357.5337994011858
 30
0.0
 40
0.5962965097168773
100
AcDbArc
 50
278.4593971941045
 51
93.56992453902794
  0
ARC
  5
2AC4
330
1F
100
AcDbEntity
  8
太線
100
AcDbCircle
 10
50.78379729720242
 20
333.4853919667617
 30
0.0
 40
0.5962965097168773
100
AcDbArc
 50
278.4593971941045
 51
93.56992453902794
  0
ARC
  5
2AC5
330
1F
100
AcDbEntity
  8
太線
100
AcDbCircle
 10
50.78379729720242
 20
310.4252752284764
 30
0.0
 40
0.5962965097168773
100
AcDbArc
 50
278.4593971941045
 51
93.56992453902794
  0
ARC
  5
2AC6
330
1F
100
AcDbEntity
  8
太線
100
AcDbCircle
 10
50.78379729720242
 20
290.4398403259254
 30
0.0
 40
0.5962965097168773
100
AcDbArc
 50
278.4593971941045
 51
93.56992453902794
  0
ARC
  5
2AC7
330
1F
100
AcDbEntity
  8
太線
100
AcDbCircle
 10
50.78379729720242
 20
267.3797235876401
 30
0.0
 40
0.5962965097168773
100
AcDbArc
 50
278.4593971941045
 51
93.56992453902794
  0
ELLIPSE
  5
2AC8
330
1F
100
AcDbEntity
  8
太線
100
AcDbEllipse
 10
-51.04879546151153
 20
283.6104820770928
 30
0.0
 11
-1.813583991129348
 21
0.4529646507581334
 31
0.0
210
0.0
220
0.0
230
1.0
 40
0.8742674023793787
 41
0.0
 42
6.283185307179586
  0
ELLIPSE
  5
2AC9
330
1F
100
AcDbEntity
  8
太線
100
AcDbEllipse
 10
-67.20294549435414
 20
283.0200387830703
 30
0.0
 11
-1.813583991129348
 21
0.4529646507581334
 31
0.0
210
0.0
220
0.0
230
1.0
 40
0.8742674023793787
 41
0.0
 42
6.283185307179586
  0
ELLIPSE
  5
2ACA
330
1F
100
AcDbEntity
  8
太線
100
AcDbEllipse
 10
-82.59880612004634
 20
283.285232760941
 30
0.0
 11
-1.813583991129348
 21
0.4529646507581334
 31
0.0
210
0.0
220
0.0
230
1.0
 40
0.8742674023793787
 41
0.0
 42
6.283185307179586
  0
ELLIPSE
  5
2ACB
330
1F
100
AcDbEntity
  8
太線
100
AcDbEllipse
 10
-99.30665578459377
 20
283.0070334143574
 30
0.0
 11
-1.813583991129348
 21
0.4529646507581334
 31
0.0
210
0.0
220
0.0
230
1.0
 40
0.8742674023793787
 41
0.0
 42
6.283185307179586
  0
ELLIPSE
  5
2ACC
330
1F
100
AcDbEntity
  8
太線
100
AcDbEllipse
 10
-155.1015317478437
 20
282.0953788991391
 30
0.0
 11
-1.813583991129348
 21
0.4529646507581334
 31
0.0
210
0.0
220
0.0
230
1.0
 40
0.8742674023793787
 41
0.0
 42
6.283185307179586
  0
ELLIPSE
  5
2ACD
330
1F
100
AcDbEntity
  8
太線
100
AcDbEllipse
 10
-136.2036325236798
 20
282.7418401790565
 30
0.0
 11
-1.813583991129348
 21
0.4529646507581334
 31
0.0
210
0.0
220
0.0
230
1.0
 40
0.8742674023793787
 41
0.0
 42
6.283185307179586
  0
ELLIPSE
  5
2ACE
330
1F
100
AcDbEntity
  8
太線
100
AcDbEllipse
 10
-119.4957828591324
 20
283.0200395256401
 30
0.0
 11
-1.813583991129348
 21
0.4529646507581334
 31
0.0
210
0.0
220
0.0
230
1.0
 40
0.8742674023793787
 41
0.0
 42
6.283185307179586
  0
ELLIPSE
  5
2ACF
330
1F
100
AcDbEntity
  8
太線
100
AcDbEllipse
 10
-174.6392157402127
 20
282.2983239873313
 30
0.0
 11
-1.813583991129348
 21
0.4529646507581334
 31
0.0
210
0.0
220
0.0
230
1.0
 40
0.8742674023793787
 41
0.0
 42
6.283185307179586
  0
ELLIPSE
  5
2AD0
330
1F
100
AcDbEntity
  8
太線
100
AcDbEllipse
 10
-191.3470654047602
 20
282.0201246407477
 30
0.0
 11
-1.813583991129348
 21
0.4529646507581334
 31
0.0
210
0.0
220
0.0
230
1.0
 40
0.8742674023793787
 41
0.0
 42
6.283185307179586
  0
ELLIPSE
  5
2AD1
330
1F
100
AcDbEntity
  8
太線
100
AcDbEllipse
 10
-210.0041643608282
 20
282.5765233339149
 30
0.0
 11
-1.813583991129348
 21
0.4529646507581334
 31
0.0
210
0.0
220
0.0
230
1.0
 40
0.8742674023793787
 41
0.0
 42
6.283185307179586
  0
ELLIPSE
  5
2AD2
330
1F
100
AcDbEntity
  8
太線
100
AcDbEllipse
 10
-244.5337204279347
 20
282.2983239873313
 30
0.0
 11
-1.813583991129348
 21
0.4529646507581334
 31
0.0
210
0.0
220
0.0
230
1.0
 40
0.8742674023793787
 41
0.0
 42
6.283185307179586
  0
ELLIPSE
  5
2AD3
330
1F
100
AcDbEntity
  8
太線
100
AcDbEllipse
 10
-226.7120140253756
 20
282.2983239873313
 30
0.0
 11
-1.813583991129348
 21
0.4529646507581334
 31
0.0
210
0.0
220
0.0
230
1.0
 40
0.8742674023793787
 41
0.0
 42
6.283185307179586
  0
LINE
  5
2AD4
330
1F
100
AcDbEntity
  8
太線
100
AcDbLine
 10
-249.6266697141564
 20
294.3633412050209
 30
0.0
 11
-167.8099128469762
 21
295.3947473981577
 31
0.0
  0
LINE
  5
2AD5
330
1F
100
AcDbEntity
  8
太線
100
AcDbLine
 10
-45.16727235218877
 20
298.423253973775
 30
0.0
 11
-163.5385507180445
 21
297.0549713911018
 31
0.0
  0
CIRCLE
  5
2AD6
330
1F
100
AcDbEntity
  8
太線
100
AcDbCircle
 10
-50.48694948804381
 20
291.1569909600071
 30
0.0
 40
2.126832979885307
  0
LINE
  5
2AD7
330
1F
100
AcDbEntity
  8
太線
100
AcDbLine
 10
-250.8622050776655
 20
278.255620642645
 30
0.0
 11
-161.5688005999659
 21
278.4205158931081
 31
0.0
  0
LINE
  5
2AD8
330
1F
100
AcDbEntity
  8
太線
100
AcDbLine
 10
-251.2382032734267
 20
279.3825424504873
 30
0.0
 11
-162.416344098284
 21
280.0423001479332
 31
0.0
  0
LINE
  5
2AD9
330
1F
100
AcDbEntity
  8
太線
100
AcDbLine
 10
-247.8542181059447
 20
285.0171537174083
 30
0.0
 11
-164.8185883937796
 21
285.1707772021102
 31
0.0
  0
LINE
  5
2ADA
330
1F
100
AcDbEntity
  8
太線
100
AcDbLine
 10
-247.5275266786004
 20
284.576656072207
 30
0.0
 11
-249.9896550540821
 21
296.0556619137618
 31
0.0
  0
LINE
  5
2ADB
330
1F
100
AcDbEntity
  8
太線
100
AcDbLine
 10
-251.6659835560144
 20
279.5538481216349
 30
0.0
 11
-248.1542503118453
 21
284.3778894246764
 31
0.0
  0
LINE
  5
2ADC
330
1F
100
AcDbEntity
  8
太線
100
AcDbLine
 10
-251.2270172519015
 20
278.2381999534818
 30
0.0
 11
-251.6659835560144
 21
279.5538481216349
 31
0.0
  0
CIRCLE
  5
2ADD
330
1F
100
AcDbEntity
  8
太線
100
AcDbCircle
 10
-242.273398391927
 20
290.251061658491
 30
0.0
 40
2.126832979885307
  0
ARC
  5
2ADE
330
1F
100
AcDbEntity
  8
太線
100
AcDbCircle
 10
-241.7185416111166
 20
290.0252336985831
 30
0.0
 40
1.567007919543254
100
AcDbArc
 50
76.33046426417876
 51
266.1608190984586
  0
ARC
  5
2ADF
330
1F
100
AcDbEntity
  8
太線
100
AcDbCircle
 10
-243.970977779535
 20
281.8476908068053
 30
0.0
 40
1.361010856187025
100
AcDbArc
 50
57.98430167883919
 51
226.2129004391163
  0
ARC
  5
2AE0
330
1F
100
AcDbEntity
  8
太線
100
AcDbCircle
 10
-226.1492713769758
 20
281.8476908068053
 30
0.0
 40
1.361010856187025
100
AcDbArc
 50
57.98430167883919
 51
226.2129004391163
  0
ARC
  5
2AE1
330
1F
100
AcDbEntity
  8
太線
100
AcDbCircle
 10
-209.4414217124284
 20
282.1258901533889
 30
0.0
 40
1.361010856187025
100
AcDbArc
 50
57.98430167883919
 51
226.2129004391163
  0
ARC
  5
2AE2
330
1F
100
AcDbEntity
  8
太線
100
AcDbCircle
 10
-190.7843227563604
 20
281.5694914602217
 30
0.0
 40
1.361010856187025
100
AcDbArc
 50
57.98430167883919
 51
226.2129004391163
  0
ARC
  5
2AE3
330
1F
100
AcDbEntity
  8
太線
100
AcDbCircle
 10
-174.0764730918127
 20
281.8476908068052
 30
0.0
 40
1.361010856187025
100
AcDbArc
 50
57.98430167883919
 51
226.2129004391163
  0
ARC
  5
2AE4
330
1F
100
AcDbEntity
  8
太線
100
AcDbCircle
 10
-154.5387890994439
 20
281.6447457186131
 30
0.0
 40
1.361010856187025
100
AcDbArc
 50
57.98430167883919
 51
226.2129004391163
  0
ARC
  5
2AE5
330
1F
100
AcDbEntity
  8
太線
100
AcDbCircle
 10
-135.64088987528
 20
282.2912069985305
 30
0.0
 40
1.361010856187025
100
AcDbArc
 50
57.98430167883919
 51
226.2129004391163
  0
ARC
  5
2AE6
330
1F
100
AcDbEntity
  8
太線
100
AcDbCircle
 10
-118.9330402107324
 20
282.569406345114
 30
0.0
 40
1.361010856187025
100
AcDbArc
 50
57.98430167883919
 51
226.2129004391163
  0
ARC
  5
2AE7
330
1F
100
AcDbEntity
  8
太線
100
AcDbCircle
 10
-98.74391313619401
 20
282.5564002338314
 30
0.0
 40
1.361010856187025
100
AcDbArc
 50
57.98430167883919
 51
226.2129004391163
  0
ARC
  5
2AE8
330
1F
100
AcDbEntity
  8
太線
100
AcDbCircle
 10
-82.03606347164635
 20
282.8345995804149
 30
0.0
 40
1.361010856187025
100
AcDbArc
 50
57.98430167883919
 51
226.2129004391163
  0
ARC
  5
2AE9
330
1F
100
AcDbEntity
  8
太線
100
AcDbCircle
 10
-66.64020284595415
 20
283.0230920312164
 30
0.0
 40
1.361010856187025
100
AcDbArc
 50
57.98430167883919
 51
226.2129004391163
  0
LINE
  5
2AEA
330
1F
100
AcDbEntity
  8
太線
100
AcDbLine
 10
-42.70116364486603
 20
285.0485376904174
 30
0.0
 11
-44.60687148220299
 21
296.9478813128056
 31
0.0
  0
ARC
  5
2AEB
330
1F
100
AcDbEntity
  8
太線
100
AcDbCircle
 10
-49.47801319558315
 20
291.047914249946
 30
0.0
 40
1.891906979344765
100
AcDbArc
 50
103.8121269827948
 51
264.9935869045569
  0
LINE
  5
2AEC
330
1F
100
AcDbEntity
  8
太線
100
AcDbLine
 10
-44.62745333905172
 20
285.9778572002862
 30
0.0
 11
-46.0299889912003
 21
296.7204001723205
 31
0.0
  0
LINE
  5
2AED
330
1F
100
AcDbEntity
  8
太線
100
AcDbLine
 10
-43.382109542541
 20
284.6482353523091
 30
0.0
 11
-48.21101158044325
 21
279.2208864748075
 31
0.0
  0
ARC
  5
2AEE
330
1F
100
AcDbEntity
  8
太線
100
AcDbCircle
 10
-50.48605281311154
 20
283.6135353252389
 30
0.0
 40
1.361010856187025
100
AcDbArc
 50
57.98430167883919
 51
226.2129004391163
  0
LINE
  5
2AEF
330
1F
100
AcDbEntity
  8
太線
100
AcDbLine
 10
-48.80594824576019
 20
280.5404880849514
 30
0.0
 11
-45.21587630447561
 21
285.0710026567113
 31
0.0
  0
LINE
  5
2AF0
330
1F
100
AcDbEntity
  8
太線
100
AcDbLine
 10
-48.21101158044325
 20
279.2208864748075
 30
0.0
 11
-48.81462380806897
 21
280.1254449923427
 31
0.0
  0
SPLINE
  5
2AF1
330
1F
100
AcDbEntity
  8
太線
100
AcDbSpline
210
0.0
220
0.0
230
1.0
 70
     8
 71
     3
 72
    10
 73
     6
 74
     0
 42
0.0000000001
 43
0.0000000001
 40
0.0
 40
0.0
 40
0.0
 40
0.0
 40
50.0888422287337
 40
90.25998532048047
 40
155.2701511891594
 40
155.2701511891594
 40
155.2701511891594
 40
155.2701511891594
 10
-150.5929205907898
 20
260.434514043023
 30
0.0
 10
-161.9558432477974
 20
277.9912846865209
 30
0.0
 10
-182.4318052901165
 20
309.628547399056
 30
0.0
 10
-109.9788834140945
 20
337.1180455552805
 30
0.0
 10
-158.3239089785112
 20
374.2028973740746
 30
0.0
 10
-163.6349915057554
 20
394.8940895638928
 30
0.0
  0
SPLINE
  5
2AF4
330
1F
100
AcDbEntity
  8
太線
100
AcDbSpline
210
0.0
220
0.0
230
1.0
 70
     8
 71
     3
 72
    10
 73
     6
 74
     0
 42
0.0000000001
 43
0.0000000001
 40
17.30124130547456
 40
17.30124130547456
 40
17.30124130547456
 40
17.30124130547456
 40
50.0888422287337
 40
90.25998532048047
 40
155.1613873073873
 40
155.1613873073873
 40
155.1613873073873
 40
155.1613873073873
 10
-157.1293979389263
 20
278.4287139948378
 30
0.0
 10
-163.0620060686794
 20
289.544606673259
 30
0.0
 10
-169.9148364726519
 20
312.6916115960364
 30
0.0
 10
-105.5858568742155
 20
337.0987896680121
 30
0.0
 10
-153.7802512722299
 20
374.1262211240323
 30
0.0
 10
-159.1643502199139
 20
394.7902199977664
 30
0.0
  0
LINE
  5
2AF5
330
1F
100
AcDbEntity
  8
太線
100
AcDbLine
 10
-152.415156429648
 20
380.433584828032
 30
0.0
 11
-44.60687148220299
 21
381.792647898043
 31
0.0
  0
LINE
  5
2AF6
330
1F
100
AcDbEntity
  8
太線
100
AcDbLine
 10
-157.8022700748286
 20
381.9660450484752
 30
0.0
 11
-249.9896550540821
 21
380.9004284989991
 31
0.0
  0
LINE
  5
2AF7
330
1F
100
AcDbEntity
  8
太線
100
AcDbLine
 10
-145.311511862561
 20
370.0516336572438
 30
0.0
 11
-44.81511508518997
 21
370.2375611527831
 31
0.0
  0
LINE
  5
2AF8
330
1F
100
AcDbEntity
  8
太線
100
AcDbLine
 10
-141.7180635271984
 20
365.0408109810111
 30
0.0
 11
-48.95109804982621
 21
365.7298724362742
 31
0.0
  0
LINE
  5
2AF9
330
1F
100
AcDbEntity
  8
太線
100
AcDbLine
 10
-140.4920280904595
 20
363.3042042744428
 30
0.0
 11
-47.4471038611498
 21
363.4760273354499
 31
0.0
  0
LINE
  5
2AFA
330
1F
100
AcDbEntity
  8
太線
100
AcDbLine
 10
-167.978638974771
 20
297.0036473240554
 30
0.0
 11
-249.9896550540821
 21
296.0556619137618
 31
0.0
  0
LINE
  5
2AFB
330
1F
100
AcDbEntity
  8
太線
100
AcDbLine
 10
-163.3736684847577
 20
295.4506720043712
 30
0.0
 11
-44.60687148220299
 21
296.9478813128056
 31
0.0
  0
LINE
  5
2AFC
330
1F
100
AcDbEntity
  8
太線
100
AcDbLine
 10
-160.3782687920158
 20
285.1789921981639
 30
0.0
 11
-44.81511508518997
 21
285.3927945675458
 31
0.0
  0
LINE
  5
2AFD
330
1F
100
AcDbEntity
  8
太線
100
AcDbLine
 10
-157.9893599483105
 20
280.0751832343327
 30
0.0
 11
-48.95109804982621
 21
280.8851058510368
 31
0.0
  0
LINE
  5
2AFE
330
1F
100
AcDbEntity
  8
太線
100
AcDbLine
 10
-157.1293979389262
 20
278.4287139948378
 30
0.0
 11
-47.4471038611498
 21
278.6312607502126
 31
0.0
  0
LINE
  5
2AFF
330
1F
100
AcDbEntity
  8
太線
100
AcDbLine
 10
-157.1293979389263
 20
278.4287139948378
 30
0.0
 11
-146.3488487222548
 21
260.6179688998226
 31
0.0
  0
ELLIPSE
  5
2B05
330
1F
100
AcDbEntity
  8
太線
100
AcDbEllipse
 10
86.89430350943609
 20
393.822811870307
 30
0.0
 11
-2.213429440997629
 21
0.0
 31
0.0
210
0.0
220
0.0
230
1.0
 40
0.2423186256311265
 41
0.0
 42
6.283185307179586
  0
LINE
  5
2B06
330
1F
100
AcDbEntity
  8
太線
100
AcDbLine
 10
87.2536266896966
 20
393.0858016203744
 30
0.0
 11
87.33614714278543
 21
255.5054886595836
 31
0.0
  0
LINE
  5
2B07
330
1F
100
AcDbEntity
  8
太線
100
AcDbLine
 10
87.92317009847829
 20
393.938585938825
 30
0.0
 11
87.92317009847829
 21
256.0504510341745
 31
0.0
  0
LINE
  5
2B08
330
1F
100
AcDbEntity
  8
太線
100
AcDbLine
 10
85.00501005633395
 20
255.4923711628203
 30
0.0
 11
85.00501005633395
 21
394.0382016869598
 31
0.0
  0
LINE
  5
2B09
330
1F
100
AcDbEntity
  8
太線
100
AcDbLine
 10
89.14464344794964
 20
394.0382016869598
 30
0.0
 11
89.14464344794964
 21
255.4923711628203
 31
0.0
  0
ARC
  5
2B0A
330
1F
100
AcDbEntity
  8
太線
100
AcDbCircle
 10
87.22003322692199
 20
276.0326325363372
 30
0.0
 40
2.246923276988894
100
AcDbArc
 50
209.9273148655007
 51
310.0753730434095
  0
ARC
  5
2B0B
330
1F
100
AcDbEntity
  8
太線
100
AcDbCircle
 10
87.22003322692199
 20
262.5486797696022
 30
0.0
 40
2.246923276988894
100
AcDbArc
 50
209.9273148655007
 51
310.0753730434095
  0
ARC
  5
2B0C
330
1F
100
AcDbEntity
  8
太線
100
AcDbCircle
 10
87.14686398400024
 20
263.3082594692814
 30
0.0
 40
2.087543635681659
100
AcDbArc
 50
219.3285687219068
 51
304.4264812919525
  0
ARC
  5
2B0D
330
1F
100
AcDbEntity
  8
太線
100
AcDbCircle
 10
87.39816647968412
 20
269.3583362942613
 30
0.0
 40
2.887374155220751
100
AcDbArc
 50
219.9382225250073
 51
304.8867616358359
  0
ARC
  5
2B0E
330
1F
100
AcDbEntity
  8
太線
100
AcDbCircle
 10
87.56215928959178
 20
270.9111621803279
 30
0.0
 40
3.200861282906964
100
AcDbArc
 50
218.4518419376583
 51
300.32860070815
  0
LINE
  5
2B0F
330
1F
100
AcDbEntity
  8
太線
100
AcDbLine
 10
89.14464344794964
 20
255.4923711628203
 30
0.0
 11
85.00501005633395
 21
255.4923711628203
 31
0.0
  0
ARC
  5
2B10
330
1F
100
AcDbEntity
  8
太線
100
AcDbCircle
 10
85.19036786428165
 20
261.5773272299668
 30
0.0
 40
0.7328285415411165
100
AcDbArc
 50
99.4612369161388
 51
254.507551398713
  0
ARC
  5
2B11
330
1F
100
AcDbEntity
  8
太線
100
AcDbCircle
 10
85.19036786428165
 20
268.0396714781855
 30
0.0
 40
0.7328285415411165
100
AcDbArc
 50
99.4612369161388
 51
254.507551398713
  0
ARC
  5
2B12
330
1F
100
AcDbEntity
  8
太線
100
AcDbCircle
 10
89.25857094677709
 20
267.3797235876401
 30
0.0
 40
0.5962965097168773
100
AcDbArc
 50
278.4593971941045
 51
93.56992453902794
  0
ARC
  5
2B13
330
1F
100
AcDbEntity
  8
太線
100
AcDbCircle
 10
87.14686398400024
 20
276.7922122360165
 30
0.0
 40
2.087543635681659
100
AcDbArc
 50
219.3285687219068
 51
304.4264812919525
  0
ARC
  5
2B14
330
1F
100
AcDbEntity
  8
太線
100
AcDbCircle
 10
86.98981034158286
 20
285.2040290971475
 30
0.0
 40
2.246923276988894
100
AcDbArc
 50
209.9273148655007
 51
310.0753730434095
  0
ARC
  5
2B15
330
1F
100
AcDbEntity
  8
太線
100
AcDbCircle
 10
86.91664109866113
 20
285.9636087968268
 30
0.0
 40
2.087543635681659
100
AcDbArc
 50
219.3285687219068
 51
304.4264812919525
  0
ARC
  5
2B16
330
1F
100
AcDbEntity
  8
太線
100
AcDbCircle
 10
87.39816647968412
 20
292.206768639548
 30
0.0
 40
2.887374155220751
100
AcDbArc
 50
219.9382225250073
 51
304.8867616358359
  0
ARC
  5
2B17
330
1F
100
AcDbEntity
  8
太線
100
AcDbCircle
 10
87.56215928959178
 20
293.7595945256146
 30
0.0
 40
3.200861282906964
100
AcDbArc
 50
218.4518419376583
 51
300.32860070815
  0
ARC
  5
2B18
330
1F
100
AcDbEntity
  8
太線
100
AcDbCircle
 10
86.98981034158286
 20
298.6879818638825
 30
0.0
 40
2.246923276988894
100
AcDbArc
 50
209.9273148655007
 51
310.0753730434095
  0
ARC
  5
2B19
330
1F
100
AcDbEntity
  8
太線
100
AcDbCircle
 10
86.91664109866113
 20
299.4475615635618
 30
0.0
 40
2.087543635681659
100
AcDbArc
 50
219.3285687219068
 51
304.4264812919525
  0
ARC
  5
2B1A
330
1F
100
AcDbEntity
  8
太線
100
AcDbCircle
 10
85.19036786428165
 20
275.1874158851937
 30
0.0
 40
0.7328285415411165
100
AcDbArc
 50
99.4612369161388
 51
254.507551398713
  0
ARC
  5
2B1B
330
1F
100
AcDbEntity
  8
太線
100
AcDbCircle
 10
85.19036786428165
 20
284.1955324700173
 30
0.0
 40
0.7328285415411165
100
AcDbArc
 50
99.4612369161388
 51
254.507551398713
  0
ARC
  5
2B1C
330
1F
100
AcDbEntity
  8
太線
100
AcDbCircle
 10
85.19036786428165
 20
290.8537050167888
 30
0.0
 40
0.7328285415411165
100
AcDbArc
 50
99.4612369161388
 51
254.507551398713
  0
ARC
  5
2B1D
330
1F
100
AcDbEntity
  8
太線
100
AcDbCircle
 10
85.19036786428165
 20
297.8056203826742
 30
0.0
 40
0.7328285415411165
100
AcDbArc
 50
99.4612369161388
 51
254.507551398713
  0
ARC
  5
2B1E
330
1F
100
AcDbEntity
  8
太線
100
AcDbCircle
 10
89.25857094677709
 20
290.4398403259254
 30
0.0
 40
0.5962965097168773
100
AcDbArc
 50
278.4593971941045
 51
93.56992453902794
  0
ARC
  5
2B1F
330
1F
100
AcDbEntity
  8
太線
100
AcDbCircle
 10
87.39816647968412
 20
335.3478303597049
 30
0.0
 40
2.887374155220751
100
AcDbArc
 50
219.9382225250073
 51
304.8867616358359
  0
ARC
  5
2B20
330
1F
100
AcDbEntity
  8
太線
100
AcDbCircle
 10
87.14686398400024
 20
306.4493211894384
 30
0.0
 40
2.087543635681659
100
AcDbArc
 50
219.3285687219068
 51
304.4264812919525
  0
ARC
  5
2B21
330
1F
100
AcDbEntity
  8
太線
100
AcDbCircle
 10
87.22003322692199
 20
305.6897414897591
 30
0.0
 40
2.246923276988894
100
AcDbArc
 50
209.9273148655007
 51
310.0753730434095
  0
ARC
  5
2B22
330
1F
100
AcDbEntity
  8
太線
100
AcDbCircle
 10
87.39816647968412
 20
312.4993980144182
 30
0.0
 40
2.887374155220751
100
AcDbArc
 50
219.9382225250073
 51
304.8867616358359
  0
ARC
  5
2B23
330
1F
100
AcDbEntity
  8
太線
100
AcDbCircle
 10
87.56215928959178
 20
314.0522239004848
 30
0.0
 40
3.200861282906964
100
AcDbArc
 50
218.4518419376583
 51
300.32860070815
  0
ARC
  5
2B24
330
1F
100
AcDbEntity
  8
太線
100
AcDbCircle
 10
87.22003322692199
 20
319.1736942564941
 30
0.0
 40
2.246923276988894
100
AcDbArc
 50
209.9273148655007
 51
310.0753730434095
  0
ARC
  5
2B25
330
1F
100
AcDbEntity
  8
太線
100
AcDbCircle
 10
87.14686398400024
 20
319.9332739561734
 30
0.0
 40
2.087543635681659
100
AcDbArc
 50
219.3285687219068
 51
304.4264812919525
  0
ARC
  5
2B26
330
1F
100
AcDbEntity
  8
太線
100
AcDbCircle
 10
86.98981034158286
 20
328.3450908173044
 30
0.0
 40
2.246923276988894
100
AcDbArc
 50
209.9273148655007
 51
310.0753730434095
  0
ARC
  5
2B27
330
1F
100
AcDbEntity
  8
太線
100
AcDbCircle
 10
86.91664109866113
 20
329.1046705169837
 30
0.0
 40
2.087543635681659
100
AcDbArc
 50
219.3285687219068
 51
304.4264812919525
  0
ARC
  5
2B28
330
1F
100
AcDbEntity
  8
太線
100
AcDbCircle
 10
85.19036786428165
 20
318.2697098832252
 30
0.0
 40
0.7328285415411165
100
AcDbArc
 50
99.4612369161388
 51
254.507551398713
  0
ARC
  5
2B29
330
1F
100
AcDbEntity
  8
太線
100
AcDbCircle
 10
85.19036786428165
 20
304.7575357485598
 30
0.0
 40
0.7328285415411165
100
AcDbArc
 50
99.4612369161388
 51
254.507551398713
  0
ARC
  5
2B2A
330
1F
100
AcDbEntity
  8
太線
100
AcDbCircle
 10
85.19036786428165
 20
311.1219654762171
 30
0.0
 40
0.7328285415411165
100
AcDbArc
 50
99.4612369161388
 51
254.507551398713
  0
ARC
  5
2B2B
330
1F
100
AcDbEntity
  8
太線
100
AcDbCircle
 10
85.19036786428165
 20
327.3757402460402
 30
0.0
 40
0.7328285415411165
100
AcDbArc
 50
99.4612369161388
 51
254.507551398713
  0
ARC
  5
2B2C
330
1F
100
AcDbEntity
  8
太線
100
AcDbCircle
 10
89.25857094677709
 20
310.4252752284764
 30
0.0
 40
0.5962965097168773
100
AcDbArc
 50
278.4593971941045
 51
93.56992453902794
  0
ARC
  5
2B2D
330
1F
100
AcDbEntity
  8
太線
100
AcDbCircle
 10
87.56215928959178
 20
336.9006562457715
 30
0.0
 40
3.200861282906964
100
AcDbArc
 50
218.4518419376583
 51
300.32860070815
  0
ARC
  5
2B2E
330
1F
100
AcDbEntity
  8
太線
100
AcDbCircle
 10
86.91664109866113
 20
342.5886232837187
 30
0.0
 40
2.087543635681659
100
AcDbArc
 50
219.3285687219068
 51
304.4264812919525
  0
ARC
  5
2B2F
330
1F
100
AcDbEntity
  8
太線
100
AcDbCircle
 10
86.98981034158286
 20
341.8290435840394
 30
0.0
 40
2.246923276988894
100
AcDbArc
 50
209.9273148655007
 51
310.0753730434095
  0
ARC
  5
2B30
330
1F
100
AcDbEntity
  8
太線
100
AcDbCircle
 10
87.39816647968412
 20
359.2540609112935
 30
0.0
 40
2.887374155220751
100
AcDbArc
 50
219.9382225250073
 51
304.8867616358359
  0
ARC
  5
2B31
330
1F
100
AcDbEntity
  8
太線
100
AcDbCircle
 10
87.56215928959178
 20
360.8068867973601
 30
0.0
 40
3.200861282906964
100
AcDbArc
 50
218.4518419376583
 51
300.32860070815
  0
ARC
  5
2B32
330
1F
100
AcDbEntity
  8
太線
100
AcDbCircle
 10
87.22003322692199
 20
352.4444043866344
 30
0.0
 40
2.246923276988894
100
AcDbArc
 50
209.9273148655007
 51
310.0753730434095
  0
ARC
  5
2B33
330
1F
100
AcDbEntity
  8
太線
100
AcDbCircle
 10
87.14686398400024
 20
353.2039840863137
 30
0.0
 40
2.087543635681659
100
AcDbArc
 50
219.3285687219068
 51
304.4264812919525
  0
ARC
  5
2B34
330
1F
100
AcDbEntity
  8
太線
100
AcDbCircle
 10
85.19036786428165
 20
334.0339127928116
 30
0.0
 40
0.7328285415411165
100
AcDbArc
 50
99.4612369161388
 51
254.507551398713
  0
ARC
  5
2B35
330
1F
100
AcDbEntity
  8
太線
100
AcDbCircle
 10
85.19036786428165
 20
340.7899998601443
 30
0.0
 40
0.7328285415411165
100
AcDbArc
 50
99.4612369161388
 51
254.507551398713
  0
ARC
  5
2B36
330
1F
100
AcDbEntity
  8
太線
100
AcDbCircle
 10
85.19036786428165
 20
351.6584878802134
 30
0.0
 40
0.7328285415411165
100
AcDbArc
 50
99.4612369161388
 51
254.507551398713
  0
ARC
  5
2B37
330
1F
100
AcDbEntity
  8
太線
100
AcDbCircle
 10
85.19036786428165
 20
357.9250030873095
 30
0.0
 40
0.7328285415411165
100
AcDbArc
 50
99.4612369161388
 51
254.507551398713
  0
ARC
  5
2B38
330
1F
100
AcDbEntity
  8
太線
100
AcDbCircle
 10
89.25857094677709
 20
333.4853919667617
 30
0.0
 40
0.5962965097168773
100
AcDbArc
 50
278.4593971941045
 51
93.56992453902794
  0
ARC
  5
2B39
330
1F
100
AcDbEntity
  8
太線
100
AcDbCircle
 10
89.25857094677709
 20
357.5337994011858
 30
0.0
 40
0.5962965097168773
100
AcDbArc
 50
278.4593971941045
 51
93.56992453902794
  0
ARC
  5
2B3A
330
1F
100
AcDbEntity
  8
太線
100
AcDbCircle
 10
87.39816647968412
 20
382.1024932565802
 30
0.0
 40
2.887374155220751
100
AcDbArc
 50
219.9382225250073
 51
304.8867616358359
  0
ARC
  5
2B3B
330
1F
100
AcDbEntity
  8
太線
100
AcDbCircle
 10
87.56215928959178
 20
383.6553191426468
 30
0.0
 40
3.200861282906964
100
AcDbArc
 50
218.4518419376583
 51
300.32860070815
  0
ARC
  5
2B3C
330
1F
100
AcDbEntity
  8
太線
100
AcDbCircle
 10
87.22003322692199
 20
365.9283571533694
 30
0.0
 40
2.246923276988894
100
AcDbArc
 50
209.9273148655007
 51
310.0753730434095
  0
ARC
  5
2B3D
330
1F
100
AcDbEntity
  8
太線
100
AcDbCircle
 10
87.14686398400024
 20
366.6879368530487
 30
0.0
 40
2.087543635681659
100
AcDbArc
 50
219.3285687219068
 51
304.4264812919525
  0
ARC
  5
2B3E
330
1F
100
AcDbEntity
  8
太線
100
AcDbCircle
 10
86.91664109866113
 20
375.859333413859
 30
0.0
 40
2.087543635681659
100
AcDbArc
 50
219.3285687219068
 51
304.4264812919525
  0
ARC
  5
2B3F
330
1F
100
AcDbEntity
  8
太線
100
AcDbCircle
 10
86.98981034158286
 20
375.0997537141797
 30
0.0
 40
2.246923276988894
100
AcDbArc
 50
209.9273148655007
 51
310.0753730434095
  0
ARC
  5
2B40
330
1F
100
AcDbEntity
  8
太線
100
AcDbCircle
 10
86.98981034158286
 20
388.5837064809147
 30
0.0
 40
2.246923276988894
100
AcDbArc
 50
209.9273148655007
 51
310.0753730434095
  0
ARC
  5
2B41
330
1F
100
AcDbEntity
  8
太線
100
AcDbCircle
 10
86.91664109866113
 20
389.343286180594
 30
0.0
 40
2.087543635681659
100
AcDbArc
 50
219.3285687219068
 51
304.4264812919525
  0
ARC
  5
2B42
330
1F
100
AcDbEntity
  8
太線
100
AcDbCircle
 10
85.19036786428165
 20
364.9748329737562
 30
0.0
 40
0.7328285415411165
100
AcDbArc
 50
99.4612369161388
 51
254.507551398713
  0
ARC
  5
2B43
330
1F
100
AcDbEntity
  8
太線
100
AcDbCircle
 10
85.19036786428165
 20
373.9829488160099
 30
0.0
 40
0.7328285415411165
100
AcDbArc
 50
99.4612369161388
 51
254.507551398713
  0
ARC
  5
2B44
330
1F
100
AcDbEntity
  8
太線
100
AcDbCircle
 10
85.19036786428165
 20
380.9348649244654
 30
0.0
 40
0.7328285415411165
100
AcDbArc
 50
99.4612369161388
 51
254.507551398713
  0
ARC
  5
2B45
330
1F
100
AcDbEntity
  8
太線
100
AcDbCircle
 10
85.10610554849142
 20
387.6425624902129
 30
0.0
 40
0.4416928394499552
100
AcDbArc
 50
98.74352102952318
 51
261.2564789704768
  0
ARC
  5
2B46
330
1F
100
AcDbEntity
  8
太線
100
AcDbCircle
 10
89.25857094677709
 20
380.374295902266
 30
0.0
 40
0.5962965097168773
100
AcDbArc
 50
278.4593971941045
 51
93.56992453902794
  0
ELLIPSE
  5
2B47
330
1F
100
AcDbEntity
  8
太線
100
AcDbEllipse
 10
79.07911605627544
 20
396.2251976777574
 30
0.0
 11
-2.213429440997629
 21
0.0
 31
0.0
210
0.0
220
0.0
230
1.0
 40
0.2423186256311265
 41
0.0
 42
6.283185307179586
  0
LINE
  5
2B48
330
1F
100
AcDbEntity
  8
太線
100
AcDbLine
 10
81.32945599478899
 20
396.4405874944102
 30
0.0
 11
81.32945599478899
 21
257.8947569702707
 31
0.0
  0
LINE
  5
2B49
330
1F
100
AcDbEntity
  8
太線
100
AcDbLine
 10
77.18982260317329
 20
257.8947569702707
 30
0.0
 11
77.18982260317329
 21
396.4405874944102
 31
0.0
  0
LINE
  5
2B4A
330
1F
100
AcDbEntity
  8
太線
100
AcDbLine
 10
80.10798264531763
 20
396.3409717462754
 30
0.0
 11
80.10798264531763
 21
258.4528368416249
 31
0.0
  0
LINE
  5
2B4B
330
1F
100
AcDbEntity
  8
太線
100
AcDbLine
 10
79.43843923653594
 20
395.4881874278248
 30
0.0
 11
79.52095968962476
 21
257.907874467034
 31
0.0
  0
ARC
  5
2B4C
330
1F
100
AcDbEntity
  8
太線
100
AcDbCircle
 10
79.40484577376132
 20
278.4350183437876
 30
0.0
 40
2.246923276988894
100
AcDbArc
 50
209.9273148655007
 51
310.0753730434095
  0
LINE
  5
2B4D
330
1F
100
AcDbEntity
  8
太線
100
AcDbLine
 10
81.32945599478899
 20
257.8947569702707
 30
0.0
 11
77.18982260317329
 21
257.8947569702707
 31
0.0
  0
ARC
  5
2B4E
330
1F
100
AcDbEntity
  8
太線
100
AcDbCircle
 10
79.58297902652346
 20
271.7607221017117
 30
0.0
 40
2.887374155220751
100
AcDbArc
 50
219.9382225250073
 51
304.8867616358359
  0
ARC
  5
2B4F
330
1F
100
AcDbEntity
  8
太線
100
AcDbCircle
 10
79.33167653083959
 20
265.7106452767318
 30
0.0
 40
2.087543635681659
100
AcDbArc
 50
219.3285687219068
 51
304.4264812919525
  0
ARC
  5
2B50
330
1F
100
AcDbEntity
  8
太線
100
AcDbCircle
 10
79.40484577376132
 20
264.9510655770526
 30
0.0
 40
2.246923276988894
100
AcDbArc
 50
209.9273148655007
 51
310.0753730434095
  0
ARC
  5
2B51
330
1F
100
AcDbEntity
  8
太線
100
AcDbCircle
 10
77.37518041112098
 20
263.9797130374172
 30
0.0
 40
0.7328285415411165
100
AcDbArc
 50
99.4612369161388
 51
254.507551398713
  0
ARC
  5
2B52
330
1F
100
AcDbEntity
  8
太線
100
AcDbCircle
 10
79.74697183643113
 20
273.3135479877783
 30
0.0
 40
3.200861282906964
100
AcDbArc
 50
218.4518419376583
 51
300.32860070815
  0
ARC
  5
2B53
330
1F
100
AcDbEntity
  8
太線
100
AcDbCircle
 10
77.37518041112098
 20
270.4420572856359
 30
0.0
 40
0.7328285415411165
100
AcDbArc
 50
99.4612369161388
 51
254.507551398713
  0
ARC
  5
2B54
330
1F
100
AcDbEntity
  8
太線
100
AcDbCircle
 10
81.44338349361644
 20
269.7821093950905
 30
0.0
 40
0.5962965097168773
100
AcDbArc
 50
278.4593971941045
 51
93.56992453902794
  0
ARC
  5
2B55
330
1F
100
AcDbEntity
  8
太線
100
AcDbCircle
 10
79.33167653083959
 20
279.1945980434669
 30
0.0
 40
2.087543635681659
100
AcDbArc
 50
219.3285687219068
 51
304.4264812919525
  0
ARC
  5
2B56
330
1F
100
AcDbEntity
  8
太線
100
AcDbCircle
 10
77.37518041112098
 20
277.5898016926441
 30
0.0
 40
0.7328285415411165
100
AcDbArc
 50
99.4612369161388
 51
254.507551398713
  0
ARC
  5
2B57
330
1F
100
AcDbEntity
  8
太線
100
AcDbCircle
 10
79.10145364550047
 20
288.3659946042772
 30
0.0
 40
2.087543635681659
100
AcDbArc
 50
219.3285687219068
 51
304.4264812919525
  0
ARC
  5
2B58
330
1F
100
AcDbEntity
  8
太線
100
AcDbCircle
 10
79.1746228884222
 20
287.6064149045979
 30
0.0
 40
2.246923276988894
100
AcDbArc
 50
209.9273148655007
 51
310.0753730434095
  0
ARC
  5
2B59
330
1F
100
AcDbEntity
  8
太線
100
AcDbCircle
 10
77.37518041112098
 20
286.5979182774677
 30
0.0
 40
0.7328285415411165
100
AcDbArc
 50
99.4612369161388
 51
254.507551398713
  0
ARC
  5
2B5A
330
1F
100
AcDbEntity
  8
太線
100
AcDbCircle
 10
79.74697183643113
 20
296.161980333065
 30
0.0
 40
3.200861282906964
100
AcDbArc
 50
218.4518419376583
 51
300.32860070815
  0
ARC
  5
2B5B
330
1F
100
AcDbEntity
  8
太線
100
AcDbCircle
 10
79.58297902652346
 20
294.6091544469984
 30
0.0
 40
2.887374155220751
100
AcDbArc
 50
219.9382225250073
 51
304.8867616358359
  0
ARC
  5
2B5C
330
1F
100
AcDbEntity
  8
太線
100
AcDbCircle
 10
77.37518041112098
 20
293.2560908242392
 30
0.0
 40
0.7328285415411165
100
AcDbArc
 50
99.4612369161388
 51
254.507551398713
  0
ARC
  5
2B5D
330
1F
100
AcDbEntity
  8
太線
100
AcDbCircle
 10
81.44338349361644
 20
292.8422261333757
 30
0.0
 40
0.5962965097168773
100
AcDbArc
 50
278.4593971941045
 51
93.56992453902794
  0
ARC
  5
2B5E
330
1F
100
AcDbEntity
  8
太線
100
AcDbCircle
 10
79.10145364550047
 20
301.8499473710122
 30
0.0
 40
2.087543635681659
100
AcDbArc
 50
219.3285687219068
 51
304.4264812919525
  0
ARC
  5
2B5F
330
1F
100
AcDbEntity
  8
太線
100
AcDbCircle
 10
79.1746228884222
 20
301.0903676713329
 30
0.0
 40
2.246923276988894
100
AcDbArc
 50
209.9273148655007
 51
310.0753730434095
  0
ARC
  5
2B60
330
1F
100
AcDbEntity
  8
太線
100
AcDbCircle
 10
77.37518041112098
 20
300.2080061901247
 30
0.0
 40
0.7328285415411165
100
AcDbArc
 50
99.4612369161388
 51
254.507551398713
  0
ARC
  5
2B61
330
1F
100
AcDbEntity
  8
太線
100
AcDbCircle
 10
79.58297902652346
 20
337.7502161671553
 30
0.0
 40
2.887374155220751
100
AcDbArc
 50
219.9382225250073
 51
304.8867616358359
  0
ARC
  5
2B62
330
1F
100
AcDbEntity
  8
太線
100
AcDbCircle
 10
77.37518041112098
 20
320.6720956906756
 30
0.0
 40
0.7328285415411165
100
AcDbArc
 50
99.4612369161388
 51
254.507551398713
  0
ARC
  5
2B63
330
1F
100
AcDbEntity
  8
太線
100
AcDbCircle
 10
79.40484577376132
 20
321.5760800639445
 30
0.0
 40
2.246923276988894
100
AcDbArc
 50
209.9273148655007
 51
310.0753730434095
  0
ARC
  5
2B64
330
1F
100
AcDbEntity
  8
太線
100
AcDbCircle
 10
81.44338349361644
 20
312.8276610359268
 30
0.0
 40
0.5962965097168773
100
AcDbArc
 50
278.4593971941045
 51
93.56992453902794
  0
ARC
  5
2B65
330
1F
100
AcDbEntity
  8
太線
100
AcDbCircle
 10
79.58297902652346
 20
314.9017838218686
 30
0.0
 40
2.887374155220751
100
AcDbArc
 50
219.9382225250073
 51
304.8867616358359
  0
ARC
  5
2B66
330
1F
100
AcDbEntity
  8
太線
100
AcDbCircle
 10
79.40484577376132
 20
308.0921272972095
 30
0.0
 40
2.246923276988894
100
AcDbArc
 50
209.9273148655007
 51
310.0753730434095
  0
ARC
  5
2B67
330
1F
100
AcDbEntity
  8
太線
100
AcDbCircle
 10
79.33167653083959
 20
308.8517069968888
 30
0.0
 40
2.087543635681659
100
AcDbArc
 50
219.3285687219068
 51
304.4264812919525
  0
ARC
  5
2B68
330
1F
100
AcDbEntity
  8
太線
100
AcDbCircle
 10
77.37518041112098
 20
307.1599215560102
 30
0.0
 40
0.7328285415411165
100
AcDbArc
 50
99.4612369161388
 51
254.507551398713
  0
ARC
  5
2B69
330
1F
100
AcDbEntity
  8
太線
100
AcDbCircle
 10
79.74697183643113
 20
316.4546097079352
 30
0.0
 40
3.200861282906964
100
AcDbArc
 50
218.4518419376583
 51
300.32860070815
  0
ARC
  5
2B6A
330
1F
100
AcDbEntity
  8
太線
100
AcDbCircle
 10
77.37518041112098
 20
313.5243512836675
 30
0.0
 40
0.7328285415411165
100
AcDbArc
 50
99.4612369161388
 51
254.507551398713
  0
ARC
  5
2B6B
330
1F
100
AcDbEntity
  8
太線
100
AcDbCircle
 10
79.33167653083959
 20
322.3356597636238
 30
0.0
 40
2.087543635681659
100
AcDbArc
 50
219.3285687219068
 51
304.4264812919525
  0
ARC
  5
2B6C
330
1F
100
AcDbEntity
  8
太線
100
AcDbCircle
 10
79.10145364550047
 20
331.5070563244341
 30
0.0
 40
2.087543635681659
100
AcDbArc
 50
219.3285687219068
 51
304.4264812919525
  0
ARC
  5
2B6D
330
1F
100
AcDbEntity
  8
太線
100
AcDbCircle
 10
79.1746228884222
 20
330.7474766247548
 30
0.0
 40
2.246923276988894
100
AcDbArc
 50
209.9273148655007
 51
310.0753730434095
  0
ARC
  5
2B6E
330
1F
100
AcDbEntity
  8
太線
100
AcDbCircle
 10
77.37518041112098
 20
329.7781260534906
 30
0.0
 40
0.7328285415411165
100
AcDbArc
 50
99.4612369161388
 51
254.507551398713
  0
ARC
  5
2B6F
330
1F
100
AcDbEntity
  8
太線
100
AcDbCircle
 10
79.1746228884222
 20
344.2314293914898
 30
0.0
 40
2.246923276988894
100
AcDbArc
 50
209.9273148655007
 51
310.0753730434095
  0
ARC
  5
2B70
330
1F
100
AcDbEntity
  8
太線
100
AcDbCircle
 10
79.74697183643113
 20
339.3030420532219
 30
0.0
 40
3.200861282906964
100
AcDbArc
 50
218.4518419376583
 51
300.32860070815
  0
ARC
  5
2B71
330
1F
100
AcDbEntity
  8
太線
100
AcDbCircle
 10
77.37518041112098
 20
336.436298600262
 30
0.0
 40
0.7328285415411165
100
AcDbArc
 50
99.4612369161388
 51
254.507551398713
  0
ARC
  5
2B72
330
1F
100
AcDbEntity
  8
太線
100
AcDbCircle
 10
81.44338349361644
 20
335.8877777742121
 30
0.0
 40
0.5962965097168773
100
AcDbArc
 50
278.4593971941045
 51
93.56992453902794
  0
ARC
  5
2B73
330
1F
100
AcDbEntity
  8
太線
100
AcDbCircle
 10
79.10145364550047
 20
344.9910090911691
 30
0.0
 40
2.087543635681659
100
AcDbArc
 50
219.3285687219068
 51
304.4264812919525
  0
ARC
  5
2B74
330
1F
100
AcDbEntity
  8
太線
100
AcDbCircle
 10
77.37518041112098
 20
343.1923856675947
 30
0.0
 40
0.7328285415411165
100
AcDbArc
 50
99.4612369161388
 51
254.507551398713
  0
ARC
  5
2B75
330
1F
100
AcDbEntity
  8
太線
100
AcDbCircle
 10
79.33167653083959
 20
355.6063698937641
 30
0.0
 40
2.087543635681659
100
AcDbArc
 50
219.3285687219068
 51
304.4264812919525
  0
ARC
  5
2B76
330
1F
100
AcDbEntity
  8
太線
100
AcDbCircle
 10
79.40484577376132
 20
354.8467901940848
 30
0.0
 40
2.246923276988894
100
AcDbArc
 50
209.9273148655007
 51
310.0753730434095
  0
ARC
  5
2B77
330
1F
100
AcDbEntity
  8
太線
100
AcDbCircle
 10
77.37518041112098
 20
354.0608736876638
 30
0.0
 40
0.7328285415411165
100
AcDbArc
 50
99.4612369161388
 51
254.507551398713
  0
ARC
  5
2B78
330
1F
100
AcDbEntity
  8
太線
100
AcDbCircle
 10
79.74697183643113
 20
363.2092726048105
 30
0.0
 40
3.200861282906964
100
AcDbArc
 50
218.4518419376583
 51
300.32860070815
  0
ARC
  5
2B79
330
1F
100
AcDbEntity
  8
太線
100
AcDbCircle
 10
79.58297902652346
 20
361.6564467187439
 30
0.0
 40
2.887374155220751
100
AcDbArc
 50
219.9382225250073
 51
304.8867616358359
  0
ARC
  5
2B7A
330
1F
100
AcDbEntity
  8
太線
100
AcDbCircle
 10
77.37518041112098
 20
360.3273888947599
 30
0.0
 40
0.7328285415411165
100
AcDbArc
 50
99.4612369161388
 51
254.507551398713
  0
ARC
  5
2B7B
330
1F
100
AcDbEntity
  8
太線
100
AcDbCircle
 10
81.44338349361644
 20
359.9361852086362
 30
0.0
 40
0.5962965097168773
100
AcDbArc
 50
278.4593971941045
 51
93.56992453902794
  0
ARC
  5
2B7C
330
1F
100
AcDbEntity
  8
太線
100
AcDbCircle
 10
79.33167653083959
 20
369.0903226604991
 30
0.0
 40
2.087543635681659
100
AcDbArc
 50
219.3285687219068
 51
304.4264812919525
  0
ARC
  5
2B7D
330
1F
100
AcDbEntity
  8
太線
100
AcDbCircle
 10
79.40484577376132
 20
368.3307429608198
 30
0.0
 40
2.246923276988894
100
AcDbArc
 50
209.9273148655007
 51
310.0753730434095
  0
ARC
  5
2B7E
330
1F
100
AcDbEntity
  8
太線
100
AcDbCircle
 10
77.37518041112098
 20
367.3772187812066
 30
0.0
 40
0.7328285415411165
100
AcDbArc
 50
99.4612369161388
 51
254.507551398713
  0
ARC
  5
2B7F
330
1F
100
AcDbEntity
  8
太線
100
AcDbCircle
 10
79.1746228884222
 20
377.5021395216301
 30
0.0
 40
2.246923276988894
100
AcDbArc
 50
209.9273148655007
 51
310.0753730434095
  0
ARC
  5
2B80
330
1F
100
AcDbEntity
  8
太線
100
AcDbCircle
 10
79.10145364550047
 20
378.2617192213094
 30
0.0
 40
2.087543635681659
100
AcDbArc
 50
219.3285687219068
 51
304.4264812919525
  0
ARC
  5
2B81
330
1F
100
AcDbEntity
  8
太線
100
AcDbCircle
 10
77.37518041112098
 20
376.3853346234603
 30
0.0
 40
0.7328285415411165
100
AcDbArc
 50
99.4612369161388
 51
254.507551398713
  0
ARC
  5
2B82
330
1F
100
AcDbEntity
  8
太線
100
AcDbCircle
 10
79.74697183643113
 20
386.0577049500972
 30
0.0
 40
3.200861282906964
100
AcDbArc
 50
218.4518419376583
 51
300.32860070815
  0
ARC
  5
2B83
330
1F
100
AcDbEntity
  8
太線
100
AcDbCircle
 10
79.58297902652346
 20
384.5048790640306
 30
0.0
 40
2.887374155220751
100
AcDbArc
 50
219.9382225250073
 51
304.8867616358359
  0
ARC
  5
2B84
330
1F
100
AcDbEntity
  8
太線
100
AcDbCircle
 10
77.37518041112098
 20
383.3372507319158
 30
0.0
 40
0.7328285415411165
100
AcDbArc
 50
99.4612369161388
 51
254.507551398713
  0
ARC
  5
2B85
330
1F
100
AcDbEntity
  8
太線
100
AcDbCircle
 10
81.44338349361644
 20
382.7766817097164
 30
0.0
 40
0.5962965097168773
100
AcDbArc
 50
278.4593971941045
 51
93.56992453902794
  0
ARC
  5
2B86
330
1F
100
AcDbEntity
  8
太線
100
AcDbCircle
 10
79.10145364550047
 20
391.7456719880444
 30
0.0
 40
2.087543635681659
100
AcDbArc
 50
219.3285687219068
 51
304.4264812919525
  0
ARC
  5
2B87
330
1F
100
AcDbEntity
  8
太線
100
AcDbCircle
 10
79.1746228884222
 20
390.9860922883651
 30
0.0
 40
2.246923276988894
100
AcDbArc
 50
209.9273148655007
 51
310.0753730434095
  0
ARC
  5
2B88
330
1F
100
AcDbEntity
  8
太線
100
AcDbCircle
 10
77.29091809533077
 20
390.0449482976633
 30
0.0
 40
0.4416928394499552
100
AcDbArc
 50
98.74352102952318
 51
261.2564789704768
  0
ELLIPSE
  5
2B89
330
1F
100
AcDbEntity
  8
太線
100
AcDbEllipse
 10
95.31066160698685
 20
399.8287771315028
 30
0.0
 11
-2.213429440997629
 21
0.0
 31
0.0
210
0.0
220
0.0
230
1.0
 40
0.2423186256311265
 41
0.0
 42
6.283185307179586
  0
ELLIPSE
  5
2B8A
330
1F
100
AcDbEntity
  8
太線
100
AcDbEllipse
 10
103.1258490601475
 20
397.4263913240524
 30
0.0
 11
-2.213429440997629
 21
0.0
 31
0.0
210
0.0
220
0.0
230
1.0
 40
0.2423186256311265
 41
0.0
 42
6.283185307179586
  0
LINE
  5
2B8B
330
1F
100
AcDbEntity
  8
太線
100
AcDbLine
 10
95.66998478724736
 20
399.0917668815702
 30
0.0
 11
95.75250524033618
 21
261.5114539207794
 31
0.0
  0
LINE
  5
2B8C
330
1F
100
AcDbEntity
  8
太線
100
AcDbLine
 10
96.33952819602905
 20
399.9445512000209
 30
0.0
 11
96.33952819602905
 21
262.0564162953703
 31
0.0
  0
LINE
  5
2B8D
330
1F
100
AcDbEntity
  8
太線
100
AcDbLine
 10
93.42136815388471
 20
261.4983364240162
 30
0.0
 11
93.42136815388471
 21
400.0441669481556
 31
0.0
  0
LINE
  5
2B8E
330
1F
100
AcDbEntity
  8
太線
100
AcDbLine
 10
97.5610015455004
 20
400.0441669481556
 30
0.0
 11
97.5610015455004
 21
261.4983364240162
 31
0.0
  0
LINE
  5
2B8F
330
1F
100
AcDbEntity
  8
太線
100
AcDbLine
 10
105.376188998661
 20
397.6417811407052
 30
0.0
 11
105.376188998661
 21
259.0959506165658
 31
0.0
  0
LINE
  5
2B90
330
1F
100
AcDbEntity
  8
太線
100
AcDbLine
 10
101.2365556070453
 20
259.0959506165658
 30
0.0
 11
101.2365556070453
 21
397.6417811407052
 31
0.0
  0
LINE
  5
2B91
330
1F
100
AcDbEntity
  8
太線
100
AcDbLine
 10
104.1547156491897
 20
397.5421653925705
 30
0.0
 11
104.1547156491897
 21
259.6540304879199
 31
0.0
  0
LINE
  5
2B92
330
1F
100
AcDbEntity
  8
太線
100
AcDbLine
 10
103.485172240408
 20
396.6893810741198
 30
0.0
 11
103.5676926934968
 21
259.109068113329
 31
0.0
  0
ARC
  5
2B93
330
1F
100
AcDbEntity
  8
太線
100
AcDbCircle
 10
103.4515787776334
 20
279.6362119900826
 30
0.0
 40
2.246923276988894
100
AcDbArc
 50
209.9273148655007
 51
310.0753730434095
  0
ARC
  5
2B94
330
1F
100
AcDbEntity
  8
太線
100
AcDbCircle
 10
97.67492904432785
 20
273.3856888488359
 30
0.0
 40
0.5962965097168773
100
AcDbArc
 50
278.4593971941045
 51
93.56992453902794
  0
LINE
  5
2B95
330
1F
100
AcDbEntity
  8
太線
100
AcDbLine
 10
97.5610015455004
 20
261.4983364240162
 30
0.0
 11
93.42136815388471
 21
261.4983364240162
 31
0.0
  0
ARC
  5
2B96
330
1F
100
AcDbEntity
  8
太線
100
AcDbCircle
 10
95.63639132447274
 20
268.554645030798
 30
0.0
 40
2.246923276988894
100
AcDbArc
 50
209.9273148655007
 51
310.0753730434095
  0
ARC
  5
2B97
330
1F
100
AcDbEntity
  8
太線
100
AcDbCircle
 10
95.563222081551
 20
269.3142247304773
 30
0.0
 40
2.087543635681659
100
AcDbArc
 50
219.3285687219068
 51
304.4264812919525
  0
ARC
  5
2B98
330
1F
100
AcDbEntity
  8
太線
100
AcDbCircle
 10
93.6067259618324
 20
267.5832924911626
 30
0.0
 40
0.7328285415411165
100
AcDbArc
 50
99.4612369161388
 51
254.507551398713
  0
ARC
  5
2B99
330
1F
100
AcDbEntity
  8
太線
100
AcDbCircle
 10
95.97851738714254
 20
276.9171274415236
 30
0.0
 40
3.200861282906964
100
AcDbArc
 50
218.4518419376583
 51
300.32860070815
  0
ARC
  5
2B9A
330
1F
100
AcDbEntity
  8
太線
100
AcDbCircle
 10
95.81452457723488
 20
275.3643015554571
 30
0.0
 40
2.887374155220751
100
AcDbArc
 50
219.9382225250073
 51
304.8867616358359
  0
ARC
  5
2B9B
330
1F
100
AcDbEntity
  8
太線
100
AcDbCircle
 10
93.6067259618324
 20
274.0456367393814
 30
0.0
 40
0.7328285415411165
100
AcDbArc
 50
99.4612369161388
 51
254.507551398713
  0
LINE
  5
2B9C
330
1F
100
AcDbEntity
  8
太線
100
AcDbLine
 10
105.376188998661
 20
259.0959506165658
 30
0.0
 11
101.2365556070453
 21
259.0959506165658
 31
0.0
  0
ARC
  5
2B9D
330
1F
100
AcDbEntity
  8
太線
100
AcDbCircle
 10
103.6297120303955
 20
272.9619157480067
 30
0.0
 40
2.887374155220751
100
AcDbArc
 50
219.9382225250073
 51
304.8867616358359
  0
ARC
  5
2B9E
330
1F
100
AcDbEntity
  8
太線
100
AcDbCircle
 10
103.3784095347116
 20
266.9118389230269
 30
0.0
 40
2.087543635681659
100
AcDbArc
 50
219.3285687219068
 51
304.4264812919525
  0
ARC
  5
2B9F
330
1F
100
AcDbEntity
  8
太線
100
AcDbCircle
 10
103.4515787776334
 20
266.1522592233476
 30
0.0
 40
2.246923276988894
100
AcDbArc
 50
209.9273148655007
 51
310.0753730434095
  0
ARC
  5
2BA0
330
1F
100
AcDbEntity
  8
太線
100
AcDbCircle
 10
101.421913414993
 20
265.1809066837122
 30
0.0
 40
0.7328285415411165
100
AcDbArc
 50
99.4612369161388
 51
254.507551398713
  0
ARC
  5
2BA1
330
1F
100
AcDbEntity
  8
太線
100
AcDbCircle
 10
103.7937048403032
 20
274.5147416340732
 30
0.0
 40
3.200861282906964
100
AcDbArc
 50
218.4518419376583
 51
300.32860070815
  0
ARC
  5
2BA2
330
1F
100
AcDbEntity
  8
太線
100
AcDbCircle
 10
101.421913414993
 20
271.643250931931
 30
0.0
 40
0.7328285415411165
100
AcDbArc
 50
99.4612369161388
 51
254.507551398713
  0
ARC
  5
2BA3
330
1F
100
AcDbEntity
  8
太線
100
AcDbCircle
 10
105.4901164974885
 20
270.9833030413855
 30
0.0
 40
0.5962965097168773
100
AcDbArc
 50
278.4593971941045
 51
93.56992453902794
  0
ARC
  5
2BA4
330
1F
100
AcDbEntity
  8
太線
100
AcDbCircle
 10
97.67492904432785
 20
296.4458055871211
 30
0.0
 40
0.5962965097168773
100
AcDbArc
 50
278.4593971941045
 51
93.56992453902794
  0
ARC
  5
2BA5
330
1F
100
AcDbEntity
  8
太線
100
AcDbCircle
 10
95.563222081551
 20
282.7981774972122
 30
0.0
 40
2.087543635681659
100
AcDbArc
 50
219.3285687219068
 51
304.4264812919525
  0
ARC
  5
2BA6
330
1F
100
AcDbEntity
  8
太線
100
AcDbCircle
 10
95.63639132447274
 20
282.038597797533
 30
0.0
 40
2.246923276988894
100
AcDbArc
 50
209.9273148655007
 51
310.0753730434095
  0
ARC
  5
2BA7
330
1F
100
AcDbEntity
  8
太線
100
AcDbCircle
 10
93.6067259618324
 20
281.1933811463895
 30
0.0
 40
0.7328285415411165
100
AcDbArc
 50
99.4612369161388
 51
254.507551398713
  0
ARC
  5
2BA8
330
1F
100
AcDbEntity
  8
太線
100
AcDbCircle
 10
95.40616843913362
 20
291.2099943583433
 30
0.0
 40
2.246923276988894
100
AcDbArc
 50
209.9273148655007
 51
310.0753730434095
  0
ARC
  5
2BA9
330
1F
100
AcDbEntity
  8
太線
100
AcDbCircle
 10
95.33299919621189
 20
291.9695740580225
 30
0.0
 40
2.087543635681659
100
AcDbArc
 50
219.3285687219068
 51
304.4264812919525
  0
ARC
  5
2BAA
330
1F
100
AcDbEntity
  8
太線
100
AcDbCircle
 10
93.6067259618324
 20
290.2014977312131
 30
0.0
 40
0.7328285415411165
100
AcDbArc
 50
99.4612369161388
 51
254.507551398713
  0
ARC
  5
2BAB
330
1F
100
AcDbEntity
  8
太線
100
AcDbCircle
 10
95.81452457723488
 20
298.2127339007438
 30
0.0
 40
2.887374155220751
100
AcDbArc
 50
219.9382225250073
 51
304.8867616358359
  0
ARC
  5
2BAC
330
1F
100
AcDbEntity
  8
太線
100
AcDbCircle
 10
95.97851738714254
 20
299.7655597868103
 30
0.0
 40
3.200861282906964
100
AcDbArc
 50
218.4518419376583
 51
300.32860070815
  0
ARC
  5
2BAD
330
1F
100
AcDbEntity
  8
太線
100
AcDbCircle
 10
93.6067259618324
 20
296.8596702779846
 30
0.0
 40
0.7328285415411165
100
AcDbArc
 50
99.4612369161388
 51
254.507551398713
  0
ARC
  5
2BAE
330
1F
100
AcDbEntity
  8
太線
100
AcDbCircle
 10
95.40616843913362
 20
304.6939471250783
 30
0.0
 40
2.246923276988894
100
AcDbArc
 50
209.9273148655007
 51
310.0753730434095
  0
ARC
  5
2BAF
330
1F
100
AcDbEntity
  8
太線
100
AcDbCircle
 10
95.33299919621189
 20
305.4535268247576
 30
0.0
 40
2.087543635681659
100
AcDbArc
 50
219.3285687219068
 51
304.4264812919525
  0
ARC
  5
2BB0
330
1F
100
AcDbEntity
  8
太線
100
AcDbCircle
 10
93.6067259618324
 20
303.8115856438701
 30
0.0
 40
0.7328285415411165
100
AcDbArc
 50
99.4612369161388
 51
254.507551398713
  0
ARC
  5
2BB1
330
1F
100
AcDbEntity
  8
太線
100
AcDbCircle
 10
103.3784095347116
 20
280.3957916897619
 30
0.0
 40
2.087543635681659
100
AcDbArc
 50
219.3285687219068
 51
304.4264812919525
  0
ARC
  5
2BB2
330
1F
100
AcDbEntity
  8
太線
100
AcDbCircle
 10
101.421913414993
 20
278.7909953389391
 30
0.0
 40
0.7328285415411165
100
AcDbArc
 50
99.4612369161388
 51
254.507551398713
  0
ARC
  5
2BB3
330
1F
100
AcDbEntity
  8
太線
100
AcDbCircle
 10
103.1481866493725
 20
289.5671882505721
 30
0.0
 40
2.087543635681659
100
AcDbArc
 50
219.3285687219068
 51
304.4264812919525
  0
ARC
  5
2BB4
330
1F
100
AcDbEntity
  8
太線
100
AcDbCircle
 10
103.2213558922942
 20
288.8076085508929
 30
0.0
 40
2.246923276988894
100
AcDbArc
 50
209.9273148655007
 51
310.0753730434095
  0
ARC
  5
2BB5
330
1F
100
AcDbEntity
  8
太線
100
AcDbCircle
 10
101.421913414993
 20
287.7991119237627
 30
0.0
 40
0.7328285415411165
100
AcDbArc
 50
99.4612369161388
 51
254.507551398713
  0
ARC
  5
2BB6
330
1F
100
AcDbEntity
  8
太線
100
AcDbCircle
 10
103.7937048403032
 20
297.3631739793599
 30
0.0
 40
3.200861282906964
100
AcDbArc
 50
218.4518419376583
 51
300.32860070815
  0
ARC
  5
2BB7
330
1F
100
AcDbEntity
  8
太線
100
AcDbCircle
 10
103.6297120303955
 20
295.8103480932934
 30
0.0
 40
2.887374155220751
100
AcDbArc
 50
219.9382225250073
 51
304.8867616358359
  0
ARC
  5
2BB8
330
1F
100
AcDbEntity
  8
太線
100
AcDbCircle
 10
101.421913414993
 20
294.4572844705342
 30
0.0
 40
0.7328285415411165
100
AcDbArc
 50
99.4612369161388
 51
254.507551398713
  0
ARC
  5
2BB9
330
1F
100
AcDbEntity
  8
太線
100
AcDbCircle
 10
105.4901164974885
 20
294.0434197796708
 30
0.0
 40
0.5962965097168773
100
AcDbArc
 50
278.4593971941045
 51
93.56992453902794
  0
ARC
  5
2BBA
330
1F
100
AcDbEntity
  8
太線
100
AcDbCircle
 10
103.1481866493725
 20
303.0511410173072
 30
0.0
 40
2.087543635681659
100
AcDbArc
 50
219.3285687219068
 51
304.4264812919525
  0
ARC
  5
2BBB
330
1F
100
AcDbEntity
  8
太線
100
AcDbCircle
 10
103.2213558922942
 20
302.2915613176279
 30
0.0
 40
2.246923276988894
100
AcDbArc
 50
209.9273148655007
 51
310.0753730434095
  0
ARC
  5
2BBC
330
1F
100
AcDbEntity
  8
太線
100
AcDbCircle
 10
101.421913414993
 20
301.4091998364197
 30
0.0
 40
0.7328285415411165
100
AcDbArc
 50
99.4612369161388
 51
254.507551398713
  0
ARC
  5
2BBD
330
1F
100
AcDbEntity
  8
太線
100
AcDbCircle
 10
103.6297120303955
 20
338.9514098134503
 30
0.0
 40
2.887374155220751
100
AcDbArc
 50
219.9382225250073
 51
304.8867616358359
  0
ARC
  5
2BBE
330
1F
100
AcDbEntity
  8
太線
100
AcDbCircle
 10
97.67492904432785
 20
316.4312404896723
 30
0.0
 40
0.5962965097168773
100
AcDbArc
 50
278.4593971941045
 51
93.56992453902794
  0
ARC
  5
2BBF
330
1F
100
AcDbEntity
  8
太線
100
AcDbCircle
 10
95.563222081551
 20
312.4552864506342
 30
0.0
 40
2.087543635681659
100
AcDbArc
 50
219.3285687219068
 51
304.4264812919525
  0
ARC
  5
2BC0
330
1F
100
AcDbEntity
  8
太線
100
AcDbCircle
 10
95.63639132447274
 20
311.6957067509549
 30
0.0
 40
2.246923276988894
100
AcDbArc
 50
209.9273148655007
 51
310.0753730434095
  0
ARC
  5
2BC1
330
1F
100
AcDbEntity
  8
太線
100
AcDbCircle
 10
93.6067259618324
 20
310.7635010097556
 30
0.0
 40
0.7328285415411165
100
AcDbArc
 50
99.4612369161388
 51
254.507551398713
  0
ARC
  5
2BC2
330
1F
100
AcDbEntity
  8
太線
100
AcDbCircle
 10
95.97851738714254
 20
320.0581891616806
 30
0.0
 40
3.200861282906964
100
AcDbArc
 50
218.4518419376583
 51
300.32860070815
  0
ARC
  5
2BC3
330
1F
100
AcDbEntity
  8
太線
100
AcDbCircle
 10
95.81452457723488
 20
318.505363275614
 30
0.0
 40
2.887374155220751
100
AcDbArc
 50
219.9382225250073
 51
304.8867616358359
  0
ARC
  5
2BC4
330
1F
100
AcDbEntity
  8
太線
100
AcDbCircle
 10
93.6067259618324
 20
317.1279307374129
 30
0.0
 40
0.7328285415411165
100
AcDbArc
 50
99.4612369161388
 51
254.507551398713
  0
ARC
  5
2BC5
330
1F
100
AcDbEntity
  8
太線
100
AcDbCircle
 10
95.563222081551
 20
325.9392392173692
 30
0.0
 40
2.087543635681659
100
AcDbArc
 50
219.3285687219068
 51
304.4264812919525
  0
ARC
  5
2BC6
330
1F
100
AcDbEntity
  8
太線
100
AcDbCircle
 10
95.63639132447274
 20
325.1796595176899
 30
0.0
 40
2.246923276988894
100
AcDbArc
 50
209.9273148655007
 51
310.0753730434095
  0
ARC
  5
2BC7
330
1F
100
AcDbEntity
  8
太線
100
AcDbCircle
 10
93.6067259618324
 20
324.275675144421
 30
0.0
 40
0.7328285415411165
100
AcDbArc
 50
99.4612369161388
 51
254.507551398713
  0
ARC
  5
2BC8
330
1F
100
AcDbEntity
  8
太線
100
AcDbCircle
 10
95.40616843913362
 20
334.3510560785002
 30
0.0
 40
2.246923276988894
100
AcDbArc
 50
209.9273148655007
 51
310.0753730434095
  0
ARC
  5
2BC9
330
1F
100
AcDbEntity
  8
太線
100
AcDbCircle
 10
95.33299919621189
 20
335.1106357781795
 30
0.0
 40
2.087543635681659
100
AcDbArc
 50
219.3285687219068
 51
304.4264812919525
  0
ARC
  5
2BCA
330
1F
100
AcDbEntity
  8
太線
100
AcDbCircle
 10
93.6067259618324
 20
333.381705507236
 30
0.0
 40
0.7328285415411165
100
AcDbArc
 50
99.4612369161388
 51
254.507551398713
  0
ARC
  5
2BCB
330
1F
100
AcDbEntity
  8
太線
100
AcDbCircle
 10
101.421913414993
 20
321.8732893369706
 30
0.0
 40
0.7328285415411165
100
AcDbArc
 50
99.4612369161388
 51
254.507551398713
  0
ARC
  5
2BCC
330
1F
100
AcDbEntity
  8
太線
100
AcDbCircle
 10
103.4515787776334
 20
322.7772737102395
 30
0.0
 40
2.246923276988894
100
AcDbArc
 50
209.9273148655007
 51
310.0753730434095
  0
ARC
  5
2BCD
330
1F
100
AcDbEntity
  8
太線
100
AcDbCircle
 10
105.4901164974885
 20
314.0288546822219
 30
0.0
 40
0.5962965097168773
100
AcDbArc
 50
278.4593971941045
 51
93.56992453902794
  0
ARC
  5
2BCE
330
1F
100
AcDbEntity
  8
太線
100
AcDbCircle
 10
103.6297120303955
 20
316.1029774681636
 30
0.0
 40
2.887374155220751
100
AcDbArc
 50
219.9382225250073
 51
304.8867616358359
  0
ARC
  5
2BCF
330
1F
100
AcDbEntity
  8
太線
100
AcDbCircle
 10
103.4515787776334
 20
309.2933209435045
 30
0.0
 40
2.246923276988894
100
AcDbArc
 50
209.9273148655007
 51
310.0753730434095
  0
ARC
  5
2BD0
330
1F
100
AcDbEntity
  8
太線
100
AcDbCircle
 10
103.3784095347116
 20
310.0529006431838
 30
0.0
 40
2.087543635681659
100
AcDbArc
 50
219.3285687219068
 51
304.4264812919525
  0
ARC
  5
2BD1
330
1F
100
AcDbEntity
  8
太線
100
AcDbCircle
 10
101.421913414993
 20
308.3611152023052
 30
0.0
 40
0.7328285415411165
100
AcDbArc
 50
99.4612369161388
 51
254.507551398713
  0
ARC
  5
2BD2
330
1F
100
AcDbEntity
  8
太線
100
AcDbCircle
 10
103.7937048403032
 20
317.6558033542302
 30
0.0
 40
3.200861282906964
100
AcDbArc
 50
218.4518419376583
 51
300.32860070815
  0
ARC
  5
2BD3
330
1F
100
AcDbEntity
  8
太線
100
AcDbCircle
 10
101.421913414993
 20
314.7255449299625
 30
0.0
 40
0.7328285415411165
100
AcDbArc
 50
99.4612369161388
 51
254.507551398713
  0
ARC
  5
2BD4
330
1F
100
AcDbEntity
  8
太線
100
AcDbCircle
 10
103.3784095347116
 20
323.5368534099188
 30
0.0
 40
2.087543635681659
100
AcDbArc
 50
219.3285687219068
 51
304.4264812919525
  0
ARC
  5
2BD5
330
1F
100
AcDbEntity
  8
太線
100
AcDbCircle
 10
103.1481866493725
 20
332.7082499707291
 30
0.0
 40
2.087543635681659
100
AcDbArc
 50
219.3285687219068
 51
304.4264812919525
  0
ARC
  5
2BD6
330
1F
100
AcDbEntity
  8
太線
100
AcDbCircle
 10
103.2213558922942
 20
331.9486702710499
 30
0.0
 40
2.246923276988894
100
AcDbArc
 50
209.9273148655007
 51
310.0753730434095
  0
ARC
  5
2BD7
330
1F
100
AcDbEntity
  8
太線
100
AcDbCircle
 10
101.421913414993
 20
330.9793196997856
 30
0.0
 40
0.7328285415411165
100
AcDbArc
 50
99.4612369161388
 51
254.507551398713
  0
ARC
  5
2BD8
330
1F
100
AcDbEntity
  8
太線
100
AcDbCircle
 10
97.67492904432785
 20
363.5397646623816
 30
0.0
 40
0.5962965097168773
100
AcDbArc
 50
278.4593971941045
 51
93.56992453902794
  0
ARC
  5
2BD9
330
1F
100
AcDbEntity
  8
太線
100
AcDbCircle
 10
97.67492904432785
 20
339.4913572279575
 30
0.0
 40
0.5962965097168773
100
AcDbArc
 50
278.4593971941045
 51
93.56992453902794
  0
ARC
  5
2BDA
330
1F
100
AcDbEntity
  8
太線
100
AcDbCircle
 10
95.97851738714254
 20
342.9066215069673
 30
0.0
 40
3.200861282906964
100
AcDbArc
 50
218.4518419376583
 51
300.32860070815
  0
ARC
  5
2BDB
330
1F
100
AcDbEntity
  8
太線
100
AcDbCircle
 10
95.81452457723488
 20
341.3537956209007
 30
0.0
 40
2.887374155220751
100
AcDbArc
 50
219.9382225250073
 51
304.8867616358359
  0
ARC
  5
2BDC
330
1F
100
AcDbEntity
  8
太線
100
AcDbCircle
 10
93.6067259618324
 20
340.0398780540074
 30
0.0
 40
0.7328285415411165
100
AcDbArc
 50
99.4612369161388
 51
254.507551398713
  0
ARC
  5
2BDD
330
1F
100
AcDbEntity
  8
太線
100
AcDbCircle
 10
95.33299919621189
 20
348.5945885449145
 30
0.0
 40
2.087543635681659
100
AcDbArc
 50
219.3285687219068
 51
304.4264812919525
  0
ARC
  5
2BDE
330
1F
100
AcDbEntity
  8
太線
100
AcDbCircle
 10
95.40616843913362
 20
347.8350088452352
 30
0.0
 40
2.246923276988894
100
AcDbArc
 50
209.9273148655007
 51
310.0753730434095
  0
ARC
  5
2BDF
330
1F
100
AcDbEntity
  8
太線
100
AcDbCircle
 10
93.6067259618324
 20
346.7959651213401
 30
0.0
 40
0.7328285415411165
100
AcDbArc
 50
99.4612369161388
 51
254.507551398713
  0
ARC
  5
2BE0
330
1F
100
AcDbEntity
  8
太線
100
AcDbCircle
 10
93.6067259618324
 20
357.6644531414092
 30
0.0
 40
0.7328285415411165
100
AcDbArc
 50
99.4612369161388
 51
254.507551398713
  0
ARC
  5
2BE1
330
1F
100
AcDbEntity
  8
太線
100
AcDbCircle
 10
95.563222081551
 20
359.2099493475095
 30
0.0
 40
2.087543635681659
100
AcDbArc
 50
219.3285687219068
 51
304.4264812919525
  0
ARC
  5
2BE2
330
1F
100
AcDbEntity
  8
太線
100
AcDbCircle
 10
95.63639132447274
 20
358.4503696478302
 30
0.0
 40
2.246923276988894
100
AcDbArc
 50
209.9273148655007
 51
310.0753730434095
  0
ARC
  5
2BE3
330
1F
100
AcDbEntity
  8
太線
100
AcDbCircle
 10
95.81452457723488
 20
365.2600261724893
 30
0.0
 40
2.887374155220751
100
AcDbArc
 50
219.9382225250073
 51
304.8867616358359
  0
ARC
  5
2BE4
330
1F
100
AcDbEntity
  8
太線
100
AcDbCircle
 10
95.97851738714254
 20
366.8128520585558
 30
0.0
 40
3.200861282906964
100
AcDbArc
 50
218.4518419376583
 51
300.32860070815
  0
ARC
  5
2BE5
330
1F
100
AcDbEntity
  8
太線
100
AcDbCircle
 10
93.6067259618324
 20
363.9309683485052
 30
0.0
 40
0.7328285415411165
100
AcDbArc
 50
99.4612369161388
 51
254.507551398713
  0
ARC
  5
2BE6
330
1F
100
AcDbEntity
  8
太線
100
AcDbCircle
 10
103.2213558922942
 20
345.4326230377848
 30
0.0
 40
2.246923276988894
100
AcDbArc
 50
209.9273148655007
 51
310.0753730434095
  0
ARC
  5
2BE7
330
1F
100
AcDbEntity
  8
太線
100
AcDbCircle
 10
103.7937048403032
 20
340.5042356995169
 30
0.0
 40
3.200861282906964
100
AcDbArc
 50
218.4518419376583
 51
300.32860070815
  0
ARC
  5
2BE8
330
1F
100
AcDbEntity
  8
太線
100
AcDbCircle
 10
101.421913414993
 20
337.637492246557
 30
0.0
 40
0.7328285415411165
100
AcDbArc
 50
99.4612369161388
 51
254.507551398713
  0
ARC
  5
2BE9
330
1F
100
AcDbEntity
  8
太線
100
AcDbCircle
 10
105.4901164974885
 20
337.0889714205071
 30
0.0
 40
0.5962965097168773
100
AcDbArc
 50
278.4593971941045
 51
93.56992453902794
  0
ARC
  5
2BEA
330
1F
100
AcDbEntity
  8
太線
100
AcDbCircle
 10
103.1481866493725
 20
346.1922027374641
 30
0.0
 40
2.087543635681659
100
AcDbArc
 50
219.3285687219068
 51
304.4264812919525
  0
ARC
  5
2BEB
330
1F
100
AcDbEntity
  8
太線
100
AcDbCircle
 10
101.421913414993
 20
344.3935793138897
 30
0.0
 40
0.7328285415411165
100
AcDbArc
 50
99.4612369161388
 51
254.507551398713
  0
ARC
  5
2BEC
330
1F
100
AcDbEntity
  8
太線
100
AcDbCircle
 10
103.3784095347116
 20
356.8075635400591
 30
0.0
 40
2.087543635681659
100
AcDbArc
 50
219.3285687219068
 51
304.4264812919525
  0
ARC
  5
2BED
330
1F
100
AcDbEntity
  8
太線
100
AcDbCircle
 10
103.4515787776334
 20
356.0479838403798
 30
0.0
 40
2.246923276988894
100
AcDbArc
 50
209.9273148655007
 51
310.0753730434095
  0
ARC
  5
2BEE
330
1F
100
AcDbEntity
  8
太線
100
AcDbCircle
 10
101.421913414993
 20
355.2620673339588
 30
0.0
 40
0.7328285415411165
100
AcDbArc
 50
99.4612369161388
 51
254.507551398713
  0
ARC
  5
2BEF
330
1F
100
AcDbEntity
  8
太線
100
AcDbCircle
 10
103.7937048403032
 20
364.4104662511054
 30
0.0
 40
3.200861282906964
100
AcDbArc
 50
218.4518419376583
 51
300.32860070815
  0
ARC
  5
2BF0
330
1F
100
AcDbEntity
  8
太線
100
AcDbCircle
 10
103.6297120303955
 20
362.8576403650389
 30
0.0
 40
2.887374155220751
100
AcDbArc
 50
219.9382225250073
 51
304.8867616358359
  0
ARC
  5
2BF1
330
1F
100
AcDbEntity
  8
太線
100
AcDbCircle
 10
101.421913414993
 20
361.5285825410548
 30
0.0
 40
0.7328285415411165
100
AcDbArc
 50
99.4612369161388
 51
254.507551398713
  0
ARC
  5
2BF2
330
1F
100
AcDbEntity
  8
太線
100
AcDbCircle
 10
105.4901164974885
 20
361.1373788549312
 30
0.0
 40
0.5962965097168773
100
AcDbArc
 50
278.4593971941045
 51
93.56992453902794
  0
ARC
  5
2BF3
330
1F
100
AcDbEntity
  8
太線
100
AcDbCircle
 10
97.67492904432785
 20
386.3802611634618
 30
0.0
 40
0.5962965097168773
100
AcDbArc
 50
278.4593971941045
 51
93.56992453902794
  0
ARC
  5
2BF4
330
1F
100
AcDbEntity
  8
太線
100
AcDbCircle
 10
93.6067259618324
 20
379.9889140772057
 30
0.0
 40
0.7328285415411165
100
AcDbArc
 50
99.4612369161388
 51
254.507551398713
  0
ARC
  5
2BF5
330
1F
100
AcDbEntity
  8
太線
100
AcDbCircle
 10
95.33299919621189
 20
381.8652986750548
 30
0.0
 40
2.087543635681659
100
AcDbArc
 50
219.3285687219068
 51
304.4264812919525
  0
ARC
  5
2BF6
330
1F
100
AcDbEntity
  8
太線
100
AcDbCircle
 10
95.40616843913362
 20
381.1057189753755
 30
0.0
 40
2.246923276988894
100
AcDbArc
 50
209.9273148655007
 51
310.0753730434095
  0
ARC
  5
2BF7
330
1F
100
AcDbEntity
  8
太線
100
AcDbCircle
 10
95.63639132447274
 20
371.9343224145652
 30
0.0
 40
2.246923276988894
100
AcDbArc
 50
209.9273148655007
 51
310.0753730434095
  0
ARC
  5
2BF8
330
1F
100
AcDbEntity
  8
太線
100
AcDbCircle
 10
95.563222081551
 20
372.6939021142445
 30
0.0
 40
2.087543635681659
100
AcDbArc
 50
219.3285687219068
 51
304.4264812919525
  0
ARC
  5
2BF9
330
1F
100
AcDbEntity
  8
太線
100
AcDbCircle
 10
93.6067259618324
 20
370.980798234952
 30
0.0
 40
0.7328285415411165
100
AcDbArc
 50
99.4612369161388
 51
254.507551398713
  0
ARC
  5
2BFA
330
1F
100
AcDbEntity
  8
太線
100
AcDbCircle
 10
93.6067259618324
 20
386.9408301856612
 30
0.0
 40
0.7328285415411165
100
AcDbArc
 50
99.4612369161388
 51
254.507551398713
  0
ARC
  5
2BFB
330
1F
100
AcDbEntity
  8
太線
100
AcDbCircle
 10
95.97851738714254
 20
389.6612844038426
 30
0.0
 40
3.200861282906964
100
AcDbArc
 50
218.4518419376583
 51
300.32860070815
  0
ARC
  5
2BFC
330
1F
100
AcDbEntity
  8
太線
100
AcDbCircle
 10
95.81452457723488
 20
388.108458517776
 30
0.0
 40
2.887374155220751
100
AcDbArc
 50
219.9382225250073
 51
304.8867616358359
  0
ARC
  5
2BFD
330
1F
100
AcDbEntity
  8
太線
100
AcDbCircle
 10
95.40616843913362
 20
394.5896717421105
 30
0.0
 40
2.246923276988894
100
AcDbArc
 50
209.9273148655007
 51
310.0753730434095
  0
ARC
  5
2BFE
330
1F
100
AcDbEntity
  8
太線
100
AcDbCircle
 10
95.33299919621189
 20
395.3492514417898
 30
0.0
 40
2.087543635681659
100
AcDbArc
 50
219.3285687219068
 51
304.4264812919525
  0
ARC
  5
2BFF
330
1F
100
AcDbEntity
  8
太線
100
AcDbCircle
 10
93.52246364604217
 20
393.6485277514087
 30
0.0
 40
0.4416928394499552
100
AcDbArc
 50
98.74352102952318
 51
261.2564789704768
  0
ARC
  5
2C00
330
1F
100
AcDbEntity
  8
太線
100
AcDbCircle
 10
103.3784095347116
 20
370.2915163067941
 30
0.0
 40
2.087543635681659
100
AcDbArc
 50
219.3285687219068
 51
304.4264812919525
  0
ARC
  5
2C01
330
1F
100
AcDbEntity
  8
太線
100
AcDbCircle
 10
103.4515787776334
 20
369.5319366071148
 30
0.0
 40
2.246923276988894
100
AcDbArc
 50
209.9273148655007
 51
310.0753730434095
  0
ARC
  5
2C02
330
1F
100
AcDbEntity
  8
太線
100
AcDbCircle
 10
101.421913414993
 20
368.5784124275016
 30
0.0
 40
0.7328285415411165
100
AcDbArc
 50
99.4612369161388
 51
254.507551398713
  0
ARC
  5
2C03
330
1F
100
AcDbEntity
  8
太線
100
AcDbCircle
 10
103.2213558922942
 20
378.7033331679251
 30
0.0
 40
2.246923276988894
100
AcDbArc
 50
209.9273148655007
 51
310.0753730434095
  0
ARC
  5
2C04
330
1F
100
AcDbEntity
  8
太線
100
AcDbCircle
 10
103.1481866493725
 20
379.4629128676044
 30
0.0
 40
2.087543635681659
100
AcDbArc
 50
219.3285687219068
 51
304.4264812919525
  0
ARC
  5
2C05
330
1F
100
AcDbEntity
  8
太線
100
AcDbCircle
 10
101.421913414993
 20
377.5865282697553
 30
0.0
 40
0.7328285415411165
100
AcDbArc
 50
99.4612369161388
 51
254.507551398713
  0
ARC
  5
2C06
330
1F
100
AcDbEntity
  8
太線
100
AcDbCircle
 10
103.7937048403032
 20
387.2588985963922
 30
0.0
 40
3.200861282906964
100
AcDbArc
 50
218.4518419376583
 51
300.32860070815
  0
ARC
  5
2C07
330
1F
100
AcDbEntity
  8
太線
100
AcDbCircle
 10
103.6297120303955
 20
385.7060727103256
 30
0.0
 40
2.887374155220751
100
AcDbArc
 50
219.9382225250073
 51
304.8867616358359
  0
ARC
  5
2C08
330
1F
100
AcDbEntity
  8
太線
100
AcDbCircle
 10
101.421913414993
 20
384.5384443782108
 30
0.0
 40
0.7328285415411165
100
AcDbArc
 50
99.4612369161388
 51
254.507551398713
  0
ARC
  5
2C09
330
1F
100
AcDbEntity
  8
太線
100
AcDbCircle
 10
105.4901164974885
 20
383.9778753560114
 30
0.0
 40
0.5962965097168773
100
AcDbArc
 50
278.4593971941045
 51
93.56992453902794
  0
ARC
  5
2C0A
330
1F
100
AcDbEntity
  8
太線
100
AcDbCircle
 10
103.1481866493725
 20
392.9468656343394
 30
0.0
 40
2.087543635681659
100
AcDbArc
 50
219.3285687219068
 51
304.4264812919525
  0
ARC
  5
2C0B
330
1F
100
AcDbEntity
  8
太線
100
AcDbCircle
 10
103.2213558922942
 20
392.1872859346601
 30
0.0
 40
2.246923276988894
100
AcDbArc
 50
209.9273148655007
 51
310.0753730434095
  0
ARC
  5
2C0C
330
1F
100
AcDbEntity
  8
太線
100
AcDbCircle
 10
101.3376510992028
 20
391.2461419439583
 30
0.0
 40
0.4416928394499552
100
AcDbArc
 50
98.74352102952318
 51
261.2564789704768
  0
TEXT
  5
2C0D
330
1F
100
AcDbEntity
  8
文字
100
AcDbText
 10
-212.8715865309197
 20
402.7385968452493
 30
0.0
 40
7.0
  1
亜鉛ドブ漬け等辺アングル　3-40mm
 51
15.0
  7
OKANO
100
AcDbText
  0
TEXT
  5
2C0E
330
1F
100
AcDbEntity
  8
文字
100
AcDbText
 10
13.20024176024799
 20
429.3572407206798
 30
0.0
 40
7.0
  1
異型丸棒　D13Φ L1100
 51
15.0
  7
OKANO
100
AcDbText
  0
TEXT
  5
2C0F
330
1F
100
AcDbEntity
  8
文字
100
AcDbText
 10
-261.4109621333207
 20
325.6004134690575
 30
0.0
 40
7.0
  1
単管パイプ(48.6mm)
 51
15.0
  7
OKANO
100
AcDbText
  0
TEXT
  5
2C11
330
1F
100
AcDbEntity
  8
文字
100
AcDbText
 10
-117.0765109936921
 20
427.9028825002037
 30
0.0
 40
7.0
  1
L　1800= Φ15×17
 51
15.0
  7
OKANO
100
AcDbText
  0
TEXT
  5
2C12
330
1F
100
AcDbEntity
  8
文字
100
AcDbText
 10
-259.1182689147201
 20
416.874526523056
 30
0.0
 40
7.0
  1
11-1C
 51
15.0
  7
OKANO
100
AcDbText
  0
TEXT
  5
2C13
330
1F
100
AcDbEntity
  8
文字
100
AcDbText
 10
-258.6812327181608
 20
391.5061010989104
 30
0.0
 40
7.0
  1
7-1S
 51
15.0
  7
OKANO
100
AcDbText
  0
TEXT
  5
2C14
330
1F
100
AcDbEntity
  8
文字
100
AcDbText
 10
-58.48179781461317
 20
326.9070354792895
 30
0.0
 40
7.0
  1
8-1W
 51
15.0
  7
OKANO
100
AcDbText
  0
ARC
  5
2C15
330
1F
100
AcDbEntity
  8
太線
100
AcDbCircle
 10
-316.2377658746406
 20
426.8736412190841
 30
0.0
 40
2.663053574635915
100
AcDbArc
 50
103.8239467526568
 51
154.0801743295831
  0
LINE
  5
2C16
330
1F
100
AcDbEntity
  8
太線
100
AcDbLine
 10
-318.6329337866662
 20
428.0376966364007
 30
0.0
 11
-317.3099337866661
 21
427.8585694165455
 31
0.0
  0
LINE
  5
2C17
330
1F
100
AcDbEntity
  8
太線
100
AcDbLine
 10
-318.6329337866662
 20
426.1476966364006
 30
0.0
 11
-317.3099337866661
 21
426.3268238562559
 31
0.0
  0
ARC
  5
2C18
330
1F
100
AcDbEntity
  8
太線
100
AcDbCircle
 10
-316.2377658746406
 20
427.3117520537172
 30
0.0
 40
2.663053574635915
100
AcDbArc
 50
205.9198256704168
 51
256.1760532473432
  0
LINE
  5
2C1B
330
1F
100
AcDbEntity
  8
太線
100
AcDbLine
 10
-327.670844211671
 20
432.3508697150287
 30
0.0
 11
-321.8317427572506
 21
432.3508697150287
 31
0.0
  0
ARC
  5
2C1C
330
1F
100
AcDbEntity
  8
想像線
100
AcDbCircle
 10
-324.7678216973697
 20
426.0005470519693
 30
0.0
 40
5.030113004517895
100
AcDbArc
 50
48.08694857736359
 51
131.4501149232534
  0
LINE
  5
2C1D
330
1F
100
AcDbEntity
  8
太線
100
AcDbLine
 10
-330.1430337866662
 20
426.0005470519693
 30
0.0
 11
-319.3133337866662
 21
426.0005470519693
 31
0.0
  0
ARC
  5
2C1E
330
1F
100
AcDbEntity
  8
太線
100
AcDbCircle
 10
-327.670844211671
 20
431.9728697150286
 30
0.0
 40
0.378
100
AcDbArc
 50
90.0
 51
180.0
  0
LINE
  5
2C1F
330
1F
100
AcDbEntity
  8
太線
100
AcDbLine
 10
-328.048844211671
 20
431.8052619483147
 30
0.0
 11
-328.048844211671
 21
431.9728697150286
 31
0.0
  0
ARC
  5
2C20
330
1F
100
AcDbEntity
  8
想像線
100
AcDbCircle
 10
-328.3478178904676
 20
430.0541027166963
 30
0.0
 40
0.378
100
AcDbArc
 50
238.0770667673287
 51
311.4501149232534
  0
LINE
  5
2C21
330
1F
100
AcDbEntity
  8
想像線
100
AcDbLine
 10
-328.8200337866662
 20
429.9029380076164
 30
0.0
 11
-328.5476960130786
 21
429.7332713963713
 31
0.0
  0
ARC
  5
2C22
330
1F
100
AcDbEntity
  8
太線
100
AcDbCircle
 10
-329.7650337866662
 20
429.7846389034922
 30
0.0
 40
0.378
100
AcDbArc
 50
127.2372069376961
 51
180.0
  0
LINE
  5
2C23
330
1F
100
AcDbEntity
  8
太線
100
AcDbLine
 10
-329.9937677256834
 20
430.0855787399074
 30
0.0
 11
-328.048844211671
 21
431.8052619483147
 31
0.0
  0
LINE
  5
2C24
330
1F
100
AcDbEntity
  8
想像線
100
AcDbLine
 10
-328.8200337866662
 20
429.9029380076164
 30
0.0
 11
-329.3870337866661
 21
429.9029380076164
 31
0.0
  0
LINE
  5
2C25
330
1F
100
AcDbEntity
  8
想像線
100
AcDbLine
 10
-329.3870337866661
 20
429.9029380076164
 30
0.0
 11
-329.3870337866661
 21
426.0005470519693
 31
0.0
  0
LINE
  5
2C26
330
1F
100
AcDbEntity
  8
想像線
100
AcDbLine
 10
-329.3870337866661
 20
426.0005470519693
 30
0.0
 11
-329.3870337866661
 21
429.9029380076164
 31
0.0
  0
LINE
  5
2C27
330
1F
100
AcDbEntity
  8
太線
100
AcDbLine
 10
-330.1430337866662
 20
426.0005470519693
 30
0.0
 11
-330.1430337866662
 21
429.7846389034922
 31
0.0
  0
LINE
  5
2C28
330
1F
100
AcDbEntity
  8
太線
100
AcDbLine
 10
-318.7201186320296
 20
427.5651966364007
 30
0.0
 11
-318.7201186320296
 21
426.6201966364007
 31
0.0
  0
LINE
  5
2C29
330
1F
100
AcDbEntity
  8
太線
100
AcDbLine
 10
-318.6329337866662
 20
427.5651966364007
 30
0.0
 11
-318.6329337866662
 21
426.6201966364007
 31
0.0
  0
LINE
  5
2C2A
330
1F
100
AcDbEntity
  8
太線
100
AcDbLine
 10
-318.7201186320296
 20
427.7637528396307
 30
0.0
 11
-318.7201186320296
 21
427.5651966364007
 31
0.0
  0
LINE
  5
2C2B
330
1F
100
AcDbEntity
  8
太線
100
AcDbLine
 10
-318.6329337866662
 20
427.7637528396307
 30
0.0
 11
-318.7201186320296
 21
427.7637528396307
 31
0.0
  0
LINE
  5
2C2C
330
1F
100
AcDbEntity
  8
太線
100
AcDbLine
 10
-318.6329337866662
 20
427.5651966364007
 30
0.0
 11
-318.6329337866662
 21
428.0376966364007
 31
0.0
  0
ARC
  5
2C2D
330
1F
100
AcDbEntity
  8
太線
100
AcDbCircle
 10
-319.6913337866662
 20
429.7846389034922
 30
0.0
 40
0.378
100
AcDbArc
 50
0.0
 51
52.76279306230095
  0
ARC
  5
2C2E
330
1F
100
AcDbEntity
  8
太線
100
AcDbCircle
 10
-321.8317427572506
 20
431.9728697150286
 30
0.0
 40
0.378
100
AcDbArc
 50
0.0
 51
90.0
  0
LINE
  5
2C2F
330
1F
100
AcDbEntity
  8
太線
100
AcDbLine
 10
-321.4537427572506
 20
431.9728697150286
 30
0.0
 11
-321.4537427572506
 21
431.8052619483147
 31
0.0
  0
LINE
  5
2C30
330
1F
100
AcDbEntity
  8
太線
100
AcDbLine
 10
-319.9429154285746
 20
426.8091966364007
 30
0.0
 11
-319.8484154285746
 21
426.6201966364007
 31
0.0
  0
LINE
  5
2C31
330
1F
100
AcDbEntity
  8
太線
100
AcDbLine
 10
-319.9429154285746
 20
427.3761966364006
 30
0.0
 11
-319.9429154285746
 21
426.8091966364007
 31
0.0
  0
LINE
  5
2C32
330
1F
100
AcDbEntity
  8
太線
100
AcDbLine
 10
-319.8484154285746
 20
427.5651966364007
 30
0.0
 11
-319.9429154285746
 21
427.3761966364006
 31
0.0
  0
LINE
  5
2C33
330
1F
100
AcDbEntity
  8
想像線
100
AcDbLine
 10
-320.0693337866662
 20
429.9029380076164
 30
0.0
 11
-320.6363337866662
 21
429.9029380076164
 31
0.0
  0
ARC
  5
2C34
330
1F
100
AcDbEntity
  8
想像線
100
AcDbCircle
 10
-321.1551909339414
 20
430.0250451867395
 30
0.0
 40
0.378
100
AcDbArc
 50
228.0869485773636
 51
301.9229332326712
  0
LINE
  5
2C35
330
1F
100
AcDbEntity
  8
想像線
100
AcDbLine
 10
-320.6363337866662
 20
429.9029380076164
 30
0.0
 11
-320.9553128113303
 21
429.7042138664145
 31
0.0
  0
LINE
  5
2C36
330
1F
100
AcDbEntity
  8
太線
100
AcDbLine
 10
-321.4537427572506
 20
431.8052619483147
 30
0.0
 11
-319.4625998476489
 21
430.0855787399074
 31
0.0
  0
LINE
  5
2C37
330
1F
100
AcDbEntity
  8
太線
100
AcDbLine
 10
-320.0640220107166
 20
426.6044352553572
 30
0.0
 11
-319.3000675678494
 21
426.6044352553572
 31
0.0
  0
LINE
  5
2C38
330
1F
100
AcDbEntity
  8
太線
100
AcDbLine
 10
-319.8484154285746
 20
426.6201966364007
 30
0.0
 11
-318.7201186320296
 21
426.6201966364007
 31
0.0
  0
LINE
  5
2C39
330
1F
100
AcDbEntity
  8
太線
100
AcDbLine
 10
-320.0527873822339
 20
427.603378041009
 30
0.0
 11
-319.3000675678494
 21
427.603378041009
 31
0.0
  0
LINE
  5
2C3A
330
1F
100
AcDbEntity
  8
太線
100
AcDbLine
 10
-318.7201186320296
 20
427.5651966364007
 30
0.0
 11
-319.8484154285746
 21
427.5651966364007
 31
0.0
  0
LINE
  5
2C3B
330
1F
100
AcDbEntity
  8
太線
100
AcDbLine
 10
-318.7201186320296
 20
426.4216404331707
 30
0.0
 11
-318.6329337866662
 21
426.4216404331707
 31
0.0
  0
LINE
  5
2C3C
330
1F
100
AcDbEntity
  8
想像線
100
AcDbLine
 10
-320.0693337866662
 20
426.0005470519693
 30
0.0
 11
-320.0693337866662
 21
429.9029380076164
 31
0.0
  0
LINE
  5
2C3D
330
1F
100
AcDbEntity
  8
想像線
100
AcDbLine
 10
-320.0693337866662
 20
426.0005470519693
 30
0.0
 11
-320.0693337866662
 21
429.9029380076164
 31
0.0
  0
LINE
  5
2C3E
330
1F
100
AcDbEntity
  8
太線
100
AcDbLine
 10
-319.3133337866662
 20
426.0005470519693
 30
0.0
 11
-319.3133337866662
 21
429.7846389034922
 31
0.0
  0
LINE
  5
2C3F
330
1F
100
AcDbEntity
  8
太線
100
AcDbLine
 10
-318.7201186320296
 20
426.6201966364007
 30
0.0
 11
-318.7201186320296
 21
426.4216404331707
 31
0.0
  0
LINE
  5
2C40
330
1F
100
AcDbEntity
  8
太線
100
AcDbLine
 10
-318.6329337866662
 20
426.6201966364007
 30
0.0
 11
-318.6329337866662
 21
426.1476966364006
 31
0.0
  0
LINE
  5
2C41
330
1F
100
AcDbEntity
  8
太線
100
AcDbLine
 10
-316.3166475130601
 20
431.2489501458049
 30
0.0
 11
-316.3166475130601
 21
431.2489501458049
 31
0.0
  0
LINE
  5
2C42
330
1F
100
AcDbEntity
  8
太線
100
AcDbLine
 10
-317.3099337866661
 20
427.8585694165455
 30
0.0
 11
-316.2139715405384
 21
428.4680162867777
 31
0.0
  0
LINE
  5
2C43
330
1F
100
AcDbEntity
  8
太線
100
AcDbLine
 10
-317.1646613375334
 20
427.5651966364007
 30
0.0
 11
-317.1646613375334
 21
426.6201966364007
 31
0.0
  0
LINE
  5
2C44
330
1F
100
AcDbEntity
  8
太線
100
AcDbLine
 10
-317.3099337866661
 20
427.7637528396307
 30
0.0
 11
-317.1646613375334
 21
427.7637528396307
 31
0.0
  0
LINE
  5
2C45
330
1F
100
AcDbEntity
  8
太線
100
AcDbLine
 10
-317.3099337866661
 20
427.8585694165455
 30
0.0
 11
-317.3099337866661
 21
427.7637528396307
 31
0.0
  0
LINE
  5
2C46
330
1F
100
AcDbEntity
  8
太線
100
AcDbLine
 10
-317.1646613375334
 20
427.7637528396307
 30
0.0
 11
-317.1646613375334
 21
427.5651966364007
 31
0.0
  0
LINE
  5
2C47
330
1F
100
AcDbEntity
  8
太線
100
AcDbLine
 10
-316.4200665080142
 20
429.1955345541651
 30
0.0
 11
-316.2139715405384
 21
428.4680162867777
 31
0.0
  0
ARC
  5
2C48
330
1F
100
AcDbEntity
  8
太線
100
AcDbCircle
 10
-316.7837550264831
 20
429.0925070746568
 30
0.0
 40
0.378
100
AcDbArc
 50
15.81662713787752
 51
103.8239467526568
  0
ARC
  5
2C49
330
1F
100
AcDbEntity
  8
太線
100
AcDbCircle
 10
-316.7837550264831
 20
425.0928861981445
 30
0.0
 40
0.378
100
AcDbArc
 50
256.1760532473432
 51
344.1833728621225
  0
LINE
  5
2C4A
330
1F
100
AcDbEntity
  8
太線
100
AcDbLine
 10
-316.4200665080142
 20
424.9898587186362
 30
0.0
 11
-316.2139715405384
 21
425.7173769860236
 31
0.0
  0
LINE
  5
2C4B
330
1F
100
AcDbEntity
  8
太線
100
AcDbLine
 10
-317.3099337866661
 20
426.3268238562559
 30
0.0
 11
-316.2139715405384
 21
425.7173769860236
 31
0.0
  0
LINE
  5
2C4C
330
1F
100
AcDbEntity
  8
太線
100
AcDbLine
 10
-317.3099337866661
 20
426.4216404331707
 30
0.0
 11
-317.1646613375334
 21
426.4216404331707
 31
0.0
  0
LINE
  5
2C4D
330
1F
100
AcDbEntity
  8
太線
100
AcDbLine
 10
-317.3099337866661
 20
426.3268238562559
 30
0.0
 11
-317.3099337866661
 21
426.4216404331707
 31
0.0
  0
LINE
  5
2C4E
330
1F
100
AcDbEntity
  8
太線
100
AcDbLine
 10
-317.3099337866661
 20
427.7637528396307
 30
0.0
 11
-317.3099337866661
 21
426.4216404331707
 31
0.0
  0
LINE
  5
2C4F
330
1F
100
AcDbEntity
  8
太線
100
AcDbLine
 10
-317.1646613375334
 20
426.4216404331707
 30
0.0
 11
-317.1646613375334
 21
426.6201966364007
 31
0.0
  0
TEXT
  5
2C50
330
1F
100
AcDbEntity
  8
文字
100
AcDbText
 10
-305.3424859598505
 20
433.0458383683041
 30
0.0
 40
7.0
  1
T-1H 　打ち込み金具(繰り返し使用)
 51
15.0
  7
OKANO
100
AcDbText
  0
LEADER
  5
2C53
330
1F
100
AcDbEntity
  8
寸法線
100
AcDbLeader
  3
sunpo
 76
     2
 10
-310.4549748289207
 20
426.6345159186121
 30
0.0
 10
-280.3705326969049
 20
430.47142969999
 30
0.0
1001
ACAD
1000
DSTYLE
1002
{
1070
   147
1040
1.0
1070
    77
1070
     0
1002
}
  0
LEADER
  5
2C55
330
1F
100
AcDbEntity
  8
寸法線
100
AcDbLeader
  3
sunpo
 76
     2
 10
-273.3294933645093
 20
406.1709721605921
 30
0.0
 10
-252.2063753673219
 20
413.2053152356045
 30
0.0
1001
ACAD
1000
DSTYLE
1002
{
1070
   147
1040
1.0
1070
    77
1070
     0
1002
}
  0
LEADER
  5
2C56
330
1F
100
AcDbEntity
  8
寸法線
100
AcDbLeader
  3
sunpo
 76
     2
 10
-266.2884540321133
 20
381.87051364192
 30
0.0
 10
-251.5662810510764
 20
390.1838286302411
 30
0.0
1001
ACAD
1000
DSTYLE
1002
{
1070
   147
1040
1.0
1070
    77
1070
     0
1002
}
  0
LEADER
  5
2C5A
330
1F
100
AcDbEntity
  8
寸法線
100
AcDbLeader
  3
sunpo
 76
     2
 10
-27.53320548581268
 20
365.8833701115693
 30
0.0
 10
-49.29641779924555
 20
337.7459968322452
 30
0.0
1001
ACAD
1000
DSTYLE
1002
{
1070
   147
1040
1.0
1070
    77
1070
     0
1002
}
  0
LEADER
  5
2C5B
330
1F
100
AcDbEntity
  8
寸法線
100
AcDbLeader
  3
sunpo
 76
     2
 10
47.94632633178571
 20
395.2400827780591
 30
0.0
 10
50.40729259866385
 20
414.9198162672075
 30
0.0
1001
ACAD
1000
DSTYLE
1002
{
1070
   147
1040
1.0
1070
    77
1070
     0
1002
}
  0
LEADER
  5
2C5F
330
1F
100
AcDbEntity
  8
寸法線
100
AcDbLeader
  3
sunpo
 76
     2
 10
-273.8008111647955
 20
315.4237542054231
 30
0.0
 10
-245.8389087745485
 20
323.3185170789358
 30
0.0
1001
ACAD
1000
DSTYLE
1002
{
1070
   147
1040
1.0
1070
    77
1070
     0
1002
}
  0
LWPOLYLINE
  5
2C78
330
1F
100
AcDbEntity
  8
太線
100
AcDbPolyline
 90
        4
 70
     1
 43
0.0
 10
-2.861832027992015
 20
189.7044111465211
 10
94.63663161210591
 20
189.7044111465211
 10
94.63663161210591
 20
163.0589284182436
 10
-2.861832027992015
 20
163.0589284182436
  0
LINE
  5
2C79
330
1F
100
AcDbEntity
  8
太線
100
AcDbLine
 10
-2.861832027991937
 20
180.7188111465211
 30
0.0
 11
94.63663161210595
 21
180.7188111465211
 31
0.0
  0
TEXT
  5
2C7A
330
1F
100
AcDbEntity
  8
文字
100
AcDbText
 10
27.04965050225193
 20
166.6552481451786
 30
0.0
 40
3.744
  1
KSG 1800・900
 51
15.0
  7
OKANO
100
AcDbText
  0
TEXT
  5
2C7B
330
1F
100
AcDbEntity
  8
文字
100
AcDbText
 10
28.99711859720948
 20
173.7274473256269
 30
0.0
 40
3.744
  1
野獣ガード
 51
15.0
  7
OKANO
100
AcDbText
  0
TEXT
  5
2C7C
330
1F
100
AcDbEntity
  8
文字
100
AcDbText
 10
26.52204939311857
 20
182.2025535217638
 30
0.0
 40
3.744
  1
2004/09/14 JOINT Auto CAD
 51
15.0
  7
OKANO
100
AcDbText
  0
LINE
  5
2C7D
330
1F
100
AcDbEntity
  8
太線
100
AcDbLine
 10
22.20042474405237
 20
189.7044111465211
 30
0.0
 11
22.20042474405237
 21
163.0589284182436
 31
0.0
  0
TEXT
  5
2C7E
330
1F
100
AcDbEntity
  8
太線
100
AcDbText
 10
0.4453795739080278
 20
164.6359459358535
 30
0.0
 40
2.9952
  1
ISSUED
 51
15.0
  7
OKANO
100
AcDbText
  0
TEXT
  5
2C7F
330
1F
100
AcDbEntity
  8
太線
100
AcDbText
 10
0.4453795739080278
 20
172.5613301362833
 30
0.0
 40
2.9952
  1
CHECK
 51
15.0
  7
OKANO
100
AcDbText
  0
TEXT
  5
2C80
330
1F
100
AcDbEntity
  8
太線
100
AcDbText
 10
0.4453795739080278
 20
177.1631658313205
 30
0.0
 40
2.9952
  1
DRAWN
 51
15.0
  7
OKANO
100
AcDbText
  0
TEXT
  5
2C81
330
1F
100
AcDbEntity
  8
太線
100
AcDbText
 10
-0.3223033060543372
 20
182.5319746986102
 30
0.0
 40
2.9952
  1
FILM NAME
 51
15.0
  7
OKANO
100
AcDbText
  0
TEXT
  5
2C82
330
1F
100
AcDbEntity
  8
太線
100
AcDbText
 10
0.4453795739080278
 20
168.9821243837319
 30
0.0
 40
2.9952
  1
APPR,
 51
15.0
  7
OKANO
100
AcDbText
  0
LINE
  5
2C83
330
1F
100
AcDbEntity
  8
細線
100
AcDbLine
 10
6.321368963867953
 20
168.2675961101821
 30
0.0
 11
6.321368963867953
 21
168.2675961101821
 31
0.0
  0
TEXT
  5
2C84
330
1F
100
AcDbEntity
  8
文字
100
AcDbText
 10
64.80762858406932
 20
166.9705842540064
 30
0.0
 40
3.744
  1
  T.okano
 51
15.0
  7
OKANO
100
AcDbText
  0
DIMENSION
  5
2C8D
330
1F
100
AcDbEntity
  8
寸法線
100
AcDbDimension
  2
*D1
 10
-209.5140433456283
 20
259.2206524622008
 30
0.0
 11
-193.7111014068224
 21
263.7206524622008
 31
0.0
 70
    32
  1
100mm
 71
     5
 42
16.99930099298808
  3
sunpo
100
AcDbAlignedDimension
 13
-226.5133443386164
 23
274.253356885337
 33
0.0
 14
-209.5140433456283
 24
273.5997616613244
 34
0.0
100
AcDbRotatedDimension
1001
ACAD
1000
DSTYLE
1002
{
1070
   140
1040
7.0
1070
    40
1040
1.0
1002
}
  0
TEXT
  5
2CAE
330
1F
100
AcDbEntity
  8
文字
100
AcDbText
 10
-88.18102794951801
 20
236.7183890146598
 30
0.0
 40
7.0
  1
Φ11mm×4
 51
15.0
  7
OKANO
100
AcDbText
  0
TEXT
  5
2CB2
330
1F
100
AcDbEntity
  8
文字
100
AcDbText
 10
-116.6093576046462
 20
417.1685735997304
 30
0.0
 40
7.0
  1
L　900= Φ15×8
 51
15.0
  7
OKANO
100
AcDbText
  0
LINE
  5
2D29
330
1F
100
AcDbEntity
  8
破線
100
AcDbLine
 10
14.9449196271409
 20
359.921061728082
 30
0.0
 11
14.9449196271409
 21
351.9671825134583
 31
0.0
  0
LINE
  5
2D2A
330
1F
100
AcDbEntity
  8
破線
100
AcDbLine
 10
26.81295126350446
 20
359.921061728082
 30
0.0
 11
26.81295126350446
 21
351.9671825134583
 31
0.0
  0
CIRCLE
  5
2D35
330
1F
100
AcDbEntity
  8
想像線
100
AcDbCircle
 10
21.45041164718446
 20
362.1830518095837
 30
0.0
 40
0.7237735738195318
  0
LWPOLYLINE
  5
2D36
330
1F
100
AcDbEntity
  8
太線
100
AcDbPolyline
 90
        6
 70
     1
 43
0.0
 10
22.86559846555738
 20
361.6499009679076
 10
22.63774937283455
 20
363.0172046908436
 10
21.33970506772172
 20
363.5035334497844
 10
20.26950985533147
 20
362.6225584857892
 10
20.49735894805434
 20
361.2552547628534
 10
21.79540325316728
 20
360.7689260039125
  0
CIRCLE
  5
2D37
330
1F
100
AcDbEntity
  8
太線
100
AcDbCircle
 10
21.45041164718446
 20
362.1830518095837
 30
0.0
 40
0.9449999999999999
  0
LINE
  5
2D38
330
1F
100
AcDbEntity
  8
太線
100
AcDbLine
 10
27.76551126350443
 20
359.9210617280821
 30
0.0
 11
13.95339126350444
 21
359.921061728082
 31
0.0
  0
LINE
  5
2D39
330
1F
100
AcDbEntity
  8
太線
 62
     0
100
AcDbLine
 10
14.9059512635045
 20
369.446661728082
 30
0.0
 11
27.76551126350443
 21
369.446661728082
 31
0.0
  0
LINE
  5
2D3B
330
1F
100
AcDbEntity
  8
太線
100
AcDbLine
 10
13.71525126350454
 20
369.446661728082
 30
0.0
 11
5.213084656409563
 21
369.446661728082
 31
0.0
  0
LINE
  5
2D3C
330
1F
100
AcDbEntity
  8
太線
100
AcDbLine
 10
13.71525126350454
 20
368.2559617280819
 30
0.0
 11
5.213084656409563
 21
368.2559617280819
 31
0.0
  0
LINE
  5
2D3D
330
1F
100
AcDbEntity
  8
太線
100
AcDbLine
 10
5.213084656409563
 20
368.2559617280819
 30
0.0
 11
5.213084656409563
 21
369.446661728082
 31
0.0
  0
LINE
  5
2D3E
330
1F
100
AcDbEntity
  8
太線
100
AcDbLine
 10
13.71525126350454
 20
368.2559617280819
 30
0.0
 11
13.71525126350454
 21
360.159201728082
 31
0.0
  0
LINE
  5
2D3F
330
1F
100
AcDbEntity
  8
太線
100
AcDbLine
 10
10.14315126350442
 20
368.2559617280819
 30
0.0
 11
13.71525126350454
 21
362.3024617280819
 31
0.0
  0
LINE
  5
2D40
330
1F
100
AcDbEntity
  8
太線
 62
     0
100
AcDbLine
 10
13.71525126350454
 20
368.2559617280819
 30
0.0
 11
13.71525126350454
 21
364.719582728082
 31
0.0
  0
LINE
  5
2D41
330
1F
100
AcDbEntity
  8
想像線
100
AcDbLine
 10
14.9449196271409
 20
369.446661728082
 30
0.0
 11
14.91894071804989
 21
359.921061728082
 31
0.0
  0
LINE
  5
2D42
330
1F
100
AcDbEntity
  8
太線
 62
     0
100
AcDbLine
 10
13.71525126350454
 20
361.1117617280819
 30
0.0
 11
13.71525126350454
 21
359.921061728082
 31
0.0
  0
ARC
  5
2D43
330
1F
100
AcDbEntity
  8
太線
100
AcDbCircle
 10
13.95339126350444
 20
360.159201728082
 30
0.0
 40
0.23814
100
AcDbArc
 50
180.0
 51
270.0
  0
CIRCLE
  5
2D44
330
1F
100
AcDbEntity
  8
太線
100
AcDbCircle
 10
12.80091838648317
 20
367.1864871547895
 30
0.0
 40
0.71442
  0
LINE
  5
2D45
330
1F
100
AcDbEntity
  8
想像線
100
AcDbLine
 10
11.19947488984459
 20
369.3051507932141
 30
0.0
 11
11.19947488984459
 21
369.446661728082
 31
0.0
  0
LINE
  5
2D46
330
1F
100
AcDbEntity
  8
想像線
100
AcDbLine
 10
10.12664261800452
 20
369.3051507932141
 30
0.0
 11
10.12664261800452
 21
369.446661728082
 31
0.0
  0
LINE
  5
2D47
330
1F
100
AcDbEntity
  8
破線
100
AcDbLine
 10
6.237048229057279
 20
370.0591923537125
 30
0.0
 11
6.237048229057279
 21
369.453817196091
 31
0.0
  0
LINE
  5
2D48
330
1F
100
AcDbEntity
  8
想像線
100
AcDbLine
 10
11.19947488984459
 20
369.3051507932141
 30
0.0
 11
11.19947488984459
 21
368.2559617280819
 31
0.0
  0
LINE
  5
2D49
330
1F
100
AcDbEntity
  8
想像線
100
AcDbLine
 10
10.12664261800452
 20
369.3051507932141
 30
0.0
 11
10.12664261800452
 21
368.2559617280819
 31
0.0
  0
LINE
  5
2D4A
330
1F
100
AcDbEntity
  8
想像線
100
AcDbLine
 10
6.284714656409562
 20
368.2559617280819
 30
0.0
 11
6.284714656409562
 21
369.446661728082
 31
0.0
  0
LINE
  5
2D4B
330
1F
100
AcDbEntity
  8
太線
100
AcDbLine
 10
14.9059512635045
 20
369.446661728082
 30
0.0
 11
13.71525126350454
 21
369.446661728082
 31
0.0
  0
LINE
  5
2D50
330
1F
100
AcDbEntity
  8
太線
100
AcDbLine
 10
36.50581787059943
 20
368.2559617280819
 30
0.0
 11
28.00365126350445
 21
368.2559617280819
 31
0.0
  0
LINE
  5
2D51
330
1F
100
AcDbEntity
  8
太線
100
AcDbLine
 10
27.76551126350443
 20
369.446661728082
 30
0.0
 11
36.50581787059943
 21
369.446661728082
 31
0.0
  0
LINE
  5
2D52
330
1F
100
AcDbEntity
  8
太線
 62
     0
100
AcDbLine
 10
28.00365126350445
 20
368.2559617280819
 30
0.0
 11
28.00365126350445
 21
364.719582728082
 31
0.0
  0
LINE
  5
2D53
330
1F
100
AcDbEntity
  8
太線
100
AcDbLine
 10
28.00365126350445
 20
362.3024617280819
 30
0.0
 11
31.57575126350446
 21
368.2559617280819
 31
0.0
  0
LINE
  5
2D54
330
1F
100
AcDbEntity
  8
想像線
100
AcDbLine
 10
26.81295126350446
 20
369.446661728082
 30
0.0
 11
26.81295126350446
 21
359.921061728082
 31
0.0
  0
LINE
  5
2D55
330
1F
100
AcDbEntity
  8
太線
 62
     0
100
AcDbLine
 10
28.00365126350445
 20
361.1117617280819
 30
0.0
 11
28.00365126350445
 21
360.159201728082
 31
0.0
  0
ARC
  5
2D56
330
1F
100
AcDbEntity
  8
太線
100
AcDbCircle
 10
27.76551126350443
 20
360.159201728082
 30
0.0
 40
0.23814
100
AcDbArc
 50
270.0
 51
0.0
  0
LINE
  5
2D57
330
1F
100
AcDbEntity
  8
太線
100
AcDbLine
 10
28.00365126350445
 20
364.719582728082
 30
0.0
 11
28.00365126350445
 21
361.1117617280819
 31
0.0
  0
CIRCLE
  5
2D58
330
1F
100
AcDbEntity
  8
太線
100
AcDbCircle
 10
28.99312597302508
 20
367.1864871547895
 30
0.0
 40
0.71442
  0
LINE
  5
2D59
330
1F
100
AcDbEntity
  8
想像線
100
AcDbLine
 10
31.50665897343998
 20
369.446661728082
 30
0.0
 11
31.50665897343998
 21
368.2559617280819
 31
0.0
  0
LINE
  5
2D5A
330
1F
100
AcDbEntity
  8
想像線
100
AcDbLine
 10
30.51045759666701
 20
369.446661728082
 30
0.0
 11
30.51045759666701
 21
368.2559617280819
 31
0.0
  0
LINE
  5
2D5B
330
1F
100
AcDbEntity
  8
想像線
100
AcDbLine
 10
41.85557786409265
 20
370.1725903197114
 30
0.0
 11
41.85557786409265
 21
368.9818903197112
 31
0.0
  0
LINE
  5
2D5C
330
1F
100
AcDbEntity
  8
太線
100
AcDbLine
 10
43.04627786409262
 20
370.1725903197114
 30
0.0
 11
43.04627786409262
 21
368.9818903197112
 31
0.0
  0
LINE
  5
2D60
330
1F
100
AcDbEntity
  8
破線
100
AcDbLine
 10
26.81295126350446
 20
276.4392562485649
 30
0.0
 11
26.81295126350446
 21
268.4853770339411
 31
0.0
  0
LINE
  5
2D61
330
1F
100
AcDbEntity
  8
破線
100
AcDbLine
 10
14.9449196271409
 20
276.4392562485649
 30
0.0
 11
14.9449196271409
 21
268.4853770339411
 31
0.0
  0
LINE
  5
2D66
330
1F
100
AcDbEntity
  8
太線
 62
     0
100
AcDbLine
 10
14.9059512635045
 20
285.9648562485649
 30
0.0
 11
27.76551126350443
 21
285.9648562485649
 31
0.0
  0
LINE
  5
2D67
330
1F
100
AcDbEntity
  8
太線
100
AcDbLine
 10
27.76551126350443
 20
276.439256248565
 30
0.0
 11
13.95339126350444
 21
276.4392562485649
 31
0.0
  0
LINE
  5
2D68
330
1F
100
AcDbEntity
  8
破線
100
AcDbLine
 10
14.34673483396528
 20
292.6674075087295
 30
0.0
 11
14.31060126350439
 21
285.9648562485649
 31
0.0
  0
LINE
  5
2D69
330
1F
100
AcDbEntity
  8
想像線
100
AcDbLine
 10
14.9449196271409
 20
285.9648562485649
 30
0.0
 11
14.91894071804989
 21
276.4392562485649
 31
0.0
  0
LINE
  5
2D6A
330
1F
100
AcDbEntity
  8
太線
100
AcDbLine
 10
10.14315126350442
 20
284.7741562485648
 30
0.0
 11
13.71525126350454
 21
278.8206562485648
 31
0.0
  0
LINE
  5
2D6B
330
1F
100
AcDbEntity
  8
太線
100
AcDbLine
 10
13.71525126350454
 20
284.7741562485648
 30
0.0
 11
13.71525126350454
 21
276.6773962485649
 31
0.0
  0
ARC
  5
2D6C
330
1F
100
AcDbEntity
  8
太線
100
AcDbCircle
 10
13.95339126350444
 20
276.6773962485649
 30
0.0
 40
0.23814
100
AcDbArc
 50
180.0
 51
270.0
  0
LINE
  5
2D6D
330
1F
100
AcDbEntity
  8
太線
 62
     0
100
AcDbLine
 10
13.71525126350454
 20
277.6299562485649
 30
0.0
 11
13.71525126350454
 21
276.4392562485649
 31
0.0
  0
LINE
  5
2D6E
330
1F
100
AcDbEntity
  8
太線
100
AcDbLine
 10
13.71525126350454
 20
284.7741562485648
 30
0.0
 11
5.213084656409563
 21
284.7741562485648
 31
0.0
  0
LINE
  5
2D6F
330
1F
100
AcDbEntity
  8
太線
100
AcDbLine
 10
13.71525126350454
 20
285.9648562485649
 30
0.0
 11
5.213084656409563
 21
285.9648562485649
 31
0.0
  0
LINE
  5
2D70
330
1F
100
AcDbEntity
  8
想像線
100
AcDbLine
 10
6.284714656409562
 20
284.7741562485648
 30
0.0
 11
6.284714656409562
 21
285.9648562485649
 31
0.0
  0
LINE
  5
2D71
330
1F
100
AcDbEntity
  8
破線
100
AcDbLine
 10
6.237048229057279
 20
286.5773868741954
 30
0.0
 11
6.237048229057279
 21
285.9720117165739
 31
0.0
  0
LINE
  5
2D72
330
1F
100
AcDbEntity
  8
太線
100
AcDbLine
 10
5.213084656409563
 20
284.7741562485648
 30
0.0
 11
5.213084656409563
 21
285.9648562485649
 31
0.0
  0
LINE
  5
2D73
330
1F
100
AcDbEntity
  8
太線
100
AcDbLine
 10
14.9059512635045
 20
285.9648562485649
 30
0.0
 11
13.71525126350454
 21
285.9648562485649
 31
0.0
  0
LINE
  5
2D74
330
1F
100
AcDbEntity
  8
想像線
100
AcDbLine
 10
10.12664261800452
 20
285.823345313697
 30
0.0
 11
10.12664261800452
 21
284.7741562485648
 31
0.0
  0
LINE
  5
2D75
330
1F
100
AcDbEntity
  8
想像線
100
AcDbLine
 10
11.19947488984459
 20
285.823345313697
 30
0.0
 11
11.19947488984459
 21
284.7741562485648
 31
0.0
  0
LINE
  5
2D76
330
1F
100
AcDbEntity
  8
想像線
100
AcDbLine
 10
10.12664261800452
 20
285.823345313697
 30
0.0
 11
10.12664261800452
 21
285.9648562485649
 31
0.0
  0
LINE
  5
2D77
330
1F
100
AcDbEntity
  8
想像線
100
AcDbLine
 10
11.19947488984459
 20
285.823345313697
 30
0.0
 11
11.19947488984459
 21
285.9648562485649
 31
0.0
  0
CIRCLE
  5
2D78
330
1F
100
AcDbEntity
  8
太線
100
AcDbCircle
 10
12.80091838648317
 20
283.7046816752724
 30
0.0
 40
0.71442
  0
LINE
  5
2D79
330
1F
100
AcDbEntity
  8
太線
 62
     0
100
AcDbLine
 10
13.71525126350454
 20
284.7741562485648
 30
0.0
 11
13.71525126350454
 21
281.2377772485649
 31
0.0
  0
LINE
  5
2D7A
330
1F
100
AcDbEntity
  8
破線
100
AcDbLine
 10
27.30372602283441
 20
285.9648562485649
 30
0.0
 11
27.30372602283441
 21
292.6674075087295
 31
0.0
  0
LINE
  5
2D7B
330
1F
100
AcDbEntity
  8
太線
100
AcDbLine
 10
28.00365126350445
 20
278.8206562485648
 30
0.0
 11
31.57575126350446
 21
284.7741562485648
 31
0.0
  0
LINE
  5
2D7C
330
1F
100
AcDbEntity
  8
太線
100
AcDbLine
 10
27.76551126350443
 20
285.9648562485649
 30
0.0
 11
36.50581787059943
 21
285.9648562485649
 31
0.0
  0
LINE
  5
2D7D
330
1F
100
AcDbEntity
  8
太線
100
AcDbLine
 10
36.50581787059943
 20
284.7741562485648
 30
0.0
 11
28.00365126350445
 21
284.7741562485648
 31
0.0
  0
LINE
  5
2D7E
330
1F
100
AcDbEntity
  8
太線
100
AcDbLine
 10
28.00365126350445
 20
281.2377772485649
 30
0.0
 11
28.00365126350445
 21
277.6299562485649
 31
0.0
  0
LINE
  5
2D7F
330
1F
100
AcDbEntity
  8
想像線
100
AcDbLine
 10
26.81295126350446
 20
285.9648562485649
 30
0.0
 11
26.81295126350446
 21
276.4392562485649
 31
0.0
  0
CIRCLE
  5
2D80
330
1F
100
AcDbEntity
  8
太線
100
AcDbCircle
 10
21.45041164718446
 20
278.7012463300666
 30
0.0
 40
0.9449999999999999
  0
LWPOLYLINE
  5
2D81
330
1F
100
AcDbEntity
  8
太線
100
AcDbPolyline
 90
        6
 70
     1
 43
0.0
 10
22.86559846555738
 20
278.1680954883905
 10
22.63774937283455
 20
279.5353992113265
 10
21.33970506772172
 20
280.0217279702673
 10
20.26950985533147
 20
279.1407530062721
 10
20.49735894805434
 20
277.7734492833362
 10
21.79540325316728
 20
277.2871205243954
  0
CIRCLE
  5
2D82
330
1F
100
AcDbEntity
  8
想像線
100
AcDbCircle
 10
21.45041164718446
 20
278.7012463300666
 30
0.0
 40
0.7237735738195318
  0
ARC
  5
2D83
330
1F
100
AcDbEntity
  8
太線
100
AcDbCircle
 10
27.76551126350443
 20
276.6773962485649
 30
0.0
 40
0.23814
100
AcDbArc
 50
270.0
 51
0.0
  0
LINE
  5
2D84
330
1F
100
AcDbEntity
  8
太線
 62
     0
100
AcDbLine
 10
28.00365126350445
 20
277.6299562485649
 30
0.0
 11
28.00365126350445
 21
276.6773962485649
 31
0.0
  0
CIRCLE
  5
2D85
330
1F
100
AcDbEntity
  8
太線
100
AcDbCircle
 10
28.99312597302508
 20
283.7046816752724
 30
0.0
 40
0.71442
  0
LINE
  5
2D86
330
1F
100
AcDbEntity
  8
太線
 62
     0
100
AcDbLine
 10
28.00365126350445
 20
284.7741562485648
 30
0.0
 11
28.00365126350445
 21
281.2377772485649
 31
0.0
  0
LINE
  5
2D87
330
1F
100
AcDbEntity
  8
想像線
100
AcDbLine
 10
30.51045759666701
 20
285.9648562485649
 30
0.0
 11
30.51045759666701
 21
284.7741562485648
 31
0.0
  0
LINE
  5
2D88
330
1F
100
AcDbEntity
  8
想像線
100
AcDbLine
 10
31.50665897343998
 20
285.9648562485649
 30
0.0
 11
31.50665897343998
 21
284.7741562485648
 31
0.0
  0
LINE
  5
2D89
330
1F
100
AcDbEntity
  8
想像線
  6
PHANTOM2
100
AcDbLine
 10
14.71237958933477
 20
405.4550771906864
 30
0.0
 11
27.1359795893349
 21
405.4550771906864
 31
0.0
  0
ARC
  5
2D8A
330
1F
100
AcDbEntity
  8
想像線
  6
PHANTOM2
100
AcDbCircle
 10
20.92417958933487
 20
395.070674900467
 30
0.0
 40
12.10050702099354
100
AcDbArc
 50
59.11274362250044
 51
120.8872563774995
  0
LINE
  5
2D8B
330
1F
100
AcDbEntity
  8
太線
  6
PHANTOM2
100
AcDbLine
 10
13.70437958933479
 20
400.2518892498237
 30
0.0
 11
28.14397958933483
 21
400.2518892498237
 31
0.0
  0
ARC
  5
2D8C
330
1F
100
AcDbEntity
  8
太線
  6
PHANTOM2
100
AcDbCircle
 10
20.92417958933487
 20
396.4615257498237
 30
0.0
 40
11.6023635
100
AcDbArc
 50
52.76279306230389
 51
127.2372069376961
  0
ARC
  5
2D8D
330
1F
100
AcDbEntity
  8
太線
  6
PHANTOM2
100
AcDbCircle
 10
14.20837958933481
 20
405.2973450518541
 30
0.0
 40
0.504
100
AcDbArc
 50
127.2372069376961
 51
180.0
  0
LINE
  5
2D8E
330
1F
100
AcDbEntity
  8
想像線
  6
PHANTOM2
100
AcDbLine
 10
14.71237958933477
 20
400.2518892498237
 30
0.0
 11
14.71237958933477
 21
405.4550771906864
 31
0.0
  0
LINE
  5
2D8F
330
1F
100
AcDbEntity
  8
太線
  6
PHANTOM2
100
AcDbLine
 10
13.70437958933479
 20
400.2518892498237
 30
0.0
 11
13.70437958933479
 21
405.297345051854
 31
0.0
  0
LWPOLYLINE
  5
2D90
330
1F
100
AcDbEntity
  8
太線
  6
PHANTOM2
100
AcDbPolyline
 90
        6
 70
     1
 43
0.0
 10
22.33914095031065
 20
401.2674621005946
 10
22.12816956815987
 20
402.533484066276
 10
20.92627669305528
 20
402.9837884727026
 10
19.93535520010146
 20
402.1680709134479
 10
20.14632658225218
 20
400.9020489477665
 10
21.34821945735672
 20
400.4517445413399
  0
CIRCLE
  5
2D91
330
1F
100
AcDbEntity
  8
想像線
  6
PHANTOM2
100
AcDbCircle
 10
21.20543310161707
 20
401.6860660657966
 30
0.0
 40
0.6285670100036383
  0
ARC
  5
2D92
330
1F
100
AcDbEntity
  8
太線
  6
PHANTOM2
100
AcDbCircle
 10
27.63997958933481
 20
405.297345051854
 30
0.0
 40
0.504
100
AcDbArc
 50
0.0
 51
52.76279306230389
  0
LINE
  5
2D93
330
1F
100
AcDbEntity
  8
想像線
  6
PHANTOM2
100
AcDbLine
 10
27.1359795893349
 20
400.2518892498237
 30
0.0
 11
27.1359795893349
 21
405.4550771906864
 31
0.0
  0
LINE
  5
2D94
330
1F
100
AcDbEntity
  8
太線
  6
PHANTOM2
100
AcDbLine
 10
28.14397958933483
 20
400.2518892498237
 30
0.0
 11
28.14397958933483
 21
405.297345051854
 31
0.0
  0
LINE
  5
2D95
330
1F
100
AcDbEntity
  8
太線
100
AcDbLine
 10
21.25952142941804
 20
239.8590789755727
 30
0.0
 11
27.28652142941797
 21
239.8590789755727
 31
0.0
  0
LINE
  5
2D96
330
1F
100
AcDbEntity
  8
太線
100
AcDbLine
 10
21.25952142941804
 20
237.4090789755728
 30
0.0
 11
26.89452142941798
 21
237.4090789755728
 31
0.0
  0
LINE
  5
2D97
330
1F
100
AcDbEntity
  8
太線
100
AcDbLine
 10
21.25952142941804
 20
236.2416019514745
 30
0.0
 11
26.89452142941798
 21
236.2416019514745
 31
0.0
  0
LINE
  5
2D98
330
1F
100
AcDbEntity
  8
太線
100
AcDbLine
 10
26.89452142941798
 20
236.2416019514745
 30
0.0
 11
22.1201380212388
 21
225.8940789755728
 31
0.0
  0
LINE
  5
2D99
330
1F
100
AcDbEntity
  8
太線
100
AcDbLine
 10
27.70302142941796
 20
237.4090789755728
 30
0.0
 11
21.8836909196425
 21
224.7968417490632
 31
0.0
  0
HATCH
  5
2D9A
330
1F
100
AcDbEntity
  8
太線
100
AcDbHatch
 10
0.0
 20
0.0
 30
0.0
210
0.0
220
0.0
230
1.0
  2
SOLID
 70
     1
 71
     0
 91
        1
 92
        7
 72
     1
 73
     1
 93
       11
 10
27.70302142941801
 20
237.4090789755726
 42
0.0
 10
27.70302142941807
 20
239.8590789755728
 42
0.0
 10
27.28652142941797
 20
239.8590789755727
 42
0.0
 10
27.13952142941798
 20
237.4090789755728
 42
0.0
 10
26.89452142941803
 20
237.4090789755728
 42
0.0
 10
26.89452142941803
 20
236.2416019514746
 42
0.0
 10
22.1201380212388
 20
225.8940789755728
 42
0.0
 10
21.62702142941793
 20
225.8940789755728
 42
-0.3401036698125633
 10
21.25952142941804
 20
225.6114058327335
 42
0.0
 10
21.25952142941804
 20
224.4986021041672
 42
0.2339063408665641
 10
21.88369091964261
 20
224.7968417490633
 42
0.0
 97
        0
 75
     0
 76
     1
 47
0.1956882355081249
 98
        1
 10
21.67666906881578
 20
225.2850179994103
  0
LINE
  5
2D9B
330
1F
100
AcDbEntity
  8
破線
100
AcDbLine
 10
20.39890483759723
 20
225.8940789755728
 30
0.0
 11
15.62452142941799
 21
236.2416019514745
 31
0.0
  0
LINE
  5
2D9C
330
1F
100
AcDbEntity
  8
太線
100
AcDbLine
 10
20.58427962630549
 20
224.9075307922044
 30
0.0
 11
14.8160214294179
 21
237.4090789755728
 31
0.0
  0
LINE
  5
2D9D
330
1F
100
AcDbEntity
  8
太線
100
AcDbLine
 10
21.25952142941804
 20
224.4986021041672
 30
0.0
 11
21.25952142941804
 21
239.8590789755727
 31
0.0
  0
LINE
  5
2D9E
330
1F
100
AcDbEntity
  8
太線
100
AcDbLine
 10
21.62702142941793
 20
225.8940789755728
 30
0.0
 11
22.1201380212388
 21
225.8940789755728
 31
0.0
  0
ARC
  5
2D9F
330
1F
100
AcDbEntity
  8
太線
100
AcDbCircle
 10
21.25952142941798
 20
225.9916335995519
 30
0.0
 40
0.3802277668184055
100
AcDbArc
 50
270.0
 51
345.1334296091831
  0
LINE
  5
2DA0
330
1F
100
AcDbEntity
  8
破線
100
AcDbLine
 10
20.89202142941798
 20
225.8940789755728
 30
0.0
 11
20.39890483759723
 21
225.8940789755728
 31
0.0
  0
ARC
  5
2DA1
330
1F
100
AcDbEntity
  8
太線
100
AcDbCircle
 10
21.27028652686579
 20
225.2783373866857
 30
0.0
 40
0.7798095909433453
100
AcDbArc
 50
191.8439569037162
 51
330.9388200506417
  0
ARC
  5
2DA2
330
1F
100
AcDbEntity
  8
破線
100
AcDbCircle
 10
21.25952142941804
 20
225.9916335995519
 30
0.0
 40
0.3802277668184125
100
AcDbArc
 50
194.8665703908169
 51
345.1334296091831
  0
LINE
  5
2DA3
330
1F
100
AcDbEntity
  8
破線
100
AcDbLine
 10
15.62452142941799
 20
237.4090789755728
 30
0.0
 11
15.37952142941799
 21
237.4090789755728
 31
0.0
  0
LINE
  5
2DA4
330
1F
100
AcDbEntity
  8
太線
100
AcDbLine
 10
15.23252142941794
 20
239.8590789755727
 30
0.0
 11
21.25952142941804
 21
239.8590789755727
 31
0.0
  0
LINE
  5
2DA5
330
1F
100
AcDbEntity
  8
太線
100
AcDbLine
 10
14.8160214294179
 20
237.4090789755728
 30
0.0
 11
21.25952142941804
 21
237.4090789755728
 31
0.0
  0
LINE
  5
2DA6
330
1F
100
AcDbEntity
  8
太線
100
AcDbLine
 10
14.8160214294179
 20
239.8590789755727
 30
0.0
 11
15.23252142941794
 21
239.8590789755727
 31
0.0
  0
LINE
  5
2DA7
330
1F
100
AcDbEntity
  8
太線
100
AcDbLine
 10
14.8160214294179
 20
237.4090789755728
 30
0.0
 11
14.8160214294179
 21
239.8590789755727
 31
0.0
  0
LINE
  5
2DA8
330
1F
100
AcDbEntity
  8
破線
100
AcDbLine
 10
15.37952142941799
 20
237.4090789755728
 30
0.0
 11
15.23252142941794
 21
239.8590789755727
 31
0.0
  0
LINE
  5
2DA9
330
1F
100
AcDbEntity
  8
破線
100
AcDbLine
 10
15.62452142941799
 20
236.2416019514745
 30
0.0
 11
15.62452142941799
 21
237.4090789755728
 31
0.0
  0
LINE
  5
2DAA
330
1F
100
AcDbEntity
  8
太線
100
AcDbLine
 10
27.28652142941797
 20
239.8590789755727
 30
0.0
 11
27.70302142941796
 21
239.8590789755727
 31
0.0
  0
LINE
  5
2DAB
330
1F
100
AcDbEntity
  8
太線
100
AcDbLine
 10
27.13952142941798
 20
237.4090789755728
 30
0.0
 11
26.89452142941798
 21
237.4090789755728
 31
0.0
  0
LINE
  5
2DAC
330
1F
100
AcDbEntity
  8
太線
100
AcDbLine
 10
26.89452142941798
 20
237.4090789755728
 30
0.0
 11
26.89452142941798
 21
236.2416019514745
 31
0.0
  0
LINE
  5
2DAD
330
1F
100
AcDbEntity
  8
太線
100
AcDbLine
 10
27.28652142941797
 20
239.8590789755727
 30
0.0
 11
27.13952142941798
 21
237.4090789755728
 31
0.0
  0
LINE
  5
2DAE
330
1F
100
AcDbEntity
  8
太線
100
AcDbLine
 10
27.70302142941796
 20
239.8590789755727
 30
0.0
 11
27.70302142941796
 21
237.4090789755728
 31
0.0
  0
LINE
  5
2DB1
330
1F
100
AcDbEntity
  8
破線
100
AcDbLine
 10
26.81295126350446
 20
369.446661728082
 30
0.0
 11
27.1359795893349
 21
400.2518892498237
 31
0.0
  0
LINE
  5
2DB2
330
1F
100
AcDbEntity
  8
破線
100
AcDbLine
 10
14.9449196271409
 20
369.446661728082
 30
0.0
 11
14.71237958933477
 21
400.2518892498237
 31
0.0
  0
LINE
  5
2DB3
330
1F
100
AcDbEntity
  8
破線
100
AcDbLine
 10
26.81295126350446
 20
351.9671825134583
 30
0.0
 11
27.30372602283441
 21
292.6674075087295
 31
0.0
  0
LINE
  5
2DB4
330
1F
100
AcDbEntity
  8
破線
100
AcDbLine
 10
14.9449196271409
 20
351.9671825134583
 30
0.0
 11
14.34673483396528
 21
292.6674075087295
 31
0.0
  0
LINE
  5
2DB5
330
1F
100
AcDbEntity
  8
破線
100
AcDbLine
 10
26.81295126350446
 20
268.4853770339411
 30
0.0
 11
26.81295126350446
 21
239.6001192666225
 31
0.0
  0
LINE
  5
2DB6
330
1F
100
AcDbEntity
  8
破線
100
AcDbLine
 10
14.9449196271409
 20
268.4853770339411
 30
0.0
 11
14.9449196271409
 21
240.0271267578777
 31
0.0
  0
TEXT
  5
2DB7
330
1F
100
AcDbEntity
  8
文字
100
AcDbText
 10
51.36359866227485
 20
230.7903479732317
 30
0.0
 40
7.0
  1
10-1B
 51
15.0
  7
OKANO
100
AcDbText
  0
LEADER
  5
2DB8
330
1F
100
AcDbEntity
  8
寸法線
100
AcDbLeader
  3
sunpo
 76
     2
 10
26.13395202130186
 20
278.559196123129
 30
0.0
 10
50.82787793061652
 20
237.7308691780579
 30
0.0
1001
ACAD
1000
DSTYLE
1002
{
1070
   147
1040
1.0
1070
    77
1070
     0
1002
}
  0
LINE
  5
2E27
330
1F
100
AcDbEntity
  8
太線
100
AcDbLine
 10
-318.7711799712822
 20
238.5154967396636
 30
0.0
 11
-313.1361799712823
 21
238.5154967396636
 31
0.0
  0
LINE
  5
2E28
330
1F
100
AcDbEntity
  8
太線
100
AcDbLine
 10
-318.7711799712822
 20
237.3480197155652
 30
0.0
 11
-313.1361799712823
 21
237.3480197155652
 31
0.0
  0
LINE
  5
2E29
330
1F
100
AcDbEntity
  8
太線
100
AcDbLine
 10
-313.1361799712823
 20
237.3480197155652
 30
0.0
 11
-317.9105633794615
 21
227.0004967396636
 31
0.0
  0
LINE
  5
2E2A
330
1F
100
AcDbEntity
  8
太線
100
AcDbLine
 10
-318.7711799712822
 20
240.9654967396635
 30
0.0
 11
-312.7441799712823
 21
240.9654967396635
 31
0.0
  0
HATCH
  5
2E2B
330
1F
100
AcDbEntity
  8
太線
100
AcDbHatch
 10
0.0
 20
0.0
 30
0.0
210
0.0
220
0.0
230
1.0
  2
SOLID
 70
     1
 71
     0
 91
        1
 92
        7
 72
     1
 73
     1
 93
       11
 10
-312.3276799712822
 20
238.5154967396635
 42
0.0
 10
-312.3276799712822
 20
240.9654967396636
 42
0.0
 10
-312.7441799712823
 20
240.9654967396635
 42
0.0
 10
-312.8911799712823
 20
238.5154967396636
 42
0.0
 10
-313.1361799712822
 20
238.5154967396635
 42
0.0
 10
-313.1361799712822
 20
237.3480197155654
 42
0.0
 10
-317.9105633794615
 20
227.0004967396636
 42
0.0
 10
-318.4036799712823
 20
227.0004967396636
 42
-0.3401036698125633
 10
-318.7711799712822
 20
226.7178235968243
 42
0.0
 10
-318.7711799712822
 20
225.605019868258
 42
0.2339063408665641
 10
-318.1470104810577
 20
225.9032595131541
 42
0.0
 97
        0
 75
     0
 76
     1
 47
0.1956882355081249
 98
        1
 10
-318.3540323318845
 20
226.3914357635011
  0
LINE
  5
2E2C
330
1F
100
AcDbEntity
  8
太線
100
AcDbLine
 10
-312.3276799712823
 20
238.5154967396636
 30
0.0
 11
-318.1470104810578
 21
225.903259513154
 31
0.0
  0
LINE
  5
2E2D
330
1F
100
AcDbEntity
  8
太線
100
AcDbLine
 10
-318.7711799712822
 20
225.605019868258
 30
0.0
 11
-318.7711799712822
 21
240.9654967396635
 31
0.0
  0
LINE
  5
2E2E
330
1F
100
AcDbEntity
  8
破線
100
AcDbLine
 10
-324.4061799712823
 20
237.3480197155652
 30
0.0
 11
-324.4061799712823
 21
238.5154967396636
 31
0.0
  0
LINE
  5
2E2F
330
1F
100
AcDbEntity
  8
太線
100
AcDbLine
 10
-319.4464217743948
 20
226.0139485562952
 30
0.0
 11
-325.2146799712824
 21
238.5154967396636
 31
0.0
  0
LINE
  5
2E30
330
1F
100
AcDbEntity
  8
破線
100
AcDbLine
 10
-319.631796563103
 20
227.0004967396636
 30
0.0
 11
-324.4061799712823
 21
237.3480197155652
 31
0.0
  0
ARC
  5
2E31
330
1F
100
AcDbEntity
  8
破線
100
AcDbCircle
 10
-318.7711799712822
 20
227.0980513636427
 30
0.0
 40
0.3802277668184125
100
AcDbArc
 50
194.8665703908169
 51
345.1334296091831
  0
ARC
  5
2E32
330
1F
100
AcDbEntity
  8
太線
100
AcDbCircle
 10
-318.7711799712823
 20
227.0980513636427
 30
0.0
 40
0.3802277668184055
100
AcDbArc
 50
270.0
 51
345.1334296091831
  0
LINE
  5
2E33
330
1F
100
AcDbEntity
  8
破線
100
AcDbLine
 10
-319.1386799712823
 20
227.0004967396636
 30
0.0
 11
-319.631796563103
 21
227.0004967396636
 31
0.0
  0
ARC
  5
2E34
330
1F
100
AcDbEntity
  8
太線
100
AcDbCircle
 10
-318.7604148738345
 20
226.3847551507765
 30
0.0
 40
0.7798095909433453
100
AcDbArc
 50
191.8439569037162
 51
330.9388200506417
  0
LINE
  5
2E35
330
1F
100
AcDbEntity
  8
太線
100
AcDbLine
 10
-318.4036799712823
 20
227.0004967396636
 30
0.0
 11
-317.9105633794615
 21
227.0004967396636
 31
0.0
  0
LINE
  5
2E36
330
1F
100
AcDbEntity
  8
太線
100
AcDbLine
 10
-325.2146799712824
 20
238.5154967396636
 30
0.0
 11
-318.7711799712822
 21
238.5154967396636
 31
0.0
  0
LINE
  5
2E37
330
1F
100
AcDbEntity
  8
太線
100
AcDbLine
 10
-324.7981799712823
 20
240.9654967396635
 30
0.0
 11
-318.7711799712822
 21
240.9654967396635
 31
0.0
  0
LINE
  5
2E38
330
1F
100
AcDbEntity
  8
太線
100
AcDbLine
 10
-325.2146799712824
 20
240.9654967396635
 30
0.0
 11
-324.7981799712823
 21
240.9654967396635
 31
0.0
  0
LINE
  5
2E39
330
1F
100
AcDbEntity
  8
破線
100
AcDbLine
 10
-324.4061799712823
 20
238.5154967396636
 30
0.0
 11
-324.6511799712823
 21
238.5154967396636
 31
0.0
  0
LINE
  5
2E3A
330
1F
100
AcDbEntity
  8
破線
100
AcDbLine
 10
-324.6511799712823
 20
238.5154967396636
 30
0.0
 11
-324.7981799712823
 21
240.9654967396635
 31
0.0
  0
LINE
  5
2E3B
330
1F
100
AcDbEntity
  8
太線
100
AcDbLine
 10
-325.2146799712824
 20
238.5154967396636
 30
0.0
 11
-325.2146799712824
 21
240.9654967396635
 31
0.0
  0
LINE
  5
2E3C
330
1F
100
AcDbEntity
  8
太線
100
AcDbLine
 10
-313.1361799712823
 20
238.5154967396636
 30
0.0
 11
-313.1361799712823
 21
237.3480197155652
 31
0.0
  0
LINE
  5
2E3D
330
1F
100
AcDbEntity
  8
太線
100
AcDbLine
 10
-312.7441799712823
 20
240.9654967396635
 30
0.0
 11
-312.3276799712823
 21
240.9654967396635
 31
0.0
  0
LINE
  5
2E3E
330
1F
100
AcDbEntity
  8
太線
100
AcDbLine
 10
-312.3276799712823
 20
240.9654967396635
 30
0.0
 11
-312.3276799712823
 21
238.5154967396636
 31
0.0
  0
LINE
  5
2E3F
330
1F
100
AcDbEntity
  8
太線
100
AcDbLine
 10
-312.7441799712823
 20
240.9654967396635
 30
0.0
 11
-312.8911799712823
 21
238.5154967396636
 31
0.0
  0
LINE
  5
2E40
330
1F
100
AcDbEntity
  8
太線
100
AcDbLine
 10
-312.8911799712823
 20
238.5154967396636
 30
0.0
 11
-313.1361799712823
 21
238.5154967396636
 31
0.0
  0
ARC
  5
2E63
330
1F
100
AcDbEntity
  8
太線
100
AcDbCircle
 10
-318.2485111057477
 20
396.0799850548909
 30
0.0
 40
11.6023635
100
AcDbArc
 50
52.76279306230389
 51
127.2372069376961
  0
LINE
  5
2E64
330
1F
100
AcDbEntity
  8
想像線
100
AcDbLine
 10
-324.4603111057478
 20
405.0735364957536
 30
0.0
 11
-312.0367111057476
 21
405.0735364957536
 31
0.0
  0
ARC
  5
2E65
330
1F
100
AcDbEntity
  8
想像線
100
AcDbCircle
 10
-318.2485111057477
 20
394.6891342055341
 30
0.0
 40
12.10050702099354
100
AcDbArc
 50
59.11274362250044
 51
120.8872563774995
  0
LINE
  5
2E66
330
1F
100
AcDbEntity
  8
太線
100
AcDbLine
 10
-325.4683111057477
 20
399.8703485548909
 30
0.0
 11
-311.0287111057477
 21
399.8703485548909
 31
0.0
  0
LWPOLYLINE
  5
2E67
330
1F
100
AcDbEntity
  8
太線
100
AcDbPolyline
 90
        6
 70
     1
 43
0.0
 10
-316.8335497447719
 20
400.8859214056618
 10
-317.0445211269226
 20
402.1519433713432
 10
-318.2464140020272
 20
402.6022477777698
 10
-319.2373354949811
 20
401.786530218515
 10
-319.0263641128304
 20
400.5205082528337
 10
-317.8244712377258
 20
400.070203846407
  0
LINE
  5
2E68
330
1F
100
AcDbEntity
  8
想像線
100
AcDbLine
 10
-324.4603111057478
 20
399.8703485548909
 30
0.0
 11
-324.4603111057478
 21
405.0735364957536
 31
0.0
  0
LINE
  5
2E69
330
1F
100
AcDbEntity
  8
太線
100
AcDbLine
 10
-325.4683111057477
 20
399.8703485548909
 30
0.0
 11
-325.4683111057477
 21
404.9158043569212
 31
0.0
  0
ARC
  5
2E6A
330
1F
100
AcDbEntity
  8
太線
100
AcDbCircle
 10
-324.9643111057477
 20
404.9158043569212
 30
0.0
 40
0.504
100
AcDbArc
 50
127.2372069376961
 51
180.0
  0
CIRCLE
  5
2E6B
330
1F
100
AcDbEntity
  8
想像線
100
AcDbCircle
 10
-317.9672575934655
 20
401.3045253708638
 30
0.0
 40
0.6285670100036383
  0
LINE
  5
2E6C
330
1F
100
AcDbEntity
  8
想像線
100
AcDbLine
 10
-312.0367111057476
 20
399.8703485548909
 30
0.0
 11
-312.0367111057476
 21
405.0735364957536
 31
0.0
  0
LINE
  5
2E6D
330
1F
100
AcDbEntity
  8
太線
100
AcDbLine
 10
-311.0287111057477
 20
399.8703485548909
 30
0.0
 11
-311.0287111057477
 21
404.9158043569212
 31
0.0
  0
ARC
  5
2E6E
330
1F
100
AcDbEntity
  8
太線
100
AcDbCircle
 10
-311.5327111057477
 20
404.9158043569212
 30
0.0
 40
0.504
100
AcDbArc
 50
0.0
 51
52.76279306230389
  0
LINE
  5
2E91
330
1F
100
AcDbEntity
  8
太線
 62
     0
100
AcDbLine
 10
-323.8377848601682
 20
368.2774455119323
 30
0.0
 11
-312.4977848601681
 21
368.2774455119323
 31
0.0
  0
LINE
  5
2E92
330
1F
100
AcDbEntity
  8
太線
 62
     0
100
AcDbLine
 10
-312.4977848601681
 20
380.8774455119323
 30
0.0
 11
-323.8377848601682
 21
380.8774455119323
 31
0.0
  0
LWPOLYLINE
  5
2E93
330
1F
100
AcDbEntity
  8
太線
100
AcDbPolyline
 90
        4
 70
     1
 43
0.0
 10
-326.0197495845161
 20
375.8013318416398
 10
-326.0670047489226
 20
373.5384449734838
 10
-325.3346157559484
 20
373.5231507213674
 10
-325.2873605915419
 20
375.7860375895234
  0
LINE
  5
2E94
330
1F
100
AcDbEntity
  8
想像線
100
AcDbLine
 10
-323.8377848601682
 20
368.2774455119323
 30
0.0
 11
-323.8377848601682
 21
380.8774455119323
 31
0.0
  0
LINE
  5
2E95
330
1F
100
AcDbEntity
  8
太線
100
AcDbLine
 10
-324.8877848601682
 20
368.2774455119323
 30
0.0
 11
-324.8877848601682
 21
380.8774455119323
 31
0.0
  0
LINE
  5
2E96
330
1F
100
AcDbEntity
  8
太線
 62
     0
100
AcDbLine
 10
-324.8877848601682
 20
368.4874455119323
 30
0.0
 11
-324.8877848601682
 21
372.4459455119323
 31
0.0
  0
ARC
  5
2E97
330
1F
100
AcDbEntity
  8
太線
 62
     0
100
AcDbCircle
 10
-324.6777848601681
 20
368.4874455119323
 30
0.0
 40
0.21
100
AcDbArc
 50
180.0
 51
270.0
  0
LINE
  5
2E98
330
1F
100
AcDbEntity
  8
太線
100
AcDbLine
 10
-323.8377848601682
 20
368.2774455119323
 30
0.0
 11
-324.8877848601682
 21
368.2774455119323
 31
0.0
  0
LINE
  5
2E99
330
1F
100
AcDbEntity
  8
太線
 62
     0
100
AcDbLine
 10
-324.8877848601682
 20
375.6274455119323
 30
0.0
 11
-324.8877848601682
 21
380.6674455119323
 31
0.0
  0
LINE
  5
2E9A
330
1F
100
AcDbEntity
  8
太線
100
AcDbLine
 10
-324.8877848601682
 20
380.8774455119323
 30
0.0
 11
-323.8377848601682
 21
380.8774455119323
 31
0.0
  0
ARC
  5
2E9B
330
1F
100
AcDbEntity
  8
太線
 62
     0
100
AcDbCircle
 10
-324.6777848601681
 20
380.6674455119323
 30
0.0
 40
0.21
100
AcDbArc
 50
90.0
 51
180.0
  0
LINE
  5
2E9C
330
1F
100
AcDbEntity
  8
太線
100
AcDbLine
 10
-325.2609506920015
 20
375.0739832992132
 30
0.0
 11
-324.8410465447556
 21
375.0652145711818
 31
0.0
  0
LINE
  5
2E9D
330
1F
100
AcDbEntity
  8
太線
100
AcDbLine
 10
-325.2609506920015
 20
374.1442539521564
 30
0.0
 11
-324.8410465447556
 21
374.1354852241249
 31
0.0
  0
ARC
  5
2E9E
330
1F
100
AcDbEntity
  8
太線
100
AcDbCircle
 10
-325.6936971375902
 20
373.8495046332731
 30
0.0
 40
0.336395904185381
100
AcDbArc
 50
120.2768690410837
 51
237.330498741788
  0
ARC
  5
2E9F
330
1F
100
AcDbEntity
  8
太線
100
AcDbCircle
 10
-325.5338355972397
 20
375.4714960276183
 30
0.0
 40
0.4618890767551908
100
AcDbArc
 50
135.0164748733438
 51
228.0386083516507
  0
ARC
  5
2EA0
330
1F
100
AcDbEntity
  8
太線
100
AcDbCircle
 10
-325.2707314735949
 20
374.7104938391235
 30
0.0
 40
0.7786796849668625
100
AcDbArc
 50
144.6296958316645
 51
220.5989673295839
  0
LINE
  5
2EA1
330
1F
100
AcDbEntity
  8
太線
 62
     0
100
AcDbLine
 10
-303.0477848601681
 20
371.4589455119323
 30
0.0
 11
-311.2377848601682
 21
371.4589455119323
 31
0.0
  0
LINE
  5
2EA2
330
1F
100
AcDbEntity
  8
太線
 62
     0
100
AcDbLine
 10
-311.2377848601682
 20
370.3774455119323
 30
0.0
 11
-302.8377848601682
 21
370.3774455119323
 31
0.0
  0
LINE
  5
2EA3
330
1F
100
AcDbEntity
  8
太線
100
AcDbLine
 10
-312.2877848601682
 20
372.5089455119323
 30
0.0
 11
-312.2877848601682
 21
380.8774455119323
 31
0.0
  0
LINE
  5
2EA4
330
1F
100
AcDbEntity
  8
想像線
100
AcDbLine
 10
-313.3377848601682
 20
368.2774455119323
 30
0.0
 11
-313.3377848601682
 21
380.8774455119323
 31
0.0
  0
ARC
  5
2EA5
330
1F
100
AcDbEntity
  8
太線
 62
     0
100
AcDbCircle
 10
-312.4977848601681
 20
368.4874455119323
 30
0.0
 40
0.21
100
AcDbArc
 50
270.0
 51
0.000000000000007
  0
ARC
  5
2EA6
330
1F
100
AcDbEntity
  8
太線
 62
     0
100
AcDbCircle
 10
-311.2377848601681
 20
369.3274455119324
 30
0.0
 40
1.049999999999999
100
AcDbArc
 50
90.0
 51
180.0
  0
ARC
  5
2EA7
330
1F
100
AcDbEntity
  8
太線
 62
     0
100
AcDbCircle
 10
-311.2377848601681
 20
372.5089455119323
 30
0.0
 40
1.049999999999999
100
AcDbArc
 50
180.0
 51
270.0
  0
LINE
  5
2EA8
330
1F
100
AcDbEntity
  8
太線
100
AcDbLine
 10
-312.2877848601682
 20
368.4874455119323
 30
0.0
 11
-312.2877848601682
 21
369.3274455119324
 31
0.0
  0
LINE
  5
2EA9
330
1F
100
AcDbEntity
  8
想像線
100
AcDbLine
 10
-309.5577848601681
 20
370.3774455119323
 30
0.0
 11
-309.5577848601681
 21
371.4589455119323
 31
0.0
  0
LINE
  5
2EAA
330
1F
100
AcDbEntity
  8
想像線
100
AcDbLine
 10
-308.7177848601681
 20
370.3774455119323
 30
0.0
 11
-308.7177848601681
 21
371.4589455119323
 31
0.0
  0
LINE
  5
2EAB
330
1F
100
AcDbEntity
  8
太線
100
AcDbLine
 10
-312.4977848601681
 20
368.2774455119323
 30
0.0
 11
-310.1877848601682
 21
370.3774455119323
 31
0.0
  0
ARC
  5
2EAC
330
1F
100
AcDbEntity
  8
太線
 62
     0
100
AcDbCircle
 10
-312.4977848601681
 20
380.6674455119323
 30
0.0
 40
0.21
100
AcDbArc
 50
0.000000000000007
 51
90.0
  0
LINE
  5
2EAD
330
1F
100
AcDbEntity
  8
想像線
100
AcDbLine
 10
-307.2587727984456
 20
370.3774455119323
 30
0.0
 11
-307.2587727984456
 21
371.4589455119323
 31
0.0
  0
LINE
  5
2EAE
330
1F
100
AcDbEntity
  8
想像線
100
AcDbLine
 10
-306.4187727984456
 20
370.3774455119323
 30
0.0
 11
-306.4187727984456
 21
371.4589455119323
 31
0.0
  0
LINE
  5
2EAF
330
1F
100
AcDbEntity
  8
想像線
100
AcDbLine
 10
-308.0987727984455
 20
370.3774455119323
 30
0.0
 11
-308.0987727984455
 21
371.4589455119323
 31
0.0
  0
LINE
  5
2EB0
330
1F
100
AcDbEntity
  8
想像線
100
AcDbLine
 10
-305.5787727984456
 20
370.3774455119323
 30
0.0
 11
-305.5787727984456
 21
371.4589455119323
 31
0.0
  0
LINE
  5
2EB1
330
1F
100
AcDbEntity
  8
太線
100
AcDbLine
 10
-302.8377848601682
 20
370.3774455119323
 30
0.0
 11
-302.8377848601682
 21
371.2489455119324
 31
0.0
  0
ARC
  5
2EB2
330
1F
100
AcDbEntity
  8
太線
100
AcDbCircle
 10
-303.0477848601681
 20
371.2489455119324
 30
0.0
 40
0.21
100
AcDbArc
 50
0.000000000000007
 51
90.0
  0
LINE
  5
2EB3
330
1F
100
AcDbEntity
  8
太線
 62
     0
100
AcDbLine
 10
-311.2377848601682
 20
288.8169311386852
 30
0.0
 11
-302.8377848601682
 21
288.8169311386852
 31
0.0
  0
LINE
  5
2EB4
330
1F
100
AcDbEntity
  8
太線
 62
     0
100
AcDbLine
 10
-303.0477848601681
 20
289.8984311386852
 30
0.0
 11
-311.2377848601682
 21
289.8984311386852
 31
0.0
  0
LINE
  5
2EB5
330
1F
100
AcDbEntity
  8
想像線
100
AcDbLine
 10
-313.3377848601682
 20
286.7169311386852
 30
0.0
 11
-313.3377848601682
 21
299.3169311386852
 31
0.0
  0
LINE
  5
2EB6
330
1F
100
AcDbEntity
  8
太線
100
AcDbLine
 10
-312.2877848601682
 20
290.9484311386852
 30
0.0
 11
-312.2877848601682
 21
299.3169311386852
 31
0.0
  0
LINE
  5
2EB7
330
1F
100
AcDbEntity
  8
太線
100
AcDbLine
 10
-324.8877848601682
 20
286.7169311386852
 30
0.0
 11
-324.8877848601682
 21
299.3169311386852
 31
0.0
  0
LINE
  5
2EB8
330
1F
100
AcDbEntity
  8
想像線
100
AcDbLine
 10
-323.8377848601682
 20
286.7169311386852
 30
0.0
 11
-323.8377848601682
 21
299.3169311386852
 31
0.0
  0
LINE
  5
2EB9
330
1F
100
AcDbEntity
  8
太線
 62
     0
100
AcDbLine
 10
-323.8377848601682
 20
286.7169311386852
 30
0.0
 11
-312.4977848601681
 21
286.7169311386852
 31
0.0
  0
LINE
  5
2EBA
330
1F
100
AcDbEntity
  8
太線
100
AcDbLine
 10
-323.8377848601682
 20
286.7169311386852
 30
0.0
 11
-324.8877848601682
 21
286.7169311386852
 31
0.0
  0
ARC
  5
2EBB
330
1F
100
AcDbEntity
  8
太線
 62
     0
100
AcDbCircle
 10
-324.6777848601681
 20
286.9269311386852
 30
0.0
 40
0.21
100
AcDbArc
 50
180.0
 51
270.0
  0
LINE
  5
2EBC
330
1F
100
AcDbEntity
  8
太線
 62
     0
100
AcDbLine
 10
-324.8877848601682
 20
286.9269311386852
 30
0.0
 11
-324.8877848601682
 21
290.8854311386852
 31
0.0
  0
LINE
  5
2EBD
330
1F
100
AcDbEntity
  8
想像線
100
AcDbLine
 10
-308.0987727984455
 20
288.8169311386852
 30
0.0
 11
-308.0987727984455
 21
289.8984311386852
 31
0.0
  0
LINE
  5
2EBE
330
1F
100
AcDbEntity
  8
想像線
100
AcDbLine
 10
-307.2587727984456
 20
288.8169311386852
 30
0.0
 11
-307.2587727984456
 21
289.8984311386852
 31
0.0
  0
LINE
  5
2EBF
330
1F
100
AcDbEntity
  8
太線
100
AcDbLine
 10
-312.4977848601681
 20
286.7169311386852
 30
0.0
 11
-310.1877848601682
 21
288.8169311386852
 31
0.0
  0
LINE
  5
2EC0
330
1F
100
AcDbEntity
  8
想像線
100
AcDbLine
 10
-308.7177848601681
 20
288.8169311386852
 30
0.0
 11
-308.7177848601681
 21
289.8984311386852
 31
0.0
  0
LINE
  5
2EC1
330
1F
100
AcDbEntity
  8
想像線
100
AcDbLine
 10
-309.5577848601681
 20
288.8169311386852
 30
0.0
 11
-309.5577848601681
 21
289.8984311386852
 31
0.0
  0
LINE
  5
2EC2
330
1F
100
AcDbEntity
  8
太線
100
AcDbLine
 10
-312.2877848601682
 20
286.9269311386852
 30
0.0
 11
-312.2877848601682
 21
287.7669311386853
 31
0.0
  0
ARC
  5
2EC3
330
1F
100
AcDbEntity
  8
太線
 62
     0
100
AcDbCircle
 10
-311.2377848601681
 20
290.9484311386852
 30
0.0
 40
1.049999999999999
100
AcDbArc
 50
180.0
 51
270.0
  0
ARC
  5
2EC4
330
1F
100
AcDbEntity
  8
太線
 62
     0
100
AcDbCircle
 10
-311.2377848601681
 20
287.7669311386853
 30
0.0
 40
1.049999999999999
100
AcDbArc
 50
90.0
 51
180.0
  0
ARC
  5
2EC5
330
1F
100
AcDbEntity
  8
太線
 62
     0
100
AcDbCircle
 10
-312.4977848601681
 20
286.9269311386852
 30
0.0
 40
0.21
100
AcDbArc
 50
270.0
 51
0.000000000000007
  0
LINE
  5
2EC6
330
1F
100
AcDbEntity
  8
太線
 62
     0
100
AcDbLine
 10
-312.4977848601681
 20
299.3169311386852
 30
0.0
 11
-323.8377848601682
 21
299.3169311386852
 31
0.0
  0
ARC
  5
2EC7
330
1F
100
AcDbEntity
  8
太線
100
AcDbCircle
 10
-325.2707314735949
 20
293.1499794658764
 30
0.0
 40
0.7786796849668625
100
AcDbArc
 50
144.6296958316645
 51
220.5989673295839
  0
ARC
  5
2EC8
330
1F
100
AcDbEntity
  8
太線
100
AcDbCircle
 10
-325.5338355972397
 20
293.9109816543712
 30
0.0
 40
0.4618890767551908
100
AcDbArc
 50
135.0164748733438
 51
228.0386083516507
  0
ARC
  5
2EC9
330
1F
100
AcDbEntity
  8
太線
100
AcDbCircle
 10
-325.6936971375902
 20
292.288990260026
 30
0.0
 40
0.336395904185381
100
AcDbArc
 50
120.2768690410837
 51
237.330498741788
  0
LINE
  5
2ECA
330
1F
100
AcDbEntity
  8
太線
100
AcDbLine
 10
-325.2609506920015
 20
292.5837395789093
 30
0.0
 11
-324.8410465447556
 21
292.5749708508778
 31
0.0
  0
LINE
  5
2ECB
330
1F
100
AcDbEntity
  8
太線
100
AcDbLine
 10
-325.2609506920015
 20
293.5134689259662
 30
0.0
 11
-324.8410465447556
 21
293.5047001979347
 31
0.0
  0
ARC
  5
2ECC
330
1F
100
AcDbEntity
  8
太線
 62
     0
100
AcDbCircle
 10
-324.6777848601681
 20
299.1069311386852
 30
0.0
 40
0.21
100
AcDbArc
 50
90.0
 51
180.0
  0
LINE
  5
2ECD
330
1F
100
AcDbEntity
  8
太線
100
AcDbLine
 10
-324.8877848601682
 20
299.3169311386852
 30
0.0
 11
-323.8377848601682
 21
299.3169311386852
 31
0.0
  0
LINE
  5
2ECE
330
1F
100
AcDbEntity
  8
太線
 62
     0
100
AcDbLine
 10
-324.8877848601682
 20
294.0669311386852
 30
0.0
 11
-324.8877848601682
 21
299.1069311386852
 31
0.0
  0
LWPOLYLINE
  5
2ECF
330
1F
100
AcDbEntity
  8
太線
100
AcDbPolyline
 90
        4
 70
     1
 43
0.0
 10
-326.0197495845161
 20
294.2408174683927
 10
-326.0670047489226
 20
291.9779306002367
 10
-325.3346157559484
 20
291.9626363481203
 10
-325.2873605915419
 20
294.2255232162763
  0
ARC
  5
2ED0
330
1F
100
AcDbEntity
  8
太線
 62
     0
100
AcDbCircle
 10
-312.4977848601681
 20
299.1069311386852
 30
0.0
 40
0.21
100
AcDbArc
 50
0.000000000000007
 51
90.0
  0
ARC
  5
2ED1
330
1F
100
AcDbEntity
  8
太線
100
AcDbCircle
 10
-303.0477848601681
 20
289.6884311386853
 30
0.0
 40
0.21
100
AcDbArc
 50
0.000000000000007
 51
90.0
  0
LINE
  5
2ED2
330
1F
100
AcDbEntity
  8
太線
100
AcDbLine
 10
-302.8377848601682
 20
288.8169311386852
 30
0.0
 11
-302.8377848601682
 21
289.6884311386853
 31
0.0
  0
LINE
  5
2ED3
330
1F
100
AcDbEntity
  8
想像線
100
AcDbLine
 10
-305.5787727984456
 20
288.8169311386852
 30
0.0
 11
-305.5787727984456
 21
289.8984311386852
 31
0.0
  0
LINE
  5
2ED4
330
1F
100
AcDbEntity
  8
想像線
100
AcDbLine
 10
-306.4187727984456
 20
288.8169311386852
 30
0.0
 11
-306.4187727984456
 21
289.8984311386852
 31
0.0
  0
LINE
  5
2ED7
330
1F
100
AcDbEntity
  8
破線
100
AcDbLine
 10
-312.678170907031
 20
367.7391552980459
 30
0.0
 11
-312.678170907031
 21
298.9501234873936
 31
0.0
  0
LINE
  5
2ED8
330
1F
100
AcDbEntity
  8
破線
100
AcDbLine
 10
-323.9347535420849
 20
368.4005883877051
 30
0.0
 11
-323.9347535420849
 21
299.6115565770527
 31
0.0
  0
LINE
  5
2ED9
330
1F
100
AcDbEntity
  8
破線
100
AcDbLine
 10
-313.1933357121825
 20
286.7750417701206
 30
0.0
 11
-313.1933357121825
 21
240.7558413357384
 31
0.0
  0
LINE
  5
2EDA
330
1F
100
AcDbEntity
  8
破線
100
AcDbLine
 10
-324.0095890005996
 20
286.7750417701206
 30
0.0
 11
-324.0095890005996
 21
241.1560085373319
 31
0.0
  0
LINE
  5
2EE7
330
1F
100
AcDbEntity
  8
破線
100
AcDbLine
 10
-323.716867024307
 20
380.9787723438589
 30
0.0
 11
-323.716867024307
 21
400.2402700867554
 31
0.0
  0
LINE
  5
2EE8
330
1F
100
AcDbEntity
  8
破線
100
AcDbLine
 10
-313.142629492653
 20
380.9787723438589
 30
0.0
 11
-313.142629492653
 21
399.6189317312127
 31
0.0
  0
TEXT
  5
2EE9
330
1F
100
AcDbEntity
  8
文字
100
AcDbText
 10
-360.7724821078054
 20
269.6150727447234
 30
0.0
 40
7.0
  1
9-1Z
 51
15.0
  7
OKANO
100
AcDbText
  0
LEADER
  5
2EEA
330
1F
100
AcDbEntity
  8
破線
100
AcDbLeader
  3
sunpo
 76
     2
 10
-325.0723185450019
 20
288.3543225427553
 30
0.0
 10
-345.6057891618638
 20
281.0289031485233
 30
0.0
1001
ACAD
1000
DSTYLE
1002
{
1070
   147
1040
1.0
1070
    77
1070
     0
1002
}
  0
LEADER
  5
2EF4
330
1F
100
AcDbEntity
  8
寸法線
100
AcDbLeader
  3
sunpo
 76
     2
 10
-51.44363763707452
 20
276.9726896045525
 30
0.0
 10
-76.9227957142948
 20
246.7819643913093
 30
0.0
1001
ACAD
1000
DSTYLE
1002
{
1070
   147
1040
1.0
1070
    77
1070
     0
1002
}
  0
TEXT
  5
2EF5
330
1F
100
AcDbEntity
  8
文字
100
AcDbText
 10
-125.5151111921747
 20
247.9379299002668
 30
0.0
 40
7.0
  1
 Φ15
 51
15.0
  7
OKANO
100
AcDbText
  0
LEADER
  5
2EF6
330
1F
100
AcDbEntity
  8
寸法線
100
AcDbLeader
  3
sunpo
 76
     2
 10
-133.8157115696803
 20
278.7394064192044
 30
0.0
 10
-118.4003118601747
 20
256.2306348700985
 30
0.0
1001
ACAD
1000
DSTYLE
1002
{
1070
   147
1040
1.0
1070
    77
1070
     0
1002
}
  0
DIMENSION
  5
2EF8
330
1F
100
AcDbEntity
  8
寸法線
100
AcDbDimension
  2
*D2
 10
-242.2270517657502
 20
304.6609411775773
 30
0.0
 11
-231.9991660827802
 21
308.1614333035616
 31
0.0
 70
    32
  1
25
 71
     5
 42
7.003028588693723
  3
sunpo
100
AcDbAlignedDimension
 13
-249.230080354444
 23
294.3996001659842
 33
0.0
 14
-242.2270517657502
 24
294.3996001659842
 34
0.0
100
AcDbRotatedDimension
1001
ACAD
1000
DSTYLE
1002
{
1070
    40
1040
1.0
1002
}
  0
TEXT
  5
2F12
330
1F
100
AcDbEntity
  8
文字
100
AcDbText
 10
31.45429336211282
 20
419.076825814882
 30
0.0
 40
7.0
  1
亜鉛ドブ漬け
 51
15.0
  7
OKANO
100
AcDbText
  0
VIEWPORT
  5
2E
330
1B
100
AcDbEntity
 67
     1
  8
0
100
AcDbViewport
 10
213.9483049378367
 20
95.69432966514103
 30
0.0
 40
563.2842477775463
 41
286.093790757405
 68
     1
 69
     1
 12
213.9483049378367
 22
95.69432966514103
 13
0.0
 23
0.0
 14
10.0
 24
10.0
 15
10.0
 25
10.0
 16
0.0
 26
0.0
 36
1.0
 17
0.0
 27
0.0
 37
0.0
 42
50.0
 43
0.0
 44
0.0
 45
286.093790757405
 50
0.0
 51
0.0
 72
   100
 90
    32800
  1

281
     0
 71
     1
 74
     0
110
0.0
120
0.0
130
0.0
111
1.0
121
0.0
131
0.0
112
0.0
122
1.0
132
0.0
 79
     0
146
0.0
  0
VIEWPORT
  5
30
330
1B
100
AcDbEntity
 67
     1
  8
70-0-CON
100
AcDbViewport
 10
141.8594093064315
 20
100.3480256368386
 30
0.0
 40
261.6199023344245
 41
192.6196987113174
 68
     2
 69
     2
 12
-125.0752221897402
 22
330.9830977661419
 13
0.0
 23
0.0
 14
5.0
 24
5.0
 15
10.0
 25
10.0
 16
0.0
 26
0.0
 36
1.0
 17
0.0
 27
0.0
 37
0.0
 42
50.0
 43
0.0
 44
0.0
 45
382.4570116519665
 50
0.0
 51
0.0
 72
   100
 90
    32864
  1

281
     0
 71
     1
 74
     0
110
0.0
120
0.0
130
0.0
111
1.0
121
0.0
131
0.0
112
0.0
122
1.0
132
0.0
 79
     0
146
0.0
  0
LWPOLYLINE
  5
45
330
1B
100
AcDbEntity
 67
     1
  8
50-0-CON
100
AcDbPolyline
 90
        4
 70
     1
 43
0.0
 10
11.04945813921926
 20
4.038176281179858
 10
272.2125713060605
 20
4.033520706629644
 10
273.4987754093466
 20
195.9297862125246
 10
11.04945813921926
 20
196.6578749924973
  0
LINE
  5
4A
330
1B
100
AcDbEntity
 67
     1
  8
50-0-CON
100
AcDbLine
 10
10.38768783662635
 20
100.3480256368386
 30
0.0
 11
-4.391850629656119
 21
100.3480256368386
 31
0.0
  0
LINE
  5
4B
330
1B
100
AcDbEntity
 67
     1
  8
50-0-CON
100
AcDbLine
 10
141.8594093064315
 20
197.098652626247
 30
0.0
 11
141.8594093064315
 21
202.387980773708
 31
0.0
  0
LINE
  5
4C
330
1B
100
AcDbEntity
 67
     1
  8
50-0-CON
100
AcDbLine
 10
272.4487699456857
 20
100.7888032705883
 30
0.0
 11
278.8458837249377
 21
100.7888032705883
 31
0.0
  0
LINE
  5
4D
330
1B
100
AcDbEntity
 67
     1
  8
50-0-CON
100
AcDbLine
 10
140.9770484758805
 20
4.038176281179858
 30
0.0
 11
140.9770484758805
 21
-3.455038652015446
 31
0.0
  0
ENDSEC
  0
SECTION
  2
OBJECTS
  0
DICTIONARY
  5
C
330
0
100
AcDbDictionary
281
     1
  3
ACAD_GROUP
350
D
  3
ACAD_LAYOUT
350
1A
  3
ACAD_MLINESTYLE
350
17
  3
ACAD_PLOTSETTINGS
350
19
  3
ACAD_PLOTSTYLENAME
350
E
  3
AcadDim
350
2C54
  3
AcDbVariableDictionary
350
6AD
  3
DWGPROPS
350
30F
  0
DICTIONARY
  5
D
102
{ACAD_REACTORS
330
C
102
}
330
C
100
AcDbDictionary
281
     1
  0
DICTIONARY
  5
1A
102
{ACAD_REACTORS
330
C
102
}
330
C
100
AcDbDictionary
281
     1
  3
A4
350
1E
  3
Model
350
22
  0
DICTIONARY
  5
17
102
{ACAD_REACTORS
330
C
102
}
330
C
100
AcDbDictionary
281
     1
  3
Standard
350
18
  0
DICTIONARY
  5
19
102
{ACAD_REACTORS
330
C
102
}
330
C
100
AcDbDictionary
281
     1
  0
ACDBDICTIONARYWDFLT
  5
E
102
{ACAD_REACTORS
330
C
102
}
330
C
100
AcDbDictionary
281
     1
  3
Normal
350
F
100
AcDbDictionaryWithDefault
340
F
  0
XRECORD
  5
2C54
102
{ACAD_REACTORS
330
C
102
}
330
C
100
AcDbXrecord
280
     1
 90
   990106
  3

 60
     0
 61
     0
 62
     1
 63
     3
 64
     0
 65
     0
 66
     0
 67
     3
 68
     1
 69
     0
 70
     0
 71
     0
 72
     0
 40
5.929000021752699
170
     0
340
26D8
  0
DICTIONARY
  5
6AD
102
{ACAD_REACTORS
330
C
102
}
330
C
100
AcDbDictionary
281
     1
  3
SORTENTS
350
6AE
  0
XRECORD
  5
30F
102
{ACAD_REACTORS
330
C
102
}
330
C
100
AcDbXrecord
280
     1
  1
DWGPROPS COOKIE
  2

  3

  4

  6

  7

  8

  9

300
=
301
=
302
=
303
=
304
=
305
=
306
=
307
=
308
=
309
=
 40
0.3303803125
 41
2452362.482225463
 42
2452370.969861285
  1

 90
        0
  0
LAYOUT
  5
1E
102
{ACAD_REACTORS
330
1A
102
}
330
1A
100
AcDbPlotSettings
  1

  2
EPSON PM-G800
  4
User301
  6

 40
3.174999999999999
 41
3.174999999999999
 42
3.175002999999999
 43
3.174987999999999
 44
210.0
 45
297.0
 46
0.0
 47
0.0
 48
0.0
 49
0.0
140
0.0
141
0.0
142
1.0
143
1.0
 70
   688
 72
     1
 73
     1
 74
     5
  7
joint.ctb
 75
    16
147
1.0
148
0.0
149
0.0
100
AcDbLayout
  1
A4
 70
     1
 71
     1
 10
-3.174987999999999
 20
-3.174999999999999
 11
293.825012
 21
206.8249999999999
 12
0.0
 22
0.0
 32
0.0
 14
-4.391850629656119
 24
-3.455038652015446
 34
0.0
 15
278.8458837249377
 25
202.387980773708
 35
0.0
146
0.0
 13
0.0
 23
0.0
 33
0.0
 16
1.0
 26
0.0
 36
0.0
 17
0.0
 27
1.0
 37
0.0
 76
     0
330
1B
331
2E
  0
LAYOUT
  5
22
102
{ACAD_REACTORS
330
1A
102
}
330
1A
100
AcDbPlotSettings
  1

  2
EPSON PM-920C
  4

  6

 40
0.0
 41
0.0
 42
0.0
 43
0.0
 44
0.0
 45
0.0
 46
0.0
 47
0.0
 48
0.0
 49
0.0
140
0.0
141
0.0
142
1.0
143
1.0
 70
  1712
 72
     0
 73
     0
 74
     0
  7
D:\Program Files\ACAD LT 2000\Plot Styles\okano cad.ctb
 75
     0
147
1.0
148
0.0
149
0.0
100
AcDbLayout
  1
Model
 70
     1
 71
     0
 10
0.0
 20
0.0
 11
12.0
 21
9.0
 12
0.0
 22
0.0
 32
0.0
 14
0.0
 24
0.0
 34
0.0
 15
0.0
 25
0.0
 35
0.0
146
0.0
 13
0.0
 23
0.0
 33
0.0
 16
1.0
 26
0.0
 36
0.0
 17
0.0
 27
1.0
 37
0.0
 76
     0
330
1F
  0
MLINESTYLE
  5
18
102
{ACAD_REACTORS
330
17
102
}
330
17
100
AcDbMlineStyle
  2
STANDARD
 70
     0
  3

 62
   256
 51
90.0
 52
90.0
 71
     2
 49
0.5
 62
   256
  6
BYLAYER
 49
-0.5
 62
   256
  6
BYLAYER
  0
ACDBPLACEHOLDER
  5
F
102
{ACAD_REACTORS
330
E
102
}
330
E
  0
DICTIONARYVAR
  5
6AE
102
{ACAD_REACTORS
330
6AD
102
}
330
6AD
100
DictionaryVariables
280
     0
  1
96
  0
ENDSEC
  0
EOF
